osu file format v14

[General]
AudioFilename: kakushinteki metamaruphose.mp3
AudioLeadIn: 0
PreviewTime: 57699
Countdown: 0
SampleSet: Normal
StackLeniency: 0.7
Mode: 1
LetterboxInBreaks: 0
WidescreenStoryboard: 0

[Editor]
DistanceSpacing: 1
BeatDivisor: 4
GridSize: 32
TimelineZoom: 1

[Metadata]
Title:Kakushinteki*Metamaruphose! (TV Size)
TitleUnicode:かくしん的☆めたまるふぉ~ぜっ! (TV Size)
Artist:Umaru Doma (CV: Aimi Tanaka)
ArtistUnicode:土間うまる (CV:田中あいみ)
Creator:FastBoy
Version:Kantan
Source:干物妹!うまるちゃん
Tags:Himouto! Umaru-chan umr opening op anime おぐらあすか oguraasuka manzo サンカクヘッド sankakuhead
BeatmapID:772093
BeatmapSetID:350177

[Difficulty]
HPDrainRate:8
CircleSize:5
OverallDifficulty:3
ApproachRate:5
SliderMultiplier:1.4
SliderTickRate:1

[Events]
//Background and Video events
0,0,"umaru.jpg",0,0
//Break Periods
//Storyboard Layer 0 (Background)
//Storyboard Layer 1 (Fail)
//Storyboard Layer 2 (Pass)
//Storyboard Layer 3 (Foreground)
//Storyboard Sound Samples

[TimingPoints]
-594,431.654676258993,4,1,0,80,1,0
40844,301.507537688442,3,1,0,80,1,0
40844,-142.857142857143,3,1,0,80,0,0
50793,431.654676258993,4,1,0,80,1,0
51656,431.654676258993,4,1,0,80,1,0
58562,-100,4,1,0,80,0,1
87051,-100,4,1,0,80,0,0

[HitObjects]
224,192,1132,5,4,0:0:0:0:
224,192,1995,1,0,0:0:0:0:
224,192,2859,1,0,0:0:0:0:
224,192,3722,1,0,0:0:0:0:
224,192,4585,1,0,0:0:0:0:
224,192,5449,1,0,0:0:0:0:
224,192,6312,1,0,0:0:0:0:
224,192,7175,1,0,0:0:0:0:
224,192,8039,1,4,0:0:0:0:
224,192,9765,1,4,0:0:0:0:
224,192,11492,1,4,0:0:0:0:
224,192,12355,1,4,0:0:0:0:
224,192,13218,1,4,0:0:0:0:
224,192,14082,1,0,0:0:0:0:
288,192,14513,1,8,0:0:0:0:
224,192,14945,1,4,0:0:0:0:
224,192,15808,1,0,0:0:0:0:
224,192,16672,1,0,0:0:0:0:
224,192,17535,1,0,0:0:0:0:
224,192,18398,1,0,0:0:0:0:
224,192,18830,1,0,0:0:0:0:
224,192,19262,1,0,0:0:0:0:
224,192,20125,1,4,0:0:0:0:
224,192,20988,1,0,0:0:0:0:
224,192,21852,1,0,0:0:0:0:
224,192,22715,1,0,0:0:0:0:
288,192,23147,1,8,0:0:0:0:
224,192,23578,1,0,0:0:0:0:
224,192,24441,1,0,0:0:0:0:
256,192,25305,12,0,26168,0:0:0:0:
224,192,27031,5,0,0:0:0:0:
224,192,27895,1,0,0:0:0:0:
288,192,28758,1,8,0:0:0:0:
224,192,29621,1,0,0:0:0:0:
288,192,30485,1,8,0:0:0:0:
288,192,31348,1,8,0:0:0:0:
224,192,32211,1,0,0:0:0:0:
288,192,33075,1,8,0:0:0:0:
224,192,33938,1,0,0:0:0:0:
224,192,34801,1,0,0:0:0:0:
288,192,35664,1,8,0:0:0:0:
224,192,36528,1,0,0:0:0:0:
288,192,37391,1,8,0:0:0:0:
288,192,38254,1,8,0:0:0:0:
224,192,39118,1,0,0:0:0:0:
288,192,39549,1,8,0:0:0:0:
224,192,39981,1,0,0:0:0:0:
288,192,40413,1,8,0:0:0:0:
224,192,40844,1,0,0:0:0:0:
256,192,41748,2,0,B|480:192|480:192|480:112,1,293.999991027832
256,192,43557,2,0,B|480:192|480:192|480:112,1,293.999991027832
256,192,45366,2,0,B|480:192|480:192|480:112,1,293.999991027832
224,192,47175,1,0,0:0:0:0:
224,192,48080,1,0,0:0:0:0:
224,192,48984,1,0,0:0:0:0:
256,192,49889,12,0,50793,0:0:0:0:
224,192,51656,5,0,0:0:0:0:
224,192,52519,1,0,0:0:0:0:
288,192,53382,1,8,0:0:0:0:
288,192,54245,1,8,0:0:0:0:
224,192,55109,1,0,0:0:0:0:
224,192,55972,1,0,0:0:0:0:
224,192,56404,1,0,0:0:0:0:
288,192,56835,1,8,0:0:0:0:
288,192,57699,1,12,0:0:0:0:
224,192,58562,1,4,0:0:0:0:
288,192,59425,1,8,0:0:0:0:
224,192,60289,1,0,0:0:0:0:
288,192,61152,1,8,0:0:0:0:
224,192,62015,1,4,0:0:0:0:
224,192,62879,1,4,0:0:0:0:
224,192,63742,1,0,0:0:0:0:
288,192,64605,1,8,0:0:0:0:
288,192,65037,1,8,0:0:0:0:
224,192,65468,1,4,0:0:0:0:
288,192,66332,1,8,0:0:0:0:
224,192,67195,1,0,0:0:0:0:
288,192,68058,1,8,0:0:0:0:
224,192,68922,1,4,0:0:0:0:
224,192,69785,1,4,0:0:0:0:
224,192,70648,1,0,0:0:0:0:
288,192,71512,1,8,0:0:0:0:
288,192,71943,1,8,0:0:0:0:
224,192,72375,1,4,0:0:0:0:
224,192,73238,1,0,0:0:0:0:
224,192,74102,1,0,0:0:0:0:
288,192,74965,1,8,0:0:0:0:
224,192,75828,1,0,0:0:0:0:
224,192,76691,1,0,0:0:0:0:
224,192,77123,1,4,0:0:0:0:
224,192,77555,1,4,0:0:0:0:
224,192,78418,1,0,0:0:0:0:
224,192,79281,1,0,0:0:0:0:
224,192,80145,1,0,0:0:0:0:
288,192,80576,1,8,0:0:0:0:
224,192,81008,1,0,0:0:0:0:
224,192,81871,1,0,0:0:0:0:
224,192,82735,1,0,0:0:0:0:
224,192,83598,1,0,0:0:0:0:
288,192,84030,1,8,0:0:0:0:
256,192,84461,12,0,86188,0:0:0:0:
224,192,87051,5,0,0:0:0:0:
288,192,87483,1,8,0:0:0:0:
