osu file format v14

[General]
AudioFilename: umaru.mp3
AudioLeadIn: 0
PreviewTime: 57924
Countdown: 0
SampleSet: Soft
StackLeniency: 0.2
Mode: 0
LetterboxInBreaks: 0
WidescreenStoryboard: 1

[Editor]
DistanceSpacing: 0.8
BeatDivisor: 4
GridSize: 4
TimelineZoom: 2

[Metadata]
Title:Kakushinteki*Metamaruphose!
TitleUnicode:かくしん的☆めたまるふぉ~ぜっ!
Artist:Umaru Doma (CV: Aimi Tanaka)
ArtistUnicode:土間うまる(CV:田中あいみ)
Creator:Jerry
Version:Daily Life of [ -Scarlet- ]
Source:干物妹!うまるちゃん
Tags:Himouto! Umaru-chan opening manzo TV Size Asuka Ogura [ -Scarlet- ] taiko_maniac1811 ffstar0716 owlstalker Kagari HeatKai Future_Miku95 murutattack
BeatmapID:738523
BeatmapSetID:333281

[Difficulty]
HPDrainRate:5
CircleSize:4
OverallDifficulty:8.3
ApproachRate:9.6
SliderMultiplier:1.8
SliderTickRate:1

[Events]
//Background and Video events
0,0,"BG.jpg",0,0
Video,-300,"vid.avi"
//Break Periods
//Storyboard Layer 0 (Background)
//Storyboard Layer 1 (Fail)
//Storyboard Layer 2 (Pass)
//Storyboard Layer 3 (Foreground)
//Storyboard Sound Samples

[TimingPoints]
63,431.654676258993,4,2,1,60,1,0
63,-50,4,2,1,60,0,0
710,-40,4,2,1,60,0,0
1143,215.827338129496,4,2,1,60,1,0
1790,-55.5555555555556,4,2,1,60,0,0
2006,-100,4,2,1,60,0,0
2653,-55.5555555555556,4,2,1,60,0,0
2869,-100,4,2,1,60,0,0
3948,-66.6666666666667,4,2,1,60,0,0
4596,-83.3333333333333,4,2,1,60,0,0
4596,-100,4,2,1,60,0,0
5243,-55.5555555555556,4,2,1,60,0,0
5459,-100,4,2,1,60,0,0
6107,-55.5555555555556,4,2,1,60,0,0
6322,-100,4,2,1,60,0,0
8049,-125,4,2,1,60,0,0
10639,-100,4,2,1,60,0,0
11286,-125,4,2,1,60,0,0
11502,-166.666666666667,4,2,1,60,0,0
12150,-125,4,2,1,60,0,0
12366,-166.666666666667,4,2,1,60,0,0
13984,-83.3333333333333,4,2,1,60,0,0
14955,-166.666666666667,4,2,1,60,0,0
16682,-125,4,2,1,60,0,0
17545,-100,4,2,1,60,0,0
19704,-83.3333333333333,4,2,1,60,0,0
20135,-66.6666666666667,4,2,1,60,0,0
20567,-100,4,2,1,60,0,0
20999,-76.9230769230769,4,2,1,60,0,0
21430,-100,4,2,1,60,0,0
21862,-76.9230769230769,4,2,1,60,0,0
22294,-100,4,2,1,60,0,0
24020,-66.6666666666667,4,2,1,60,0,0
24452,-100,4,2,1,60,0,0
24884,-66.6666666666667,4,2,1,60,0,0
25315,-76.9230769230769,4,2,1,60,0,0
25639,-66.6666666666667,4,2,1,60,0,0
26178,-55.5555555555556,4,2,1,60,0,0
27042,-166.666666666667,4,3,1,60,0,0
27473,-125,4,3,1,60,0,0
27797,-166.666666666667,4,3,1,60,0,0
28768,-100,4,3,1,60,0,0
29416,-166.666666666667,4,3,1,60,0,0
30927,-125,4,3,1,60,0,0
31790,-66.6666666666667,4,3,1,60,0,0
32222,-153.846153846154,4,3,1,60,0,0
33193,-66.6666666666667,4,3,1,60,0,0
33517,-200,4,2,1,60,0,0
33948,-166.666666666667,4,3,1,60,0,0
34704,-100,4,3,1,60,0,0
35243,-83.3333333333333,4,3,1,60,0,0
35675,-166.666666666667,4,3,1,60,0,0
36970,-100,4,3,1,60,0,0
37401,-166.666666666667,4,3,1,60,0,0
37833,-125,4,3,1,60,0,0
38265,-166.666666666667,4,3,1,60,0,0
38696,-125,4,3,1,60,0,0
39128,-200,4,3,1,60,0,0
40423,-66.6666666666667,4,3,1,60,0,0
40855,301.507537688442,3,2,1,50,1,0
40855,-166.666666666667,3,2,1,50,0,0
50802,215.827338129496,4,2,1,60,1,8
51233,-66.6666666666667,4,2,1,60,0,8
51449,-58.8235294117647,4,2,1,60,0,8
51665,-83.3333333333333,4,2,1,60,0,0
58140,-200,4,2,1,60,0,0
58571,-83.3333333333333,4,2,1,80,0,1
59435,-166.666666666667,4,2,1,80,0,1
59650,-142.857142857143,4,2,1,80,0,1
59866,-125,4,2,1,80,0,1
60082,-111.111111111111,4,2,1,80,0,1
60298,-83.3333333333334,4,2,1,80,0,1
60945,-66.6666666666667,4,2,1,80,0,1
61377,-100,4,2,1,80,0,1
62025,-333,4,2,1,80,0,1
62186,-333,4,2,1,5,0,1
62240,-58.8235294117647,4,2,1,80,0,1
62402,-58.8235294117647,4,2,1,5,0,1
62456,-100,4,2,1,80,0,1
62618,-100,4,2,1,5,0,1
62672,-58.8235294117647,4,2,1,80,0,1
62834,-58.8235294117647,4,2,1,5,0,1
62888,-100,4,2,1,80,0,1
63050,-100,4,2,1,5,0,1
63104,-58.8235294117647,4,2,1,80,0,1
63266,-58.8235294117647,4,2,1,5,0,1
63319,-100,4,2,1,80,0,1
63481,-100,4,2,1,5,0,1
63535,-83.3333333333333,4,2,1,80,0,1
64290,-100,4,2,1,80,0,1
67204,-66.6666666666667,4,2,1,80,0,1
67420,-100,4,2,1,80,0,1
68284,-125,4,2,1,80,0,1
68931,-333,4,2,1,80,0,1
69093,-333,4,2,1,5,0,1
69147,-58.8235294117647,4,2,1,80,0,1
69309,-58.8235294117647,4,2,1,5,0,1
69363,-100,4,2,1,80,0,1
69525,-100,4,2,1,5,0,1
69578,-58.8235294117647,4,2,1,80,0,1
69740,-58.8235294117647,4,2,1,5,0,1
69794,-100,4,2,1,80,0,1
69956,-100,4,2,1,5,0,1
70010,-58.8235294117647,4,2,1,80,0,1
70172,-58.8235294117647,4,2,1,5,0,1
70226,-100,4,2,1,80,0,1
70388,-100,4,2,1,5,0,1
70442,-58.8235294117647,4,2,1,80,0,1
70604,-58.8235294117647,4,2,1,5,0,1
70658,-100,4,2,1,80,0,1
72384,-83.3333333333333,4,2,1,80,0,1
73248,-125,4,2,1,80,0,1
73679,-100,4,2,1,80,0,1
74111,-83.3333333333333,4,2,1,80,0,1
75622,-166.666666666667,4,2,1,60,0,1
75837,-125,4,2,1,60,0,0
77564,-100,4,2,1,60,0,0
77996,-66.6666666666667,4,2,1,60,0,0
78427,-100,4,2,1,60,0,0
78859,-66.6666666666667,4,2,1,60,0,0
79722,-83.3333333333333,4,2,1,60,0,0
84470,-166.666666666667,4,2,1,60,0,0
85334,-83.3333333333333,4,2,1,60,0,0
85981,-125,4,2,1,60,0,0
86197,-100,4,2,1,60,0,0
86521,-83.3333333333333,4,2,1,60,0,0
86845,-71.4285714285714,4,2,1,60,0,0
87492,-142.857142857143,4,2,1,60,0,0
87708,-200,4,2,1,60,0,0

[HitObjects]
436,304,63,6,0,L|424:376,3,60,8|8|8|8,3:0|3:0|3:0|3:0,3:0:0:0:
328,128,494,2,0,L|340:68,2,60,4|8|8,3:0|3:0|3:0,3:0:0:0:
256,188,710,6,0,B|324:196|376:132|376:132|368:196|428:252,1,225,4|8,3:0|3:0,0:0:0:0:
464,152,1034,1,0,0:0:0:0:
308,288,1142,6,0,L|432:316,1,112.5,4|0,0:0|0:0,0:0:0:0:
436,304,1358,2,0,L|326:279,1,112.5,8|0,0:0|0:0,0:0:0:0:
108,368,1574,5,0,0:0:0:0:
104,352,1682,1,0,0:0:0:0:
8,312,1790,6,0,B|64:308|88:228|88:228|120:308|236:280,1,242.999992584229,8|0,0:0|0:0,0:0:0:0:
296,180,2006,6,0,L|172:208,1,112.5,0|0,0:0|0:0,0:0:0:0:
168,196,2222,2,0,L|277:171,1,112.5,8|0,0:0|0:0,0:0:0:0:
496,136,2437,5,0,0:0:0:0:
480,132,2545,1,0,0:0:0:0:
392,64,2653,6,0,B|356:-4|448:-32|472:52|432:60|352:68|408:216,1,242.999992584229,8|0,0:0|0:0,0:0:0:0:
439,237,2869,6,0,P|395:249|331:221,1,90,0|0,0:0|0:0,0:0:0:0:
148,320,3085,1,8,0:0:0:0:
80,376,3193,1,0,0:0:0:0:
0,332,3301,6,0,P|72:352|148:272,2,180,0|8|0,0:0|0:0|0:0,0:0:0:0:
246,242,3840,1,0,0:0:0:0:
251,342,3948,6,0,B|203:378|203:378|255:210,1,202.500007724762,8|0,0:0|0:0,0:0:0:0:
220,60,4164,6,0,B|268:24|268:24|216:192,1,202.500007724762,8|0,0:0|0:0,0:0:0:0:
148,216,4380,5,0,0:0:0:0:
148,216,4488,1,0,0:0:0:0:
148,216,4596,6,0,L|28:236,1,90,4|0,0:0|0:0,0:0:0:0:
44,224,4812,2,0,L|132:209,1,90,8|0,0:0|0:0,0:0:0:0:
400,236,5027,5,0,0:0:0:0:
396,256,5135,1,0,0:0:0:0:
392,352,5243,6,0,B|416:360|432:380|432:380|440:272|344:236|252:288,1,242.999992584229,8|0,0:0|0:0,0:0:0:0:
228,248,5459,6,0,L|208:368,1,90,0|0,0:0|0:0,0:0:0:0:
217,352,5675,2,0,L|231:263,1,90,8|0,0:0|0:0,0:0:0:0:
148,56,5891,5,0,0:0:0:0:
132,64,5999,1,0,0:0:0:0:
60,120,6107,6,0,B|28:124|28:124|56:100|96:96|128:132|128:132|168:88|232:96,1,242.999992584229,8|0,0:0|0:0,0:0:0:0:
280,36,6322,6,0,P|304:80|292:136,1,90,0|0,0:0|0:0,0:0:0:0:
228,248,6538,1,8,0:0:0:0:
280,344,6646,1,0,0:0:0:0:
384,308,6754,6,0,P|336:272|280:288,1,90,4|4,3:0|3:0,0:0:0:0:
220,156,6970,2,0,P|164:179|150:236,1,90,4|4,3:0|3:0,0:0:0:0:
68,324,7186,1,4,0:0:0:0:
232,360,7401,5,2,0:0:0:0:
256,352,7509,1,2,0:0:0:0:
280,344,7617,1,2,0:0:0:0:
368,384,7833,1,2,0:0:0:0:
460,344,8049,6,0,B|432:288|374:291|374:291|424:268|448:228|448:228|360:208|332:144|388:80|480:124|416:180,1,432,4|0,0:0|0:0,0:0:0:0:
200,356,8912,5,4,0:0:0:0:
304,36,9128,1,2,0:0:0:0:
312,356,9344,1,2,0:0:0:0:
208,36,9560,1,2,0:0:0:0:
124,272,9776,6,0,B|168:272|232:236|232:236|156:300|152:376|152:376|108:300|-4:292,1,432,4|0,0:0|0:0,0:0:0:0:
432,80,10639,6,0,B|472:80|504:28|504:28|492:108|432:152|432:152|392:92|292:96,1,360,4|0,0:0|0:0,0:0:0:0:
104,144,11286,2,0,B|120:112|120:112|164:148,1,72,2|0,0:0|0:0,0:0:0:0:
36,236,11502,6,0,L|256:192,1,215.999993408203,2|0,0:0|0:0,0:0:0:0:
391,243,12150,2,0,B|375:275|375:275|346:252,1,72,2|0,0:0|0:0,0:0:0:0:
459,151,12366,6,0,L|247:193,1,215.999993408203,2|0,0:0|0:0,0:0:0:0:
247,193,13013,1,2,0:0:0:0:
156,256,13229,5,2,0:0:0:0:
340,124,13445,1,0,0:0:0:0:
156,128,13660,1,2,0:0:0:0:
340,260,13876,1,0,0:0:0:0:
60,384,14092,6,0,L|40:321,1,53.9999983520508,2|0,0:0|0:0,0:0:0:0:
44,332,14200,6,0,B|113:329|113:329|148:352|148:352|169:317|169:317|265:269,1,215.999993408203,0|0,0:0|0:0,0:0:0:0:
376,108,14524,2,0,L|345:59,1,53.9999983520508,2|0,0:0|0:0,0:0:0:0:
347,62,14632,6,0,P|372:147|399:56,1,215.999993408203,0|0,0:0|0:0,0:0:0:0:
252,40,14955,6,0,P|172:40|80:72,2,161.999995056153,4|0|0,0:0|0:0|0:0,0:0:0:0:
464,136,15819,5,2,0:0:0:0:
56,248,16035,1,2,0:0:0:0:
464,248,16250,1,2,0:0:0:0:
56,136,16466,1,2,0:0:0:0:
304,248,16682,6,0,P|272:316|240:224,2,216,2|0|2,0:0|0:0|0:0,0:0:0:0:
280,166,17545,6,0,B|284:130|258:105|258:105|283:79|287:44|287:44|322:48|347:22|347:22|373:47|409:51|409:51|404:86|430:111|430:111|406:137|402:172|402:172|366:168|336:208,1,450,2|0,0:0|0:0,1:0:0:0:
304,248,18193,1,2,0:0:0:0:
304,248,18301,6,0,L|312:296,1,45,0|8,0:0|0:0,0:0:0:0:
332,312,18409,6,0,P|280:304|240:336,1,90,8|0,0:0|0:0,0:0:0:0:
144,376,18625,2,0,P|124:328|72:312,1,90,0|0,0:0|0:0,0:0:0:0:
0,232,18840,6,0,P|44:228|80:192,1,90,8|0,0:0|0:0,0:0:0:0:
212,140,19056,2,0,P|168:136|132:100,1,90,8|0,0:0|0:0,0:0:0:0:
72,28,19272,5,4,0:0:0:0:
348,356,19704,6,0,P|404:356|440:300,1,107.999996704102,2|0,0:0|0:0,0:0:0:0:
436,319,19919,2,0,P|380:319|344:263,1,107.999996704102,2|0,0:0|0:0,0:0:0:0:
408,144,20135,6,0,B|456:132|488:84|488:84|412:184|424:268,1,270.000010299683,4|8,0:0|0:0,0:0:0:0:
252,96,20459,1,0,0:0:0:0:
196,36,20567,6,0,P|156:24|100:52,1,90,0|0,0:0|0:0,0:0:0:0:
324,56,20783,2,0,P|364:68|420:40,1,90,8|0,0:0|0:0,0:0:0:0:
248,182,20999,6,0,B|200:242|260:274|298:242|302:166|189:189|266:70,1,233.999989288331,0|8,0:0|0:0,0:0:0:0:
32,120,21322,1,0,0:0:0:0:
84,172,21430,6,0,P|148:172|180:132,1,90,0|0,0:0|0:0,0:0:0:0:
428,212,21646,2,0,P|364:212|332:252,1,90,8|0,0:0|0:0,0:0:0:0:
192,352,21862,6,0,B|264:332|280:264|236:212|236:212|200:232|216:276,1,233.999989288331,0|8,0:0|0:0,0:0:0:0:
344,316,22186,1,0,0:0:0:0:
420,336,22294,6,0,P|460:320|484:244,1,90,0|0,0:0|0:0,0:0:0:0:
316,68,22509,2,0,P|276:84|252:160,1,90,8|0,0:0|0:0,0:0:0:0:
504,168,22725,5,2,0:0:0:0:
420,200,22833,1,2,0:0:0:0:
340,156,22941,1,10,0:0:0:0:
260,200,23049,1,2,0:0:0:0:
176,172,23157,6,0,L|56:200,1,90,2|0,0:0|0:0,0:0:0:0:
72,188,23373,2,0,L|192:160,1,90,10|0,0:0|0:0,0:0:0:0:
316,68,23589,6,0,P|364:64|412:104,1,90,4|0,0:0|0:0,0:0:0:0:
476,56,23804,2,0,P|503:95|492:157,1,90,8|0,0:0|0:0,0:0:0:0:
354,357,24020,6,0,L|340:156,1,202.500007724762,0|0,0:0|0:0,0:0:0:0:
348,144,24236,2,0,L|362:345,1,202.500007724762,8|0,0:0|0:0,0:0:0:0:
260,356,24452,6,0,P|212:360|164:320,1,90,0|0,0:0|0:0,0:0:0:0:
100,368,24667,2,0,P|72:328|83:266,1,90,8|0,0:0|0:0,0:0:0:0:
150,99,24884,6,0,L|348:144,1,202.500007724762,0|0,0:0|0:0,0:0:0:0:
364,136,25099,2,0,L|166:91,1,202.500007724762,8|0,0:0|0:0,0:0:0:0:
0,192,25315,6,0,P|44:136|48:236,1,233.999989288331,4|0,0:0|0:0,0:0:0:0:
160,352,25639,6,0,P|156:260|216:360,1,270.000010299683,4|0,0:0|0:0,0:0:0:0:
420,276,25963,6,0,P|440:212|460:272,1,135.000005149842,4|0,0:0|0:0,0:0:0:0:
492,320,26178,6,0,P|432:360|340:304,1,161.999995056153,4|0,0:0|0:0,0:0:0:0:
104,360,27042,6,0,B|88:248,1,107.999996704102,8|0,0:0|0:0,0:0:0:0:
180,160,27366,1,8,0:0:0:0:
176,240,27473,6,0,P|200:192|304:188,1,144,0|8,0:0|0:0,0:0:0:0:
356,148,27797,6,0,P|372:168|344:200,1,53.9999983520508,0|2,0:0|0:0,0:0:0:0:
272,308,28013,2,0,P|256:288|284:256,1,53.9999983520508,0|2,0:0|0:0,0:0:0:0:
436,288,28229,1,0,0:0:0:0:
444,308,28337,6,0,P|392:276|340:276,1,107.999996704102,2|0,0:0|0:0,0:0:0:0:
64,80,28768,6,0,B|12:8|140:-8|204:72|-4:72|76:152|92:232|188:232|236:168,1,360,8|2,0:0|0:0,1:0:0:0:
372,80,29416,5,0,0:0:0:0:
358,92,29524,2,0,L|251:110,1,107.999996704102,0|2,0:0|0:0,0:0:0:0:
172,120,29848,6,0,L|176:88,2,26.9999991760254,2|0|0,0:0|0:0|0:0,0:0:0:0:
320,212,30063,2,0,L|316:238,2,26.9999991760254,2|0|0,0:0|0:0|0:0,0:0:0:0:
160,332,30279,2,0,L|168:264,1,53.9999983520508,0|0,0:0|0:0,0:0:0:0:
48,240,30495,6,0,P|104:228|140:184,1,107.999996704102,4|0,0:0|0:0,0:0:0:0:
100,68,30819,1,0,0:0:0:0:
28,109,30927,6,0,L|188:121,1,144,8|0,0:0|0:0,0:0:0:0:
248,124,31250,1,0,0:0:0:0:
400,320,31466,1,0,0:0:0:0:
464,80,31682,1,0,0:0:0:0:
464,80,31790,6,0,P|468:28|488:80,2,135,2|0|0,0:0|0:0|0:0,0:0:0:0:
400,320,32222,6,0,P|392:352|352:288,1,175.499991966248,8|0,0:0|0:0,0:0:0:0:
348,304,32653,1,2,0:0:0:0:
468,176,32869,1,0,0:0:0:0:
480,184,32977,2,0,P|484:160|456:120,1,58.4999973220826,0|0,0:0|0:0,0:0:0:0:
328,72,33193,6,0,B|268:16|352:-24|444:20|392:136|276:176,1,270.000010299683,0|0,0:0|0:0,0:0:0:0:
228,136,33517,6,0,P|208:88|236:48,1,90,4|0,0:0|0:0,0:0:0:0:
240,68,33840,1,2,0:0:0:0:
132,160,33948,6,0,P|80:168|20:144,1,107.999996704102,4|0,0:0|0:0,0:0:0:0:
32,72,34272,1,0,0:0:0:0:
28,64,34380,2,0,P|68:72|68:96,1,53.9999983520508,8|0,0:0|0:0,0:0:0:0:
100,268,34596,1,8,0:0:0:0:
44,276,34704,6,0,B|64:252|100:244|100:244|100:280,1,90,0|2,0:0|0:0,0:0:0:0:
80,344,34919,2,0,B|60:368|24:376|24:376|24:340,1,90,0|2,0:0|0:0,0:0:0:0:
252,368,35135,1,0,0:0:0:0:
172,308,35243,6,0,B|232:300|260:252|260:252|280:312|360:324,1,215.999993408203,2|0,0:0|0:0,0:0:0:0:
340,304,35567,1,0,0:0:0:0:
412,368,35675,6,0,P|464:364|504:312,1,107.999996704102,8|0,0:0|0:0,0:0:0:0:
420,280,35999,1,0,0:0:0:0:
424,184,36107,2,0,P|372:188|332:240,1,107.999996704102,8|0,0:0|0:0,0:0:0:0:
336,376,36430,5,2,0:0:0:0:
240,124,36646,1,2,0:0:0:0:
56,324,36862,1,2,0:0:0:0:
112,384,36970,6,0,P|80:324|120:216,1,180,2|0,0:0|0:0,0:0:0:0:
240,124,37294,1,0,0:0:0:0:
320,92,37401,6,0,L|432:120,1,107.999996704102,8|0,0:0|0:0,0:0:0:0:
444,224,37725,1,0,0:0:0:0:
464,228,37833,6,0,P|408:248|380:168,1,144,4|0,0:0|0:0,0:0:0:0:
184,212,38265,6,0,L|72:240,1,107.999996704102,8|0,0:0|0:0,0:0:0:0:
60,344,38589,1,0,0:0:0:0:
40,348,38697,6,0,P|96:368|124:288,1,144,4|0,0:0|0:0,0:0:0:0:
280,64,39128,6,0,P|256:24|224:100,2,180,2|2|2,0:0|0:0|0:0,0:0:0:0:
316,136,40423,6,0,P|344:144|332:124,3,67.5000025749208,0|0|0|0,0:0|0:0|0:0|0:0,0:0:0:0:
280,64,40855,6,0,P|244:48|208:52,1,53.9999983520508,0|0,0:0|0:0,0:0:0:0:
156,80,41156,1,2,0:0:0:0:
216,232,41307,1,0,0:0:0:0:
333,124,41458,1,0,0:0:0:0:
200,216,41608,1,0,0:0:0:0:
320,328,41759,1,2,0:0:0:0:
348,344,41834,1,0,0:0:0:0:
380,344,41910,1,0,0:0:0:0:
408,328,41985,1,0,0:0:0:0:
384,308,42061,6,0,P|352:296|312:292,1,53.9999983520508,2|0,0:0|0:0,0:0:0:0:
200,216,42362,2,0,P|168:230|137:255,1,53.9999983520508,2|0,0:0|0:0,0:0:0:0:
216,368,42664,5,2,0:0:0:0:
292,200,42814,1,0,0:0:0:0:
317,359,42965,5,2,0:0:0:0:
200,216,43115,1,0,0:0:0:0:
352,272,43267,5,2,0:0:0:0:
160,296,43417,1,0,0:0:0:0:
264,324,43568,6,0,L|272:364,8,26.9999991760254,2|0|0|0|0|0|0|0|2,0:0|0:0|0:0|0:0|0:0|0:0|0:0|0:0|0:0,0:0:0:0:
272,308,44246,1,0,0:0:0:0:
284,296,44322,1,0,0:0:0:0:
300,292,44397,1,0,0:0:0:0:
316,292,44473,6,0,P|348:296|376:284,1,53.9999983520508,2|0,0:0|0:0,0:0:0:0:
424,224,44774,1,0,0:0:0:0:
264,200,44925,1,0,0:0:0:0:
168,304,45076,2,0,L|176:357,1,53.9999983520508,2|0,0:0|0:0,0:0:0:0:
44,216,45377,5,2,0:0:0:0:
48,184,45452,1,0,0:0:0:0:
68,160,45528,1,0,0:0:0:0:
96,148,45603,1,0,0:0:0:0:
128,160,45679,2,0,P|160:152|184:136,1,53.9999983520508,2|0,0:0|0:0,0:0:0:0:
296,184,45980,2,0,P|319:161|332:135,1,53.9999983520508,2|0,0:0|0:0,0:0:0:0:
272,0,46282,6,0,P|260:48|256:128,1,107.999996704102,2|0,0:0|0:0,0:0:0:0:
255,106,46734,1,0,0:0:0:0:
340,68,46885,1,2,0:0:0:0:
168,144,47035,1,0,0:0:0:0:
280,236,47186,6,0,P|305:255|325:285,1,53.9999983520508,2|0,0:0|0:0,0:0:0:0:
172,316,47488,2,0,P|146:335|126:365,1,53.9999983520508,2|0,0:0|0:0,0:0:0:0:
308,352,47789,1,2,0:0:0:0:
340,352,47865,1,0,0:0:0:0:
372,340,47940,1,0,0:0:0:0:
396,316,48015,1,0,0:0:0:0:
408,284,48091,6,0,P|392:252|388:220,1,53.9999983520508,2|0,0:0|0:0,0:0:0:0:
376,36,48392,1,0,0:0:0:0:
320,100,48543,1,0,0:0:0:0:
435,139,48694,2,0,L|384:156,1,53.9999983520508,0|0,0:0|0:0,0:0:0:0:
112,76,48995,6,0,P|128:108|132:140,1,53.9999983520508,2|0,0:0|0:0,0:0:0:0:
152,376,49296,1,2,0:0:0:0:
232,284,49447,1,0,0:0:0:0:
120,212,49598,2,0,L|68:228,1,53.9999983520508,2|0,0:0|0:0,0:0:0:0:
284,360,49900,5,2,0:0:0:0:
284,360,50050,1,0,0:0:0:0:
436,288,50201,5,2,0:0:0:0:
308,220,50352,1,0,0:0:0:0:
420,160,50503,5,2,0:0:0:0:
232,284,50653,1,0,0:0:0:0:
448,380,50802,5,4,1:0:0:0:
68,308,51233,6,0,P|128:252|96:328,1,202.500007724762,2|0,0:0|0:0,0:0:0:0:
121,325,51449,6,0,P|128:236|61:305,1,229.500004377365,2|0,0:0|0:0,0:0:0:0:
208,200,51665,6,0,B|272:208|308:200|332:112|332:112|268:128,1,215.999993408203,4|8,0:0|0:0,0:0:0:0:
80,48,51989,1,0,0:0:0:0:
60,124,52096,2,0,P|121:127|137:75,1,107.999996704102,0|0,0:0|0:0,0:0:0:0:
55,293,52312,5,8,0:0:0:0:
68,304,52420,1,0,0:0:0:0:
144,268,52528,5,0,0:0:0:0:
152,304,52636,1,0,0:0:0:0:
236,288,52744,5,8,0:0:0:0:
232,336,52852,1,0,0:0:0:0:
320,344,52959,6,0,P|356:320|424:320,1,107.999996704102,0|0,0:0|0:0,0:0:0:0:
212,212,53176,2,0,P|176:188|108:188,1,107.999996704102,8|0,0:0|0:0,0:0:0:0:
396,136,53391,6,0,B|428:160|436:184|436:184|408:120|464:68|376:20,1,215.999993408203,0|8,0:0|0:0,0:0:0:0:
256,32,53715,1,0,0:0:0:0:
231,109,53823,2,0,P|275:121|323:61,1,107.999996704102,0|0,0:0|0:0,0:0:0:0:
184,252,54039,2,0,P|140:264|92:204,1,107.999996704102,8|0,0:0|0:0,0:0:0:0:
36,76,54254,5,0,0:0:0:0:
36,76,54363,1,0,0:0:0:0:
36,76,54471,2,0,L|168:92,1,107.999996704102,8|0,0:0|0:0,0:0:0:0:
272,348,54686,1,0,0:0:0:0:
272,348,54795,1,0,0:0:0:0:
272,348,54903,2,0,L|140:332,1,107.999996704102,8|0,0:0|0:0,0:0:0:0:
288,76,55118,5,4,0:0:0:0:
316,60,55226,1,0,0:0:0:0:
348,52,55334,1,8,0:0:0:0:
380,52,55442,1,0,0:0:0:0:
476,168,55550,5,0,0:0:0:0:
440,148,55658,1,0,0:0:0:0:
396,140,55766,1,8,0:0:0:0:
352,144,55874,1,0,0:0:0:0:
296,272,55981,5,4,3:0:0:0:
396,228,56089,1,4,3:0:0:0:
460,316,56197,1,4,3:0:0:0:
360,356,56305,1,4,3:0:0:0:
360,356,56413,6,0,P|300:352|304:272,1,107.999996704102,8|8,3:0|3:0,0:0:0:0:
188,168,56629,2,0,P|128:172|132:252,1,107.999996704102,8|8,3:0|3:0,0:0:0:0:
68,368,56845,1,4,0:0:0:0:
432,120,57060,6,0,P|468:80|368:88,2,215.999993408203,2|2|2,0:0|0:0|0:0,0:0:0:0:
344,144,57708,6,0,B|252:108|228:220|108:140,1,215.999993408203,2|0,0:0|0:0,0:0:0:0:
160,60,58032,1,0,0:0:0:0:
168,48,58140,6,0,P|184:68|184:100,1,45,0|0,0:0|0:0,0:0:0:0:
264,192,58355,2,0,P|248:212|248:244,1,45,0|0,0:0|0:0,0:0:0:0:
88,320,58571,6,0,B|48:352|48:352|56:280|116:252|192:280,1,215.999993408203,4|8,0:0|0:0,0:0:0:0:
380,348,58895,1,0,0:0:0:0:
456,332,59003,2,0,P|464:288|408:280,1,107.999996704102,0|0,0:0|0:0,0:0:0:0:
248,368,59219,1,10,0:0:0:0:
240,348,59327,1,0,0:0:0:0:
220,340,59435,6,0,P|240:320|280:312,1,53.9999983520508,2|0,0:0|0:0,0:0:0:0:
232,240,59650,2,0,P|264:228|300:240,1,62.9999980773926,8|0,0:0|0:0,0:0:0:0:
472,216,59866,6,0,P|452:196|404:188,1,72,0|0,0:0|0:0,0:0:0:0:
456,112,60081,2,0,P|424:100|380:112,1,72,8|0,0:0|0:0,0:0:0:0:
176,112,60298,6,0,B|236:100|300:40|300:40|272:76|272:136,1,215.999993408203,0|8,0:0|0:0,0:0:0:0:
312,184,60621,2,0,P|256:212|232:160,1,107.999996704102,0|0,0:0|0:0,0:0:0:0:
240,172,60837,1,0,0:0:0:0:
364,104,60945,6,0,B|452:76|452:76|412:116,1,135.000005149842,8|0,0:0|0:0,0:0:0:0:
368,256,61161,5,2,0:0:0:0:
328,328,61269,1,2,0:0:0:0:
388,384,61377,2,0,P|436:384|484:356,1,90,10|0,0:0|0:0,0:0:0:0:
208,376,61593,5,2,0:0:0:0:
248,304,61701,1,2,0:0:0:0:
188,248,61809,2,0,P|140:248|92:276,1,90,10|0,0:0|0:0,0:0:0:0:
96,100,62025,2,0,P|108:84|116:56,1,40.5405405405405,4|0,0:0|0:0,0:0:0:0:
114,64,62240,6,0,L|360:152,1,229.500004377365,8|0,0:0|0:0,0:0:0:0:
420,136,62456,6,0,P|448:108|376:100,1,135,0|0,0:0|2:0,0:0:0:0:
331,141,62672,6,0,L|114:217,1,229.500004377365,8|0,0:0|0:0,0:0:0:0:
25,212,62888,6,0,P|0:159|58:150,1,135
114,217,63104,6,0,L|359:304,1,229.500004377365,8|0,0:0|0:0,0:0:0:0:
420,289,63319,6,0,P|448:261|376:253,1,135
276,384,63535,6,0,P|244:356|276:280,1,107.999996704102,8|0,0:0|0:0,0:0:0:0:
72,264,63751,2,0,P|112:250|162:316,1,107.999996704102,0|0,0:0|0:0,0:0:0:0:
284,144,63967,2,0,P|275:185|193:196,1,107.999996704102,8|0,0:0|0:0,0:0:0:0:
4,88,64183,1,0,0:0:0:0:
80,64,64291,1,0,0:0:0:0:
156,40,64399,6,0,L|344:68,1,180,8|0,0:0|0:0,0:0:0:0:
512,92,64722,1,0,0:0:0:0:
408,20,64830,1,8,0:0:0:0:
376,144,64938,1,0,0:0:0:0:
336,352,65154,5,0,0:0:0:0:
264,296,65262,1,8,0:0:0:0:
172,292,65370,1,0,0:0:0:0:
72,352,65477,6,0,P|132:296|96:208,1,180,4|8,0:0|0:0,0:0:0:0:
28,268,65801,1,0,0:0:0:0:
180,148,65909,2,0,P|232:148|280:164,1,90,0|0,0:0|0:0,0:0:0:0:
424,296,66125,1,8,0:0:0:0:
344,368,66233,1,0,0:0:0:0:
264,296,66341,6,0,P|296:268|368:284,1,90,0|0,0:0|0:0,0:0:0:0:
341,266,66557,2,0,P|292:240|232:256,1,90,8|0,0:0|0:0,0:0:0:0:
92,248,66773,6,0,P|47:248|10:272,1,90,0|0,0:0|0:0,0:0:0:0:
10,273,66989,2,0,P|54:273|87:302,1,90,8|0,0:0|0:0,0:0:0:0:
184,372,67204,6,0,L|172:160,1,202.500007724762,0|0,0:0|0:0,0:0:0:0:
276,16,67420,1,8,0:0:0:0:
300,56,67492,1,0,0:0:0:0:
288,104,67564,1,0,0:0:0:0:
248,132,67636,6,0,P|300:124|368:144,1,120,0|0,0:0|0:0,0:0:0:0:
484,184,67852,1,8,0:0:0:0:
460,144,67924,1,0,0:0:0:0:
472,96,67996,1,0,0:0:0:0:
512,68,68068,6,0,P|460:76|392:56,1,120,0|0,0:0|0:0,0:0:0:0:
332,16,68284,6,0,P|316:72|348:92,1,72,8|0,0:0|0:0,0:0:0:0:
208,200,68499,2,0,P|224:144|192:124,1,72,0|0,0:0|0:0,0:0:0:0:
128,40,68715,1,8,0:0:0:0:
116,44,68769,1,0,0:0:0:0:
108,48,68823,1,0,0:0:0:0:
96,52,68877,1,0,0:0:0:0:
84,56,68931,6,0,L|56:92,1,40.5405405405405,4|0,0:0|0:0,0:0:0:0:
59,88,69147,6,0,L|152:324,1,229.500004377365,8|0,0:0|0:0,0:0:0:0:
108,384,69363,6,0,P|48:388|92:336,1,135,0|0,0:0|0:0,0:0:0:0:
143,301,69578,6,0,L|236:65,1,229.500004377365,8|0,0:0|0:0,0:0:0:0:
192,5,69794,6,0,P|132:1|176:53,1,135,4|0,0:0|0:0,0:0:0:0:
227,87,70010,6,0,L|320:323,1,229.500004377365,8|0,0:0|0:0,0:0:0:0:
276,383,70226,6,0,P|216:387|260:335,1,135,0|0,0:0|0:0,0:0:0:0:
311,300,70442,6,0,L|404:64,1,229.500004377365,8|0,0:0|0:0,0:0:0:0:
456,32,70658,6,0,P|492:68|452:104,1,90,0|0,0:0|0:0,0:0:0:0:
418,150,70873,2,0,P|383:126|395:86,1,90,8|0,0:0|0:0,0:0:0:0:
196,141,71089,6,0,P|160:177|200:213,1,90,0|0,0:0|0:0,0:0:0:0:
236,260,71304,2,0,P|270:235|257:194,1,90,8|0,0:0|0:0,0:0:0:0:
28,288,71521,5,0,0:0:0:0:
144,356,71629,1,0,0:0:0:0:
236,260,71737,1,8,0:0:0:0:
500,124,71953,5,0,0:0:0:0:
464,52,72060,1,0,0:0:0:0:
384,36,72168,1,8,0:0:0:0:
316,84,72276,1,0,0:0:0:0:
400,244,72384,6,0,B|456:276|456:276|388:116,1,215.999993408203,4|8,0:0|0:0,0:0:0:0:
256,128,72708,1,0,0:0:0:0:
224,216,72816,2,0,P|276:224|336:156,1,107.999996704102,0|0,0:0|0:0,0:0:0:0:
273,21,73031,2,0,L|253:145,1,107.999996704102,8|0,0:0|0:0,0:0:0:0:
64,348,73248,6,0,P|56:312|88:268,1,72,0|0,0:0|0:0,0:0:0:0:
32,336,73463,2,0,P|41:302|70:281,1,72,8|0,0:0|0:0,0:0:0:0:
215,108,73679,6,0,P|225:146|189:194,1,90,0|0,0:0|0:0,0:0:0:0:
255,127,73895,2,0,P|244:164|189:188,1,90,8|0,0:0|0:0,0:0:0:0:
0,124,74111,6,0,B|132:52|132:52|104:128,1,215.999993408203,0|8,0:0|0:0,0:0:0:0:
70,281,74435,1,0,0:0:0:0:
136,324,74543,6,0,P|192:328|232:272,1,107.999996704102,0|0,0:0|0:0,0:0:0:0:
344,336,74758,2,0,P|364:272|328:220,1,107.999996704102,8|0,0:0|0:0,0:0:0:0:
200,72,74974,5,8,0:0:0:0:
153,132,75082,1,0,0:0:0:0:
315,149,75190,5,8,0:0:0:0:
284,78,75298,1,0,0:0:0:0:
184,212,75406,5,8,0:0:0:0:
259,221,75514,1,0,0:0:0:0:
233,147,75622,6,0,L|236:118,4,26.9999991760254,4|4|4|4|4,3:0|3:0|3:0|3:0|3:0,0:0:0:0:
19,176,76485,1,4,3:0:0:0:
19,176,76593,1,0,0:0:0:0:
19,176,76700,6,0,L|251:144,1,216,2|0,0:0|0:0,0:0:0:0:
493,208,77132,2,0,L|261:240,1,216,2|0,0:0|0:0,0:0:0:0:
232,146,77564,6,0,P|272:132|340:164,1,90,4|0,0:0|0:0,0:0:0:0:
96,296,77780,2,0,P|56:310|-12:278,1,90,8|0,0:0|0:0,0:0:0:0:
136,96,77996,6,0,L|204:348,1,202.500007724762,0|0,0:0|0:0,0:0:0:0:
184,312,78212,2,0,L|131:116,1,202.500007724762,8|0,0:0|0:0,0:0:0:0:
224,80,78427,6,0,P|264:48|332:48,1,90,0|0,0:0|0:0,0:0:0:0:
512,200,78643,2,0,P|472:232|404:232,1,90,8|0,0:0|0:0,0:0:0:0:
228,180,78859,6,0,L|452:144,1,202.500007724762,0|0,0:0|0:0,0:0:0:0:
440,136,79075,2,0,L|240:168,1,202.500007724762,8|0,0:0|0:0,0:0:0:0:
152,84,79290,6,0,P|96:156|92:32,1,270.000010299683,0|8,0:0|0:0,0:0:0:0:
72,52,79614,1,0,0:0:0:0:
244,84,79722,6,0,P|255:35|210:15,1,107.999996704102,0|0,0:0|0:0,0:0:0:0:
48,276,79938,2,0,P|36:324|81:344,1,107.999996704102,8|0,0:0|0:0,0:0:0:0:
236,196,80154,6,0,B|256:196|280:212|280:212|248:152|148:172|148:272,1,215.999993408203,0|8,0:0|0:0,0:0:0:0:
184,364,80477,1,0,0:0:0:0:
272,376,80586,2,0,P|272:324|220:292,1,107.999996704102,0|0,0:0|0:0,0:0:0:0:
168,88,80801,5,4,3:0:0:0:
168,88,80873,1,4,3:0:0:0:
168,88,80945,1,4,3:0:0:0:
168,88,81017,2,0,B|160:52|196:20|196:20|216:44|212:76,1,107.999996704102,4|0,0:0|0:0,3:0:0:0:
352,212,81233,5,12,3:0:0:0:
352,212,81305,1,4,3:0:0:0:
352,212,81377,1,4,3:0:0:0:
352,212,81449,2,0,B|379:236|369:283|369:283|339:275|323:247,1,107.999996704102,4|0,0:0|0:0,3:0:0:0:
128,232,81665,5,4,3:0:0:0:
128,232,81737,1,4,3:0:0:0:
128,232,81809,1,4,3:0:0:0:
128,232,81881,2,0,B|91:228|71:184|71:184|100:172|130:186,1,107.999996704102,4|0,0:0|0:0,3:0:0:0:
300,92,82096,5,4,3:0:0:0:
300,92,82168,1,4,3:0:0:0:
300,92,82240,1,4,3:0:0:0:
300,92,82312,2,0,B|331:73|373:97|373:97|356:124|325:130,1,107.999996704102,4|0,0:0|0:0,3:0:0:0:
248,312,82528,5,4,3:0:0:0:
248,312,82600,1,4,3:0:0:0:
248,312,82672,1,4,3:0:0:0:
248,312,82744,2,0,B|233:345|185:350|185:350|183:319|205:295,1,107.999996704102,4|0,0:0|0:0,3:0:0:0:
16,240,82960,2,0,B|30:206|78:201|78:201|80:232|58:256,1,107.999996704102,0|0,0:0|0:0,3:0:0:0:
300,92,83175,5,4,0:0:0:0:
220,64,83283,1,0,0:0:0:0:
144,108,83391,2,0,P|88:112|24:96,1,107.999996704102,8|0,0:0|0:0,0:0:0:0:
164,296,83607,6,0,B|184:164,1,107.999996704102,4|0,0:0|0:0,0:0:0:0:
348,88,83823,2,0,B|328:220,1,107.999996704102,8|0,0:0|0:0,0:0:0:0:
136,320,84039,6,0,B|156:188,1,107.999996704102,4|0,0:0|0:0,0:0:0:0:
376,64,84255,2,0,B|356:196,1,107.999996704102,8|0,0:0|0:0,0:0:0:0:
136,320,84471,6,0,B|276:228|324:388|456:296,1,323.999990112305,4|0,0:0|0:0,0:0:0:0:
460,200,85226,1,0,1:0:0:0:
460,200,85334,6,0,P|397:137|376:224,1,216,0|0,1:0|1:0,0:0:0:0:
380,212,85658,1,0,1:0:0:0:
148,212,85981,2,0,P|96:192|64:204,1,72,2|0,0:0|0:0,0:0:0:0:
24,316,86197,6,0,P|84:256|84:304,1,180,4|0,0:0|0:0,0:0:0:0:
184,296,86521,6,0,P|232:352|252:252,1,215.999993408203,4|0,0:0|0:0,0:0:0:0:
376,300,86845,6,0,P|440:228|436:336,1,251.999992309571,4|4,0:0|0:0,0:0:0:0:
168,120,87492,6,0,L|124:128,3,31.4999990386963,0|0|0|0,0:0|0:0|0:0|0:0,0:0:0:0:
64,144,87708,2,0,L|32:152,4,22.5,0|0|0|0|0,0:0|0:0|0:0|0:0|0:0,0:0:0:0:
