osu file format v14

[General]
AudioFilename: sweetlittlechocolate.mp3
AudioLeadIn: 0
PreviewTime: -1
Countdown: 0
SampleSet: Normal
StackLeniency: 0.7
Mode: 3
LetterboxInBreaks: 0
SpecialStyle: 0
WidescreenStoryboard: 1

[Editor]
DistanceSpacing: 1.5
BeatDivisor: 4
GridSize: 4
TimelineZoom: 0.5999998

[Metadata]
Title:Sweet Little Chocolate
TitleUnicode:Sweet Little Chocolate
Artist:Uma
ArtistUnicode:Uma
Creator:ShikiKuro
Version:Advance
Source:
Tags:KSM
BeatmapID:778131
BeatmapSetID:353179

[Difficulty]
HPDrainRate:6
CircleSize:4
OverallDifficulty:7
ApproachRate:5
SliderMultiplier:1.4
SliderTickRate:1

[Events]
//Background and Video events
0,0,"sweetlittlechocolate_ex.jpg",0,0
//Break Periods
//Storyboard Layer 0 (Background)
//Storyboard Layer 1 (Fail)
//Storyboard Layer 2 (Pass)
//Storyboard Layer 3 (Foreground)
//Storyboard Sound Samples

[TimingPoints]
-36,352.941176470588,4,1,0,100,1,0
94552,-100,4,1,0,100,0,1
129493,-100,4,1,0,100,0,0

[HitObjects]
64,192,1375,128,0,2081:0:0:0:0:
320,192,2081,128,0,2434:0:0:0:0:
192,192,2434,128,0,2787:0:0:0:0:
64,192,2787,128,0,8258:0:0:0:0:
320,192,2787,1,0,0:0:0:0:
320,192,3052,1,0,0:0:0:0:
192,192,3316,1,0,0:0:0:0:
320,192,3581,1,0,0:0:0:0:
448,192,3846,1,0,0:0:0:0:
320,192,4022,1,0,0:0:0:0:
192,192,4375,1,0,0:0:0:0:
192,192,4640,1,0,0:0:0:0:
320,192,4905,1,0,0:0:0:0:
192,192,5169,1,0,0:0:0:0:
448,192,5434,1,0,0:0:0:0:
320,192,5787,1,0,0:0:0:0:
320,192,6052,1,0,0:0:0:0:
448,192,6316,1,0,0:0:0:0:
320,192,6581,1,0,0:0:0:0:
192,192,6846,1,0,0:0:0:0:
448,192,7199,1,0,0:0:0:0:
448,192,7463,1,0,0:0:0:0:
192,192,7728,1,0,0:0:0:0:
320,192,7993,1,0,0:0:0:0:
448,192,8258,1,0,0:0:0:0:
320,192,8522,1,0,0:0:0:0:
320,192,8787,1,0,0:0:0:0:
192,192,9052,1,0,0:0:0:0:
64,192,9316,1,0,0:0:0:0:
192,192,9581,1,0,0:0:0:0:
448,192,10022,1,0,0:0:0:0:
448,192,10287,1,0,0:0:0:0:
192,192,10552,1,0,0:0:0:0:
320,192,10816,1,0,0:0:0:0:
448,192,11081,1,0,0:0:0:0:
64,192,11434,1,0,0:0:0:0:
64,192,11699,1,0,0:0:0:0:
192,192,11963,1,0,0:0:0:0:
320,192,12228,1,0,0:0:0:0:
448,192,12493,1,0,0:0:0:0:
64,192,12669,1,0,0:0:0:0:
192,192,12846,1,0,0:0:0:0:
448,192,12934,1,0,0:0:0:0:
192,192,13111,1,0,0:0:0:0:
64,192,13199,1,0,0:0:0:0:
448,192,13375,1,0,0:0:0:0:
320,192,13552,1,0,0:0:0:0:
64,192,13640,1,0,0:0:0:0:
192,192,13816,1,0,0:0:0:0:
448,192,13905,1,0,0:0:0:0:
320,192,14081,128,0,14963:0:0:0:0:
192,192,14963,128,0,15140:0:0:0:0:
64,192,15140,128,0,15493:0:0:0:0:
192,192,15493,128,0,15846:0:0:0:0:
320,192,15846,128,0,16022:0:0:0:0:
448,192,16022,128,0,16199:0:0:0:0:
320,192,16199,128,0,16552:0:0:0:0:
192,192,16552,128,0,16905:0:0:0:0:
64,192,16905,128,0,17611:0:0:0:0:
192,192,17611,128,0,17963:0:0:0:0:
320,192,17963,128,0,18316:0:0:0:0:
448,192,18316,128,0,18669:0:0:0:0:
320,192,18669,128,0,19022:0:0:0:0:
192,192,19022,128,0,19199:0:0:0:0:
64,192,19199,128,0,19375:0:0:0:0:
192,192,19375,128,0,19728:0:0:0:0:
448,192,19728,128,0,20787:0:0:0:0:
320,192,20787,128,0,20963:0:0:0:0:
192,192,20963,128,0,21140:0:0:0:0:
64,192,21140,128,0,21493:0:0:0:0:
192,192,21493,128,0,21846:0:0:0:0:
448,192,21846,128,0,23081:0:0:0:0:
320,192,23081,128,0,23611:0:0:0:0:
192,192,23611,128,0,23963:0:0:0:0:
64,192,23963,128,0,24669:0:0:0:0:
192,192,24669,128,0,25375:0:0:0:0:
320,192,25022,1,0,0:0:0:0:
448,192,25022,1,0,0:0:0:0:
64,192,25375,1,0,0:0:0:0:
448,192,25375,1,0,0:0:0:0:
320,192,25640,1,0,0:0:0:0:
192,192,25905,1,0,0:0:0:0:
448,192,26081,1,0,0:0:0:0:
320,192,26346,1,0,0:0:0:0:
192,192,26611,1,0,0:0:0:0:
64,192,26787,1,0,0:0:0:0:
192,192,27140,1,0,0:0:0:0:
320,192,27493,1,0,0:0:0:0:
192,192,27758,1,0,0:0:0:0:
320,192,28022,1,0,0:0:0:0:
64,192,28199,1,0,0:0:0:0:
192,192,28552,1,0,0:0:0:0:
448,192,28905,1,0,0:0:0:0:
320,192,29169,1,0,0:0:0:0:
64,192,29434,1,0,0:0:0:0:
192,192,29611,1,0,0:0:0:0:
320,192,29875,1,0,0:0:0:0:
192,192,30140,1,0,0:0:0:0:
448,192,30316,128,0,30669:0:0:0:0:
320,192,30669,1,0,0:0:0:0:
192,192,30846,1,0,0:0:0:0:
64,192,31022,1,0,0:0:0:0:
192,192,31287,1,0,0:0:0:0:
320,192,31552,1,0,0:0:0:0:
448,192,31728,1,0,0:0:0:0:
192,192,31993,1,0,0:0:0:0:
64,192,32258,1,0,0:0:0:0:
320,192,32434,1,0,0:0:0:0:
64,192,32787,1,0,0:0:0:0:
192,192,33140,1,0,0:0:0:0:
448,192,33405,1,0,0:0:0:0:
192,192,33669,1,0,0:0:0:0:
320,192,33846,1,0,0:0:0:0:
192,192,34199,1,0,0:0:0:0:
320,192,34552,1,0,0:0:0:0:
192,192,34816,1,0,0:0:0:0:
448,192,35081,1,0,0:0:0:0:
192,192,35258,1,0,0:0:0:0:
64,192,35522,1,0,0:0:0:0:
192,192,35787,1,0,0:0:0:0:
448,192,35963,1,0,0:0:0:0:
320,192,36316,128,0,36669:0:0:0:0:
64,192,36669,1,0,0:0:0:0:
192,192,36934,1,0,0:0:0:0:
320,192,37199,1,0,0:0:0:0:
192,192,37375,1,0,0:0:0:0:
64,192,37728,1,0,0:0:0:0:
448,192,37728,1,0,0:0:0:0:
192,192,37905,1,0,0:0:0:0:
320,192,38081,1,0,0:0:0:0:
192,192,38434,1,0,0:0:0:0:
448,192,38787,1,0,0:0:0:0:
320,192,39140,1,0,0:0:0:0:
192,192,39316,1,0,0:0:0:0:
64,192,39493,1,0,0:0:0:0:
64,192,39846,1,0,0:0:0:0:
320,192,40199,1,0,0:0:0:0:
192,192,40552,1,0,0:0:0:0:
320,192,40905,1,0,0:0:0:0:
192,192,41169,1,0,0:0:0:0:
64,192,41434,1,0,0:0:0:0:
448,192,41611,1,0,0:0:0:0:
64,192,41963,1,0,0:0:0:0:
192,192,42140,1,0,0:0:0:0:
320,192,42316,1,0,0:0:0:0:
448,192,42581,1,0,0:0:0:0:
64,192,42846,1,0,0:0:0:0:
320,192,43022,1,0,0:0:0:0:
192,192,43287,1,0,0:0:0:0:
320,192,43552,1,0,0:0:0:0:
448,192,43728,1,0,0:0:0:0:
320,192,44081,1,0,0:0:0:0:
192,192,44434,1,0,0:0:0:0:
64,192,44699,1,0,0:0:0:0:
320,192,44963,1,0,0:0:0:0:
192,192,45140,1,0,0:0:0:0:
448,192,45140,1,0,0:0:0:0:
192,192,45493,1,0,0:0:0:0:
64,192,45846,1,0,0:0:0:0:
320,192,45846,1,0,0:0:0:0:
192,192,46111,1,0,0:0:0:0:
448,192,46375,1,0,0:0:0:0:
192,192,46552,1,0,0:0:0:0:
320,192,46816,1,0,0:0:0:0:
64,192,46905,1,0,0:0:0:0:
448,192,46905,1,0,0:0:0:0:
320,192,47081,1,0,0:0:0:0:
192,192,47258,1,0,0:0:0:0:
64,192,47611,1,0,0:0:0:0:
448,192,47611,1,0,0:0:0:0:
192,192,47963,1,0,0:0:0:0:
320,192,47963,1,0,0:0:0:0:
448,192,48316,1,0,0:0:0:0:
64,192,48316,1,0,0:0:0:0:
320,192,48669,1,0,0:0:0:0:
192,192,48669,1,0,0:0:0:0:
64,192,49022,1,0,0:0:0:0:
320,192,49022,1,0,0:0:0:0:
192,192,49375,1,0,0:0:0:0:
448,192,49375,1,0,0:0:0:0:
320,192,49728,1,0,0:0:0:0:
64,192,49728,1,0,0:0:0:0:
192,192,50081,1,0,0:0:0:0:
320,192,50081,1,0,0:0:0:0:
192,192,50434,1,0,0:0:0:0:
448,192,50434,1,0,0:0:0:0:
320,192,50611,1,0,0:0:0:0:
192,192,50611,1,0,0:0:0:0:
64,192,50787,1,0,0:0:0:0:
448,192,50787,1,0,0:0:0:0:
320,192,51140,1,0,0:0:0:0:
192,192,51140,1,0,0:0:0:0:
448,192,51493,1,0,0:0:0:0:
64,192,51493,1,0,0:0:0:0:
192,192,51846,1,0,0:0:0:0:
448,192,51846,1,0,0:0:0:0:
64,192,52199,1,0,0:0:0:0:
448,192,52199,1,0,0:0:0:0:
320,192,52552,1,0,0:0:0:0:
192,192,52552,1,0,0:0:0:0:
192,192,52905,1,0,0:0:0:0:
448,192,52905,1,0,0:0:0:0:
64,192,53169,1,0,0:0:0:0:
320,192,53169,1,0,0:0:0:0:
64,192,53434,1,0,0:0:0:0:
448,192,53434,1,0,0:0:0:0:
192,192,53611,128,0,53875:0:0:0:0:
320,192,53963,1,0,0:0:0:0:
448,192,53963,1,0,0:0:0:0:
320,192,54316,1,0,0:0:0:0:
64,192,54316,1,0,0:0:0:0:
192,192,54669,1,0,0:0:0:0:
448,192,54669,1,0,0:0:0:0:
320,192,55022,1,0,0:0:0:0:
448,192,55022,1,0,0:0:0:0:
64,192,55375,1,0,0:0:0:0:
192,192,55375,1,0,0:0:0:0:
192,192,55728,1,0,0:0:0:0:
320,192,55728,1,0,0:0:0:0:
320,192,56081,1,0,0:0:0:0:
448,192,56081,1,0,0:0:0:0:
64,192,56434,1,0,0:0:0:0:
448,192,56434,1,0,0:0:0:0:
192,192,56787,1,0,0:0:0:0:
448,192,56787,1,0,0:0:0:0:
64,192,57140,1,0,0:0:0:0:
320,192,57140,1,0,0:0:0:0:
448,192,57493,1,0,0:0:0:0:
192,192,57493,1,0,0:0:0:0:
192,192,57846,1,0,0:0:0:0:
320,192,57846,1,0,0:0:0:0:
64,192,58199,1,0,0:0:0:0:
448,192,58199,1,0,0:0:0:0:
320,192,58552,1,0,0:0:0:0:
192,192,58552,1,0,0:0:0:0:
192,192,58905,1,0,0:0:0:0:
64,192,59258,1,0,0:0:0:0:
448,192,59258,1,0,0:0:0:0:
320,192,59258,128,0,60140:0:0:0:0:
192,192,59611,1,0,0:0:0:0:
448,192,59963,1,0,0:0:0:0:
192,192,60140,128,0,60316:0:0:0:0:
448,192,60316,128,0,60669:0:0:0:0:
64,192,60316,1,0,0:0:0:0:
320,192,60669,128,0,61022:0:0:0:0:
192,192,60669,1,0,0:0:0:0:
64,192,61022,128,0,61199:0:0:0:0:
448,192,61022,1,0,0:0:0:0:
192,192,61199,128,0,61375:0:0:0:0:
64,192,61375,128,0,61728:0:0:0:0:
320,192,61375,1,0,0:0:0:0:
192,192,61728,128,0,62081:0:0:0:0:
448,192,61728,1,0,0:0:0:0:
448,192,62081,128,0,62787:0:0:0:0:
64,192,62081,1,0,0:0:0:0:
320,192,62434,1,0,0:0:0:0:
320,192,62787,128,0,63140:0:0:0:0:
192,192,62787,1,0,0:0:0:0:
192,192,63140,128,0,63493:0:0:0:0:
64,192,63140,1,0,0:0:0:0:
320,192,63493,128,0,63846:0:0:0:0:
448,192,63493,1,0,0:0:0:0:
64,192,63846,128,0,64199:0:0:0:0:
192,192,63846,1,0,0:0:0:0:
448,192,64199,128,0,64375:0:0:0:0:
320,192,64199,1,0,0:0:0:0:
320,192,64375,128,0,64552:0:0:0:0:
192,192,64552,128,0,64905:0:0:0:0:
64,192,64552,1,0,0:0:0:0:
64,192,64905,128,0,65963:0:0:0:0:
320,192,64905,1,0,0:0:0:0:
448,192,64905,1,0,0:0:0:0:
192,192,65258,1,0,0:0:0:0:
320,192,65611,1,0,0:0:0:0:
192,192,65963,128,0,66140:0:0:0:0:
448,192,65963,1,0,0:0:0:0:
320,192,66140,128,0,66316:0:0:0:0:
192,192,66316,128,0,66669:0:0:0:0:
64,192,66316,1,0,0:0:0:0:
448,192,66316,1,0,0:0:0:0:
320,192,66669,128,0,67022:0:0:0:0:
448,192,66669,1,0,0:0:0:0:
448,192,67022,128,0,68258:0:0:0:0:
192,192,67022,1,0,0:0:0:0:
64,192,67375,1,0,0:0:0:0:
192,192,67728,1,0,0:0:0:0:
320,192,67728,1,0,0:0:0:0:
64,192,68081,1,0,0:0:0:0:
320,192,68258,128,0,68787:0:0:0:0:
192,192,68434,1,0,0:0:0:0:
192,192,68787,128,0,69140:0:0:0:0:
448,192,68787,1,0,0:0:0:0:
320,192,69140,128,0,69846:0:0:0:0:
64,192,69140,1,0,0:0:0:0:
448,192,69140,1,0,0:0:0:0:
64,192,69846,128,0,70552:0:0:0:0:
192,192,70552,1,0,0:0:0:0:
320,192,70552,1,0,0:0:0:0:
448,192,70728,1,0,0:0:0:0:
448,192,70993,1,0,0:0:0:0:
320,192,71258,1,0,0:0:0:0:
192,192,71522,1,0,0:0:0:0:
64,192,71787,1,0,0:0:0:0:
192,192,71963,1,0,0:0:0:0:
448,192,71963,1,0,0:0:0:0:
320,192,72140,1,0,0:0:0:0:
320,192,72405,1,0,0:0:0:0:
192,192,72669,1,0,0:0:0:0:
64,192,72934,1,0,0:0:0:0:
192,192,73199,1,0,0:0:0:0:
320,192,73375,1,0,0:0:0:0:
448,192,73375,1,0,0:0:0:0:
64,192,73552,1,0,0:0:0:0:
64,192,73816,1,0,0:0:0:0:
192,192,74081,1,0,0:0:0:0:
320,192,74346,1,0,0:0:0:0:
448,192,74611,1,0,0:0:0:0:
64,192,74787,1,0,0:0:0:0:
320,192,74787,1,0,0:0:0:0:
192,192,74963,1,0,0:0:0:0:
192,192,75228,1,0,0:0:0:0:
320,192,75493,1,0,0:0:0:0:
448,192,75758,1,0,0:0:0:0:
320,192,76022,1,0,0:0:0:0:
192,192,76199,1,0,0:0:0:0:
448,192,76199,1,0,0:0:0:0:
64,192,76375,1,0,0:0:0:0:
320,192,76640,1,0,0:0:0:0:
192,192,76905,1,0,0:0:0:0:
320,192,77169,1,0,0:0:0:0:
64,192,77434,1,0,0:0:0:0:
192,192,77611,1,0,0:0:0:0:
320,192,77611,1,0,0:0:0:0:
448,192,77787,1,0,0:0:0:0:
192,192,78052,1,0,0:0:0:0:
320,192,78316,1,0,0:0:0:0:
192,192,78581,1,0,0:0:0:0:
448,192,78846,1,0,0:0:0:0:
192,192,79022,1,0,0:0:0:0:
320,192,79022,1,0,0:0:0:0:
64,192,79199,1,0,0:0:0:0:
192,192,79463,1,0,0:0:0:0:
320,192,79728,1,0,0:0:0:0:
448,192,79993,1,0,0:0:0:0:
320,192,80258,1,0,0:0:0:0:
64,192,80434,1,0,0:0:0:0:
448,192,80434,1,0,0:0:0:0:
192,192,80611,1,0,0:0:0:0:
320,192,80699,1,0,0:0:0:0:
448,192,80875,1,0,0:0:0:0:
192,192,80963,1,0,0:0:0:0:
320,192,81140,1,0,0:0:0:0:
64,192,81140,1,0,0:0:0:0:
192,192,81316,1,0,0:0:0:0:
64,192,81405,1,0,0:0:0:0:
192,192,81581,1,0,0:0:0:0:
448,192,81669,1,0,0:0:0:0:
64,192,81846,1,0,0:0:0:0:
192,192,81846,1,0,0:0:0:0:
320,192,82199,1,0,0:0:0:0:
192,192,82552,1,0,0:0:0:0:
448,192,82552,1,0,0:0:0:0:
64,192,82905,1,0,0:0:0:0:
320,192,83258,1,0,0:0:0:0:
192,192,83258,1,0,0:0:0:0:
448,192,83611,1,0,0:0:0:0:
192,192,83963,1,0,0:0:0:0:
64,192,83963,1,0,0:0:0:0:
320,192,84316,1,0,0:0:0:0:
64,192,84669,1,0,0:0:0:0:
448,192,84669,1,0,0:0:0:0:
320,192,85022,1,0,0:0:0:0:
192,192,85375,1,0,0:0:0:0:
64,192,85375,1,0,0:0:0:0:
448,192,85728,1,0,0:0:0:0:
320,192,86081,1,0,0:0:0:0:
64,192,86081,1,0,0:0:0:0:
192,192,86434,1,0,0:0:0:0:
64,192,86787,1,0,0:0:0:0:
448,192,86787,1,0,0:0:0:0:
192,192,87140,1,0,0:0:0:0:
320,192,87493,1,0,0:0:0:0:
64,192,87493,1,0,0:0:0:0:
448,192,87846,1,0,0:0:0:0:
192,192,88199,1,0,0:0:0:0:
320,192,88199,1,0,0:0:0:0:
320,192,88552,1,0,0:0:0:0:
64,192,88905,1,0,0:0:0:0:
448,192,88905,1,0,0:0:0:0:
192,192,89258,1,0,0:0:0:0:
448,192,89611,1,0,0:0:0:0:
64,192,89611,1,0,0:0:0:0:
320,192,89963,1,0,0:0:0:0:
448,192,90316,1,0,0:0:0:0:
192,192,90316,1,0,0:0:0:0:
192,192,90669,1,0,0:0:0:0:
320,192,91022,1,0,0:0:0:0:
448,192,91022,1,0,0:0:0:0:
64,192,91375,1,0,0:0:0:0:
192,192,91728,1,0,0:0:0:0:
448,192,91728,1,0,0:0:0:0:
320,192,91728,128,0,92787:0:0:0:0:
448,192,92434,1,0,0:0:0:0:
192,192,92434,128,0,92787:0:0:0:0:
64,192,92434,1,0,0:0:0:0:
64,192,92787,1,0,0:0:0:0:
448,192,92787,1,0,0:0:0:0:
320,192,93140,1,0,0:0:0:0:
64,192,93140,128,0,93846:0:0:0:0:
320,192,93405,128,0,93846:0:0:0:0:
448,192,93846,1,0,0:0:0:0:
192,192,93846,1,0,0:0:0:0:
64,192,94199,1,0,0:0:0:0:
448,192,94199,1,0,0:0:0:0:
192,192,94552,1,0,0:0:0:0:
448,192,94552,1,0,0:0:0:0:
320,192,94816,1,0,0:0:0:0:
192,192,95081,1,0,0:0:0:0:
320,192,95258,1,0,0:0:0:0:
64,192,95522,1,0,0:0:0:0:
320,192,95787,1,0,0:0:0:0:
192,192,95963,1,0,0:0:0:0:
448,192,96228,1,0,0:0:0:0:
192,192,96669,1,0,0:0:0:0:
320,192,96934,1,0,0:0:0:0:
448,192,97199,1,0,0:0:0:0:
64,192,97375,1,0,0:0:0:0:
320,192,97728,1,0,0:0:0:0:
64,192,98081,1,0,0:0:0:0:
448,192,98346,1,0,0:0:0:0:
192,192,98611,1,0,0:0:0:0:
64,192,98787,1,0,0:0:0:0:
320,192,99052,1,0,0:0:0:0:
448,192,99316,1,0,0:0:0:0:
192,192,99493,1,0,0:0:0:0:
64,192,99846,1,0,0:0:0:0:
192,192,100022,1,0,0:0:0:0:
320,192,100199,1,0,0:0:0:0:
64,192,100463,1,0,0:0:0:0:
192,192,100728,1,0,0:0:0:0:
448,192,100905,1,0,0:0:0:0:
320,192,101169,1,0,0:0:0:0:
448,192,101434,1,0,0:0:0:0:
192,192,101611,1,0,0:0:0:0:
320,192,101963,1,0,0:0:0:0:
64,192,102316,1,0,0:0:0:0:
192,192,102581,1,0,0:0:0:0:
320,192,102846,1,0,0:0:0:0:
192,192,103022,1,0,0:0:0:0:
320,192,103375,1,0,0:0:0:0:
192,192,103728,1,0,0:0:0:0:
448,192,103993,1,0,0:0:0:0:
320,192,104258,1,0,0:0:0:0:
64,192,104434,1,0,0:0:0:0:
192,192,104699,1,0,0:0:0:0:
320,192,104963,1,0,0:0:0:0:
192,192,105140,1,0,0:0:0:0:
448,192,105493,128,0,105846:0:0:0:0:
64,192,105846,1,0,0:0:0:0:
320,192,105846,1,0,0:0:0:0:
192,192,106111,1,0,0:0:0:0:
320,192,106111,1,0,0:0:0:0:
192,192,106375,1,0,0:0:0:0:
320,192,106375,1,0,0:0:0:0:
64,192,106552,1,0,0:0:0:0:
448,192,106552,1,0,0:0:0:0:
64,192,106905,1,0,0:0:0:0:
192,192,106905,1,0,0:0:0:0:
320,192,106905,1,0,0:0:0:0:
448,192,106905,1,0,0:0:0:0:
192,192,107081,1,0,0:0:0:0:
320,192,107258,1,0,0:0:0:0:
192,192,107611,1,0,0:0:0:0:
448,192,107611,1,0,0:0:0:0:
448,192,107963,1,0,0:0:0:0:
64,192,107963,1,0,0:0:0:0:
320,192,108316,1,0,0:0:0:0:
192,192,108493,1,0,0:0:0:0:
64,192,108669,1,0,0:0:0:0:
192,192,109022,1,0,0:0:0:0:
320,192,109022,1,0,0:0:0:0:
64,192,109375,1,0,0:0:0:0:
320,192,109375,1,0,0:0:0:0:
192,192,109728,1,0,0:0:0:0:
448,192,109728,1,0,0:0:0:0:
320,192,110081,1,0,0:0:0:0:
448,192,110081,1,0,0:0:0:0:
64,192,110346,1,0,0:0:0:0:
320,192,110611,1,0,0:0:0:0:
192,192,110787,1,0,0:0:0:0:
320,192,111140,1,0,0:0:0:0:
192,192,111316,1,0,0:0:0:0:
64,192,111493,1,0,0:0:0:0:
192,192,111758,1,0,0:0:0:0:
64,192,112022,1,0,0:0:0:0:
320,192,112199,1,0,0:0:0:0:
192,192,112463,1,0,0:0:0:0:
448,192,112728,1,0,0:0:0:0:
320,192,112905,1,0,0:0:0:0:
64,192,113258,1,0,0:0:0:0:
192,192,113611,1,0,0:0:0:0:
320,192,113875,1,0,0:0:0:0:
448,192,114140,1,0,0:0:0:0:
192,192,114316,1,0,0:0:0:0:
320,192,114669,1,0,0:0:0:0:
64,192,115022,1,0,0:0:0:0:
448,192,115022,1,0,0:0:0:0:
192,192,115287,1,0,0:0:0:0:
320,192,115552,1,0,0:0:0:0:
192,192,115728,1,0,0:0:0:0:
448,192,115728,1,0,0:0:0:0:
64,192,115993,1,0,0:0:0:0:
192,192,115993,1,0,0:0:0:0:
64,192,116258,1,0,0:0:0:0:
320,192,116258,1,0,0:0:0:0:
320,192,116434,1,0,0:0:0:0:
448,192,116434,1,0,0:0:0:0:
64,192,116787,1,0,0:0:0:0:
192,192,116787,1,0,0:0:0:0:
320,192,116787,1,0,0:0:0:0:
448,192,117140,128,0,118022:0:0:0:0:
192,192,117140,128,0,117493:0:0:0:0:
320,192,117493,1,0,0:0:0:0:
192,192,117846,1,0,0:0:0:0:
320,192,118022,128,0,118199:0:0:0:0:
192,192,118199,128,0,118552:0:0:0:0:
64,192,118199,1,0,0:0:0:0:
64,192,118552,128,0,118905:0:0:0:0:
320,192,118552,1,0,0:0:0:0:
192,192,118905,128,0,119081:0:0:0:0:
448,192,118905,1,0,0:0:0:0:
320,192,119081,128,0,119258:0:0:0:0:
192,192,119258,128,0,119611:0:0:0:0:
64,192,119258,1,0,0:0:0:0:
320,192,119611,128,0,119963:0:0:0:0:
448,192,119611,1,0,0:0:0:0:
448,192,119963,128,0,120669:0:0:0:0:
192,192,119963,1,0,0:0:0:0:
64,192,120316,1,0,0:0:0:0:
192,192,120669,128,0,121022:0:0:0:0:
320,192,120669,1,0,0:0:0:0:
320,192,121022,128,0,121375:0:0:0:0:
64,192,121022,1,0,0:0:0:0:
192,192,121375,128,0,121728:0:0:0:0:
448,192,121375,1,0,0:0:0:0:
64,192,121728,128,0,122081:0:0:0:0:
320,192,121728,1,0,0:0:0:0:
448,192,122081,128,0,122258:0:0:0:0:
192,192,122081,1,0,0:0:0:0:
320,192,122258,128,0,122434:0:0:0:0:
448,192,122434,128,0,122787:0:0:0:0:
64,192,122434,1,0,0:0:0:0:
320,192,122787,128,0,123846:0:0:0:0:
192,192,122787,1,0,0:0:0:0:
448,192,123140,1,0,0:0:0:0:
192,192,123493,1,0,0:0:0:0:
64,192,123846,128,0,124022:0:0:0:0:
448,192,123846,1,0,0:0:0:0:
192,192,124022,128,0,124199:0:0:0:0:
64,192,124199,128,0,124552:0:0:0:0:
320,192,124199,1,0,0:0:0:0:
192,192,124552,128,0,124905:0:0:0:0:
448,192,124552,1,0,0:0:0:0:
320,192,124905,128,0,126140:0:0:0:0:
64,192,124905,1,0,0:0:0:0:
192,192,125258,1,0,0:0:0:0:
64,192,125611,1,0,0:0:0:0:
448,192,125963,1,0,0:0:0:0:
448,192,126140,128,0,126669:0:0:0:0:
192,192,126316,1,0,0:0:0:0:
320,192,126669,128,0,127022:0:0:0:0:
64,192,126669,1,0,0:0:0:0:
192,192,127022,128,0,127728:0:0:0:0:
448,192,127022,1,0,0:0:0:0:
320,192,127375,1,0,0:0:0:0:
64,192,127728,128,0,128434:0:0:0:0:
448,192,127728,1,0,0:0:0:0:
320,192,128081,128,0,128434:0:0:0:0:
192,192,128081,1,0,0:0:0:0:
448,192,128434,1,0,0:0:0:0:
192,192,128699,1,0,0:0:0:0:
320,192,128699,1,0,0:0:0:0:
192,192,128963,1,0,0:0:0:0:
320,192,128963,1,0,0:0:0:0:
64,192,129140,1,0,0:0:0:0:
448,192,129140,1,0,0:0:0:0:
64,192,129493,1,0,0:0:0:0:
320,192,129493,1,0,0:0:0:0:
448,192,129493,1,0,0:0:0:0:
192,192,129493,1,0,0:0:0:0:
448,192,129846,1,0,0:0:0:0:
320,192,129846,1,0,0:0:0:0:
64,192,130199,1,0,0:0:0:0:
192,192,130199,1,0,0:0:0:0:
448,192,130552,1,0,0:0:0:0:
64,192,130552,1,0,0:0:0:0:
192,192,130905,1,0,0:0:0:0:
320,192,130905,1,0,0:0:0:0:
64,192,131258,1,0,0:0:0:0:
448,192,131258,1,0,0:0:0:0:
320,192,131611,1,0,0:0:0:0:
192,192,131611,1,0,0:0:0:0:
192,192,131963,1,0,0:0:0:0:
448,192,131963,1,0,0:0:0:0:
448,192,132316,1,0,0:0:0:0:
64,192,132316,1,0,0:0:0:0:
320,192,132669,1,0,0:0:0:0:
64,192,132669,1,0,0:0:0:0:
320,192,133022,1,0,0:0:0:0:
192,192,133022,1,0,0:0:0:0:
448,192,133375,1,0,0:0:0:0:
320,192,133375,1,0,0:0:0:0:
192,192,133728,1,0,0:0:0:0:
64,192,133728,1,0,0:0:0:0:
320,192,134081,1,0,0:0:0:0:
448,192,134081,1,0,0:0:0:0:
64,192,134434,1,0,0:0:0:0:
192,192,134787,1,0,0:0:0:0:
448,192,135140,1,0,0:0:0:0:
64,192,135493,1,0,0:0:0:0:
320,192,135493,1,0,0:0:0:0:
192,192,135846,1,0,0:0:0:0:
64,192,136199,1,0,0:0:0:0:
320,192,136552,1,0,0:0:0:0:
192,192,136905,1,0,0:0:0:0:
448,192,136905,1,0,0:0:0:0:
320,192,137258,1,0,0:0:0:0:
64,192,137611,1,0,0:0:0:0:
192,192,137611,1,0,0:0:0:0:
448,192,137963,1,0,0:0:0:0:
192,192,138316,1,0,0:0:0:0:
320,192,138316,1,0,0:0:0:0:
64,192,138581,1,0,0:0:0:0:
320,192,138581,1,0,0:0:0:0:
192,192,138846,1,0,0:0:0:0:
448,192,138846,1,0,0:0:0:0:
192,192,139022,1,0,0:0:0:0:
320,192,139022,1,0,0:0:0:0:
192,192,139375,1,0,0:0:0:0:
448,192,139375,1,0,0:0:0:0:
320,192,139728,128,0,140081:0:0:0:0:
192,192,139728,128,0,140081:0:0:0:0:
