osu file format v14

[General]
AudioFilename: audio.mp3
AudioLeadIn: 0
PreviewTime: 61364
Countdown: 0
SampleSet: Soft
StackLeniency: 0.7
Mode: 0
LetterboxInBreaks: 0
WidescreenStoryboard: 0

[Editor]
DistanceSpacing: 1.5
BeatDivisor: 4
GridSize: 16
TimelineZoom: 2.4

[Metadata]
Title:Kibou no Uta
TitleUnicode:希望の唄
Artist:Ultra Tower
ArtistUnicode:ウルトラタワー
Creator:ImAplayerMapper
Version:The Song Of Hope
Source:食戟のソーマ
Tags:Shokugeki no Souma
BeatmapID:1534323
BeatmapSetID:726686

[Difficulty]
HPDrainRate:6.2
CircleSize:3.8
OverallDifficulty:8.2
ApproachRate:9
SliderMultiplier:1.8
SliderTickRate:1

[Events]
//Background and Video events
0,0,"Kibou no uta wp.jpg",0,0
//Break Periods
//Storyboard Layer 0 (Background)
//Storyboard Layer 1 (Fail)
//Storyboard Layer 2 (Pass)
//Storyboard Layer 3 (Foreground)
//Storyboard Sound Samples

[TimingPoints]
354,338.983050847458,4,2,2,25,1,0
1370,-142.857142857143,4,2,2,25,0,0
1625,-142.857142857143,4,2,2,5,0,0
1709,-142.857142857143,4,2,2,25,0,0
3065,-133.333333333333,4,2,2,25,0,0
4337,-133.333333333333,4,2,2,5,0,0
4421,-133.333333333333,4,2,2,25,0,0
7048,-133.333333333333,4,2,2,5,0,0
7133,-133.333333333333,4,2,2,25,0,0
11455,-133.333333333333,4,2,2,5,0,0
11540,-133.333333333333,4,2,2,25,0,0
13913,-117.647058823529,4,2,2,45,0,0
19337,-111.111111111111,4,2,2,55,0,0
20681,338.983050847458,4,2,2,25,1,0
20681,-133.333333333333,4,2,2,45,0,0
22020,338.983050847458,4,2,2,25,1,0
22020,-90.9090909090909,4,2,2,65,0,0
27443,-117.647058823529,4,2,2,50,0,0
29053,-117.647058823529,4,2,2,5,0,0
29138,-117.647058823529,4,2,2,50,0,0
39901,-117.647058823529,4,2,2,5,0,0
39986,-117.647058823529,4,2,2,50,0,0
49138,-111.111111111111,4,2,2,55,0,0
51765,-111.111111111111,4,2,2,5,0,0
51850,-111.111111111111,4,2,2,55,0,0
54477,-111.111111111111,4,2,2,5,0,0
54562,-111.111111111111,4,2,2,55,0,0
54816,-111.111111111111,4,2,2,5,0,0
54901,-111.111111111111,4,2,2,55,0,0
56172,-111.111111111111,4,2,2,5,0,0
56257,-111.111111111111,4,2,2,55,0,0
61380,338.983050847458,4,2,2,25,1,0
61380,-133.333333333333,4,2,2,20,0,0
62727,338.983050847458,4,2,2,25,1,0
62727,-100,4,2,2,75,0,1
66710,-100,4,2,2,5,0,1
66794,-100,4,2,2,75,0,1
69421,-100,4,2,2,5,0,1
69506,-100,4,2,2,75,0,1
72133,-100,4,2,2,5,0,1
72218,-100,4,2,2,75,0,1
73235,-100,4,2,2,75,0,0
73574,-100,4,2,2,75,0,1
74845,-100,4,2,2,5,0,1
74930,-100,4,2,2,75,0,1
77557,-100,4,2,2,5,0,1
77642,-100,4,2,2,75,0,1
80269,-100,4,2,2,10,0,1
80354,-100,4,2,2,75,0,1
81697,338.983050847458,4,2,2,100,1,0
81697,-90.9090909090909,4,2,2,65,0,0
85425,-100,4,2,2,45,0,0
89324,-100,4,2,2,5,0,0

[Colours]
Combo1 : 240,240,240
Combo2 : 0,0,255
Combo3 : 255,0,0
Combo4 : 236,236,0
Combo5 : 255,128,0
Combo6 : 255,0,128

[HitObjects]
91,288,1370,6,0,P|139:279|197:300,1,94.499997116089
264,330,1709,2,0,B|284:262|245:242|263:183,1,125.999996154785
433,103,2387,2,0,B|365:83|345:122|286:104,1,125.999996154785
67,91,3065,6,0,L|88:228,1,135.000005149842
106,324,3574,1,0,0:0:0:0:
187,264,3743,2,0,P|228:271|265:266,1,67.5000025749208
351,240,4082,2,0,P|405:241|451:274,1,101.250003862381
468,289,4421,6,0,L|470:200,1,67.5000025749208
393,85,4760,2,0,L|395:164,1,67.5000025749208
384,322,5099,2,0,P|306:318|261:257,1,135.000005149842
122,51,5777,6,0,B|159:40|159:40|265:51,1,135.000005149842
356,63,6286,1,0,0:0:0:0:
430,130,6455,2,0,P|441:167|440:204,1,67.5000025749208
340,180,6794,2,0,P|332:235|359:292,1,101.250003862381
366,304,7133,6,0,L|223:325,1,135.000005149842
40,258,7811,2,0,L|181:242,1,135.000005149842
312,48,8489,6,0,B|317:101|317:101|335:126|335:126|341:191,1,135.000005149842
238,159,8998,1,0,0:0:0:0:
292,243,9167,2,0,P|328:257|367:254,1,67.5000025749208
405,181,9506,2,0,P|367:173|328:180,1,67.5000025749208
457,250,9845,6,0,P|490:196|458:113,1,135.000005149842
338,176,10354,1,0,0:0:0:0:
378,53,10523,2,0,P|342:46|290:52,1,67.5000025749208
175,71,10862,1,0,0:0:0:0:
260,124,11031,1,0,0:0:0:0:
94,19,11201,6,0,P|80:82|104:139,1,101.250003862381
109,142,11540,2,0,P|134:166|167:178,1,67.5000025749208
345,135,11879,2,0,L|324:291,1,135.000005149842
246,344,12387,1,0,0:0:0:0:
115,308,12557,6,0,L|183:284,1,67.5000025749208
107,170,12896,2,0,L|30:190,1,67.5000025749208
213,189,13235,2,0,L|224:115,1,67.5000025749208
157,11,13574,2,0,L|145:84,1,67.5000025749208
295,52,13913,6,0,P|335:40|382:44,1,76.5000014591217,2|0,0:0|0:0,0:0:0:0:
358,203,14252,2,0,P|390:229|410:269,1,76.5000014591217,2|0,0:0|0:0,0:0:0:0:
272,309,14591,2,0,B|205:291|190:332|110:309,1,153.000002918243,2|0,0:0|0:0,0:0:0:0:
152,160,15099,1,0,0:0:0:0:
54,275,15269,6,0,P|83:297|123:312,1,76.5000014591217,2|0,0:0|0:0,0:0:0:0:
230,109,15608,2,0,P|199:86|163:72,1,76.5000014591217,2|0,0:0|0:0,0:0:0:0:
248,200,15947,2,0,P|295:179|317:80,1,153.000002918243,2|0,0:0|0:0,0:0:0:0:
319,87,16625,6,0,P|362:73|390:50,1,76.5000014591217,2|0,0:0|0:0,0:0:0:0:
318,177,16964,2,0,P|279:180|242:205,1,76.5000014591217,2|0,0:0|0:0,0:0:0:0:
317,360,17303,2,0,B|307:256|307:256|347:284,1,153.000002918243,2|0,0:0|0:0,0:0:0:0:
346,283,17811,1,0,0:0:0:0:
194,278,17981,6,0,P|164:248|155:203,1,76.5000014591217,2|0,0:0|0:0,0:0:0:0:
102,31,18320,2,0,P|132:61|141:106,1,76.5000014591217,2|0,0:0|0:0,0:0:0:0:
25,264,18659,2,0,P|71:217|164:221,1,153.000002918243,2|0,0:0|0:0,0:0:0:0:
450,348,19337,6,0,L|425:259,1,80.9999975280763,12|0,0:0|0:0,0:0:0:0:
362,77,19676,5,8,0:0:0:0:
154,215,19845,1,0,0:0:0:0:
428,270,20015,5,8,0:0:0:0:
196,42,20184,1,0,0:0:0:0:
269,356,20354,5,8,0:0:0:0:
379,50,20523,1,0,0:0:0:0:
125,213,20681,5,8,0:0:0:0:
125,213,22020,5,12,0:0:0:0:
342,97,22189,1,0,0:0:0:0:
367,334,22358,1,0,0:0:0:0:
135,244,22528,5,8,0:0:0:0:
317,77,22697,1,0,0:0:0:0:
396,312,22867,1,0,0:0:0:0:
151,275,23036,5,8,0:0:0:0:
285,66,23206,1,0,0:0:0:0:
410,278,23375,1,0,0:0:0:0:
163,307,23545,5,8,0:0:0:0:
254,77,23714,1,0,0:0:0:0:
431,250,23884,1,0,0:0:0:0:
143,129,24053,2,0,P|133:77|151:16,1,99.0000030212403,8|0,0:0|0:0,0:0:0:0:
367,32,24392,2,0,P|377:80|367:128,1,99.0000030212403,8|0,0:0|0:0,0:0:0:0:
274,322,24731,5,12,0:0:0:0:
96,222,24901,1,0,0:0:0:0:
361,158,25070,1,0,0:0:0:0:
153,330,25240,5,8,0:0:0:0:
198,69,25409,1,0,0:0:0:0:
384,276,25579,1,0,0:0:0:0:
96,222,25748,5,8,0:0:0:0:
314,50,25918,1,0,0:0:0:0:
274,322,26087,1,0,0:0:0:0:
82,103,26257,5,8,0:0:0:0:
414,180,26426,1,0,0:0:0:0:
153,330,26596,1,0,0:0:0:0:
249,31,26765,5,8,0:0:0:0:
390,325,26935,1,0,0:0:0:0:
63,232,27104,5,8,0:0:0:0:
414,180,27274,2,0,L|352:168,1,49.5000015106202
254,140,27443,6,0,B|228:183|228:183|246:290,1,153.000002918243,6|0,0:0|0:0,0:0:0:0:
332,249,27952,1,0,0:0:0:0:
153,330,28121,2,0,L|141:244,1,76.5000014591217
47,157,28460,2,0,L|64:239,1,76.5000014591217
131,129,28799,6,0,B|171:142|171:142|264:122,1,114.750002188683,2|0,0:0|0:0,0:0:0:0:
274,114,29138,2,0,P|313:107|362:123,1,76.5000014591217
474,202,29477,2,0,P|438:211|385:195,1,76.5000014591217
437,119,29816,2,0,P|478:113|530:127,1,76.5000014591217
434,291,30155,6,0,P|372:331|286:295,1,153.000002918243,2|0,0:0|0:0,0:0:0:0:
240,184,30664,1,0,0:0:0:0:
115,271,30833,2,0,L|196:267,1,76.5000014591217
62,184,31172,1,0,0:0:0:0:
44,336,31342,1,0,0:0:0:0:
254,336,31511,6,0,P|278:304|281:255,1,76.5000014591217,2|0,0:0|0:0,0:0:0:0:
255,102,31850,1,0,0:0:0:0:
191,267,32020,1,0,0:0:0:0:
348,207,32189,1,0,0:0:0:0:
165,148,32358,1,0,0:0:0:0:
329,52,32528,2,0,P|338:102|326:151,1,76.5000014591217
127,54,32867,6,0,P|202:50|258:110,1,153.000002918243,2|0,0:0|0:0,0:0:0:0:
273,238,33375,1,0,0:0:0:0:
384,318,33545,2,0,P|423:323|476:305,1,76.5000014591217
442,177,33884,2,0,P|403:172|350:190,1,76.5000014591217
247,330,34223,6,0,L|90:321,1,153.000002918243,2|0,0:0|0:0,0:0:0:0:
47,174,34731,1,0,0:0:0:0:
198,153,34901,2,0,P|199:196|178:241,1,76.5000014591217
94,321,35240,2,0,P|90:278|103:239,1,76.5000014591217
171,63,35579,6,0,P|240:65|297:128,1,153.000002918243,2|0,0:0|0:0,0:0:0:0:
321,275,36087,1,0,0:0:0:0:
198,153,36257,1,0,0:0:0:0:
197,306,36426,1,0,0:0:0:0:
295,122,36596,2,0,P|335:118|390:142,1,76.5000014591217
466,332,36935,6,0,P|474:259|465:179,1,153.000002918243,2|0,0:0|0:0,0:0:0:0:
407,46,37443,1,0,0:0:0:0:
321,202,37613,2,0,P|314:239|314:277,1,76.5000014591217
465,180,37952,1,0,0:0:0:0:
428,328,38121,1,0,0:0:0:0:
397,136,38291,6,0,B|352:110|352:110|233:123,1,153.000002918243,2|0,0:0|0:0,0:0:0:0:
100,147,38799,1,0,0:0:0:0:
180,277,38969,2,0,P|187:221|182:186,1,76.5000014591217
100,71,39308,2,0,P|95:114|105:165,1,76.5000014591217
269,234,39647,6,0,P|267:289|229:359,1,114.750002188683,2|0,0:0|0:0,0:0:0:0:
213,368,39986,5,0,0:0:0:0:
185,201,40155,1,0,0:0:0:0:
81,314,40325,5,0,0:0:0:0:
99,146,40494,1,0,0:0:0:0:
167,291,40664,5,0,0:0:0:0:
203,111,40833,1,0,0:0:0:0:
25,82,41003,6,0,B|6:129|6:129|32:241,1,153.000002918243,2|0,0:0|0:0,0:0:0:0:
185,201,41511,1,0,0:0:0:0:
61,316,41681,1,0,0:0:0:0:
99,146,41850,1,0,0:0:0:0:
167,291,42020,2,0,P|197:295|253:265,1,76.5000014591217
349,222,42358,6,0,P|437:218|496:273,1,153.000002918243,2|0,0:0|0:0,0:0:0:0:
402,310,42867,1,0,0:0:0:0:
448,118,43036,1,0,0:0:0:0:
263,196,43206,2,0,P|259:233|277:277,1,76.5000014591217
443,219,43545,1,0,0:0:0:0:
349,66,43714,6,0,L|185:84,1,153.000002918243,2|0,0:0|0:0,0:0:0:0:
120,217,44223,1,0,0:0:0:0:
6,100,44392,2,0,P|4:64|21:19,1,76.5000014591217
203,44,44731,1,0,0:0:0:0:
32,200,44901,1,0,0:0:0:0:
89,77,45070,6,0,B|118:105|118:105|121:220,1,153.000002918243,2|0,0:0|0:0,0:0:0:0:
16,360,45579,1,0,0:0:0:0:
32,200,45748,1,0,0:0:0:0:
151,325,45918,1,0,0:0:0:0:
121,161,46087,1,0,0:0:0:0:
257,244,46257,1,0,0:0:0:0:
236,86,46426,6,0,P|161:96|119:169,1,153.000002918243,2|0,0:0|0:0,0:0:0:0:
123,321,46935,1,0,0:0:0:0:
274,270,47104,1,0,0:0:0:0:
209,167,47274,1,0,0:0:0:0:
182,248,47443,1,0,0:0:0:0:
312,168,47613,1,0,0:0:0:0:
348,329,47782,6,0,B|308:356|308:356|186:358,1,153.000002918243,2|0,0:0|0:0,0:0:0:0:
98,237,48291,1,0,0:0:0:0:
227,182,48460,2,0,P|254:217|261:262,1,76.5000014591217
135,135,48799,2,0,P|108:100|101:55,1,76.5000014591217
239,37,49138,6,0,L|405:57,1,161.999995056153,6|0,0:0|0:0,0:0:0:0:
485,144,49647,1,0,0:0:0:0:
371,127,49816,2,0,P|374:89|404:53,1,80.9999975280763
485,144,50155,2,0,P|486:189|467:222,1,80.9999975280763
369,251,50494,6,0,P|336:282|218:295,1,161.999995056153,2|0,0:0|0:0,0:0:0:0:
99,219,51003,1,0,0:0:0:0:
170,354,51172,2,0,P|202:333|226:291,1,80.9999975280763
223,135,51511,2,0,B|195:114|195:114|103:127,1,121.499996292114,2|0,0:0|0:0,0:0:0:0:
20,168,51850,6,0,B|5:219|5:219|36:336,1,161.999995056153,2|0,0:0|0:0,0:0:0:0:
224,297,52358,1,0,0:0:0:0:
100,227,52528,2,0,L|116:306,1,80.9999975280763
215,174,52867,2,0,L|206:87,1,80.9999975280763
54,79,53206,6,0,P|121:108|208:92,1,161.999995056153,2|0,0:0|0:0,0:0:0:0:
336,24,53714,1,0,0:0:0:0:
364,166,53884,2,0,L|362:254,1,80.9999975280763
234,347,54223,2,0,L|369:350,1,121.499996292114,2|0,0:0|0:0,0:0:0:0:
452,326,54562,6,0,B|476:293|476:293|481:178,1,121.499996292114,2|0,0:0|0:0,0:0:0:0:
468,173,54901,1,0,0:0:0:0:
360,273,55070,1,0,0:0:0:0:
346,86,55240,2,0,L|365:170,1,80.9999975280763
228,254,55579,1,0,0:0:0:0:
221,91,55748,1,0,0:0:0:0:
39,178,55918,6,0,P|96:186|142:237,1,121.499996292114,2|0,0:0|0:0,0:0:0:0:
54,342,56257,2,0,P|48:299|57:258,1,80.9999975280763
229,174,56596,2,0,P|235:217|226:258,1,80.9999975280763
405,351,56935,2,0,P|359:349|316:323,1,80.9999975280763
390,112,57274,6,0,B|405:153|405:153|386:274,1,161.999995056153,6|0,0:0|0:0,0:0:0:0:
227,253,57782,1,0,0:0:0:0:
265,47,57952,2,0,B|283:84|283:84|290:140,1,80.9999975280763
105,66,58291,2,0,B|96:101|96:101|106:156,1,80.9999975280763
174,323,58630,6,0,P|253:333|316:272,2,161.999995056153,2|0|0,0:0|0:0|0:0,0:0:0:0:
197,145,59477,1,0,0:0:0:0:
42,263,59647,2,0,P|62:228|98:205,1,80.9999975280763
289,194,59986,6,0,P|293:110|233:44,1,161.999995056153,6|0,0:0|0:0,0:0:0:0:
114,194,60494,1,0,0:0:0:0:
181,0,60664,2,0,P|159:25|157:73,1,80.9999975280763
289,194,61003,1,0,0:0:0:0:
451,41,61380,6,0,B|450:82|450:82|463:99|463:99|469:149|465:182|449:248|449:248|430:183|424:148|423:122|431:94,1,337.500012874604,6|0,0:0|0:0,0:0:0:0:
358,51,62396,1,2,0:0:0:0:
169,124,62727,6,0,L|134:316,1,180,4|8,0:0|0:0,0:0:0:0:
343,181,63235,1,0,0:0:0:0:
201,34,63404,2,0,L|97:46,1,90
65,228,63743,2,0,L|159:214,1,90,8|0,0:0|0:0,0:0:0:0:
427,208,64082,6,0,P|425:158|398:108,1,90
260,279,64421,2,0,P|260:323|278:364,1,90,8|0,0:0|0:0,0:0:0:0:
303,164,64760,2,0,P|256:156|195:176,1,90
26,226,65099,2,0,P|73:234|134:214,1,90,8|0,0:0|0:0,0:0:0:0:
74,30,65438,6,0,P|50:122|96:119,1,180,0|8,0:0|0:0,0:0:0:0:
252,32,65947,1,0,0:0:0:0:
214,210,66116,2,0,P|214:160|203:116,1,90
70,247,66455,2,0,P|66:295|83:386,1,135,8|0,0:0|0:0,0:0:0:0:
123,364,66794,6,0,P|164:347|212:346,1,90
424,366,67133,1,8,0:0:0:0:
396,151,67303,1,0,0:0:0:0:
213,239,67472,2,0,P|257:243|309:229,1,90
235,45,67811,2,0,P|188:45|145:57,1,90,8|0,0:0|0:0,0:0:0:0:
123,245,68150,6,0,B|207:218|230:268|321:224,1,180,0|8,0:0|0:0,0:0:0:0:
408,86,68659,1,0,0:0:0:0:
504,237,68828,2,0,L|489:327,1,90
332,349,69167,2,0,P|276:333|187:350,1,135,8|0,0:0|0:0,0:0:0:0:
161,324,69506,6,0,P|116:331|61:312,1,90
129,128,69845,2,0,P|113:170|121:226,1,90,8|0,0:0|0:0,0:0:0:0:
329,277,70184,1,0,0:0:0:0:
331,67,70354,1,0,0:0:0:0:
200,182,70523,1,8,0:0:0:0:
210,19,70693,1,0,0:0:0:0:
361,177,70862,6,0,P|409:181|473:169,1,90
307,285,71201,2,0,P|258:280|195:293,1,90,8|0,0:0|0:0,0:0:0:0:
43,334,71540,1,0,0:0:0:0:
29,153,71710,1,0,0:0:0:0:
200,182,71879,2,0,P|230:120|219:44,1,135,8|0,0:0|0:0,0:0:0:0:
210,19,72218,6,0,L|108:32,1,90
35,249,72557,2,0,L|125:236,1,90,8|0,0:0|0:0,0:0:0:0:
319,106,72896,2,0,L|219:119,1,90
178,337,73235,2,0,L|277:320,1,90,8|0,0:0|0:0,0:0:0:0:
433,229,73574,6,0,B|430:162|430:162|445:118|445:118|435:53,1,180,4|8,0:0|0:0,0:0:0:0:
255,30,74082,1,0,0:0:0:0:
224,207,74252,2,0,P|270:209|324:193,1,90
142,136,74591,2,0,P|112:182|116:262,1,135,8|0,0:0|0:0,0:0:0:0:
143,294,74930,6,0,P|177:322|230:333,1,90
398,186,75269,2,0,P|351:183|309:199,1,90,8|0,0:0|0:0,0:0:0:0:
487,301,75608,1,0,0:0:0:0:
249,332,75777,1,0,0:0:0:0:
368,269,75947,2,0,P|384:316|381:364,1,90,8|0,0:0|0:0,0:0:0:0:
232,168,76286,6,0,P|298:113|405:109,2,180,0|8|0,0:0|0:0|0:0,0:0:0:0:
155,331,77133,1,0,0:0:0:0:
27,203,77303,2,0,B|13:162|13:162|41:57,1,135,8|0,0:0|0:0,0:0:0:0:
64,37,77642,6,0,P|125:33|166:41,1,90
321,168,77981,2,0,P|260:172|219:164,1,90,8|0,0:0|0:0,0:0:0:0:
415,34,78320,1,0,0:0:0:0:
430,178,78489,1,0,0:0:0:0:
280,81,78659,1,8,0:0:0:0:
264,257,78828,1,0,0:0:0:0:
125,40,78998,6,0,B|99:92|99:92|119:224,1,180,4|8,0:0|0:0,0:0:0:0:
293,251,79506,1,0,0:0:0:0:
176,370,79676,2,0,P|163:325|174:281,1,90
336,328,80015,2,0,P|379:280|365:195,1,135,8|0,0:0|0:0,0:0:0:0:
347,177,80354,6,0,P|303:161|252:168,1,90,2|0,0:0|0:0,0:0:0:0:
118,213,80693,1,8,0:0:0:0:
171,48,80862,2,0,P|159:94|168:147,1,90
189,264,81201,1,0,0:0:0:0:
312,86,81371,1,8,0:0:0:0:
380,286,81540,1,0,0:0:0:0:
164,135,81697,5,6,0:0:0:0:
424,145,81866,1,0,0:0:0:0:
285,343,82035,1,0,0:0:0:0:
312,52,82205,5,8,0:0:0:0:
410,305,82374,1,0,0:0:0:0:
176,285,82544,1,0,0:0:0:0:
441,114,82713,5,8,0:0:0:0:
153,110,82883,1,0,0:0:0:0:
285,343,83052,1,0,0:0:0:0:
312,52,83222,5,8,0:0:0:0:
419,327,83391,1,0,0:0:0:0:
152,312,83561,1,0,0:0:0:0:
217,15,83730,5,8,0:0:0:0:
387,222,83900,1,0,0:0:0:0:
404,21,84069,5,8,0:0:0:0:
236,252,84239,1,0,0:0:0:0:
442,291,84408,6,0,P|466:253|467:199,1,99.0000030212403,4|0,0:0|0:0,0:0:0:0:
296,145,84747,1,0,0:0:0:0:
216,332,84917,6,0,P|174:308|153:250,1,99.0000030212403,4|0,0:0|0:0,0:0:0:0:
286,122,85256,1,0,0:0:0:0:
347,354,85425,5,4,0:0:0:0:
256,192,85595,12,0,89324,0:0:0:0:
