osu file format v14

[General]
AudioFilename: audio.mp3
AudioLeadIn: 0
PreviewTime: 61364
Countdown: 0
SampleSet: Soft
StackLeniency: 0.7
Mode: 0
LetterboxInBreaks: 0
WidescreenStoryboard: 0

[Editor]
DistanceSpacing: 1
BeatDivisor: 4
GridSize: 16
TimelineZoom: 2.4

[Metadata]
Title:Kibou no Uta
TitleUnicode:希望の唄
Artist:Ultra Tower
ArtistUnicode:ウルトラタワー
Creator:ImAplayerMapper
Version:Normal
Source:食戟のソーマ
Tags:Shokugeki no Souma
BeatmapID:1534322
BeatmapSetID:726686

[Difficulty]
HPDrainRate:3.4
CircleSize:3.3
OverallDifficulty:4
ApproachRate:5
SliderMultiplier:1.2
SliderTickRate:1

[Events]
//Background and Video events
0,0,"Kibou no uta wp.jpg",0,0
//Break Periods
//Storyboard Layer 0 (Background)
//Storyboard Layer 1 (Fail)
//Storyboard Layer 2 (Pass)
//Storyboard Layer 3 (Foreground)
//Storyboard Sound Samples

[TimingPoints]
354,338.983050847458,4,2,0,25,1,0
3065,-100,4,2,2,25,0,0
13913,-100,4,2,2,45,0,0
20681,338.983050847458,4,2,0,25,1,0
22020,338.983050847458,4,2,0,25,1,0
22020,-100,4,2,2,65,0,0
49138,-100,4,2,2,50,0,0
49151,-100,4,2,2,55,0,0
61380,338.983050847458,4,2,0,25,1,0
61380,-100,4,2,2,25,0,0
62727,338.983050847458,4,2,0,25,1,0
62727,-100,4,2,2,75,0,1
73574,-100,4,2,2,75,0,1
81697,338.983050847458,4,2,2,100,1,0
81697,-100,4,2,2,65,0,0
89324,-100,4,2,2,5,0,0

[Colours]
Combo1 : 240,240,240
Combo2 : 0,0,255
Combo3 : 255,0,0
Combo4 : 236,236,0
Combo5 : 255,128,0
Combo6 : 255,0,128

[HitObjects]
22,144,1370,5,0,0:0:0:0:
99,52,1709,2,0,P|162:40|227:52,1,120
327,94,2387,2,0,P|385:104|455:86,1,120
491,201,3065,6,0,B|462:327|462:327|331:345,1,240
232,349,4082,1,0,0:0:0:0:
118,310,4421,2,0,P|132:246|114:188,1,120
20,124,5099,2,0,P|67:84|145:79,1,120
242,95,5777,6,0,P|359:110|456:34,1,240
499,151,6794,1,0,0:0:0:0:
406,227,7133,2,0,P|421:282|415:356,1,120
298,359,7811,2,0,P|333:295|254:241,1,180
200,249,8489,6,0,P|154:250|152:87,1,240
230,35,9506,1,0,0:0:0:0:
338,85,9845,2,0,P|399:104|477:88,2,120
239,153,10862,1,0,0:0:0:0:
335,223,11201,6,0,P|351:271|338:344,1,120
225,373,11879,2,0,P|209:325|222:252,1,120
205,138,12557,2,0,P|152:160|107:231,2,120
318,127,13574,1,0,0:0:0:0:
398,215,13913,6,0,L|390:352,1,120,2|0,0:0|0:0,0:0:0:0:
274,364,14591,2,0,L|146:357,1,120,2|0,0:0|0:0,0:0:0:0:
52,292,15269,2,0,L|66:167,2,120,2|0|2,0:0|0:0|0:0,0:0:0:0:
166,254,16286,1,0,0:0:0:0:
285,249,16625,6,0,B|346:229|346:229|392:172,1,120,2|0,0:0|0:0,0:0:0:0:
317,83,17303,2,0,B|256:103|256:103|210:160,1,120,2|0,0:0|0:0,0:0:0:0:
166,254,17981,2,0,L|205:370,2,120,2|0|2,0:0|0:0|0:0,0:0:0:0:
59,197,18998,1,0,0:0:0:0:
119,93,19337,6,0,B|221:46|221:46|367:46|367:46|459:92,1,360,4|0,0:0|0:0,0:0:0:0:
496,201,20681,1,8,0:0:0:0:
45,52,22020,6,0,L|54:188,1,120,12|0,0:0|0:0,0:0:0:0:
88,219,22528,2,0,L|219:206,1,120,8|0,0:0|0:0,0:0:0:0:
247,162,23036,2,0,L|236:39,1,120,8|0,0:0|0:0,0:0:0:0:
292,20,23545,2,0,L|421:60,1,120,8|0,0:0|0:0,0:0:0:0:
446,100,24053,2,0,L|456:230,1,120,8|0,0:0|0:0,0:0:0:0:
380,313,24731,6,0,P|318:303|255:318,1,120,12|0,0:0|0:0,0:0:0:0:
202,316,25240,2,0,P|194:257|200:186,1,120,8|0,0:0|0:0,0:0:0:0:
247,162,25748,2,0,P|305:172|364:160,1,120,8|0,0:0|0:0,0:0:0:0:
422,142,26257,2,0,P|427:80|410:19,1,120,8|0,0:0|0:0,0:0:0:0:
354,9,26765,2,0,P|297:3|216:16,1,120,8|0,0:0|0:0,0:0:0:0:
138,77,27443,6,0,L|124:196,1,120,6|0,0:0|0:0,0:0:0:0:
56,294,28121,2,0,P|107:313|184:298,1,120
280,255,28799,2,0,P|341:242|406:256,2,120
176,193,29816,1,0,0:0:0:0:
283,135,30155,6,0,L|279:254,1,120,2|0,0:0|0:0,0:0:0:0:
334,361,30833,2,0,P|279:375|216:357,1,120
119,290,31511,2,0,L|158:155,2,120
38,200,32528,1,0,0:0:0:0:
71,84,32867,6,0,P|187:48|271:130,1,240,2|0,0:0|0:0,0:0:0:0:
305,234,33884,1,0,0:0:0:0:
402,304,34223,2,0,B|330:342|330:342|250:328|250:328|181:364,1,240
68,320,35240,1,0,0:0:0:0:
127,215,35579,6,0,B|103:113|125:36|125:36|183:58,1,240,2|0,0:0|0:0,0:0:0:0:
295,91,36596,1,0,0:0:0:0:
410,59,36935,2,0,B|465:38|465:38|487:115|463:217,1,240,2|0,0:0|0:0,0:0:0:0:
406,323,37952,1,0,0:0:0:0:
290,290,38291,6,0,P|243:277|168:296,1,120,2|0,0:0|0:0,0:0:0:0:
60,329,38969,2,0,P|33:278|45:200,1,120
136,150,39647,2,0,P|93:107|33:98,2,120,2|0|0,0:0|0:0|0:0,0:0:0:0:
189,257,40664,1,0,0:0:0:0:
225,142,41003,6,0,P|257:95|325:81,2,120
327,205,42020,1,0,0:0:0:0:
420,129,42358,2,0,P|435:68|409:8,1,120
315,79,43036,2,0,L|186:68,1,120
83,113,43714,6,0,B|74:188|74:188|106:239|106:239|98:344,1,240
205,286,44731,1,0,0:0:0:0:
282,377,45070,2,0,P|323:278|248:176,1,240,2|0,0:0|0:0,0:0:0:0:
137,139,46087,1,0,0:0:0:0:
232,66,46426,2,0,P|347:94|428:183,1,240,2|0,0:0|0:0,0:0:0:0:
435,301,47443,1,0,0:0:0:0:
329,358,47782,6,0,L|208:354,1,120,2|0,0:0|0:0,0:0:0:0:
98,307,48460,2,0,L|83:171,1,120
140,81,49138,6,0,P|194:45|308:68,2,180,2|0|2,0:0|0:0|0:0,0:0:0:0:
164,198,50494,2,0,P|248:221|326:180,2,180,2|0|2,0:0|0:0|0:0,0:0:0:0:
55,145,51850,2,0,L|49:330,2,180,2|0|2,0:0|0:0|0:0,0:0:0:0:
164,198,53206,2,0,L|170:13,2,180,2|0|2,0:0|0:0|0:0,0:0:0:0:
227,300,54562,6,0,B|390:300|390:300|436:228,1,240,2|0,0:0|0:0,0:0:0:0:
416,115,55579,1,2,0:0:0:0:
317,46,55918,2,0,P|257:35|194:50,1,120,2|0,0:0|0:0,0:0:0:0:
111,128,56596,2,0,L|92:250,1,120
143,355,57274,5,6,0:0:0:0:
248,297,57613,1,0,0:0:0:0:
357,346,57952,2,0,L|387:223,1,120,2|0,0:0|0:0,0:0:0:0:
412,112,58630,6,0,P|359:85|288:94,2,120,2|0|2,0:0|0:0|0:0,0:0:0:0:
502,191,59647,1,0,0:0:0:0:
385,229,59986,2,0,P|325:232|273:205,1,120,6|0,0:0|0:0,0:0:0:0:
170,142,60664,2,0,L|184:270,1,120
115,366,61342,5,12,0:0:0:0:
255,34,62396,1,8,0:0:0:0:
352,104,62727,6,0,L|348:233,1,120,4|8,0:0|0:0,0:0:0:0:
280,323,63404,2,0,P|221:338|160:319,1,120,0|8,0:0|0:0,0:0:0:0:
87,230,64082,2,0,L|92:104,2,120,0|8|0,0:0|0:0|0:0,0:0:0:0:
203,200,65099,1,8,0:0:0:0:
281,109,65438,6,0,P|325:82|407:86,1,120,0|8,0:0|0:0,0:0:0:0:
492,147,66116,2,0,L|486:269,1,120,0|8,0:0|0:0,0:0:0:0:
403,354,66794,2,0,P|356:369|268:350,2,120,0|8|0,0:0|0:0|0:0,0:0:0:0:
371,237,67811,1,8,0:0:0:0:
252,258,68150,6,0,P|205:280|173:342,1,120,0|8,0:0|0:0,0:0:0:0:
59,299,68828,2,0,P|99:268|117:197,1,120,0|8,0:0|0:0,0:0:0:0:
76,90,69506,2,0,P|128:57|200:53,1,120,0|8,0:0|0:0,0:0:0:0:
299,87,70184,1,0,0:0:0:0:
417,65,70523,1,8,0:0:0:0:
504,147,70862,6,0,L|485:273,1,120,0|8,0:0|0:0,0:0:0:0:
389,337,71540,2,0,P|350:307|264:311,1,120,0|8,0:0|0:0,0:0:0:0:
166,341,72218,2,0,L|148:214,2,120,0|8|0,0:0|0:0|0:0,0:0:0:0:
55,293,73235,1,8,0:0:0:0:
61,173,73574,6,0,P|98:130|178:122,1,120,4|8,0:0|0:0,0:0:0:0:
269,161,74252,2,0,P|319:172|388:147,1,120,0|8,0:0|0:0,0:0:0:0:
367,31,74930,2,0,P|303:21|245:42,2,120,0|8|0,0:0|0:0|0:0,0:0:0:0:
472,89,75947,1,8,0:0:0:0:
512,201,76286,6,0,L|493:322,1,120,0|8,0:0|0:0,0:0:0:0:
381,364,76964,2,0,L|248:335,1,120,0|8,0:0|0:0,0:0:0:0:
175,256,77642,2,0,P|138:308|138:366,2,120,0|8|0,0:0|0:0|0:0,0:0:0:0:
289,218,78659,1,8,0:0:0:0:
383,143,78998,6,0,P|397:81|365:18,1,120,4|8,0:0|0:0,0:0:0:0:
271,88,79676,2,0,L|142:78,1,120,0|8,0:0|0:0,0:0:0:0:
31,74,80354,2,0,L|20:204,1,120,0|8,0:0|0:0,0:0:0:0:
38,251,80862,2,0,P|87:276|152:266,1,120
193,226,81371,1,8,0:0:0:0:
279,145,81697,6,0,P|337:129|399:150,1,120,12|0,0:0|0:0,0:0:0:0:
434,189,82205,2,0,L|434:314,1,120,8|0,0:0|0:0,0:0:0:0:
398,357,82713,2,0,P|340:373|278:352,1,120,8|0,0:0|0:0,0:0:0:0:
236,319,83222,2,0,P|179:302|122:318,1,120,8|0,0:0|0:0,0:0:0:0:
67,342,83730,2,0,L|76:214,1,120,8|0,0:0|0:0,0:0:0:0:
87,102,84408,6,0,B|144:84|144:84|207:100,1,120,4|0,0:0|0:0,0:0:0:0:
261,112,84917,2,0,B|319:126|319:126|376:108,1,120,8|0,0:0|0:0,0:0:0:0:
428,78,85425,1,12,0:0:0:0:
256,192,85764,12,0,89324,0:0:0:0:
