osu file format v14

[General]
AudioFilename: audio.mp3
AudioLeadIn: 0
PreviewTime: 61364
Countdown: 0
SampleSet: Soft
StackLeniency: 0.7
Mode: 0
LetterboxInBreaks: 0
WidescreenStoryboard: 0

[Editor]
DistanceSpacing: 1
BeatDivisor: 4
GridSize: 8
TimelineZoom: 2.4

[Metadata]
Title:Kibou no Uta
TitleUnicode:希望の唄
Artist:Ultra Tower
ArtistUnicode:ウルトラタワー
Creator:ImAplayerMapper
Version:Easy
Source:食戟のソーマ
Tags:Shokugeki no Souma
BeatmapID:1534319
BeatmapSetID:726686

[Difficulty]
HPDrainRate:2
CircleSize:2.2
OverallDifficulty:2
ApproachRate:3
SliderMultiplier:1
SliderTickRate:1

[Events]
//Background and Video events
0,0,"Kibou no uta wp.jpg",0,0
//Break Periods
//Storyboard Layer 0 (Background)
//Storyboard Layer 1 (Fail)
//Storyboard Layer 2 (Pass)
//Storyboard Layer 3 (Foreground)
//Storyboard Sound Samples

[TimingPoints]
354,338.983050847458,4,2,0,25,1,0
3065,-100,4,2,2,25,0,0
13913,-100,4,2,2,55,0,0
20681,338.983050847458,4,2,0,25,1,0
22020,338.983050847458,4,2,0,25,1,0
22020,-100,4,2,2,65,0,0
49138,-100,4,2,2,50,0,0
49151,-100,4,2,2,55,0,0
61380,338.983050847458,4,2,0,25,1,0
61380,-100,4,2,2,25,0,0
62727,338.983050847458,4,2,0,25,1,0
62727,-100,4,2,2,75,0,1
73575,-100,4,2,2,75,0,1
81697,338.983050847458,4,2,2,100,1,0
81697,-100,4,2,2,65,0,0
85425,-100,4,2,2,45,0,0
89324,-100,4,2,2,5,0,0

[Colours]
Combo1 : 240,240,240
Combo2 : 0,0,255
Combo3 : 255,0,0
Combo4 : 236,236,0
Combo5 : 255,128,0
Combo6 : 255,0,128

[HitObjects]
324,342,3065,6,0,P|449:288|420:131,1,300,0|0,2:2|2:2,2:2:0:0:
367,70,4421,2,0,B|262:36|127:53|127:53|66:92,1,300,0|0,2:2|2:2,2:2:0:0:
27,170,5777,2,0,B|27:329|27:329|173:297,1,300,0|0,2:2|2:2,2:2:0:0:
263,280,7133,2,0,B|299:184|228:185|258:68,1,200,0|0,2:2|2:2,2:2:0:0:
448,35,8489,6,0,B|412:131|483:130|453:247,1,200,0|0,2:2|2:2,2:2:0:0:
414,321,9506,1,0,2:2:0:0:
321,282,9845,2,0,P|225:263|131:298,1,200,0|0,2:2|2:2,2:2:0:0:
46,351,10862,1,0,2:2:0:0:
29,252,11201,2,0,B|23:173|23:39|23:39|116:49,1,300,0|0,2:2|2:2,2:2:0:0:
208,63,12557,2,0,P|307:80|421:47,1,200,0|0,2:2|2:2,2:2:0:0:
502,230,13913,6,0,P|444:308|344:332,1,200,2|2,0:0|0:0,0:0:0:0:
247,331,14930,1,0,0:0:0:0:
147,318,15269,2,0,P|132:269|161:111,1,200,2|2,0:0|0:0,0:0:0:0:
330,30,16625,2,0,P|345:79|316:237,1,200,2|2,0:0|0:0,0:0:0:0:
234,270,17642,1,0,0:0:0:0:
179,186,17981,2,0,P|85:159|0:214,1,200,2|2,0:0|0:0,0:0:0:0:
145,350,19337,2,0,B|249:366|249:366|319:329|319:329|448:346,1,300,4|0,0:0|0:0,0:0:0:0:
474,252,20681,1,8,0:0:0:0:
126,72,22020,6,0,P|82:160|152:344,2,300,4|8|8,0:0|0:0|0:0,0:0:0:0:
325,63,24731,2,0,P|392:192|345:330,2,300,4|8|8,0:0|0:0|0:0,0:0:0:0:
171,191,27443,6,0,P|93:238|92:344,1,200,6|0,0:0|0:0,0:0:0:0:
178,292,28460,1,0,0:0:0:0:
269,331,28799,2,0,P|356:348|439:277,1,200,2|0,0:0|0:0,0:0:0:0:
451,182,29816,1,0,0:0:0:0:
406,92,30155,2,0,B|359:61|359:61|216:51,1,200,2|0,0:0|0:0,0:0:0:0:
115,60,31172,1,0,0:0:0:0:
43,129,31511,2,0,B|41:281|41:281|90:323|90:323|191:317,1,300,2|0,0:0|0:0,0:0:0:0:
270,291,32867,6,0,P|345:273|238:191,1,300,2|0,0:0|0:0,0:0:0:0:
154,135,34223,2,0,P|219:86|426:124,1,300,2|0,0:0|0:0,0:0:0:0:
447,216,35579,2,0,L|146:233,1,300
60,283,36935,2,0,B|108:326|108:326|348:314,1,300,2|0,0:0|0:0,0:0:0:0:
427,259,38291,6,0,P|441:162|393:66,1,200
313,18,39308,1,0,0:0:0:0:
280,112,39647,2,0,B|236:146|236:146|83:158,1,200,2|0,0:0|0:0,0:0:0:0:
3,111,40664,1,0,0:0:0:0:
11,210,41003,2,0,B|47:251|47:251|203:240,1,200,2|0,0:0|0:0,0:0:0:0:
289,215,42020,1,0,0:0:0:0:
387,233,42358,2,0,P|447:261|381:356,1,200,2|0,0:0|0:0,0:0:0:0:
207,294,43714,6,0,P|175:213|239:109,1,200,2|0,0:0|0:0,0:0:0:0:
308,64,44731,1,0,0:0:0:0:
399,105,45070,2,0,P|442:138|377:337,1,300
281,344,46426,2,0,B|134:334|134:334|49:203,1,300
21,109,47782,2,0,B|93:78|93:78|313:101,1,300
400,151,49138,6,0,L|417:314,2,150,2|0|2,0:0|0:0|0:0,0:0:0:0:
313,101,50494,2,0,L|163:85,2,150,2|0|2,0:0|0:0|0:0,0:0:0:0:
314,201,51850,6,0,B|324:280|324:280|289:362,2,150,2|0|2,0:0|0:0|0:0,0:0:0:0:
214,188,53206,2,0,B|186:252|186:252|196:331,2,150,2|0|2,0:0|0:0|0:0,0:0:0:0:
271,105,54562,6,0,B|352:51|464:87|464:87|459:186,1,300,2|0,0:0|0:0,0:0:0:0:
436,283,55918,2,0,B|408:336|408:336|297:255|182:333,1,300,2|0,0:0|0:0,0:0:0:0:
88,358,57274,6,0,P|55:211|109:68,1,300,6|2,0:0|0:0,0:0:0:0:
194,29,58630,2,0,L|499:60,1,300,2|2,0:0|0:0,0:0:0:0:
478,158,59986,2,0,L|173:127,1,300,6|2,0:0|0:0,0:0:0:0:
81,158,61342,1,12,0:0:0:0:
435,343,62727,6,0,B|455:289|455:289|442:140,1,200,4|2,0:0|0:0,0:0:0:0:
398,56,63743,1,0,0:0:0:0:
298,43,64082,2,0,P|198:44|92:92,1,200
145,278,65438,2,0,P|245:277|351:229,1,200,2|0,0:0|0:0,0:0:0:0:
375,147,66455,1,0,0:0:0:0:
311,69,66794,2,0,B|112:82|112:82|44:169,1,300,2|0,0:0|0:0,0:0:0:0:
51,261,68150,6,2,B|112:340|112:340|311:353,1,300,2|0,0:0|0:0,0:0:0:0:
402,309,69506,2,0,P|446:223|413:111,1,200,2|0,0:0|0:0,0:0:0:0:
350,58,70523,1,0,0:0:0:0:
250,52,70862,2,0,B|150:59|150:59|52:125,1,200,2|0,0:0|0:0,0:0:0:0:
15,200,71879,1,0,0:0:0:0:
50,293,72218,6,0,P|92:332|169:184,1,300,2|0,0:0|0:0,0:0:0:0:
157,89,73574,2,0,P|264:146|296:224,1,200,6|0,0:0|0:0,0:0:0:0:
294,314,74591,1,0,0:0:0:0:
378,260,74930,2,0,P|384:179|320:69,1,200,2|0,0:0|0:0,0:0:0:0:
129,94,76286,2,0,L|94:296,1,200
159,367,77303,1,0,0:0:0:0:
251,329,77642,2,0,B|315:358|315:358|421:342|421:342|466:206,1,300
468,125,78998,6,0,P|361:38|205:71,1,300,6|0,0:0|0:0,0:0:0:0:
125,118,80354,2,0,B|152:216|152:216|97:287|139:361|227:338,1,300
311,302,81697,6,0,B|425:213|425:213|426:55,2,300,4|8|8,0:0|0:0|0:0,0:0:0:0:
220,339,84069,1,0,0:0:0:0:
131,292,84408,2,0,P|112:195|144:91,1,200,10|0,0:0|0:0,0:0:0:0:
188,12,85425,1,12,0:0:0:0:
256,192,85764,12,0,89324,0:0:0:0:
