osu file format v14

[General]
AudioFilename: audio.mp3
AudioLeadIn: 0
PreviewTime: 43808
Countdown: 1
SampleSet: None
StackLeniency: 0.7
Mode: 0
LetterboxInBreaks: 0
WidescreenStoryboard: 0

[Editor]
Bookmarks: 19519,28087,36656,57540
DistanceSpacing: 0.8
BeatDivisor: 4
GridSize: 8
TimelineZoom: 1.9

[Metadata]
Title:Chase
TitleUnicode:Сhase
Artist:UkrTrashDub 2.0
ArtistUnicode:UkrTrashDub 2.0
Creator:Dizick
Version:chase you
Source:
Tags:
BeatmapID:1765805
BeatmapSetID:844078

[Difficulty]
HPDrainRate:5
CircleSize:4
OverallDifficulty:9.3
ApproachRate:9.6
SliderMultiplier:1.8
SliderTickRate:1

[Events]
//Background and Video events
0,0,"y30qTdi.jpg",0,0
//Break Periods
//Storyboard Layer 0 (Background)
//Storyboard Layer 1 (Fail)
//Storyboard Layer 2 (Pass)
//Storyboard Layer 3 (Foreground)
//Storyboard Sound Samples

[TimingPoints]
2399,263.157894736842,4,2,0,100,1,0
4756,270.27027027027,4,2,0,100,1,0
6367,270.27027027027,4,2,0,100,1,0
7871,267.761513745091,4,2,0,100,1,0
45357,-100,4,2,0,100,0,1
60537,-100,4,2,0,100,0,0

[HitObjects]
48,32,2398,6,0,L|136:64,1,90,0|0,0:0|0:0,0:0:0:0:
176,248,2662,2,0,L|264:216,1,90,0|0,0:0|0:0,0:0:0:0:
440,144,2925,1,0,0:0:0:0:
248,104,3056,1,0,0:0:0:0:
400,272,3188,1,0,0:0:0:0:
176,248,3320,6,0,L|80:240,1,90,0|0,0:0|0:0,0:0:0:0:
272,336,3583,1,0,0:0:0:0:
248,104,3714,2,0,L|216:8,1,90,0|0,0:0|0:0,0:0:0:0:
48,112,3977,1,0,0:0:0:0:
232,184,4109,1,0,0:0:0:0:
0,256,4241,1,0,0:0:0:0:
184,327,4373,1,0,0:0:0:0:
304,120,4504,6,0,P|349:108|400:114,1,90,0|0,0:0|0:0,0:0:0:0:
400,344,4756,2,0,P|356:355|311:351,1,90,0|0,0:0|0:0,0:0:0:0:
480,240,5026,1,0,0:0:0:0:
280,240,5161,1,0,0:0:0:0:
280,8,5296,1,0,0:0:0:0:
136,144,5431,2,0,L|136:48,1,90,0|0,0:0|0:0,0:0:0:0:
40,248,5701,5,0,0:0:0:0:
256,160,5837,2,0,L|336:120,1,90,0|0,0:0|0:0,0:0:0:0:
496,16,6107,1,0,0:0:0:0:
480,216,6242,1,0,0:0:0:0:
256,160,6367,2,0,L|152:136,1,90,0|0,0:0|0:0,0:0:0:0:
168,368,6637,6,0,L|272:344,1,90,0|0,0:0|0:0,0:0:0:0:
488,328,6907,1,0,0:0:0:0:
488,328,7042,1,0,0:0:0:0:
296,272,7177,1,0,0:0:0:0:
480,216,7312,1,0,0:0:0:0:
256,160,7448,5,0,0:0:0:0:
440,104,7583,2,0,P|445:59|437:15,1,90,0|0,0:0|0:0,0:0:0:0:
232,16,7871,1,0,0:0:0:0:
232,248,8005,2,0,P|184:256|136:248,1,90,0|0,0:0|0:0,0:0:0:0:
80,72,8273,1,0,0:0:0:0:
256,160,8407,1,0,0:0:0:0:
40,208,8540,2,0,P|32:256|40:304,1,90,0|0,0:0|0:0,0:0:0:0:
256,360,8809,6,0,L|360:376,1,90,0|0,0:0|0:0,0:0:0:0:
345,147,9076,2,0,L|256:160,1,90,0|0,0:0|0:0,0:0:0:0:
80,72,9344,1,0,0:0:0:0:
143,250,9478,1,0,0:0:0:0:
345,147,9612,1,0,0:0:0:0:
168,152,9745,1,0,0:0:0:0:
369,256,9880,5,0,0:0:0:0:
368,56,10013,1,0,0:0:0:0:
168,152,10147,1,0,0:0:0:0:
384,152,10281,1,0,0:0:0:0:
240,288,10415,1,0,0:0:0:0:
240,96,10549,1,0,0:0:0:0:
470,175,10683,2,0,L|382:151,1,90,0|0,0:0|0:0,0:0:0:0:
434,352,10951,6,0,L|347:378,1,90,0|0,0:0|0:0,0:0:0:0:
144,280,11218,2,0,L|230:253,1,90,0|0,0:0|0:0,0:0:0:0:
432,256,11486,1,0,0:0:0:0:
256,168,11620,1,0,0:0:0:0:
432,40,11754,1,0,0:0:0:0:
240,32,11888,6,0,L|144:24,1,90,0|0,0:0|0:0,0:0:0:0:
24,192,12156,1,0,0:0:0:0:
256,168,12289,2,0,L|352:176,1,90,0|0,0:0|0:0,0:0:0:0:
480,312,12557,1,0,0:0:0:0:
280,288,12691,1,0,0:0:0:0:
456,136,12825,2,0,L|448:40,1,90,0|0,0:0|0:0,0:0:0:0:
256,168,13093,6,0,L|160:208,1,90,0|0,0:0|0:0,0:0:0:0:
396,277,13360,2,0,L|480:312,1,90,0|0,0:0|0:0,0:0:0:0:
280,288,13628,1,0,0:0:0:0:
472,224,13762,1,0,0:0:0:0:
256,168,13891,1,0,0:0:0:0:
256,368,14030,6,0,L|184:312,1,90,0|0,0:0|0:0,0:0:0:0:
32,184,14298,1,0,0:0:0:0:
256,168,14432,1,0,0:0:0:0:
80,272,14565,1,0,0:0:0:0:
168,96,14699,1,0,0:0:0:0:
256,272,14833,1,0,0:0:0:0:
32,184,14967,2,0,L|128:176,1,90,0|0,0:0|0:0,0:0:0:0:
424,152,15235,6,0,P|428:200|424:248,1,90,0|0,0:0|0:0,0:0:0:0:
256,361,15503,2,0,P|251:312|256:265,1,90,0|0,0:0|0:0,0:0:0:0:
416,384,15770,1,0,0:0:0:0:
352,200,15904,1,0,0:0:0:0:
152,304,16038,1,0,0:0:0:0:
344,312,16172,6,0,L|448:312,1,90,0|0,0:0|0:0,0:0:0:0:
264,192,16440,1,0,0:0:0:0:
464,200,16574,2,0,L|416:112,1,90,0|0,0:0|0:0,0:0:0:0:
216,80,16841,1,0,0:0:0:0:
368,200,16975,1,0,0:0:0:0:
136,200,17109,2,0,L|40:200,1,90,0|0,0:0|0:0,0:0:0:0:
224,280,17377,5,0,0:0:0:0:
40,328,17511,1,0,0:0:0:0:
112,112,17645,1,0,0:0:0:0:
136,304,17779,1,0,0:0:0:0:
340,203,17912,2,0,L|432:160,1,90,0|0,0:0|0:0,0:0:0:0:
424,360,18180,1,0,0:0:0:0:
224,280,18314,6,0,L|132:237,1,90,0|0,0:0|0:0,0:0:0:0:
16,96,18582,1,0,0:0:0:0:
240,160,18716,1,0,0:0:0:0:
16,224,18850,1,0,0:0:0:0:
16,224,18917,1,0,0:0:0:0:
16,224,18984,1,0,0:0:0:0:
184,56,19117,1,0,0:0:0:0:
142,241,19251,1,0,0:0:0:0:
310,73,19385,1,0,0:0:0:0:
310,73,19452,1,0,0:0:0:0:
310,73,19519,6,0,L|328:176,1,90,0|0,0:0|0:0,0:0:0:0:
368,352,19787,2,0,L|386:249,1,90,0|0,0:0|0:0,0:0:0:0:
416,104,20055,1,0,0:0:0:0:
488,296,20188,1,0,0:0:0:0:
256,272,20322,2,0,L|160:264,1,90,0|0,0:0|0:0,0:0:0:0:
16,136,20590,5,0,0:0:0:0:
16,304,20724,1,0,0:0:0:0:
176,184,20858,2,0,L|256:120,2,90,0|0|0,0:0|0:0|0:0,0:0:0:0:
16,304,21259,1,0,0:0:0:0:
256,272,21393,2,0,L|352:256,1,90,0|0,0:0|0:0,0:0:0:0:
472,72,21661,6,0,P|475:116|470:161,1,90,0|0,0:0|0:0,0:0:0:0:
246,127,21929,2,0,P|242:82|247:37,2,90,0|0|0,0:0|0:0|0:0,0:0:0:0:
360,280,22331,1,0,0:0:0:0:
136,240,22464,2,0,L|24:208,1,90,0|0,0:0|0:0,0:0:0:0:
160,336,22732,5,0,0:0:0:0:
160,144,22866,1,0,0:0:0:0:
360,280,23000,2,0,L|464:336,2,90,0|0|0,0:0|0:0|0:0,0:0:0:0:
160,336,23402,1,0,0:0:0:0:
288,136,23535,2,0,L|288:232,1,90,0|0,0:0|0:0,0:0:0:0:
288,24,23803,5,0,0:0:0:0:
288,24,24071,2,0,L|200:48,1,90
40,160,24339,1,0,0:0:0:0:
232,136,24473,1,0,0:0:0:0:
40,272,24606,2,0,L|126:295,1,90
312,344,24874,5,0,0:0:0:0:
240,160,25008,1,0,0:0:0:0:
448,256,25142,2,0,P|456:208|448:160,1,90
336,32,25410,1,0,0:0:0:0:
256,248,25544,1,0,0:0:0:0:
48,152,25678,2,0,P|40:200|48:248,1,90
216,336,25945,5,0,0:0:0:0:
216,144,26079,1,0,0:0:0:0:
400,288,26213,2,0,L|304:264,1,90
120,208,26481,1,0,0:0:0:0:
304,136,26615,1,0,0:0:0:0:
216,336,26749,2,0,L|216:232,1,90
216,56,27016,5,0,0:0:0:0:
40,128,27150,1,0,0:0:0:0:
304,136,27284,1,0,0:0:0:0:
52,238,27418,1,0,0:0:0:0:
52,238,27686,1,0,0:0:0:0:
304,136,27820,2,0,L|400:88,1,90
400,328,28087,6,0,P|352:336|304:328,1,90
144,176,28355,1,0,0:0:0:0:
144,176,28489,2,0,P|136:128|144:80,1,90
288,208,28757,1,0,0:0:0:0:
88,320,28891,2,0,L|-16:344,1,90
32,128,29158,6,0,L|32:32,1,90
248,104,29426,1,0,0:0:0:0:
144,176,29560,2,0,L|208:256,1,90
320,352,29828,1,0,0:0:0:0:
352,184,29962,1,0,0:0:0:0:
200,246,30096,1,0,0:0:0:0:
424,136,30229,6,0,P|430:183|424:232,1,90
192,144,30497,1,0,0:0:0:0:
192,144,30631,2,0,P|185:96|192:48,1,90
352,184,30899,1,0,0:0:0:0:
200,246,31033,1,0,0:0:0:0:
352,308,31167,1,0,0:0:0:0:
360,96,31301,6,0,L|360:0,1,90
136,8,31568,2,0,L|46:8,1,90,0|0,0:0|0:0,0:0:0:0:
40,176,31836,2,0,L|40:266,1,90,0|0,0:0|0:0,0:0:0:0:
280,264,32104,2,0,L|384:264,1,90
160,264,32372,5,0,0:0:0:0:
160,264,32639,2,0,P|152:216|160:168,1,90
336,160,32907,2,0,P|341:115|333:71,1,90
104,72,33175,2,0,L|0:72,1,90
208,72,33443,5,0,0:0:0:0:
216,264,33576,1,0,0:0:0:0:
432,192,33710,2,0,P|437:236|432:288,1,90
288,144,33978,2,0,P|282:99|288:48,1,90
305,262,34246,2,0,P|260:267|215:263,1,90,0|0,0:3|0:3,0:3:0:0:
48,168,34514,6,0,P|42:123|46:78,1,90
248,80,34781,2,0,P|251:124|245:169,1,90
48,168,35049,1,0,0:0:0:0:
215,263,35183,1,0,0:0:0:0:
144,40,35317,2,0,L|144:136,1,90
144,328,35584,5,0,0:0:0:0:
328,264,35718,1,0,0:0:0:0:
96,224,35852,1,0,0:0:0:0:
328,184,35985,1,0,0:0:0:0:
360,176,36052,1,0,0:0:0:0:
392,168,36119,1,0,0:0:0:0:
144,40,36253,1,0,0:0:0:0:
248,280,36387,1,0,0:0:0:0:
352,40,36522,6,0,P|440:48|488:128,1,180
244,189,36924,2,0,P|240:233|246:278,1,90
440,224,37191,1,0,0:0:0:0:
288,96,37325,1,0,0:0:0:0:
288,352,37459,1,0,0:0:0:0:
376,96,37592,6,0,P|327:23|232:32,1,180
120,216,37994,2,0,P|116:260|122:305,1,90
312,224,38261,1,0,0:0:0:0:
144,128,38395,1,0,0:0:0:0:
288,352,38529,1,0,0:0:0:0:
288,96,38663,6,0,P|337:23|432:32,1,180
400,240,39065,2,0,P|396:284|402:329,1,90
224,240,39332,1,0,0:0:0:0:
400,152,39466,1,0,0:0:0:0:
152,72,39600,1,0,0:0:0:0:
176,320,39734,6,0,P|262:321|309:249,1,180
80,200,40136,2,0,L|64:112,1,90
256,80,40404,1,0,0:0:0:0:
192,256,40537,1,0,0:0:0:0:
448,208,40671,1,0,0:0:0:0:
192,144,40805,6,0,P|174:59|236:0,1,180
296,248,41207,2,0,L|320:344,1,90
392,144,41475,1,0,0:0:0:0:
192,144,41608,1,0,0:0:0:0:
424,272,41742,1,0,0:0:0:0:
168,272,41876,6,0,B|85:233|129:187|40:144,1,180
48,368,42278,2,0,P|96:376|152:368,1,90
344,352,42546,1,0,0:0:0:0:
168,272,42679,1,0,0:0:0:0:
424,272,42813,1,0,0:0:0:0:
224,176,42947,1,0,0:0:0:0:
224,176,43014,1,0,0:0:0:0:
224,176,43081,2,0,L|128:128,1,90
48,312,43349,5,0,0:0:0:0:
344,248,43483,1,0,0:0:0:0:
24,129,43617,5,0,0:0:0:0:
278,293,43751,1,0,0:0:0:0:
144,48,43884,5,0,0:0:0:0:
208,344,44018,1,0,0:0:0:0:
463,180,44152,2,0,P|472:136|464:88,1,90
264,32,44420,2,0,P|255:76|263:124,1,90
460,267,44688,2,0,P|468:224|462:179,1,90
261,120,44956,2,0,P|252:164|260:212,1,90
464,272,45223,6,0,P|439:309|403:335,1,90
198,272,45491,2,0,P|222:234|258:208,1,90
32,240,45759,1,0,0:0:0:0:
184,72,45893,1,0,0:0:0:0:
296,304,46027,2,0,L|312:392,1,90
48,328,46294,2,0,L|32:240,1,90
383,220,46562,6,0,P|391:176|385:131,1,90
184,72,46830,2,0,P|175:116|183:164,1,90
380,308,47098,2,0,P|388:264|382:219,1,90
142,239,47366,6,0,P|154:196|181:160,1,90
421,140,47633,2,0,P|408:182|381:218,1,90
142,239,47901,1,0,0:0:0:0:
320,376,48035,1,0,0:0:0:0:
320,104,48169,2,0,L|240:64,1,90
61,198,48436,2,0,L|141:238,1,90
392,322,48704,6,0,P|400:274|392:226,1,90
139,149,48972,2,0,P|133:193|141:237,1,90
392,144,49240,2,0,P|363:104|324:76,1,90
205,298,49508,6,0,P|168:272|141:237,1,90
392,144,49775,2,0,P|428:169|456:205,1,90
200,144,50043,1,0,0:0:0:0:
352,320,50177,1,0,0:0:0:0:
360,48,50311,2,0,L|304:120,1,90
64,32,50578,2,0,L|8:103,1,90
106,263,50846,6,0,P|112:308|104:352,1,90
306,207,51114,2,0,P|297:163|304:119,1,90
203,301,51382,2,0,P|239:327|263:364,1,90
304,119,51650,2,0,P|266:94|240:58,1,90
344,312,51917,2,0,P|388:305|432:314,1,90
208,192,52185,1,0,0:0:0:0:
456,168,52319,1,0,0:0:0:0:
152,104,52453,6,0,L|152:208,1,90
344,312,52721,2,0,L|344:208,1,90
104,104,52988,2,0,L|104:208,1,90
296,312,53256,2,0,L|296:208,1,90
56,104,53524,2,0,L|56:208,1,90
344,222,53792,6,0,L|344:312,1,90
56,284,54059,2,0,L|56:194,1,90
312,112,54327,1,0,0:0:0:0:
184,336,54461,1,0,0:0:0:0:
184,40,54595,2,0,L|208:136,1,90
304,360,54863,2,0,L|328:264,1,90
97,135,55130,6,0,L|182:186,1,90
408,276,55398,2,0,L|357:192,1,90
104,264,55666,2,0,L|200:240,1,90
400,48,55934,6,0,L|487:69,1,90
278,264,56201,2,0,L|190:242,1,90
448,240,56469,1,0,0:0:0:0:
232,72,56603,1,0,0:0:0:0:
232,360,56737,2,0,L|200:272,1,90
112,40,57005,2,0,L|144:128,1,90
376,288,57272,6,0,P|384:240|376:192,1,90
128,240,57540,2,0,P|122:284|130:328,1,90
312,144,57808,2,0,P|320:96|312:48,1,90
63,95,58076,6,0,P|57:139|65:183,1,90
314,55,58344,2,0,P|266:46|218:54,1,90
264,303,58612,2,0,P|308:308|352:300,1,90
402,57,58879,2,0,P|354:48|306:56,1,90
352,300,59147,2,0,P|396:305|440:297,1,90
216,152,59415,5,0,0:0:0:0:
472,152,59548,1,0,0:0:0:0:
128,104,59682,5,0,0:0:0:0:
375,170,59815,1,0,0:0:0:0:
128,236,59950,1,0,0:0:0:0:
375,170,60084,1,0,0:0:0:0:
128,104,60218,6,0,P|32:128|32:256,1,225
128,280,60620,2,0,P|32:256|32:128,1,225
280,192,61021,2,0,L|8:192,1,270
280,192,61557,1,0,0:0:0:0:
16,296,61691,5,0,0:0:0:0:
240,328,61824,1,0,0:0:0:0:
7,192,61958,1,0,0:0:0:0:
240,56,62092,1,0,0:0:0:0:
384,280,62360,6,0,P|480:256|480:128,1,225
384,104,62762,2,0,P|480:128|480:256,1,225
232,192,63163,2,0,L|504:192,1,270
232,192,63699,2,0,L|136:192,1,90
232,102,63967,1,0,0:0:0:0:
232,147,64033,1,0,0:0:0:0:
232,192,64100,1,0,0:0:0:0:
232,237,64167,1,0,0:0:0:0:
232,282,64234,1,0,0:0:0:0:
48,40,64502,6,0,B|42:152|42:152|50:264,1,225
88,344,64904,2,0,B|96:232|96:232|88:80,1,225
50,264,65305,2,0,B|176:296|181:233|322:264,1,270
50,264,65841,1,0,0:0:0:0:
320,264,66109,5,0,0:0:0:0:
456,176,66243,1,0,0:0:0:0:
320,88,66376,1,0,0:0:0:0:
320,264,66510,1,0,0:0:0:0:
318,261,66644,2,0,B|393:374|393:374|303:370,1,225,0|0,0:0|0:0,0:3:0:0:
318,262,67046,2,0,B|207:188|207:188|212:279,1,225,0|0,3:0|0:0,0:0:0:0:
318,262,67447,1,0,0:0:0:0:
256,192,67581,12,0,72400,0:0:0:0:
