osu file format v14

[General]
AudioFilename: audio.mp3
AudioLeadIn: 0
PreviewTime: 42616
Countdown: 1
SampleSet: Soft
StackLeniency: 0.5
Mode: 0
LetterboxInBreaks: 0
WidescreenStoryboard: 1

[Editor]
DistanceSpacing: 2.3
BeatDivisor: 2
GridSize: 16
TimelineZoom: 3.099999

[Metadata]
Title:Morning Glory
TitleUnicode:Morning Glory
Artist:Ujico*
ArtistUnicode:Ujico*
Creator:JeZag
Version:Daybreak
Source:
Tags:electronic [flowers] snail's house
BeatmapID:1591118
BeatmapSetID:756055

[Difficulty]
HPDrainRate:5
CircleSize:4
OverallDifficulty:9
ApproachRate:9.4
SliderMultiplier:0.8
SliderTickRate:1

[Events]
//Background and Video events
0,0,"illust.jpg",0,0
//Break Periods
2,28676,30852
2,79427,80686
2,109007,120108
2,168511,169943
//Storyboard Layer 0 (Background)
//Storyboard Layer 1 (Fail)
//Storyboard Layer 2 (Pass)
//Storyboard Layer 3 (Foreground)
//Storyboard Layer 4 (Overlay)
//Storyboard Sound Samples

[TimingPoints]
1700,247.933884297521,3,2,1,40,1,0
31452,-200,3,2,1,40,0,0
32939,-100,3,2,1,40,0,0
40377,-66.6666666666667,3,2,1,40,0,0
43352,-50,3,2,1,40,0,1
67154,-66.6666666666667,3,2,1,40,0,0
79055,-50,3,2,1,40,0,1
79427,-50,3,2,1,40,0,0
82030,-50,3,2,1,40,0,1
90956,-66.6666666666667,3,2,1,40,0,0
120708,-200,3,2,1,40,0,0
125915,-100,3,2,1,40,0,0
129634,-66.6666666666667,3,2,1,40,0,0
132609,-50,3,2,1,40,0,1
156410,-66.6666666666667,3,2,1,40,0,0
168311,-100,3,2,1,40,0,1
168683,-100,3,2,1,40,0,0
171286,-50,3,2,1,40,0,1
180212,-66.6666666666667,3,2,1,40,0,0

[Colours]
Combo1 : 255,209,132
Combo2 : 98,208,255
Combo3 : 160,140,255
Combo4 : 255,132,249

[HitObjects]
132,173,1699,6,0,P|108:181|76:181,2,40
199,128,2071,2,0,P|239:120|290:130,1,80
322,192,2443,2,0,L|342:261,1,40
425,266,2691,1,0,0:0:0:0:
425,266,2815,2,0,L|396:169,1,80
361,119,3187,6,0,P|322:108|283:116,1,80
232,178,3559,2,0,L|221:242,1,40
205,101,3807,1,0,0:0:0:0:
205,101,3931,2,0,P|181:79|168:73,2,40
124,143,4303,2,0,P|106:133|86:129,2,40
53,209,4675,6,0,P|33:206|13:209,2,40
124,245,5047,2,0,P|150:250|178:249,1,40
241,228,5295,1,0,0:0:0:0:
241,228,5419,2,0,P|298:233|310:241,1,40
349,266,5666,1,0,0:0:0:0:
349,266,5790,2,0,L|352:337,2,40
346,185,6162,6,0,P|424:175|448:196,1,80
455,246,6534,2,0,L|451:303,1,40
505,179,6782,1,0,0:0:0:0:
505,179,6906,2,0,L|509:122,1,40
476,64,7154,1,0,0:0:0:0:
476,64,7278,2,0,P|437:56|410:63,1,40
361,84,7526,1,0,0:0:0:0:
361,84,7650,6,0,P|298:60|252:66,1,80
220,106,8022,2,0,P|153:93|109:107,1,80
84,151,8394,6,0,P|48:151|27:163,1,40
173,181,8642,2,0,P|208:181|230:193,1,40
72,231,8890,2,0,P|38:243|22:261,1,40
163,263,9138,6,0,P|207:265|263:249,1,80
248,342,9509,2,0,P|290:328|337:294,1,80
382,372,9881,6,0,P|405:340|413:317,1,40
416,225,10129,2,0,P|433:260|436:284,1,40
484,361,10377,2,0,P|494:323|494:298,1,40
480,199,10625,6,0,P|456:242|404:272,1,80
348,245,10997,2,0,P|310:277|251:287,1,80
204,262,11369,6,0,P|157:279|141:280,1,40
48,232,11617,2,0,P|97:240|113:238,1,40
173,171,11865,2,0,P|123:170|107:166,1,40
7,136,12113,6,0,P|54:114|115:117,1,80
142,51,12485,2,0,P|193:46|249:70,1,80
306,22,12857,5,0,0:0:0:0:
310,52,12981,2,0,P|307:76|298:98,1,40
197,160,13228,5,0,0:0:0:0:
193,190,13352,2,0,P|196:214|205:236,1,40
304,297,13600,6,0,P|356:307|419:298,1,80
367,225,13972,2,0,P|420:216|475:186,1,80
394,138,14344,6,0,P|441:112|454:102,1,40
300,138,14592,2,0,P|280:142|260:146,1,40
356,63,14840,2,0,P|391:22|400:8,1,40
262,56,15088,6,0,P|216:76|183:111,1,80
124,45,15460,2,0,P|101:89|98:137,1,80
13,150,15832,6,0,P|29:184|44:198,1,40
136,211,16080,2,0,P|118:239|100:255,1,40
27,273,16328,2,0,P|43:307|58:321,1,40
128,342,16576,6,0,P|189:332|218:309,1,80
222,237,16947,2,0,P|282:248|317:236,1,80
381,197,17319,6,0,P|391:223|415:253,1,40
486,241,17567,2,0,P|503:219|517:183,1,40
477,127,17815,2,0,P|449:122|411:128,1,40,0|0,0:3|0:0,0:0:0:0:
390,48,18063,6,0,P|355:82|343:142,1,80
298,176,18435,2,0,P|241:184|192:173,1,80
146,131,18807,5,0,0:0:0:0:
273,291,19055,1,0,0:0:0:0:
355,104,19303,1,0,0:0:0:0:
146,131,19551,6,0,P|186:160|238:162,1,80
225,249,19923,2,0,P|277:228|300:182,1,80
361,157,20295,6,0,P|405:160|427:172,1,40
488,194,20543,2,0,P|463:230|442:243,1,40
397,279,20790,2,0,P|377:239|376:214,1,40
290,211,21038,6,0,P|233:209|188:224,1,80
188,298,21410,2,0,P|151:323|105:335,1,80
31,313,21782,6,0,P|8:297|-14:268,1,40
98,245,22030,2,0,P|120:229|143:200,1,40
54,163,22278,2,0,P|37:140|26:105,1,40
70,50,22526,6,0,P|129:44|170:61,1,80
211,107,22898,2,0,P|257:94|303:98,1,80
380,103,23270,6,0,P|409:75|431:67,1,40
459,149,23518,2,0,P|474:160|487:176,1,40
416,224,23766,2,0,P|387:252|365:260,1,40
303,239,24014,6,0,P|256:223|215:227,1,80
252,141,24385,2,0,P|202:142|165:159,1,80
85,155,24757,6,0,P|90:184|106:216,1,40
65,281,25005,2,0,P|93:286|129:282,1,40
174,346,25253,2,0,P|188:320|197:285,1,40
256,192,25501,12,0,28476,0:0:0:0:
193,183,31452,6,0,B|321:152|301:257|421:217,1,240
420,217,33683,5,0,0:0:0:0:
266,255,33931,1,0,0:0:0:0:
141,170,34179,1,0,0:0:0:0:
420,217,34427,5,0,0:0:0:0:
266,255,35914,5,0,0:0:0:0:
141,170,36658,6,0,L|147:126,2,40
228,243,37030,2,0,L|222:287,2,40
339,201,37402,5,0,0:0:0:0:
228,243,38146,1,0,0:0:0:0:
119,282,38890,1,0,0:0:0:0:
119,282,39633,5,0,0:0:0:0:
119,282,39881,1,0,0:0:0:0:
119,282,40129,1,0,0:0:0:0:
108,131,40253,1,0,0:0:0:0:
121,302,40377,6,0,P|201:309|258:290,1,120.000004577637
228,115,40749,2,0,P|148:108|91:127,1,120.000004577637
51,214,41121,5,0,0:0:0:0:
285,204,41369,1,0,0:0:0:0:
51,214,41617,1,0,0:0:0:0:
0,149,41741,1,0,0:0:0:0:
139,211,41865,5,0,0:0:0:0:
88,289,41989,1,0,0:0:0:0:
79,140,42113,1,0,0:0:0:0:
222,208,42237,5,0,0:0:0:0:
175,297,42361,1,0,0:0:0:0:
170,128,42485,1,0,0:0:0:0:
311,195,42609,1,0,0:0:0:0:
311,195,42857,5,0,0:0:0:0:
202,214,42981,1,0,0:0:0:0:
116,143,43105,1,0,0:0:0:0:
239,76,43229,1,0,0:0:0:0:
276,280,43352,6,0,P|211:312|131:286,1,160,4|0,0:0|0:0,0:0:0:0:
39,163,43724,1,0,0:0:0:0:
39,163,43848,2,0,L|126:158,1,80
269,90,44096,5,0,0:0:0:0:
278,277,44220,1,0,0:0:0:0:
204,153,44344,1,0,0:0:0:0:
405,128,44468,5,0,0:0:0:0:
400,245,44592,1,0,0:0:0:0:
309,182,44716,1,0,0:0:0:0:
487,183,44840,5,0,0:0:0:0:
487,183,44964,2,0,P|507:255|432:346,1,160
377,368,45336,1,0,0:0:0:0:
285,327,45460,1,0,0:0:0:0:
370,190,45584,2,0,L|366:269,1,80
190,316,45832,6,0,P|176:262|191:204,1,80
65,122,46080,2,0,P|118:136|160:178,1,80
294,113,46328,6,0,P|254:152|197:167,1,80
57,235,46576,1,0,0:0:0:0:
57,235,46700,2,0,P|141:244|231:275,1,160
335,353,47071,6,0,P|331:313|335:248,1,80
381,81,47319,2,0,P|385:121|381:186,1,80
432,358,47567,2,0,P|428:318|432:253,1,80
474,122,47815,5,0,0:0:0:0:
308,205,47939,2,0,P|219:199|124:140,1,160
45,125,48311,1,0,0:0:0:0:
131,57,48435,1,0,0:0:0:0:
78,231,48559,2,0,P|36:235|-18:220,1,80
0,126,48807,5,0,0:0:0:0:
89,209,48931,1,0,0:0:0:0:
107,51,49055,1,0,0:0:0:0:
207,187,49179,1,0,0:0:0:0:
228,6,49303,6,0,P|308:24|314:149,1,160,4|0,0:0|0:0,0:0:0:0:
220,203,49675,1,0,0:0:0:0:
220,203,49799,2,0,L|317:204,1,80
451,254,50047,5,0,0:0:0:0:
473,98,50171,1,0,0:0:0:0:
349,128,50295,1,0,0:0:0:0:
465,176,50419,5,0,0:0:0:0:
396,59,50543,1,0,0:0:0:0:
391,198,50667,1,0,0:0:0:0:
309,54,50791,5,0,0:0:0:0:
309,54,50914,2,0,P|270:142|346:217,1,160
402,282,51286,1,0,0:0:0:0:
283,285,51410,1,0,0:0:0:0:
408,166,51534,6,0,P|415:134|408:80,1,80
252,169,51782,2,0,P|276:191|326:212,1,80
323,33,52030,2,0,P|291:42|248:76,1,80
127,127,52278,6,0,P|119:165|125:205,1,80
318,210,52526,1,0,0:0:0:0:
318,210,52650,2,0,P|325:178|318:123,1,80
119,115,52898,1,0,0:0:0:0:
118,115,53022,6,0,P|110:153|115:193,1,80
336,216,53270,1,0,0:0:0:0:
336,216,53394,2,0,P|343:184|336:129,1,80
140,112,53642,1,0,0:0:0:0:
136,200,53766,5,0,0:0:0:0:
136,200,53828,1,0,0:0:0:0:
136,200,53890,1,0,0:0:0:0:
242,99,54014,1,0,0:0:0:0:
119,88,54138,5,0,0:0:0:0:
159,219,54262,1,0,0:0:0:0:
317,150,54386,1,0,0:0:0:0:
176,21,54510,1,0,0:0:0:0:
176,21,54757,5,0,0:0:0:0:
145,128,54881,1,0,0:0:0:0:
235,191,55005,1,0,0:0:0:0:
322,121,55129,1,0,0:0:0:0:
134,140,55253,6,0,P|137:245|221:300,1,160,4|0,0:0|0:0,0:0:0:0:
259,358,55625,2,0,P|267:319|263:269,1,80
331,159,55873,1,0,0:0:0:0:
377,306,55997,6,0,P|439:316|469:307,1,80
507,183,56245,1,0,0:0:0:0:
411,224,56369,1,0,0:0:0:0:
357,58,56493,1,0,0:0:0:0:
331,159,56617,1,0,0:0:0:0:
173,209,56741,5,0,0:0:0:0:
173,209,56865,2,0,P|177:142|280:89,1,160,0|0,0:0|0:0,0:0:0:0:
346,116,57237,1,0,0:0:0:0:
270,188,57361,1,0,0:0:0:0:
88,145,57485,2,0,P|81:120|86:58,1,80
143,237,57733,6,0,P|125:270|84:315,1,80
270,188,57981,2,0,P|307:187|367:200,1,80
166,98,58229,6,0,P|201:53|315:110,1,160
447,91,58600,2,0,P|390:115|337:104,1,80
244,123,58848,1,0,0:0:0:0:
418,197,58972,6,0,P|423:239|410:341,1,80
281,310,59220,2,0,P|286:268|273:166,1,80
150,177,59468,2,0,P|155:219|142:321,1,80
56,366,59716,5,0,0:0:0:0:
232,355,59840,2,0,P|245:272|242:195,1,160
166,50,60212,2,0,P|190:88|262:129,1,80
398,157,60460,1,0,0:0:0:0:
398,157,60708,5,0,0:0:0:0:
242,196,60832,1,0,0:0:0:0:
396,254,60956,1,0,0:0:0:0:
308,123,61080,1,0,0:0:0:0:
178,244,61204,6,0,P|247:276|311:234,1,160,4|0,0:0|0:0,0:0:0:0:
212,118,61576,2,0,L|116:117,1,80
30,147,61824,1,0,0:0:0:0:
91,349,61948,5,0,0:0:0:0:
108,202,62072,1,0,0:0:0:0:
20,297,62195,1,0,0:0:0:0:
234,309,62319,5,0,0:0:0:0:
194,166,62443,1,0,0:0:0:0:
154,287,62567,1,0,0:0:0:0:
274,188,62691,6,0,P|263:118|178:83,1,160
89,127,63063,1,0,0:0:0:0:
42,279,63187,1,0,0:0:0:0:
194,166,63311,1,0,0:0:0:0:
147,318,63435,6,0,P|212:324|257:309,1,80
415,318,63683,2,0,P|382:294|344:281,1,80
164,229,63931,2,0,P|229:223|270:201,1,80
405,198,64179,6,0,P|365:195|327:181,1,80
173,98,64427,1,0,0:0:0:0:
173,98,64551,2,0,P|213:101|251:115,1,80
418,215,64799,1,0,0:0:0:0:
418,215,64923,6,0,P|378:212|340:198,1,80
163,80,65171,1,0,0:0:0:0:
163,80,65295,2,0,P|203:83|241:97,1,80
410,233,65543,1,0,0:0:0:0:
286,227,65667,5,0,0:0:0:0:
286,227,65729,1,0,0:0:0:0:
286,227,65791,1,0,0:0:0:0:
448,102,65915,1,0,0:0:0:0:
410,233,66038,5,0,0:0:0:0:
225,128,66162,1,0,0:0:0:0:
338,122,66286,1,0,0:0:0:0:
158,231,66410,1,0,0:0:0:0:
158,231,66658,5,0,0:0:0:0:
107,108,66782,1,0,0:0:0:0:
231,51,66906,1,0,0:0:0:0:
280,176,67030,1,0,0:0:0:0:
67,196,67154,6,0,P|77:124|120:47,1,120.000004577637,4|0,0:0|0:0,0:0:0:0:
233,81,67526,2,0,P|248:138|245:183,1,60.0000022888184
208,225,67774,1,0,0:0:0:0:
373,208,67898,6,0,P|295:238|278:255,1,60.0000022888184
243,154,68146,2,0,P|203:226|200:251,1,60.0000022888184
127,180,68394,2,0,P|143:260|157:281,1,60.0000022888184
92,306,68642,5,0,0:0:0:0:
257,325,68766,2,0,P|325:315|386:279,1,120.000004577637
448,165,69138,2,0,P|451:196|446:258,1,60.0000022888184
262,221,69386,6,0,P|272:153|290:113,1,60.0000022888184
394,67,69634,2,0,P|330:92|286:96,1,60.0000022888184
223,68,69881,2,0,P|169:25|143:-11,1,60.0000022888184
46,190,70129,6,0,P|122:186|201:147,1,120.000004577637
251,254,70501,1,0,0:0:0:0:
251,254,70625,2,0,P|271:203|271:168,1,60.0000022888184
349,70,70873,6,0,L|366:162,1,60.0000022888184
456,155,71121,2,0,L|445:95,1,60.0000022888184
284,206,71369,2,0,L|294:265,1,60.0000022888184
474,278,71617,5,0,0:0:0:0:
474,278,71741,2,0,P|384:262|369:264,1,60.0000022888184
332,174,71989,2,0,P|302:178|274:190,1,60.0000022888184
165,186,72237,1,0,0:0:0:0:
172,48,72361,6,0,L|112:48,1,60.0000022888184
88,205,72609,2,0,L|148:205,1,60.0000022888184
290,182,72857,5,0,0:0:0:0:
370,244,72981,1,0,0:0:0:0:
500,164,73105,2,0,P|496:88|445:7,1,120.000004577637,4|0,0:0|0:0,0:0:0:0:
347,52,73477,2,0,P|336:110|307:162,1,120.000004577637
127,158,73848,5,0,0:0:0:0:
179,85,73972,1,0,0:0:0:0:
217,167,74096,2,0,L|202:257,1,60.0000022888184
323,245,74344,2,0,L|313:185,1,60.0000022888184
375,104,74592,5,0,0:0:0:0:
493,187,74716,2,0,P|482:256|447:316,1,120.000004577637
336,260,75088,2,0,L|248:260,1,60.0000022888184
151,313,75336,6,0,P|140:227|140:224,1,60.0000022888184
32,140,75584,2,0,P|100:192|101:195,1,60.0000022888184
168,107,75832,2,0,P|171:193|170:196,1,60.0000022888184
35,303,76080,6,0,P|103:260|181:259,1,120.000004577637
355,262,76452,2,0,P|286:219|208:218,1,120.000004577637
35,175,76824,6,0,P|116:132|150:178,1,120.000004577637
332,136,77196,2,0,P|302:86|244:86,1,120.000004577637
130,28,77567,5,0,0:0:0:0:
130,28,77629,1,0,0:0:0:0:
130,28,77691,1,0,0:0:0:0:
128,139,77815,1,0,0:0:0:0:
6,78,77939,5,0,0:0:0:0:
130,162,78063,1,0,0:0:0:0:
256,75,78187,1,0,0:0:0:0:
268,225,78311,1,0,0:0:0:0:
254,212,78559,5,0,0:0:0:0:
249,97,78683,1,0,0:0:0:0:
134,102,78807,1,0,0:0:0:0:
139,217,78931,1,0,0:0:0:0:
194,157,79055,5,4,0:0:0:0:
194,157,81286,5,0,0:0:0:0:
254,212,81534,5,0,0:0:0:0:
139,217,81658,1,0,0:0:0:0:
134,102,81782,1,0,0:0:0:0:
249,97,81906,1,0,0:0:0:0:
266,230,82030,6,0,L|92:212,1,160,4|0,0:0|0:0,0:0:0:0:
145,340,82402,2,0,P|204:336|248:299,1,80
254,212,82650,1,0,0:0:0:0:
84,130,82774,6,0,L|70:276,1,80
246,310,83022,2,0,L|238:230,1,80
181,62,83270,2,0,L|167:208,1,80
324,175,83518,5,0,0:0:0:0:
311,16,83642,2,0,P|305:94|344:163,1,160
461,285,84014,1,0,0:0:0:0:
441,185,84138,1,0,0:0:0:0:
297,337,84262,2,0,L|376:338,1,80
321,161,84510,6,0,L|241:159,1,80
138,266,84758,1,0,0:0:0:0:
129,100,84881,1,0,0:0:0:0:
75,351,85005,6,0,P|159:370|244:262,1,160,4|0,0:0|0:0,0:0:0:0:
241,147,85377,2,0,L|246:287,1,80
373,315,85625,1,0,0:0:0:0:
435,119,85749,5,0,0:0:0:0:
334,212,85873,1,0,0:0:0:0:
464,255,85997,1,0,0:0:0:0:
263,133,86121,1,0,0:0:0:0:
231,233,86245,1,0,0:0:0:0:
334,212,86369,1,0,0:0:0:0:
170,159,86493,5,0,0:0:0:0:
170,159,86617,2,0,L|194:333,1,160
75,194,86989,1,0,0:0:0:0:
62,303,87113,1,0,0:0:0:0:
266,189,87237,6,0,P|230:170|191:164,1,80
174,333,87485,2,0,P|219:312|256:309,1,80
426,283,87733,2,0,P|381:262|344:259,1,80
174,333,87981,6,0,P|173:270|207:214,1,80
283,118,88229,1,0,0:0:0:0:
283,118,88353,2,0,P|283:180|249:236,1,80
163,339,88601,1,0,0:0:0:0:
163,339,88724,6,0,P|162:276|196:220,1,80
294,112,88972,1,0,0:0:0:0:
294,112,89096,2,0,P|294:174|260:230,1,80
253,306,89344,1,0,0:0:0:0:
197,228,89468,5,0,0:0:0:0:
197,228,89530,1,0,0:0:0:0:
197,228,89592,1,0,0:0:0:0:
239,138,89716,1,0,0:0:0:0:
157,328,89840,5,0,0:0:0:0:
90,217,89964,1,0,0:0:0:0:
151,91,90088,1,0,0:0:0:0:
157,304,90212,1,0,0:0:0:0:
159,283,90460,5,0,0:0:0:0:
180,149,90584,1,0,0:0:0:0:
222,226,90708,1,0,0:0:0:0:
316,250,90832,1,0,0:0:0:0:
393,193,90956,6,0,L|415:49,1,120.000004577637,4|0,0:0|0:0,0:0:0:0:
276,118,91328,2,0,L|262:23,1,60.0000022888184
225,197,91576,1,0,0:0:0:0:
104,178,91700,6,0,L|54:94,1,60.0000022888184
179,20,91948,2,0,P|169:53|169:111,1,60.0000022888184
272,67,92196,2,0,P|273:101|293:155,1,60.0000022888184
373,98,92443,5,0,0:0:0:0:
475,182,92567,2,0,P|414:179|320:201,1,120.000004577637
349,296,92939,2,0,P|402:308|436:302,1,60.0000022888184
226,346,93187,6,0,P|241:281|215:220,1,120.000004577637
127,196,93559,1,0,0:0:0:0:
88,311,93683,2,0,P|142:301|173:283,1,60.0000022888184
337,234,93931,6,0,L|194:217,1,120.000004577637
117,219,94303,2,0,P|90:174|86:106,1,120.000004577637
245,70,94675,6,0,P|242:129|223:170,1,60.0000022888184
117,235,94923,2,0,P|169:207|214:204,1,60.0000022888184
270,231,95171,2,0,P|293:249|320:262,1,60.0000022888184
421,265,95419,5,0,0:0:0:0:
351,113,95543,2,0,P|340:192|350:221,1,60.0000022888184
492,157,95791,2,0,P|462:157|433:164,1,60.0000022888184
334,253,96039,1,0,0:0:0:0:
258,119,96163,6,0,L|164:108,1,60.0000022888184
309,251,96410,2,0,L|249:244,1,60.0000022888184
405,137,96658,2,0,L|311:126,1,60.0000022888184
175,118,96906,6,0,P|145:169|146:229,1,120.000004577637
102,315,97278,2,0,P|136:323|173:319,1,60.0000022888184
254,349,97526,1,0,0:0:0:0:
357,257,97650,6,0,P|269:248|217:267,1,120.000004577637
375,266,98022,2,0,P|367:229|344:199,1,60.0000022888184
276,161,98270,1,0,0:0:0:0:
384,283,98394,5,0,0:0:0:0:
464,234,98518,2,0,P|475:208|483:154,1,60.0000022888184
371,126,98766,2,0,P|377:160|375:195,1,60.0000022888184
296,260,99014,1,0,0:0:0:0:
159,180,99138,6,0,P|240:159|324:172,1,120.000004577637
396,294,99510,2,0,P|336:292|279:274,1,120.000004577637
199,367,99882,6,0,P|176:286|205:250,1,120.000004577637
258,74,100253,2,0,P|281:155|252:191,1,120.000004577637
96,283,100625,6,0,P|132:233|176:283,1,120.000004577637
331,173,100997,2,0,P|295:223|251:173,1,120.000004577637
163,101,101369,5,0,0:0:0:0:
163,101,101431,1,0,0:0:0:0:
163,101,101493,1,0,0:0:0:0:
164,234,101617,1,0,0:0:0:0:
48,153,101741,5,0,0:0:0:0:
184,106,101865,1,0,0:0:0:0:
147,234,101989,1,0,0:0:0:0:
58,128,102113,1,0,0:0:0:0:
58,128,102361,6,0,P|87:147|148:143,1,60.0000022888184
116,242,102609,2,0,P|150:237|194:195,1,60.0000022888184
256,192,102857,1,4,0:0:0:0:
256,192,102981,12,4,108807,0:0:0:0:
400,129,120708,6,0,B|272:98|292:203|172:163,1,240
218,88,122939,5,0,0:0:0:0:
355,209,123187,1,0,0:0:0:0:
393,31,123435,1,0,0:0:0:0:
218,88,123683,5,0,0:0:0:0:
326,108,125171,1,0,0:0:0:0:
254,185,125915,6,0,L|249:228,2,40
188,136,126287,2,0,L|148:153,2,40
191,56,126658,5,0,0:0:0:0:
263,106,127402,1,0,0:0:0:0:
340,156,128146,1,0,0:0:0:0:
191,56,128890,5,0,0:0:0:0:
191,56,129138,1,0,0:0:0:0:
191,56,129386,1,0,0:0:0:0:
340,156,129510,1,0,0:0:0:0:
380,75,129634,6,0,P|309:71|256:109,1,120.000004577637
119,213,130006,2,0,P|190:217|243:179,1,120.000004577637
160,129,130377,5,0,0:0:0:0:
340,156,130625,1,0,0:0:0:0:
160,129,130873,1,0,0:0:0:0:
261,90,130997,1,0,0:0:0:0:
243,193,131121,5,0,0:0:0:0:
160,129,131245,1,0,0:0:0:0:
340,156,131369,1,0,0:0:0:0:
229,280,131493,5,0,0:0:0:0:
145,223,131617,1,0,0:0:0:0:
325,250,131741,1,0,0:0:0:0:
215,367,131865,1,0,0:0:0:0:
215,367,132113,5,0,0:0:0:0:
325,250,132237,1,0,0:0:0:0:
145,223,132361,1,0,0:0:0:0:
229,280,132485,1,0,0:0:0:0:
385,167,132609,6,0,P|308:150|240:189,1,160,4|0,0:0|0:0,0:0:0:0:
335,345,132981,1,0,0:0:0:0:
335,345,133105,2,0,L|330:258,1,80
488,174,133353,5,0,0:0:0:0:
435,260,133477,1,0,0:0:0:0:
336,72,133601,5,0,0:0:0:0:
436,74,133725,1,0,0:0:0:0:
325,253,133849,5,0,0:0:0:0:
277,165,133973,1,0,0:0:0:0:
385,167,134096,5,0,0:0:0:0:
229,244,134220,2,0,P|142:257|40:220,1,160
22,156,134592,1,0,0:0:0:0:
0,294,134716,1,0,0:0:0:0:
115,152,134840,2,0,P|154:148|193:156,1,80
158,358,135088,6,0,L|153:262,1,80
295,230,135336,2,0,L|290:309,1,80
206,139,135584,6,0,P|281:113|359:126,1,160
446,53,135956,2,0,P|463:115|457:158,1,80
380,308,136204,1,0,0:0:0:0:
280,330,136328,6,0,P|282:290|296:252,1,80
359,126,136576,2,0,P|323:143|283:150,1,80
143,160,136824,2,0,P|176:181|201:212,1,80
59,352,137072,5,0,0:0:0:0:
59,352,137196,2,0,P|27:255|46:182,1,160
57,110,137568,5,0,0:0:0:0:
110,226,137692,1,0,0:0:0:0:
231,143,137815,2,0,L|137:148,1,80
292,228,138063,5,0,0:0:0:0:
299,71,138187,1,0,0:0:0:0:
141,136,138311,1,0,0:0:0:0:
193,230,138435,1,0,0:0:0:0:
420,163,138559,6,0,P|342:169|292:228,1,160,4|0,0:0|0:0,0:0:0:0:
142,156,138931,1,0,0:0:0:0:
142,156,139055,2,0,P|191:215|192:260,1,80
254,68,139303,5,0,0:0:0:0:
288,248,139427,1,0,0:0:0:0:
344,116,139551,1,0,0:0:0:0:
360,209,139675,5,0,0:0:0:0:
326,29,139799,1,0,0:0:0:0:
270,161,139923,1,0,0:0:0:0:
418,58,140047,5,0,0:0:0:0:
418,58,140171,2,0,P|457:144|429:244,1,160
414,377,140543,2,0,P|399:339|398:289,1,80
299,91,140791,6,0,P|355:131|373:171,1,80
512,210,141039,2,0,P|444:206|402:220,1,80
246,231,141287,2,0,P|314:235|356:221,1,80
184,56,141534,6,0,P|180:95|188:135,1,80
377,139,141782,1,0,0:0:0:0:
377,139,141906,2,0,P|384:99|380:60,1,80
124,97,142154,1,0,0:0:0:0:
124,97,142278,6,0,P|146:129|177:155,1,80
392,160,142526,1,0,0:0:0:0:
392,160,142650,2,0,P|422:134|445:101,1,80
347,58,142898,1,0,0:0:0:0:
286,207,143022,5,0,0:0:0:0:
286,207,143084,1,0,0:0:0:0:
286,207,143146,1,0,0:0:0:0:
223,57,143270,1,0,0:0:0:0:
375,189,143394,5,0,0:0:0:0:
197,189,143518,1,0,0:0:0:0:
286,121,143642,1,0,0:0:0:0:
286,327,143766,1,0,0:0:0:0:
286,327,144014,5,0,0:0:0:0:
213,202,144138,1,0,0:0:0:0:
286,146,144262,1,0,0:0:0:0:
360,202,144386,1,0,0:0:0:0:
145,293,144510,6,0,P|103:229|125:133,1,160,4|0,0:0|0:0,0:0:0:0:
268,242,144882,2,0,P|211:223|181:196,1,80
128,134,145130,1,0,0:0:0:0:
145,311,145254,5,0,0:0:0:0:
284,234,145377,1,0,0:0:0:0:
258,147,145501,1,0,0:0:0:0:
259,322,145625,5,0,0:0:0:0:
377,256,145748,1,0,0:0:0:0:
355,181,145872,1,0,0:0:0:0:
336,327,145997,5,0,0:0:0:0:
459,296,146121,2,0,P|464:233|445:189,1,80
326,87,146369,2,0,P|402:112|522:116,1,160
226,46,146741,6,0,P|221:109|240:153,1,80
63,151,146989,2,0,P|108:195|153:209,1,80
394,145,147237,2,0,P|342:181|321:224,1,80
58,321,147485,6,0,P|167:314|262:247,1,160
301,369,147857,2,0,P|317:299|313:257,1,80
419,245,148105,1,0,0:0:0:0:
492,347,148229,6,0,P|440:347|386:335,1,80
234,284,148477,2,0,P|286:284|340:272,1,80
496,226,148725,2,0,P|444:226|390:214,1,80
215,112,148973,5,0,0:0:0:0:
215,112,149096,2,0,P|324:119|419:186,1,160
426,67,149468,1,0,0:0:0:0:
406,233,149592,1,0,0:0:0:0:
192,216,149716,6,0,P|234:205|309:209,1,80
392,251,149964,1,0,0:0:0:0:
368,140,150088,1,0,0:0:0:0:
182,243,150212,1,0,0:0:0:0:
218,131,150336,1,0,0:0:0:0:
1,103,150460,6,0,P|38:154|169:143,1,160,4|0,0:0|0:0,0:0:0:0:
233,131,150832,2,0,L|238:51,1,80
91,83,151080,1,0,0:0:0:0:
247,219,151204,5,0,0:0:0:0:
35,201,151328,1,0,0:0:0:0:
129,167,151452,1,0,0:0:0:0:
114,279,151576,5,0,0:0:0:0:
341,253,151700,1,0,0:0:0:0:
247,219,151824,1,0,0:0:0:0:
271,323,151948,5,0,0:0:0:0:
271,323,152072,2,0,P|353:348|410:335,1,80
400,200,152320,2,0,P|337:258|320:314,1,80
247,219,152568,1,0,0:0:0:0:
442,369,152692,6,0,P|439:330|426:292,1,80
415,122,152939,2,0,P|402:160|400:200,1,80
220,127,153187,2,0,P|260:127|298:138,1,80,0|0,0:0|0:0,3:0:0:0:
257,316,153435,6,0,L|243:210,1,80
89,180,153683,1,0,0:0:0:0:
89,180,153807,2,0,L|78:259,1,80
274,336,154055,1,0,0:0:0:0:
274,336,154179,6,0,L|284:256,1,80
52,169,154427,1,0,0:0:0:0:
52,169,154551,2,0,L|62:248,1,80
173,312,154799,1,0,0:0:0:0:
176,202,154923,5,0,0:0:0:0:
176,202,154985,1,0,0:0:0:0:
176,202,155047,1,0,0:0:0:0:
284,257,155171,1,0,0:0:0:0:
274,135,155295,5,0,0:0:0:0:
173,312,155419,1,0,0:0:0:0:
374,309,155543,1,0,0:0:0:0:
176,202,155667,1,0,0:0:0:0:
176,202,155915,5,0,0:0:0:0:
328,218,156039,1,0,0:0:0:0:
348,67,156163,1,0,0:0:0:0:
196,51,156287,1,0,0:0:0:0:
315,236,156411,6,0,P|387:226|464:183,1,120.000004577637,4|0,0:0|0:0,0:0:0:0:
432,83,156782,2,0,P|362:60|329:64,1,60.0000022888184
443,222,157030,1,0,0:0:0:0:
317,149,157154,6,0,P|287:151|259:163,1,60.0000022888184,0|0,0:0|0:0,0:0:0:0:
190,78,157402,2,0,P|168:99|155:125,1,60.0000022888184,0|0,0:0|0:0,0:0:0:0:
74,101,157650,2,0,P|71:130|78:159,1,60.0000022888184
149,217,157898,5,0,0:0:0:0:
30,265,158022,2,0,P|105:245|183:237,1,120.000004577637
239,263,158394,1,0,0:0:0:0:
167,327,158518,1,0,0:0:0:0:
217,113,158642,6,0,P|219:143|215:172,1,60.0000022888184
238,262,158890,2,0,P|263:245|291:234,1,60.0000022888184
355,172,159138,2,0,P|327:159|304:140,1,60.0000022888184
458,40,159386,6,0,P|457:122|440:207,1,120.000004577637
431,302,159758,2,0,P|413:255|409:223,1,60.0000022888184
341,363,160006,1,0,0:0:0:0:
202,312,160130,6,0,L|218:254,1,60.0000022888184
322,212,160378,2,0,L|305:269,1,60.0000022888184
122,250,160625,2,0,L|138:192,1,60.0000022888184
214,64,160873,5,0,0:0:0:0:
278,132,160997,2,0,P|251:146|223:155,1,60.0000022888184
77,126,161245,2,0,P|103:111|132:103,1,60.0000022888184
299,118,161493,1,0,0:0:0:0:
368,242,161617,6,0,L|380:183,1,60.0000022888184
226,235,161865,2,0,L|211:151,1,60.0000022888184
109,307,162113,1,0,0:0:0:0:
53,244,162237,1,0,0:0:0:0:
238,257,162361,6,0,P|245:185|213:107,1,120.000004577637,4|0,0:0|0:0,0:0:0:0:
113,44,162733,2,0,P|99:103|107:162,1,120.000004577637
253,47,163105,5,0,0:0:0:0:
220,135,163229,1,0,0:0:0:0:
313,120,163353,2,0,L|372:122,1,60.0000022888184
431,212,163601,2,0,L|372:224,1,60.0000022888184
246,325,163849,5,0,0:0:0:0:
246,325,163973,2,0,P|272:242|258:161,1,120.000004577637
368,242,164344,1,0,0:0:0:0:
378,342,164468,1,0,0:0:0:0:
255,205,164592,6,0,P|224:208|198:221,1,60.0000022888184
34,208,164840,2,0,P|72:220|105:221,1,60.0000022888184
89,314,165088,2,0,P|128:306|156:289,1,60.0000022888184
204,90,165336,6,0,P|184:147|191:217,1,120.000004577637
258,376,165708,2,0,P|278:319|271:249,1,120.000004577637
205,117,166080,6,0,P|155:174|198:204,1,120.000004577637
220,348,166452,2,0,P|270:291|227:261,1,120.000004577637
298,175,166824,5,0,0:0:0:0:
298,175,166886,1,0,0:0:0:0:
298,175,166948,1,0,0:0:0:0:
160,285,167072,1,0,0:0:0:0:
87,205,167196,5,0,0:0:0:0:
253,270,167320,1,0,0:0:0:0:
398,169,167444,1,0,0:0:0:0:
352,260,167568,1,0,0:0:0:0:
352,260,167816,5,0,0:0:0:0:
340,100,167940,1,0,0:0:0:0:
249,137,168063,1,0,0:0:0:0:
256,236,168187,1,0,0:0:0:0:
404,176,168311,1,4,0:0:0:0:
404,176,170543,5,0,0:0:0:0:
404,176,170791,5,0,0:0:0:0:
341,279,170915,1,0,0:0:0:0:
215,129,171039,1,0,0:0:0:0:
224,249,171163,1,0,0:0:0:0:
435,261,171287,6,0,P|454:184|444:105,1,160,4|0,0:0|0:0,0:0:0:0:
311,96,171659,1,0,0:0:0:0:
281,183,171782,2,0,L|394:180,1,80
355,366,172030,6,0,P|302:358|263:338,1,80
192,245,172278,2,0,P|184:298|164:337,1,80
43,341,172526,2,0,P|20:307|7:270,1,80
49,144,172774,5,0,0:0:0:0:
169,230,172898,2,0,P|221:240|336:237,1,160
218,144,173270,1,0,0:0:0:0:
278,334,173394,1,0,0:0:0:0:
412,282,173518,6,0,P|422:241|418:194,1,80
341,139,173766,1,0,0:0:0:0:
512,232,173890,1,0,0:0:0:0:
469,120,174014,1,0,0:0:0:0:
327,238,174138,1,0,0:0:0:0:
138,170,174262,6,0,P|116:120|133:14,1,160,4|0,0:0|0:0,0:0:0:0:
259,71,174634,2,0,P|257:113|240:155,1,80
37,215,174882,1,0,0:0:0:0:
210,229,175006,5,0,0:0:0:0:
193,328,175130,1,0,0:0:0:0:
115,262,175254,1,0,0:0:0:0:
361,222,175378,5,0,0:0:0:0:
283,288,175502,1,0,0:0:0:0:
378,321,175626,1,0,0:0:0:0:
461,255,175749,5,0,0:0:0:0:
461,255,175873,2,0,P|484:210|492:90,1,160
352,122,176245,2,0,L|363:215,1,80
183,221,176493,6,0,P|233:215|278:227,1,80
387,349,176741,2,0,P|353:316|298:297,1,80
157,347,176989,2,0,P|198:317|243:305,1,80
392,129,177237,6,0,P|382:167|362:201,1,80
142,131,177485,1,0,0:0:0:0:
142,131,177609,2,0,P|151:169|171:203,1,80
399,112,177857,1,0,0:0:0:0:
399,112,177981,6,0,P|410:150|409:190,1,80
134,113,178229,1,0,0:0:0:0:
134,113,178353,2,0,P|122:151|123:191,1,80
217,274,178601,1,0,0:0:0:0:
47,267,178725,5,0,0:0:0:0:
47,267,178787,1,0,0:0:0:0:
47,267,178849,1,0,0:0:0:0:
220,167,178973,1,0,0:0:0:0:
322,214,179097,5,0,0:0:0:0:
127,214,179221,1,0,0:0:0:0:
138,83,179344,1,0,0:0:0:0:
217,274,179468,1,0,0:0:0:0:
217,274,179716,5,0,0:0:0:0:
47,267,179840,1,0,0:0:0:0:
133,112,179964,1,0,0:0:0:0:
127,214,180088,1,0,0:0:0:0:
220,167,180212,6,0,P|279:175|347:171,1,120.000004577637,4|0,0:0|0:0,0:0:0:0:
377,267,180584,2,0,P|402:251|421:228,1,60.0000022888184
435,136,180832,1,0,0:0:0:0:
512,259,180956,6,0,P|516:229|511:200,1,60.0000022888184
499,103,181204,2,0,L|423:121,1,60.0000022888184
337,78,181452,2,0,L|375:32,1,60.0000022888184
348,183,181700,5,0,0:0:0:0:
234,167,181824,2,0,L|243:24,1,120.000004577637
113,35,182196,2,0,L|137:107,1,60.0000022888184
99,241,182444,6,0,P|126:199|152:181,1,60.0000022888184
245,258,182692,2,0,P|215:255|185:262,1,60.0000022888184,0|0,0:0|0:0,0:0:0:0:
263,383,182940,2,0,P|245:358|221:340,1,60.0000022888184,0|0,0:0|0:0,0:0:0:0:
15,313,183187,6,0,P|0:255|19:184,1,120.000004577637
105,328,183559,2,0,P|94:363|79:380,1,60.0000022888184
98,226,183807,1,0,0:0:0:0:
187,266,183931,6,0,L|273:257,1,60.0000022888184
257,117,184179,2,0,P|239:142|228:181,1,60.0000022888184
323,182,184427,2,0,P|336:209|364:239,1,60.0000022888184
451,247,184675,5,0,0:0:0:0:
470,95,184799,2,0,L|344:85,1,120.000004577637
275,36,185171,1,0,0:0:0:0:
176,109,185295,1,0,0:0:0:0:
54,70,185419,6,0,L|42:-1,1,60.0000022888184
193,118,185667,2,0,L|183:58,1,60.0000022888184
77,227,185915,1,0,0:0:0:0:
104,140,186039,1,0,0:0:0:0:
175,212,186163,6,0,P|234:220|302:216,1,120.000004577637
216,306,186535,2,0,P|202:347|203:380,1,60.0000022888184
313,310,186783,1,0,0:0:0:0:
423,366,186906,6,0,P|421:306|397:251,1,120.000004577637
304,203,187278,2,0,P|342:169|357:142,1,60.0000022888184
446,169,187526,1,0,0:0:0:0:
315,293,187650,5,0,0:0:0:0:
315,293,187774,2,0,L|234:285,1,60.0000022888184
234,189,188022,2,0,L|294:195,1,60.0000022888184
171,261,188270,1,0,0:0:0:0:
143,167,188394,6,0,P|156:140|176:119,1,60.0000022888184
319,202,188642,2,0,P|303:138|273:84,1,120.000004577637
370,41,189014,1,0,0:0:0:0:
449,156,189138,6,0,P|383:191|333:192,1,120.000004577637
155,146,189510,2,0,P|220:110|271:110,1,120.000004577637
290,284,189882,6,0,P|240:259|252:197,1,120.000004577637
315,38,190254,2,0,P|364:62|352:124,1,120.000004577637
246,108,190626,5,0,0:0:0:0:
246,108,190687,1,0,0:0:0:0:
246,108,190749,1,0,0:0:0:0:
152,177,190873,1,0,0:0:0:0:
61,125,190997,5,0,0:0:0:0:
244,200,191121,1,0,0:0:0:0:
66,249,191245,1,0,0:0:0:0:
153,80,191369,1,0,0:0:0:0:
153,80,191617,5,0,0:0:0:0:
152,204,191741,1,0,0:0:0:0:
277,202,191865,1,0,0:0:0:0:
278,78,191989,1,0,0:0:0:0:
214,145,192113,1,4,0:0:0:0:
