osu file format v14

[General]
AudioFilename: audio.mp3
AudioLeadIn: 0
PreviewTime: 97542
Countdown: 0
SampleSet: None
StackLeniency: 0.2
Mode: 0
LetterboxInBreaks: 0
WidescreenStoryboard: 1

[Editor]
Bookmarks: 1569,12863,24157,35451,46745,69333,73558,80627,86274,91921,97569,103216,114510,125804,131451,142745
DistanceSpacing: 0.9
BeatDivisor: 8
GridSize: 4
TimelineZoom: 1.9

[Metadata]
Title:Letter From Heaven (Kuuchuu Toshi Ver)
TitleUnicode:Letter From Heaven (空中都市 Ver)
Artist:Ujico*
ArtistUnicode:Ujico*
Creator:gracefu
Version:Traveller
Source:
Tags:snail's house snail electronic electronica mixture piano techno Japan
BeatmapID:1230831
BeatmapSetID:581515

[Difficulty]
HPDrainRate:6
CircleSize:3.4
OverallDifficulty:8
ApproachRate:8.8
SliderMultiplier:1.4
SliderTickRate:1

[Events]
//Background and Video events
0,0,"death_of_the_stairs_by_boosoohoo-d5k86dd.jpg",0,0
//Break Periods
//Storyboard Layer 0 (Background)
//Storyboard Layer 1 (Fail)
//Storyboard Layer 2 (Pass)
//Storyboard Layer 3 (Foreground)
//Storyboard Sound Samples

[TimingPoints]
159,352.941176470588,4,2,0,10,1,0
1394,-100,4,2,1,5,0,0
1570,-100,4,2,0,25,0,0
7217,-100,4,2,0,30,0,0
12864,-75.7575757575758,4,3,0,45,0,0
24158,-125,4,3,0,45,0,0
35453,-100,4,3,0,50,0,0
46747,-83.3333333333333,4,3,0,55,0,1
57953,-83.3333333333333,4,3,0,55,0,0
58041,-90.9090909090909,4,3,0,55,0,1
69335,-75.7575757575758,4,3,0,45,0,0
80629,-125,4,3,0,45,0,0
85747,-125,4,3,0,55,0,0
86276,-100,4,3,0,55,0,0
91923,-100,4,3,0,50,0,0
103217,-76.9230769230769,4,3,0,55,0,1
114423,-76.9230769230769,4,3,0,55,0,0
114511,-76.9230769230769,4,3,0,55,0,1
125717,-76.9230769230769,4,3,0,55,0,0
125806,-66.6666666666667,4,3,0,55,0,1
131806,-66.6666666666667,4,3,0,40,0,1
131982,-66.6666666666667,4,3,0,55,0,1
132335,-66.6666666666667,4,3,0,40,0,1
132511,-66.6666666666667,4,3,0,55,0,1
132688,-66.6666666666667,4,3,0,40,0,1
132864,-66.6666666666667,4,3,0,55,0,1
133217,-66.6666666666667,4,3,0,40,0,1
133394,-66.6666666666667,4,3,0,55,0,1
134629,-66.6666666666667,4,3,0,40,0,1
134806,-66.6666666666667,4,3,0,55,0,1
135158,-66.6666666666667,4,3,0,40,0,1
135335,-66.6666666666667,4,3,0,55,0,1
135511,-66.6666666666667,4,3,0,40,0,1
135688,-66.6666666666667,4,3,0,55,0,1
137453,-66.6666666666667,4,3,0,40,0,1
137629,-66.6666666666667,4,3,0,55,0,1
137982,-66.6666666666667,4,3,0,40,0,1
138158,-66.6666666666667,4,3,0,55,0,1
138335,-66.6666666666667,4,3,0,40,0,1
138511,-66.6666666666667,4,3,0,55,0,1
138864,-66.6666666666667,4,3,0,40,0,1
139041,-66.6666666666667,4,3,0,55,0,1
140276,-66.6666666666667,4,3,0,40,0,1
140453,-66.6666666666667,4,3,0,55,0,1
140806,-66.6666666666667,4,3,0,40,0,1
140982,-66.6666666666667,4,3,0,55,0,1
141158,-66.6666666666667,4,3,0,40,0,1
141335,-66.6666666666667,4,3,0,55,0,1
142747,-76.9230769230769,4,3,0,55,0,0

[Colours]
Combo1 : 103,103,103
Combo2 : 113,235,12
Combo3 : 0,64,236
Combo4 : 191,242,18
Combo5 : 67,249,117
Combo6 : 122,122,122

[HitObjects]
256,192,159,12,0,1394,0:0:0:0:
256,192,1570,69,0,0:0:0:0:
256,80,2276,1,0,0:0:0:0:
256,304,2982,1,0,0:0:0:0:
256,368,4394,54,0,L|256:348,1,17.5
256,368,5806,6,0,L|256:348,1,17.5
256,192,7217,5,2,0:0:0:0:
256,192,7570,1,0,0:0:0:0:
368,192,7747,1,2,0:0:0:0:
144,192,7923,1,8,0:0:0:0:
256,192,8100,1,0,0:0:0:0:
256,192,8276,1,0,0:0:0:0:
368,192,8629,5,2,0:0:0:0:
256,192,8806,1,0,0:0:0:0:
144,192,8982,2,0,L|108:192,4,35
256,304,9511,2,0,L|256:340,2,35
256,192,9864,1,0,0:0:0:0:
368,192,10041,69,2,0:0:0:0:
256,192,10394,1,0,0:0:0:0:
256,80,10570,1,0,0:0:0:0:
256,304,10747,1,8,0:0:0:0:
256,192,10923,1,0,0:0:0:0:
256,192,11100,1,0,0:0:0:0:
144,192,11453,5,2,0:0:0:0:
256,192,11629,1,0,0:0:0:0:
368,192,11806,2,0,L|404:192,4,35
256,80,12335,2,0,L|256:44,2,35
256,192,12688,21,0,0:0:0:0:
53,308,12864,38,0,L|81:219,1,92.3999997180176,4|0,0:0|0:0,0:0:0:0:
138,43,13217,1,0,0:0:0:0:
110,132,13394,1,0,0:0:0:0:
275,129,13570,2,0,L|304:41,1,92.3999997180176,8|0,0:2|0:0,0:0:0:0:
248,217,13923,1,0,0:2:0:0:
276,305,14276,6,0,L|247:215,1,92.3999997180176
189,41,14629,2,0,L|203:85,4,46.1999998590088,4|0|0|0|0,0:0|2:0|2:0|2:0|2:0,0:0:0:0:
247,217,15158,2,0,L|233:173,2,46.1999998590088,0|0|0,0:0|2:0|0:0,0:0:0:0:
276,305,15511,1,0,0:0:0:0:
54,308,15688,70,0,L|82:217,1,92.3999997180176,4|0,0:0|0:0,0:0:0:0:
138,43,16041,1,0,0:0:0:0:
110,132,16218,1,0,0:0:0:0:
276,129,16394,1,8,0:2:0:0:
304,40,16570,1,0,0:0:0:0:
248,217,16747,2,0,L|276:126,1,92.3999997180176
345,347,17100,6,0,L|316:257,1,92.3999997180176
262,84,17453,2,0,L|275:128,4,46.1999998590088,4|0|0|0|0,0:0|2:0|2:0|2:0|2:0,0:0:0:0:
316,259,17982,2,0,L|303:215,2,46.1999998590088,0|0|0,0:0|2:0|2:0,0:0:0:0:
345,347,18335,1,0,0:0:0:0:
427,90,18511,70,0,L|398:180,1,92.3999997180176,4|0,0:0|0:0,0:0:0:0:
373,258,18864,1,0,0:0:0:0:
345,347,19041,1,0,0:0:0:0:
207,347,19217,1,8,0:2:0:0:
235,258,19394,1,0,0:0:0:0:
207,347,19570,1,0,0:0:0:0:
68,347,19747,1,4,0:0:0:0:
345,347,19923,6,0,L|316:257,1,92.3999997180176
288,171,20276,2,0,L|316:259,1,92.3999997180176
260,83,20629,2,0,L|288:171,1,92.3999997180176
345,347,20982,1,0,0:0:0:0:
483,347,21158,1,4,0:0:0:0:
207,347,21335,69,4,0:0:0:0:
229,255,21511,1,0,0:0:0:0:
251,163,21688,1,0,0:0:0:0:
273,71,21864,1,0,0:0:0:0:
368,71,22041,1,0,0:0:0:0:
390,163,22217,1,0,0:0:0:0:
412,255,22394,1,0,0:0:0:0:
434,346,22570,37,4,0:0:0:0:
256,192,24158,6,0,P|312:180|364:192,1,112,4|0,0:0|0:0,0:0:0:0:
309,267,24688,2,0,P|253:279|201:267,1,112,8|0,0:0|0:0,0:0:0:0:
384,213,25217,2,0,P|396:269|384:321,1,112,4|0,0:0|0:0,0:0:0:0:
277,341,25747,21,0,0:0:0:0:
77,229,25923,1,0,0:0:0:0:
183,241,26100,1,0,0:0:0:0:
380,153,26276,1,0,0:0:0:0:
272,169,26453,1,0,0:0:0:0:
89,71,26629,1,2,0:0:0:0:
189,91,26806,1,0,0:0:0:0:
183,320,26982,70,0,P|127:332|75:320,1,112,4|0,0:0|0:0,0:0:0:0:
130,245,27511,2,0,P|186:233|238:245,1,112,8|0,0:0|0:0,0:0:0:0:
55,299,28041,2,0,P|43:243|55:191,1,112,4|0,0:0|0:0,0:0:0:0:
153,153,28570,21,0,0:0:0:0:
365,234,28747,1,0,0:0:0:0:
265,221,28923,1,2,0:0:0:0:
65,327,29100,1,0,0:0:0:0:
161,299,29276,1,0,0:0:0:0:
371,380,29453,1,2,0:0:0:0:
272,362,29629,1,0,0:0:0:0:
339,125,29806,6,0,P|395:113|447:125,1,112,4|0,0:0|0:0,0:0:0:0:
392,200,30335,2,0,P|336:212|284:200,1,112,8|0,0:0|0:0,0:0:0:0:
467,146,30864,2,0,P|479:202|467:254,1,112,4|2,0:0|0:0,0:0:0:0:
365,297,31394,53,0,0:0:0:0:
146,225,31570,1,0,0:0:0:0:
247,251,31747,1,2,0:0:0:0:
442,149,31923,1,0,0:0:0:0:
338,173,32100,1,0,0:0:0:0:
158,71,32276,1,2,0:0:0:0:
259,90,32453,1,0,0:0:0:0:
148,275,32629,54,0,P|160:219|148:167,1,112,4|0,0:0|0:0,0:0:0:0:
73,222,33158,2,0,P|61:278|73:330,1,112,8|0,0:0|0:0,0:0:0:0:
126,147,33688,2,0,P|86:136|40:141,1,84,4|0,0:0|0:0,0:0:0:0:
18,148,34041,37,0,0:0:0:0:
18,148,34394,1,0,0:0:0:0:
67,229,34570,1,0,0:0:0:0:
147,285,34747,21,0,0:0:0:0:
172,299,34835,1,0,0:0:0:0:
198,308,34923,1,0,0:0:0:0:
226,312,35011,1,0,0:0:0:0:
254,310,35099,1,0,0:0:0:0:
281,303,35188,1,0,0:0:0:0:
306,292,35276,1,0,0:0:0:0:
329,276,35364,1,0,0:0:0:0:
349,255,35452,21,4,0:2:0:0:
318,170,35629,1,0,0:0:0:0:
249,109,35806,1,0,0:0:0:0:
161,84,35982,1,0,0:0:0:0:
318,170,36335,1,0,0:0:0:0:
161,84,36511,1,0,0:0:0:0:
64,245,36864,5,4,0:0:0:0:
143,193,37041,1,0,0:0:0:0:
233,166,37217,1,0,0:0:0:0:
327,166,37394,1,0,0:0:0:0:
143,193,37747,1,0,0:0:0:0:
327,166,37923,1,0,0:0:0:0:
425,305,38276,21,4,0:0:0:0:
349,246,38453,1,0,0:0:0:0:
265,199,38629,1,0,0:0:0:0:
171,176,38806,1,0,0:0:0:0:
366,196,38982,1,0,0:0:0:0:
265,199,39158,1,0,0:0:0:0:
171,176,39335,1,0,0:0:0:0:
171,176,39511,1,4,0:0:0:0:
206,338,39688,69,4,0:0:0:0:
303,325,39864,1,0,0:0:0:0:
392,291,40041,1,0,0:0:0:0:
469,233,40217,1,0,0:0:0:0:
206,338,40570,1,0,0:0:0:0:
392,291,40747,1,0,0:0:0:0:
392,291,40923,1,4,0:0:0:0:
454,83,41100,37,4,0:2:0:0:
355,84,41276,1,0,0:0:0:0:
262,116,41453,1,0,0:0:0:0:
198,190,41629,1,0,0:0:0:0:
355,84,41982,1,0,0:0:0:0:
198,190,42158,1,0,0:0:0:0:
198,190,42335,1,4,0:0:0:0:
12,152,42511,21,4,0:0:0:0:
107,161,42688,1,0,0:0:0:0:
198,190,42864,1,0,0:0:0:0:
272,251,43041,1,0,0:0:0:0:
107,161,43394,1,0,0:0:0:0:
272,251,43570,1,0,0:0:0:0:
272,251,43747,1,4,0:0:0:0:
450,175,43923,69,4,0:0:0:0:
358,205,44100,1,0,0:0:0:0:
272,251,44276,1,0,0:0:0:0:
199,313,44453,1,0,0:0:0:0:
336,173,44629,1,0,0:0:0:0:
272,251,44806,1,0,0:0:0:0:
199,313,44982,1,0,0:0:0:0:
199,313,45158,1,4,0:0:0:0:
345,323,45335,37,4,0:0:0:0:
349,319,45423,2,0,L|402:326,1,35,8|0,0:0|0:0,0:0:0:0:
373,294,45600,2,0,L|412:296,1,35,8|0,0:0|0:0,0:0:0:0:
458,156,45864,1,4,0:0:0:0:
462,160,45953,2,0,L|504:156,1,35,8|0,0:0|0:0,0:0:0:0:
472,190,46129,2,0,L|512:191,1,35,8|0,0:0|0:0,0:0:0:0:
332,168,46394,6,0,L|345:141,3,17.5,4|0|0|0,0:0|0:0|0:0|0:0,0:0:0:0:
302,168,46570,2,0,L|288:196,3,17.5,4|0|0|0,0:0|0:0|0:0|0:0,0:0:0:0:
266,169,46747,6,0,P|206:148|106:181,1,167.999994873047,4|8,0:0|0:0,0:0:0:0:
72,267,47276,1,4,0:0:0:0:
320,342,47453,1,0,0:0:0:0:
109,178,47629,2,0,P|155:182|191:197,1,83.9999974365235,4|0,0:0|0:0,0:0:0:0:
392,299,47982,2,0,P|358:290|291:287,1,83.9999974365235,4|4,0:0|0:0,0:0:0:0:
72,349,48335,6,0,P|126:366|174:371,1,83.9999974365235,0|8,0:0|0:0,0:0:0:0:
210,79,48688,53,4,0:0:0:0:
219,92,48776,1,0,0:0:0:0:
229,105,48864,1,0,0:0:0:0:
204,139,48953,1,0,0:0:0:0:
191,178,49041,1,8,0:0:0:0:
192,219,49129,1,0,0:0:0:0:
208,257,49217,1,0,0:0:0:0:
235,289,49306,1,0,0:0:0:0:
270,311,49394,1,4,0:0:0:0:
311,314,49482,1,0,0:0:0:0:
349,298,49570,5,4,0:0:0:0:
411,237,49747,1,0,0:0:0:0:
445,384,49923,1,8,0:0:0:0:
294,140,50100,2,0,P|201:146|166:167,1,125.999996154785,4|0,0:0|0:0,0:0:0:0:
82,294,50453,2,0,P|175:288|210:267,1,125.999996154785,4|0,0:0|0:0,0:0:0:0:
223,257,50806,1,8,0:0:0:0:
201,65,50982,5,4,0:0:0:0:
350,164,51158,1,0,0:0:0:0:
359,136,51247,1,0,0:0:0:0:
368,108,51335,1,8,0:0:0:0:
234,197,51511,53,4,0:0:0:0:
242,211,51600,1,0,0:0:0:0:
250,225,51688,1,0,0:0:0:0:
214,212,51776,1,0,0:0:0:0:
174,215,51864,1,4,0:0:0:0:
137,225,51953,1,0,0:0:0:0:
105,244,52041,1,0,0:0:0:0:
79,271,52129,1,0,0:0:0:0:
62,305,52217,1,4,0:0:0:0:
54,342,52306,1,0,0:0:0:0:
56,380,52394,69,4,0:2:0:0:
133,337,52570,1,0,0:0:0:0:
78,146,52747,1,8,0:0:0:0:
133,337,52923,2,0,P|175:360|257:359,1,125.999996154785,4|0,0:0|0:0,0:0:0:0:
282,347,53276,1,4,0:0:0:0:
394,224,53453,1,8,0:0:0:0:
142,230,53629,1,4,0:0:0:0:
276,14,53806,21,4,0:0:0:0:
88,119,53982,2,0,P|126:136|168:142,1,83.9999974365235,0|8,0:0|0:0,0:0:0:0:
316,143,54335,1,4,0:0:0:0:
47,200,54511,1,0,0:0:0:0:
103,19,54688,1,4,0:0:0:0:
173,202,54864,1,8,0:0:0:0:
8,88,55041,1,4,0:0:0:0:
374,98,55217,6,0,P|332:74|247:80,1,125.999996154785,4|0,0:0|0:0,0:0:0:0:
239,87,55570,1,8,0:0:0:0:
318,307,55747,2,0,P|358:306|400:291,1,83.9999974365235,4|0,0:0|0:0,0:0:0:0:
481,140,56100,2,0,P|440:140|399:156,1,83.9999974365235,4|8,0:0|0:0,0:0:0:0:
168,302,56453,1,4,0:0:0:0:
357,311,56629,53,4,0:0:0:0:
364,286,56717,1,0,0:0:0:0:
377,264,56806,1,0,0:0:0:0:
393,245,56894,1,0,0:0:0:0:
413,230,56982,1,0,0:0:0:0:
436,220,57070,1,0,0:0:0:0:
460,214,57158,1,4,0:0:0:0:
419,184,57247,1,0,0:0:0:0:
369,174,57335,1,0,0:0:0:0:
319,185,57423,1,0,0:0:0:0:
280,218,57511,1,0,0:0:0:0:
254,261,57600,1,0,0:0:0:0:
233,306,57688,1,4,0:0:0:0:
190,332,57776,1,0,0:0:0:0:
139,332,57864,1,0,0:0:0:0:
93,310,57953,1,0,0:0:0:0:
78,261,58041,69,4,0:2:0:0:
155,30,58217,1,0,0:0:0:0:
124,37,58306,1,0,0:0:0:0:
94,44,58394,1,0,0:0:0:0:
306,178,58570,1,4,0:0:0:0:
74,146,58746,1,0,0:0:0:0:
43,153,58835,1,0,0:0:0:0:
13,160,58923,1,0,0:0:0:0:
252,96,59100,1,4,0:0:0:0:
187,201,59276,1,0,0:0:0:0:
388,267,59453,22,0,P|369:305|342:327,1,77.0000023498536,4|0,0:0|0:0,0:0:0:0:
320,331,59717,1,0,0:0:0:0:
296,327,59806,1,0,0:0:0:0:
218,129,59982,1,0,0:0:0:0:
240,134,60070,1,0,0:0:0:0:
260,143,60158,1,0,0:0:0:0:
279,157,60247,1,0,0:0:0:0:
293,174,60335,1,4,0:0:0:0:
38,185,60511,1,0,0:0:0:0:
105,280,60688,1,0,0:0:0:0:
87,20,60864,5,4,0:2:0:0:
267,69,61041,1,0,0:0:0:0:
237,76,61129,1,0,0:0:0:0:
207,83,61217,1,0,0:0:0:0:
414,121,61394,1,0,0:0:0:0:
114,109,61570,1,8,0:0:0:0:
356,36,61747,1,4,0:0:0:0:
306,250,61923,1,4,0:0:0:0:
331,143,62100,1,0,0:0:0:0:
279,384,62276,37,4,0:0:0:0:
160,346,62453,1,0,0:0:0:0:
130,338,62541,1,0,0:0:0:0:
100,329,62629,1,0,0:0:0:0:
354,304,62806,1,4,0:0:0:0:
145,244,62982,1,0,0:0:0:0:
115,236,63070,1,0,0:0:0:0:
85,227,63158,1,0,0:0:0:0:
354,304,63335,1,4,0:0:0:0:
358,308,63688,22,0,P|319:315|281:310,1,77.0000023498536,4|0,0:2|0:0,0:0:0:0:
251,303,63953,1,0,0:0:0:0:
220,296,64041,1,0,0:0:0:0:
452,225,64217,1,4,0:0:0:0:
316,212,64394,1,0,0:0:0:0:
285,205,64482,1,0,0:0:0:0:
255,197,64570,1,0,0:0:0:0:
463,271,64747,1,4,0:0:0:0:
392,354,64923,1,0,0:0:0:0:
471,113,65100,6,0,P|445:84|392:67,1,77.0000023498536,4|0,0:0|0:0,0:0:0:0:
379,64,65364,1,0,0:0:0:0:
347,66,65453,1,0,0:0:0:0:
329,228,65629,1,0,0:0:0:0:
350,236,65717,1,0,0:0:0:0:
373,239,65806,1,0,0:0:0:0:
396,238,65894,1,0,0:0:0:0:
418,234,65982,1,4,0:0:0:0:
231,154,66158,2,0,P|269:144|307:142,1,77.0000023498536
180,259,66511,38,0,P|234:240|291:229,1,115.50000352478,4|0,0:2|0:0,0:0:0:0:
322,228,66864,1,0,0:0:0:0:
284,327,67041,1,0,0:0:0:0:
248,36,67217,1,8,0:0:0:0:
180,259,67394,1,4,0:0:0:0:
388,218,67570,1,4,0:0:0:0:
328,140,67747,1,0,0:0:0:0:
460,313,67923,21,4,0:0:0:0:
471,328,68011,1,0,0:0:0:0:
483,342,68100,1,0,0:0:0:0:
494,357,68188,1,0,0:0:0:0:
455,356,68276,69,0,0:0:0:0:
418,343,68364,1,0,0:0:0:0:
385,323,68453,1,4,0:0:0:0:
357,296,68541,1,0,0:0:0:0:
335,263,68629,1,0,0:0:0:0:
321,226,68717,1,0,0:0:0:0:
307,190,68806,1,4,0:0:0:0:
286,157,68894,1,0,0:0:0:0:
259,129,68982,1,0,0:0:0:0:
223,113,69070,1,0,0:0:0:0:
184,111,69158,1,4,0:0:0:0:
148,125,69247,1,4,0:0:0:0:
121,153,69335,37,4,0:2:0:0:
68,330,69688,2,0,L|94:241,1,92.3999997180176
121,153,70041,1,8,0:2:0:0:
147,64,70217,1,0,0:0:0:0:
121,153,70394,1,0,0:0:0:0:
335,375,70747,6,0,L|307:286,1,92.3999997180176,4|0,0:0|0:0,0:0:0:0:
280,198,71100,1,4,0:0:0:0:
273,175,71188,1,0,0:0:0:0:
266,153,71276,1,0,0:0:0:0:
259,131,71364,1,0,0:0:0:0:
252,109,71452,1,0,0:0:0:0:
218,0,71629,1,0,0:0:0:0:
225,22,71717,1,0,0:0:0:0:
231,44,71805,1,0,0:0:0:0:
280,198,71982,1,0,0:0:0:0:
222,373,72158,70,0,L|279:198,1,184.799999436035,4|0,0:0|0:0,0:0:0:0:
306,108,72688,1,0,0:0:0:0:
306,108,72864,1,8,0:2:0:0:
251,285,73041,2,0,L|279:197,1,92.3999997180176
222,373,73570,6,0,L|194:284,1,92.3999997180176,4|0,0:0|0:0,0:0:0:0:
131,86,73923,1,4,0:0:0:0:
138,108,74011,1,0,0:0:0:0:
145,130,74099,1,0,0:0:0:0:
152,152,74187,1,0,0:0:0:0:
159,175,74275,1,0,0:0:0:0:
194,284,74453,1,0,0:0:0:0:
188,262,74541,1,0,0:0:0:0:
181,240,74628,1,0,0:0:0:0:
131,86,74806,1,0,0:0:0:0:
360,56,74982,70,0,L|333:144,2,92.3999997180176,4|0|0,0:0|0:0|0:0,0:0:0:0:
305,231,75511,1,0,0:0:0:0:
279,320,75688,2,0,L|306:231,1,92.3999997180176,8|0,0:2|0:0,0:0:0:0:
333,144,76041,1,0,0:0:0:0:
166,23,76394,6,0,L|191:103,1,83.9999974365235,4|0,0:0|0:0,0:0:0:0:
218,185,76747,1,4,0:0:0:0:
225,207,76835,1,0,0:0:0:0:
232,229,76923,1,0,0:0:0:0:
239,251,77011,1,0,0:0:0:0:
246,274,77099,1,0,0:0:0:0:
281,383,77277,1,0,0:0:0:0:
275,361,77365,1,0,0:0:0:0:
268,339,77452,1,0,0:0:0:0:
218,185,77629,1,0,0:0:0:0:
268,7,77806,70,0,L|242:96,1,92.3999997180176,4|0,0:0|0:0,0:0:0:0:
218,185,78158,1,0,0:0:0:0:
192,273,78335,1,0,0:0:0:0:
358,269,78511,2,0,L|384:179,1,92.3999997180176,8|0,0:2|0:0,0:0:0:0:
408,91,78864,1,0,0:0:0:0:
380,3,79217,6,0,L|408:91,1,92.3999997180176,4|0,0:0|0:0,0:0:0:0:
458,245,79570,1,4,0:0:0:0:
451,223,79658,1,0,0:0:0:0:
444,201,79746,1,0,0:0:0:0:
437,179,79834,1,0,0:0:0:0:
430,156,79922,1,0,0:0:0:0:
395,47,80100,1,0,0:0:0:0:
401,69,80188,1,0,0:0:0:0:
408,91,80275,1,0,0:0:0:0:
458,245,80453,1,0,0:0:0:0:
184,191,80629,6,0,P|239:182|294:191,1,112,4|0,0:0|0:0,0:0:0:0:
112,246,81158,2,0,P|102:190|111:135,1,112,8|0,0:0|0:0,0:0:0:0:
236,261,81688,2,0,P|245:316|236:371,1,112,4|2,0:0|0:0,0:0:0:0:
512,312,82217,53,0,0:0:0:0:
395,96,82394,1,0,0:0:0:0:
434,206,82570,1,2,0:0:0:0:
286,308,82747,1,0,0:0:0:0:
316,203,82923,1,0,0:0:0:0:
167,97,83100,1,2,0:0:0:0:
195,210,83276,1,0,0:0:0:0:
73,285,83453,54,0,P|63:229|72:174,1,112,4|0,0:0|0:0,0:0:0:0:
128,357,83982,2,0,P|72:366|17:357,1,112,8|0,0:0|0:0,0:0:0:0:
143,233,84511,2,0,P|198:223|253:232,1,112,4|2,0:0|0:0,0:0:0:0:
246,384,85041,37,0,0:0:0:0:
352,141,85217,1,0,0:0:0:0:
361,281,85394,1,2,0:0:0:0:
471,68,85570,1,0,0:0:0:0:
460,250,85747,53,0,0:0:0:0:
428,222,85835,1,0,0:0:0:0:
389,205,85923,1,0,0:0:0:0:
382,247,86011,1,0,0:0:0:0:
368,288,86100,1,0,0:0:0:0:
328,273,86188,1,0,0:0:0:0:
295,246,86276,38,0,P|243:214|148:218,1,140,4|0,0:0|0:0,0:0:0:0:
281,131,86806,1,8,0:0:0:0:
297,145,86894,1,0,0:0:0:0:
314,158,86982,2,0,P|346:170|381:173,1,70
505,114,87335,2,0,P|457:92|406:79,1,105,4|0,0:0|0:0,0:0:0:0:
385,78,87688,21,2,0:0:0:0:
223,171,87864,1,0,0:0:0:0:
145,128,88041,1,0,0:0:0:0:
391,204,88217,1,2,0:0:0:0:
215,290,88394,1,0,0:0:0:0:
145,249,88570,1,0,0:0:0:0:
400,352,88747,1,2,0:0:0:0:
206,384,88923,1,0,0:0:0:0:
439,250,89100,6,0,P|451:171|439:93,1,140,4|0,0:0|0:0,0:0:0:0:
360,352,89629,2,0,P|438:364|516:352,1,140,8|0,0:0|0:0,0:0:0:0:
338,175,90158,2,0,P|287:164|235:164,1,105,4|0,0:0|0:0,0:0:0:0:
200,170,90511,5,2,0:0:0:0:
200,170,90864,1,0,0:0:0:0:
304,322,91041,1,2,0:0:0:0:
90,341,91217,37,0,0:0:0:0:
102,309,91306,1,0,0:0:0:0:
108,276,91394,1,0,0:0:0:0:
105,242,91482,1,0,0:0:0:0:
96,209,91570,1,0,0:0:0:0:
90,176,91658,1,0,0:0:0:0:
90,142,91747,1,0,0:0:0:0:
97,109,91835,1,0,0:0:0:0:
113,80,91923,21,4,0:2:0:0:
181,149,92100,1,0,0:0:0:0:
208,239,92276,1,0,0:0:0:0:
188,336,92453,1,0,0:0:0:0:
181,149,92806,1,0,0:0:0:0:
188,336,92982,1,0,0:0:0:0:
275,168,93158,1,4,0:0:0:0:
306,347,93335,21,4,0:0:0:0:
337,255,93511,1,0,0:0:0:0:
391,175,93688,1,0,0:0:0:0:
468,114,93864,1,0,0:0:0:0:
337,255,94217,1,0,0:0:0:0:
468,114,94394,1,0,0:0:0:0:
449,324,94570,1,4,0:0:0:0:
304,68,94747,5,4,0:0:0:0:
260,152,94923,1,0,0:0:0:0:
254,244,95100,1,0,0:0:0:0:
291,334,95276,1,0,0:0:0:0:
165,190,95453,1,0,0:0:0:0:
254,244,95629,1,0,0:0:0:0:
291,334,95806,1,0,0:0:0:0:
165,190,95982,1,4,0:0:0:0:
364,70,96158,53,4,0:0:0:0:
334,164,96335,1,0,0:0:0:0:
285,245,96511,1,0,0:0:0:0:
210,308,96688,2,0,P|182:324|142:335,1,70,4|0,0:0|0:0,0:0:0:0:
50,319,97041,1,0,0:0:0:0:
247,226,97217,2,0,P|275:248|292:278,1,70,4|0,0:0|0:0,0:0:0:0:
320,370,97570,53,4,0:2:0:0:
390,300,97747,1,0,0:0:0:0:
420,203,97923,1,0,0:0:0:0:
412,100,98100,1,4,0:0:0:0:
390,300,98453,1,0,0:0:0:0:
412,100,98629,1,4,0:0:0:0:
412,100,98806,1,4,0:0:0:0:
232,271,98982,37,4,0:0:0:0:
213,177,99158,1,0,0:0:0:0:
185,84,99335,1,0,0:0:0:0:
133,0,99511,1,4,0:0:0:0:
213,177,99864,1,0,0:0:0:0:
133,0,100041,1,4,0:0:0:0:
133,0,100217,1,4,0:0:0:0:
88,243,100394,53,4,0:0:0:0:
121,149,100570,1,0,0:0:0:0:
182,75,100747,1,0,0:0:0:0:
265,30,100923,1,4,0:0:0:0:
87,104,101100,1,0,0:0:0:0:
182,75,101276,1,0,0:0:0:0:
265,30,101453,1,4,0:0:0:0:
265,30,101629,1,4,0:0:0:0:
262,171,101806,37,4,0:0:0:0:
258,167,101894,2,0,L|213:162,1,35,8|0,0:0|0:0,0:0:0:0:
272,135,102070,2,0,L|235:119,1,35,8|0,0:0|0:0,0:0:0:0:
460,88,102335,1,4,0:0:0:0:
460,94,102423,2,0,L|507:113,1,35,8|0,0:0|0:0,0:0:0:0:
442,122,102600,2,0,L|480:147,1,35,8|0,0:0|0:0,0:0:0:0:
336,263,102864,6,0,L|325:234,3,17.5,4|0|0|0,0:0|0:0|0:0|0:0,0:0:0:0:
308,275,103041,2,0,L|317:301,3,17.5
277,285,103217,70,0,P|222:298|178:295,1,90.9999958343508,4|0,0:2|0:0,0:0:0:0:
3,211,103570,2,0,P|53:231|92:233,1,90.9999958343508,8|4,0:0|0:0,0:0:0:0:
290,170,103923,1,0,0:0:0:0:
55,105,104100,2,0,P|100:122|145:130,1,90.9999958343508,4|8,0:0|0:0,0:0:0:0:
195,321,104453,2,0,P|143:334|97:331,1,90.9999958343508,4|4,0:0|0:0,0:0:0:0:
11,229,104806,22,0,P|57:228|102:236,1,90.9999958343508,0|4,0:0|0:0,0:0:0:0:
387,291,105158,69,4,0:0:0:0:
411,277,105247,1,8,0:0:0:0:
434,262,105335,1,8,0:0:0:0:
425,218,105423,1,0,0:0:0:0:
401,181,105511,1,4,0:0:0:0:
362,159,105600,1,0,0:0:0:0:
317,157,105688,1,4,0:0:0:0:
280,183,105776,1,4,0:0:0:0:
237,198,105864,1,8,0:0:0:0:
191,202,105953,1,8,0:0:0:0:
148,182,106041,22,0,P|140:247|166:322,1,136.499993751526,4|0,0:2|0:0,0:0:0:0:
188,342,106394,1,8,0:0:0:0:
358,139,106570,2,0,P|326:174|234:197,1,136.499993751526,4|0,0:0|0:0,0:0:0:0:
112,127,106923,2,0,P|170:82|238:65,1,136.499993751526,4|8,0:0|0:0,0:0:0:0:
266,65,107276,1,0,0:0:0:0:
136,295,107453,37,4,0:0:0:0:
80,69,107629,1,0,0:0:0:0:
102,85,107717,1,0,0:0:0:0:
123,101,107806,1,8,0:0:0:0:
227,175,107982,5,4,0:0:0:0:
277,153,108070,1,8,0:0:0:0:
332,154,108158,1,8,0:0:0:0:
378,181,108247,1,0,0:0:0:0:
405,227,108335,1,8,0:0:0:0:
399,281,108423,1,0,0:0:0:0:
360,320,108511,1,8,0:0:0:0:
306,331,108600,1,8,0:0:0:0:
254,312,108688,1,4,0:0:0:0:
199,312,108776,1,4,0:0:0:0:
147,331,108864,5,4,0:2:0:0:
32,239,109041,1,0,0:0:0:0:
158,45,109217,1,8,0:0:0:0:
229,269,109394,2,0,P|186:256|141:261,1,90.9999958343508,4|0,0:0|0:0,0:0:0:0:
395,201,109747,1,4,0:0:0:0:
339,349,109923,1,8,0:0:0:0:
312,61,110100,1,4,0:0:0:0:
281,239,110276,5,4,0:0:0:0:
175,74,110453,2,0,P|124:76|74:94,1,90.9999958343508,0|8,0:0|0:0,0:0:0:0:
312,142,110806,1,4,0:0:0:0:
470,89,110982,1,4,0:0:0:0:
382,264,111158,1,0,0:0:0:0:
377,49,111335,1,4,0:0:0:0:
500,234,111511,1,8,0:0:0:0:
266,148,111688,38,0,P|200:126|119:136,1,136.499993751526,4|0,0:2|0:0,0:0:0:0:
110,144,112041,1,8,0:0:0:0:
161,317,112217,2,0,P|227:331|312:325,1,136.499993751526,4|0,0:0|0:0,0:0:0:0:
323,321,112570,1,4,0:0:0:0:
368,182,112747,1,8,0:0:0:0:
479,346,112923,1,4,0:0:0:0:
235,246,113100,5,4,0:0:0:0:
209,254,113188,1,4,0:0:0:0:
183,262,113276,1,8,0:0:0:0:
139,236,113364,1,8,0:0:0:0:
118,190,113453,1,0,0:0:0:0:
133,142,113541,1,0,0:0:0:0:
179,122,113629,1,4,0:0:0:0:
228,129,113717,1,4,0:0:0:0:
266,160,113806,1,4,0:0:0:0:
313,174,113894,1,8,0:0:0:0:
359,155,113982,1,8,0:0:0:0:
380,109,114070,1,8,0:0:0:0:
370,59,114158,1,4,0:0:0:0:
329,29,114247,1,4,0:0:0:0:
279,30,114335,1,8,0:0:0:0:
244,66,114423,1,8,0:0:0:0:
237,116,114511,5,4,0:2:0:0:
45,186,114688,1,0,0:0:0:0:
52,159,114776,1,0,0:0:0:0:
59,132,114864,1,8,0:0:0:0:
101,341,115041,1,0,0:0:0:0:
147,162,115217,1,4,0:0:0:0:
154,135,115305,1,0,0:0:0:0:
161,108,115393,1,0,0:0:0:0:
211,268,115570,1,8,0:0:0:0:
255,160,115747,1,0,0:0:0:0:
331,330,115923,5,4,0:0:0:0:
357,198,116100,1,0,0:0:0:0:
367,223,116188,1,0,0:0:0:0:
377,248,116276,1,8,0:0:0:0:
411,118,116453,1,0,0:0:0:0:
478,339,116629,1,4,0:0:0:0:
438,138,116806,2,0,P|468:174|480:217,1,90.9999958343508,0|8,0:0|0:0,0:0:0:0:
483,309,117158,1,0,0:0:0:0:
460,24,117335,38,0,P|411:61|335:62,1,136.499993751526,4|0,0:2|0:0,0:0:0:0:
311,57,117688,1,8,0:0:0:0:
256,204,117864,1,0,0:0:0:0:
213,21,118041,1,4,0:0:0:0:
149,196,118217,1,0,0:0:0:0:
73,369,118394,1,8,0:0:0:0:
207,265,118570,1,0,0:0:0:0:
14,284,118747,21,4,0:0:0:0:
119,114,118923,1,0,0:0:0:0:
104,137,119011,1,0,0:0:0:0:
89,160,119100,1,8,0:0:0:0:
280,20,119276,1,4,0:0:0:0:
204,181,119453,1,0,0:0:0:0:
192,205,119541,1,0,0:0:0:0:
180,229,119629,1,4,0:0:0:0:
280,20,119806,1,8,0:0:0:0:
459,347,120158,5,4,0:2:0:0:
427,181,120335,1,0,0:0:0:0:
418,206,120423,1,0,0:0:0:0:
409,231,120511,1,8,0:0:0:0:
480,13,120688,1,0,0:0:0:0:
317,171,120864,1,4,0:0:0:0:
308,196,120952,1,0,0:0:0:0:
299,221,121040,1,0,0:0:0:0:
381,10,121217,1,8,0:0:0:0:
381,10,121394,1,0,0:0:0:0:
161,129,121570,37,4,0:0:0:0:
210,289,121747,1,0,0:0:0:0:
218,314,121835,1,0,0:0:0:0:
226,339,121923,1,8,0:0:0:0:
272,141,122100,1,0,0:0:0:0:
325,266,122276,1,4,0:0:0:0:
336,290,122364,1,0,0:0:0:0:
347,314,122453,1,0,0:0:0:0:
152,175,122629,1,8,0:0:0:0:
91,288,122806,1,4,0:0:0:0:
212,26,122982,22,0,P|263:62|338:59,1,136.499993751526,4|0,0:2|0:0,0:0:0:0:
363,50,123335,1,8,0:0:0:0:
313,193,123511,1,4,0:0:0:0:
475,35,123688,1,0,0:0:0:0:
408,214,123864,1,4,0:0:0:0:
342,369,124041,1,0,0:0:0:0:
219,243,124217,1,4,0:0:0:0:
365,59,124394,69,4,0:0:0:0:
358,71,124482,1,4,0:0:0:0:
352,83,124570,1,8,0:0:0:0:
345,95,124658,1,8,0:0:0:0:
338,107,124747,1,8,0:0:0:0:
298,85,124835,1,0,0:0:0:0:
253,77,124923,1,0,0:0:0:0:
208,83,125011,1,0,0:0:0:0:
167,102,125100,1,4,0:0:0:0:
134,132,125188,1,4,0:0:0:0:
111,172,125276,1,8,0:0:0:0:
102,216,125364,1,8,0:0:0:0:
106,261,125453,1,8,0:0:0:0:
124,303,125541,1,8,0:0:0:0:
154,337,125629,1,4,0:0:0:0:
193,360,125717,1,4,0:0:0:0:
237,371,125806,21,4,0:2:0:0:
385,300,125982,1,0,0:0:0:0:
379,270,126070,1,0,0:0:0:0:
372,240,126158,1,8,0:0:0:0:
186,132,126335,1,0,0:0:0:0:
193,162,126423,1,0,0:0:0:0:
200,192,126511,1,4,0:0:0:0:
241,344,126688,1,0,0:0:0:0:
308,129,126864,2,0,P|351:114|417:116,1,105.000004005432,8|0,0:0|0:0,0:0:0:0:
172,281,127217,38,0,P|120:286|69:273,1,105.000004005432,4|0,0:0|0:0,0:0:0:0:
56,239,127482,1,0,0:0:0:0:
42,205,127570,1,8,0:0:0:0:
143,38,127747,1,0,0:0:0:0:
242,263,127923,1,4,0:0:0:0:
143,38,128100,1,0,0:0:0:0:
378,51,128276,2,0,P|332:66|274:68,1,105.000004005432,8|0,0:0|0:0,0:0:0:0:
374,306,128629,22,0,P|332:274|282:260,1,105.000004005432,4|0,0:2|0:0,0:0:0:0:
251,264,128894,1,0,0:0:0:0:
222,274,128982,1,8,0:0:0:0:
120,53,129158,1,4,0:0:0:0:
139,239,129335,2,0,P|181:209|231:192,1,105.000004005432,4|0,0:0|0:0,0:0:0:0:
262,187,129600,1,0,0:0:0:0:
293,188,129688,1,8,0:0:0:0:
419,3,129864,1,4,0:0:0:0:
474,260,130041,53,4,0:0:0:0:
458,287,130129,1,0,0:0:0:0:
344,239,130306,1,4,0:0:0:0:
348,270,130394,1,0,0:0:0:0:
169,255,130570,1,4,0:0:0:0:
169,286,130658,1,0,0:0:0:0:
56,284,130835,1,4,0:0:0:0:
72,310,130923,1,0,0:0:0:0:
256,155,131100,6,0,L|257:119,2,35.0000013351441,4|0|0,0:0|0:0|0:0,0:0:0:0:
303,188,131276,2,0,L|302:224,2,35.0000013351441
351,157,131453,21,4,0:2:0:0:
381,151,131541,1,0,0:0:0:0:
412,153,131629,1,0,0:0:0:0:
442,161,131717,1,0,0:0:0:0:
469,175,131806,2,0,P|492:197|502:216,1,52.5000020027161
359,308,131982,1,4,0:0:0:0:
329,314,132070,1,0,0:0:0:0:
298,312,132158,1,0,0:0:0:0:
268,304,132247,1,0,0:0:0:0:
241,290,132335,2,0,P|218:268|208:249,1,52.5000020027161
169,71,132511,1,4,0:0:0:0:
157,100,132600,1,0,0:0:0:0:
155,131,132688,2,0,P|157:164|160:187,1,52.5000020027161
312,125,132864,53,4,0:0:0:0:
342,117,132953,1,0,0:0:0:0:
373,115,133041,1,0,0:0:0:0:
403,122,133129,1,0,0:0:0:0:
431,135,133217,2,0,P|457:150|482:172,1,52.5000020027161
451,343,133394,1,4,0:0:0:0:
421,351,133482,1,0,0:0:0:0:
390,353,133570,1,0,0:0:0:0:
360,346,133658,1,0,0:0:0:0:
327,328,133747,1,4,0:0:0:0:
319,268,133835,1,0,0:0:0:0:
277,225,133923,1,0,0:0:0:0:
218,215,134011,1,0,0:0:0:0:
165,243,134100,1,4,0:0:0:0:
139,298,134188,1,0,0:0:0:0:
151,357,134276,69,4,0:2:0:0:
177,338,134364,1,0,0:0:0:0:
207,330,134453,1,0,0:0:0:0:
238,330,134541,1,0,0:0:0:0:
267,340,134629,2,0,P|289:353|311:373,1,52.5000020027161
395,187,134806,1,4,0:0:0:0:
365,198,134894,1,0,0:0:0:0:
334,203,134982,1,0,0:0:0:0:
302,201,135070,1,0,0:0:0:0:
271,192,135158,2,0,P|244:182|219:165,1,52.5000020027161
71,80,135335,1,4,0:0:0:0:
87,106,135423,1,0,0:0:0:0:
95,136,135511,2,0,P|94:163|76:192,1,52.5000020027161
306,29,135688,5,4,0:0:0:0:
312,93,135776,1,0,0:0:0:0:
342,151,135864,1,0,0:0:0:0:
390,195,135953,1,0,0:0:0:0:
451,217,136041,1,0,0:0:0:0:
435,243,136129,1,0,0:3:0:0:
415,267,136217,1,4,0:3:0:0:
389,283,136306,1,0,0:3:0:0:
359,292,136394,1,0,0:0:0:0:
307,282,136482,1,0,0:0:0:0:
255,290,136570,1,0,0:0:0:0:
209,313,136658,1,0,0:0:0:0:
173,351,136747,1,4,0:0:0:0:
148,305,136835,1,0,0:0:0:0:
109,270,136923,1,0,0:0:0:0:
61,249,137011,1,0,0:0:0:0:
9,245,137100,5,4,0:2:0:0:
4,212,137188,1,0,0:0:0:0:
5,180,137276,1,0,0:0:0:0:
10,149,137364,1,0,0:0:0:0:
18,119,137453,2,0,P|33:82|50:61,1,52.5000020027161
224,5,137629,1,4,0:0:0:0:
228,37,137717,1,0,0:0:0:0:
227,69,137806,1,0,0:0:0:0:
222,100,137894,1,0,0:0:0:0:
214,130,137982,2,0,P|198:166|181:187,1,52.5000020027161
127,325,138158,1,4,0:0:0:0:
158,335,138247,1,0,0:0:0:0:
190,339,138335,2,0,P|219:338|249:326,1,52.5000020027161
395,177,138511,69,4,0:0:0:0:
372,155,138600,1,0,0:0:0:0:
343,141,138688,1,0,0:0:0:0:
312,132,138776,1,0,0:0:0:0:
281,130,138864,2,0,P|243:129|217:141,1,52.5000020027161
347,292,139041,1,4,0:0:0:0:
317,304,139129,1,0,0:0:0:0:
285,307,139217,1,0,0:0:0:0:
254,257,139306,1,0,0:0:0:0:
209,220,139394,1,0,0:0:0:0:
153,206,139482,1,0,0:0:0:0:
96,217,139570,1,4,0:0:0:0:
130,169,139658,1,0,0:0:0:0:
145,113,139747,1,0,0:0:0:0:
135,56,139835,1,0,0:0:0:0:
109,4,139923,21,4,0:2:0:0:
139,12,140011,1,0,0:0:0:0:
167,24,140100,1,0,0:0:0:0:
195,37,140188,1,0,0:0:0:0:
218,58,140276,2,0,P|236:81|245:107,1,52.5000020027161
433,138,140453,1,4,0:0:0:0:
403,146,140541,1,0,0:0:0:0:
375,158,140629,1,0,0:0:0:0:
347,171,140717,1,0,0:0:0:0:
324,192,140806,2,0,P|306:215|297:241,1,52.5000020027161
133,159,140982,1,4,0:0:0:0:
153,182,141070,1,0,0:0:0:0:
168,209,141158,2,0,P|177:235|176:279,1,52.5000020027161
408,359,141335,53,4,0:0:0:0:
370,322,141423,1,0,0:0:0:0:
357,272,141511,1,0,0:0:0:0:
370,222,141600,1,0,0:0:0:0:
406,185,141688,1,0,0:0:0:0:
374,185,141776,1,0,0:0:0:0:
342,186,141864,1,4,0:0:0:0:
310,187,141953,1,0,0:0:0:0:
278,188,142041,1,0,0:0:0:0:
230,167,142129,1,0,0:0:0:0:
191,131,142217,1,0,0:0:0:0:
167,85,142306,1,0,0:0:0:0:
160,33,142394,1,4,0:0:0:0:
146,84,142482,1,0,0:0:0:0:
119,129,142570,1,0,0:0:0:0:
81,164,142658,1,0,0:0:0:0:
34,187,142747,69,4,0:2:0:0:
