osu file format v14

[General]
AudioFilename: audio.mp3
AudioLeadIn: 0
PreviewTime: 97542
Countdown: 0
SampleSet: None
StackLeniency: 0.2
Mode: 0
LetterboxInBreaks: 0
WidescreenStoryboard: 1

[Editor]
Bookmarks: 1569,12863,24157,35451,46745,69333,73558,80627,86274,91921,97569,103216,114510,125804,131451,142745
DistanceSpacing: 0.9
BeatDivisor: 8
GridSize: 4
TimelineZoom: 1.9

[Metadata]
Title:Letter From Heaven (Kuuchuu Toshi Ver)
TitleUnicode:Letter From Heaven (空中都市 Ver)
Artist:Ujico*
ArtistUnicode:Ujico*
Creator:gracefu
Version:Traveller Backup
Source:
Tags:snail's house snail electronic electronica mixture piano techno Japan
BeatmapID:1524099
BeatmapSetID:581515

[Difficulty]
HPDrainRate:6
CircleSize:3.4
OverallDifficulty:8
ApproachRate:8.8
SliderMultiplier:1.4
SliderTickRate:1

[Events]
//Background and Video events
0,0,"death_of_the_stairs_by_boosoohoo-d5k86dd.jpg",0,0
//Break Periods
//Storyboard Layer 0 (Background)
//Storyboard Layer 1 (Fail)
//Storyboard Layer 2 (Pass)
//Storyboard Layer 3 (Foreground)
//Storyboard Sound Samples

[TimingPoints]
159,352.941176470588,4,2,0,10,1,0
1394,-100,4,2,1,5,0,0
1570,-100,4,2,0,25,0,0
7217,-100,4,2,0,30,0,0
12864,-75.7575757575758,4,3,0,45,0,0
24158,-125,4,3,0,45,0,0
35453,-100,4,3,0,50,0,0
46747,-83.3333333333333,4,3,0,55,0,1
57953,-83.3333333333333,4,3,0,55,0,0
58041,-90.9090909090909,4,3,0,55,0,1
69335,-75.7575757575758,4,3,0,45,0,0
80629,-125,4,3,0,45,0,0
85747,-125,4,3,0,55,0,0
86276,-100,4,3,0,55,0,0
91923,-100,4,3,0,50,0,0
103217,-76.9230769230769,4,3,0,55,0,1
114423,-76.9230769230769,4,3,0,55,0,0
114511,-76.9230769230769,4,3,0,55,0,1
125717,-76.9230769230769,4,3,0,55,0,0
125806,-66.6666666666667,4,3,0,55,0,1
131806,-66.6666666666667,4,3,0,40,0,1
131982,-66.6666666666667,4,3,0,55,0,1
132335,-66.6666666666667,4,3,0,40,0,1
132511,-66.6666666666667,4,3,0,55,0,1
132688,-66.6666666666667,4,3,0,40,0,1
132864,-66.6666666666667,4,3,0,55,0,1
133217,-66.6666666666667,4,3,0,40,0,1
133394,-66.6666666666667,4,3,0,55,0,1
134629,-66.6666666666667,4,3,0,40,0,1
134806,-66.6666666666667,4,3,0,55,0,1
135158,-66.6666666666667,4,3,0,40,0,1
135335,-66.6666666666667,4,3,0,55,0,1
135511,-66.6666666666667,4,3,0,40,0,1
135688,-66.6666666666667,4,3,0,55,0,1
137453,-66.6666666666667,4,3,0,40,0,1
137629,-66.6666666666667,4,3,0,55,0,1
137982,-66.6666666666667,4,3,0,40,0,1
138158,-66.6666666666667,4,3,0,55,0,1
138335,-66.6666666666667,4,3,0,40,0,1
138511,-66.6666666666667,4,3,0,55,0,1
138864,-66.6666666666667,4,3,0,40,0,1
139041,-66.6666666666667,4,3,0,55,0,1
140276,-66.6666666666667,4,3,0,40,0,1
140453,-66.6666666666667,4,3,0,55,0,1
140806,-66.6666666666667,4,3,0,40,0,1
140982,-66.6666666666667,4,3,0,55,0,1
141158,-66.6666666666667,4,3,0,40,0,1
141335,-66.6666666666667,4,3,0,55,0,1
142747,-76.9230769230769,4,3,0,55,0,0

[Colours]
Combo1 : 103,103,103
Combo2 : 113,235,12
Combo3 : 0,64,236
Combo4 : 191,242,18
Combo5 : 67,249,117
Combo6 : 122,122,122

[HitObjects]
256,192,159,12,0,1394,0:0:0:0:
256,192,1570,69,0,0:0:0:0:
256,80,2276,1,0,0:0:0:0:
256,304,2982,1,0,0:0:0:0:
256,368,4394,54,0,L|256:348,1,17.5
256,368,5806,6,0,L|256:348,1,17.5
256,192,7217,5,2,0:0:0:0:
256,192,7570,1,0,0:0:0:0:
144,192,7747,1,2,0:0:0:0:
368,192,7923,1,8,0:0:0:0:
256,192,8100,1,0,0:0:0:0:
256,192,8276,1,0,0:0:0:0:
144,192,8629,5,2,0:0:0:0:
256,192,8806,1,0,0:0:0:0:
368,192,8982,2,0,L|404:192,4,35
256,304,9511,2,0,L|256:340,2,35
256,192,9864,1,0,0:0:0:0:
144,192,10041,69,2,0:0:0:0:
256,192,10394,1,0,0:0:0:0:
256,80,10570,1,0,0:0:0:0:
256,304,10747,1,8,0:0:0:0:
256,192,10923,1,0,0:0:0:0:
256,192,11100,1,0,0:0:0:0:
368,192,11453,5,2,0:0:0:0:
256,192,11629,1,0,0:0:0:0:
144,192,11806,2,0,L|108:192,4,35
256,80,12335,2,0,L|256:44,2,35
256,192,12688,21,0,0:0:0:0:
459,308,12864,38,0,L|431:219,1,92.3999997180176,4|0,0:0|0:0,0:0:0:0:
374,43,13217,1,0,0:0:0:0:
402,132,13394,1,0,0:0:0:0:
237,129,13570,2,0,L|208:41,1,92.3999997180176,8|0,0:2|0:0,0:0:0:0:
264,217,13923,1,0,0:2:0:0:
236,305,14276,6,0,L|265:215,1,92.3999997180176
323,41,14629,2,0,L|309:85,4,46.1999998590088,4|0|0|0|0,0:0|2:0|2:0|2:0|2:0,0:0:0:0:
265,217,15158,2,0,L|279:173,2,46.1999998590088,0|0|0,0:0|2:0|0:0,0:0:0:0:
236,305,15511,1,0,0:0:0:0:
458,308,15688,70,0,L|430:217,1,92.3999997180176,4|0,0:0|0:0,0:0:0:0:
374,43,16041,1,0,0:0:0:0:
402,132,16218,1,0,0:0:0:0:
236,129,16394,1,8,0:2:0:0:
208,40,16570,1,0,0:0:0:0:
264,217,16747,2,0,L|236:126,1,92.3999997180176
167,347,17100,6,0,L|196:257,1,92.3999997180176
250,84,17453,2,0,L|237:128,4,46.1999998590088,4|0|0|0|0,0:0|2:0|2:0|2:0|2:0,0:0:0:0:
196,259,17982,2,0,L|209:215,2,46.1999998590088,0|0|0,0:0|2:0|2:0,0:0:0:0:
167,347,18335,1,0,0:0:0:0:
85,90,18511,70,0,L|114:180,1,92.3999997180176,4|0,0:0|0:0,0:0:0:0:
139,258,18864,1,0,0:0:0:0:
167,347,19041,1,0,0:0:0:0:
305,347,19217,1,8,0:2:0:0:
277,258,19394,1,0,0:0:0:0:
305,347,19570,1,0,0:0:0:0:
444,347,19747,1,4,0:0:0:0:
167,347,19923,6,0,L|196:257,1,92.3999997180176
224,171,20276,2,0,L|196:259,1,92.3999997180176
252,83,20629,2,0,L|224:171,1,92.3999997180176
167,347,20982,1,0,0:0:0:0:
29,347,21158,1,4,0:0:0:0:
305,347,21335,69,4,0:0:0:0:
283,255,21511,1,0,0:0:0:0:
261,163,21688,1,0,0:0:0:0:
239,71,21864,1,0,0:0:0:0:
144,71,22041,1,0,0:0:0:0:
122,163,22217,1,0,0:0:0:0:
100,255,22394,1,0,0:0:0:0:
78,346,22570,37,4,0:0:0:0:
256,192,24158,6,0,P|200:180|148:192,1,112,4|0,0:0|0:0,0:0:0:0:
203,267,24688,2,0,P|259:279|311:267,1,112,8|0,0:0|0:0,0:0:0:0:
128,213,25217,2,0,P|116:269|128:321,1,112,4|0,0:0|0:0,0:0:0:0:
235,341,25747,21,0,0:0:0:0:
435,229,25923,1,0,0:0:0:0:
329,241,26100,1,0,0:0:0:0:
132,153,26276,1,0,0:0:0:0:
240,169,26453,1,0,0:0:0:0:
423,71,26629,1,2,0:0:0:0:
323,91,26806,1,0,0:0:0:0:
329,320,26982,70,0,P|385:332|437:320,1,112,4|0,0:0|0:0,0:0:0:0:
382,245,27511,2,0,P|326:233|274:245,1,112,8|0,0:0|0:0,0:0:0:0:
457,299,28041,2,0,P|469:243|457:191,1,112,4|0,0:0|0:0,0:0:0:0:
359,153,28570,21,0,0:0:0:0:
147,234,28747,1,0,0:0:0:0:
247,221,28923,1,2,0:0:0:0:
447,327,29100,1,0,0:0:0:0:
351,299,29276,1,0,0:0:0:0:
141,380,29453,1,2,0:0:0:0:
240,362,29629,1,0,0:0:0:0:
173,125,29806,6,0,P|117:113|65:125,1,112,4|0,0:0|0:0,0:0:0:0:
120,200,30335,2,0,P|176:212|228:200,1,112,8|0,0:0|0:0,0:0:0:0:
45,146,30864,2,0,P|33:202|45:254,1,112,4|2,0:0|0:0,0:0:0:0:
147,297,31394,53,0,0:0:0:0:
366,225,31570,1,0,0:0:0:0:
265,251,31747,1,2,0:0:0:0:
70,149,31923,1,0,0:0:0:0:
174,173,32100,1,0,0:0:0:0:
354,71,32276,1,2,0:0:0:0:
253,90,32453,1,0,0:0:0:0:
364,275,32629,54,0,P|352:219|364:167,1,112,4|0,0:0|0:0,0:0:0:0:
439,222,33158,2,0,P|451:278|439:330,1,112,8|0,0:0|0:0,0:0:0:0:
386,147,33688,2,0,P|426:136|472:141,1,84,4|0,0:0|0:0,0:0:0:0:
494,148,34041,37,0,0:0:0:0:
494,148,34394,1,0,0:0:0:0:
445,229,34570,1,0,0:0:0:0:
365,285,34747,21,0,0:0:0:0:
340,299,34835,1,0,0:0:0:0:
314,308,34923,1,0,0:0:0:0:
286,312,35011,1,0,0:0:0:0:
258,310,35099,1,0,0:0:0:0:
231,303,35188,1,0,0:0:0:0:
206,292,35276,1,0,0:0:0:0:
183,276,35364,1,0,0:0:0:0:
163,255,35452,21,4,0:2:0:0:
194,170,35629,1,0,0:0:0:0:
263,109,35806,1,0,0:0:0:0:
351,84,35982,1,0,0:0:0:0:
194,170,36335,1,0,0:0:0:0:
351,84,36511,1,0,0:0:0:0:
448,245,36864,5,4,0:0:0:0:
369,193,37041,1,0,0:0:0:0:
279,166,37217,1,0,0:0:0:0:
185,166,37394,1,0,0:0:0:0:
369,193,37747,1,0,0:0:0:0:
185,166,37923,1,0,0:0:0:0:
87,305,38276,21,4,0:0:0:0:
163,246,38453,1,0,0:0:0:0:
247,199,38629,1,0,0:0:0:0:
341,176,38806,1,0,0:0:0:0:
146,196,38982,1,0,0:0:0:0:
247,199,39158,1,0,0:0:0:0:
341,176,39335,1,0,0:0:0:0:
341,176,39511,1,4,0:0:0:0:
306,338,39688,69,4,0:0:0:0:
209,325,39864,1,0,0:0:0:0:
120,291,40041,1,0,0:0:0:0:
43,233,40217,1,0,0:0:0:0:
306,338,40570,1,0,0:0:0:0:
120,291,40747,1,0,0:0:0:0:
120,291,40923,1,4,0:0:0:0:
58,83,41100,37,4,0:2:0:0:
157,84,41276,1,0,0:0:0:0:
250,116,41453,1,0,0:0:0:0:
314,190,41629,1,0,0:0:0:0:
157,84,41982,1,0,0:0:0:0:
314,190,42158,1,0,0:0:0:0:
314,190,42335,1,4,0:0:0:0:
500,152,42511,21,4,0:0:0:0:
405,161,42688,1,0,0:0:0:0:
314,190,42864,1,0,0:0:0:0:
240,251,43041,1,0,0:0:0:0:
405,161,43394,1,0,0:0:0:0:
240,251,43570,1,0,0:0:0:0:
240,251,43747,1,4,0:0:0:0:
62,175,43923,69,4,0:0:0:0:
154,205,44100,1,0,0:0:0:0:
240,251,44276,1,0,0:0:0:0:
313,313,44453,1,0,0:0:0:0:
176,173,44629,1,0,0:0:0:0:
240,251,44806,1,0,0:0:0:0:
313,313,44982,1,0,0:0:0:0:
313,313,45158,1,4,0:0:0:0:
167,323,45335,37,4,0:0:0:0:
163,319,45423,2,0,L|110:326,1,35,8|0,0:0|0:0,0:0:0:0:
139,294,45600,2,0,L|100:296,1,35,8|0,0:0|0:0,0:0:0:0:
54,156,45864,1,4,0:0:0:0:
50,160,45953,2,0,L|8:156,1,35,8|0,0:0|0:0,0:0:0:0:
40,190,46129,2,0,L|0:191,1,35,8|0,0:0|0:0,0:0:0:0:
180,168,46394,6,0,L|167:141,3,17.5,4|0|0|0,0:0|0:0|0:0|0:0,0:0:0:0:
210,168,46570,2,0,L|224:196,3,17.5,4|0|0|0,0:0|0:0|0:0|0:0,0:0:0:0:
246,169,46747,6,0,P|306:148|406:181,1,167.999994873047,4|8,0:0|0:0,0:0:0:0:
440,267,47276,1,4,0:0:0:0:
192,342,47453,1,0,0:0:0:0:
403,178,47629,2,0,P|357:182|321:197,1,83.9999974365235,4|0,0:0|0:0,0:0:0:0:
120,299,47982,2,0,P|154:290|221:287,1,83.9999974365235,4|4,0:0|0:0,0:0:0:0:
440,349,48335,6,0,P|386:366|338:371,1,83.9999974365235,0|8,0:0|0:0,0:0:0:0:
302,79,48688,53,4,0:0:0:0:
293,92,48776,1,0,0:0:0:0:
283,105,48864,1,0,0:0:0:0:
308,139,48953,1,0,0:0:0:0:
321,178,49041,1,8,0:0:0:0:
320,219,49129,1,0,0:0:0:0:
304,257,49217,1,0,0:0:0:0:
277,289,49306,1,0,0:0:0:0:
242,311,49394,1,4,0:0:0:0:
201,314,49482,1,0,0:0:0:0:
163,298,49570,5,4,0:0:0:0:
101,237,49747,1,0,0:0:0:0:
67,384,49923,1,8,0:0:0:0:
218,140,50100,2,0,P|311:146|346:167,1,125.999996154785,4|0,0:0|0:0,0:0:0:0:
430,294,50453,2,0,P|337:288|302:267,1,125.999996154785,4|0,0:0|0:0,0:0:0:0:
289,257,50806,1,8,0:0:0:0:
311,65,50982,5,4,0:0:0:0:
162,164,51158,1,0,0:0:0:0:
153,136,51247,1,0,0:0:0:0:
144,108,51335,1,8,0:0:0:0:
278,197,51511,53,4,0:0:0:0:
270,211,51600,1,0,0:0:0:0:
262,225,51688,1,0,0:0:0:0:
298,212,51776,1,0,0:0:0:0:
338,215,51864,1,4,0:0:0:0:
375,225,51953,1,0,0:0:0:0:
407,244,52041,1,0,0:0:0:0:
433,271,52129,1,0,0:0:0:0:
450,305,52217,1,4,0:0:0:0:
458,342,52306,1,0,0:0:0:0:
456,380,52394,69,4,0:2:0:0:
379,337,52570,1,0,0:0:0:0:
434,146,52747,1,8,0:0:0:0:
379,337,52923,2,0,P|337:360|255:359,1,125.999996154785,4|0,0:0|0:0,0:0:0:0:
230,347,53276,1,4,0:0:0:0:
118,224,53453,1,8,0:0:0:0:
370,230,53629,1,4,0:0:0:0:
236,14,53806,21,4,0:0:0:0:
424,119,53982,2,0,P|386:136|344:142,1,83.9999974365235,0|8,0:0|0:0,0:0:0:0:
196,143,54335,1,4,0:0:0:0:
465,200,54511,1,0,0:0:0:0:
409,19,54688,1,4,0:0:0:0:
339,202,54864,1,8,0:0:0:0:
504,88,55041,1,4,0:0:0:0:
138,98,55217,6,0,P|180:74|265:80,1,125.999996154785,4|0,0:0|0:0,0:0:0:0:
273,87,55570,1,8,0:0:0:0:
194,307,55747,2,0,P|154:306|112:291,1,83.9999974365235,4|0,0:0|0:0,0:0:0:0:
31,140,56100,2,0,P|72:140|113:156,1,83.9999974365235,4|8,0:0|0:0,0:0:0:0:
344,302,56453,1,4,0:0:0:0:
155,311,56629,53,4,0:0:0:0:
148,286,56717,1,0,0:0:0:0:
135,264,56806,1,0,0:0:0:0:
119,245,56894,1,0,0:0:0:0:
99,230,56982,1,0,0:0:0:0:
76,220,57070,1,0,0:0:0:0:
52,214,57158,1,4,0:0:0:0:
93,184,57247,1,0,0:0:0:0:
143,174,57335,1,0,0:0:0:0:
193,185,57423,1,0,0:0:0:0:
232,218,57511,1,0,0:0:0:0:
258,261,57600,1,0,0:0:0:0:
279,306,57688,1,4,0:0:0:0:
322,332,57776,1,0,0:0:0:0:
373,332,57864,1,0,0:0:0:0:
419,310,57953,1,0,0:0:0:0:
434,261,58041,69,4,0:2:0:0:
357,30,58217,1,0,0:0:0:0:
388,37,58306,1,0,0:0:0:0:
418,44,58394,1,0,0:0:0:0:
206,178,58570,1,4,0:0:0:0:
438,146,58746,1,0,0:0:0:0:
469,153,58835,1,0,0:0:0:0:
499,160,58923,1,0,0:0:0:0:
260,96,59100,1,4,0:0:0:0:
325,201,59276,1,0,0:0:0:0:
124,267,59453,22,0,P|143:305|170:327,1,77.0000023498536,4|0,0:0|0:0,0:0:0:0:
192,331,59717,1,0,0:0:0:0:
216,327,59806,1,0,0:0:0:0:
294,129,59982,1,0,0:0:0:0:
272,134,60070,1,0,0:0:0:0:
252,143,60158,1,0,0:0:0:0:
233,157,60247,1,0,0:0:0:0:
219,174,60335,1,4,0:0:0:0:
474,185,60511,1,0,0:0:0:0:
407,280,60688,1,0,0:0:0:0:
425,20,60864,5,4,0:2:0:0:
245,69,61041,1,0,0:0:0:0:
275,76,61129,1,0,0:0:0:0:
305,83,61217,1,0,0:0:0:0:
98,121,61394,1,0,0:0:0:0:
398,109,61570,1,8,0:0:0:0:
156,36,61747,1,4,0:0:0:0:
206,250,61923,1,4,0:0:0:0:
181,143,62100,1,0,0:0:0:0:
233,384,62276,37,4,0:0:0:0:
352,346,62453,1,0,0:0:0:0:
382,338,62541,1,0,0:0:0:0:
412,329,62629,1,0,0:0:0:0:
158,304,62806,1,4,0:0:0:0:
367,244,62982,1,0,0:0:0:0:
397,236,63070,1,0,0:0:0:0:
427,227,63158,1,0,0:0:0:0:
158,304,63335,1,4,0:0:0:0:
154,308,63688,22,0,P|193:315|231:310,1,77.0000023498536,4|0,0:2|0:0,0:0:0:0:
261,303,63953,1,0,0:0:0:0:
292,296,64041,1,0,0:0:0:0:
60,225,64217,1,4,0:0:0:0:
196,212,64394,1,0,0:0:0:0:
227,205,64482,1,0,0:0:0:0:
257,197,64570,1,0,0:0:0:0:
49,271,64747,1,4,0:0:0:0:
120,354,64923,1,0,0:0:0:0:
41,113,65100,6,0,P|67:84|120:67,1,77.0000023498536,4|0,0:0|0:0,0:0:0:0:
133,64,65364,1,0,0:0:0:0:
165,66,65453,1,0,0:0:0:0:
183,228,65629,1,0,0:0:0:0:
162,236,65717,1,0,0:0:0:0:
139,239,65806,1,0,0:0:0:0:
116,238,65894,1,0,0:0:0:0:
94,234,65982,1,4,0:0:0:0:
281,154,66158,2,0,P|243:144|205:142,1,77.0000023498536
332,259,66511,38,0,P|278:240|221:229,1,115.50000352478,4|0,0:2|0:0,0:0:0:0:
190,228,66864,1,0,0:0:0:0:
228,327,67041,1,0,0:0:0:0:
264,36,67217,1,8,0:0:0:0:
332,259,67394,1,4,0:0:0:0:
124,218,67570,1,4,0:0:0:0:
184,140,67747,1,0,0:0:0:0:
52,313,67923,21,4,0:0:0:0:
41,328,68011,1,0,0:0:0:0:
29,342,68100,1,0,0:0:0:0:
18,357,68188,1,0,0:0:0:0:
57,356,68276,69,0,0:0:0:0:
94,343,68364,1,0,0:0:0:0:
127,323,68453,1,4,0:0:0:0:
155,296,68541,1,0,0:0:0:0:
177,263,68629,1,0,0:0:0:0:
191,226,68717,1,0,0:0:0:0:
205,190,68806,1,4,0:0:0:0:
226,157,68894,1,0,0:0:0:0:
253,129,68982,1,0,0:0:0:0:
289,113,69070,1,0,0:0:0:0:
328,111,69158,1,4,0:0:0:0:
364,125,69247,1,4,0:0:0:0:
391,153,69335,37,4,0:2:0:0:
444,330,69688,2,0,L|418:241,1,92.3999997180176
391,153,70041,1,8,0:2:0:0:
365,64,70217,1,0,0:0:0:0:
391,153,70394,1,0,0:0:0:0:
177,375,70747,6,0,L|205:286,1,92.3999997180176,4|0,0:0|0:0,0:0:0:0:
232,198,71100,1,4,0:0:0:0:
239,175,71188,1,0,0:0:0:0:
246,153,71276,1,0,0:0:0:0:
253,131,71364,1,0,0:0:0:0:
260,109,71452,1,0,0:0:0:0:
294,0,71629,1,0,0:0:0:0:
287,22,71717,1,0,0:0:0:0:
281,44,71805,1,0,0:0:0:0:
232,198,71982,1,0,0:0:0:0:
290,373,72158,70,0,L|233:198,1,184.799999436035,4|0,0:0|0:0,0:0:0:0:
206,108,72688,1,0,0:0:0:0:
206,108,72864,1,8,0:2:0:0:
261,285,73041,2,0,L|233:197,1,92.3999997180176
290,373,73570,6,0,L|318:284,1,92.3999997180176,4|0,0:0|0:0,0:0:0:0:
381,86,73923,1,4,0:0:0:0:
374,108,74011,1,0,0:0:0:0:
367,130,74099,1,0,0:0:0:0:
360,152,74187,1,0,0:0:0:0:
353,175,74275,1,0,0:0:0:0:
318,284,74453,1,0,0:0:0:0:
324,262,74541,1,0,0:0:0:0:
331,240,74628,1,0,0:0:0:0:
381,86,74806,1,0,0:0:0:0:
152,56,74982,70,0,L|179:144,2,92.3999997180176,4|0|0,0:0|0:0|0:0,0:0:0:0:
207,231,75511,1,0,0:0:0:0:
233,320,75688,2,0,L|206:231,1,92.3999997180176,8|0,0:2|0:0,0:0:0:0:
179,144,76041,1,0,0:0:0:0:
346,23,76394,6,0,L|321:103,1,83.9999974365235,4|0,0:0|0:0,0:0:0:0:
294,185,76747,1,4,0:0:0:0:
287,207,76835,1,0,0:0:0:0:
280,229,76923,1,0,0:0:0:0:
273,251,77011,1,0,0:0:0:0:
266,274,77099,1,0,0:0:0:0:
231,383,77277,1,0,0:0:0:0:
237,361,77365,1,0,0:0:0:0:
244,339,77452,1,0,0:0:0:0:
294,185,77629,1,0,0:0:0:0:
244,7,77806,70,0,L|270:96,1,92.3999997180176,4|0,0:0|0:0,0:0:0:0:
294,185,78158,1,0,0:0:0:0:
320,273,78335,1,0,0:0:0:0:
154,269,78511,2,0,L|128:179,1,92.3999997180176,8|0,0:2|0:0,0:0:0:0:
104,91,78864,1,0,0:0:0:0:
132,3,79217,6,0,L|104:91,1,92.3999997180176,4|0,0:0|0:0,0:0:0:0:
54,245,79570,1,4,0:0:0:0:
61,223,79658,1,0,0:0:0:0:
68,201,79746,1,0,0:0:0:0:
75,179,79834,1,0,0:0:0:0:
82,156,79922,1,0,0:0:0:0:
117,47,80100,1,0,0:0:0:0:
111,69,80188,1,0,0:0:0:0:
104,91,80275,1,0,0:0:0:0:
54,245,80453,1,0,0:0:0:0:
328,191,80629,6,0,P|273:182|218:191,1,112,4|0,0:0|0:0,0:0:0:0:
400,246,81158,2,0,P|410:190|401:135,1,112,8|0,0:0|0:0,0:0:0:0:
276,261,81688,2,0,P|267:316|276:371,1,112,4|2,0:0|0:0,0:0:0:0:
0,312,82217,53,0,0:0:0:0:
117,96,82394,1,0,0:0:0:0:
78,206,82570,1,2,0:0:0:0:
226,308,82747,1,0,0:0:0:0:
196,203,82923,1,0,0:0:0:0:
345,97,83100,1,2,0:0:0:0:
317,210,83276,1,0,0:0:0:0:
439,285,83453,54,0,P|449:229|440:174,1,112,4|0,0:0|0:0,0:0:0:0:
384,357,83982,2,0,P|440:366|495:357,1,112,8|0,0:0|0:0,0:0:0:0:
369,233,84511,2,0,P|314:223|259:232,1,112,4|2,0:0|0:0,0:0:0:0:
266,384,85041,37,0,0:0:0:0:
160,141,85217,1,0,0:0:0:0:
151,281,85394,1,2,0:0:0:0:
41,68,85570,1,0,0:0:0:0:
52,250,85747,53,0,0:0:0:0:
84,222,85835,1,0,0:0:0:0:
123,205,85923,1,0,0:0:0:0:
130,247,86011,1,0,0:0:0:0:
144,288,86100,1,0,0:0:0:0:
184,273,86188,1,0,0:0:0:0:
217,246,86276,38,0,P|269:214|364:218,1,140,4|0,0:0|0:0,0:0:0:0:
231,131,86806,1,8,0:0:0:0:
215,145,86894,1,0,0:0:0:0:
198,158,86982,2,0,P|166:170|131:173,1,70
7,114,87335,2,0,P|55:92|106:79,1,105,4|0,0:0|0:0,0:0:0:0:
127,78,87688,21,2,0:0:0:0:
289,171,87864,1,0,0:0:0:0:
367,128,88041,1,0,0:0:0:0:
121,204,88217,1,2,0:0:0:0:
297,290,88394,1,0,0:0:0:0:
367,249,88570,1,0,0:0:0:0:
112,352,88747,1,2,0:0:0:0:
306,384,88923,1,0,0:0:0:0:
73,250,89100,6,0,P|61:171|73:93,1,140,4|0,0:0|0:0,0:0:0:0:
152,352,89629,2,0,P|74:364|-4:352,1,140,8|0,0:0|0:0,0:0:0:0:
174,175,90158,2,0,P|225:164|277:164,1,105,4|0,0:0|0:0,0:0:0:0:
312,170,90511,5,2,0:0:0:0:
312,170,90864,1,0,0:0:0:0:
208,322,91041,1,2,0:0:0:0:
422,341,91217,37,0,0:0:0:0:
410,309,91306,1,0,0:0:0:0:
404,276,91394,1,0,0:0:0:0:
407,242,91482,1,0,0:0:0:0:
416,209,91570,1,0,0:0:0:0:
422,176,91658,1,0,0:0:0:0:
422,142,91747,1,0,0:0:0:0:
415,109,91835,1,0,0:0:0:0:
399,80,91923,21,4,0:2:0:0:
331,149,92100,1,0,0:0:0:0:
304,239,92276,1,0,0:0:0:0:
324,336,92453,1,0,0:0:0:0:
331,149,92806,1,0,0:0:0:0:
324,336,92982,1,0,0:0:0:0:
237,168,93158,1,4,0:0:0:0:
206,347,93335,21,4,0:0:0:0:
175,255,93511,1,0,0:0:0:0:
121,175,93688,1,0,0:0:0:0:
44,114,93864,1,0,0:0:0:0:
175,255,94217,1,0,0:0:0:0:
44,114,94394,1,0,0:0:0:0:
63,324,94570,1,4,0:0:0:0:
208,68,94747,5,4,0:0:0:0:
252,152,94923,1,0,0:0:0:0:
258,244,95100,1,0,0:0:0:0:
221,334,95276,1,0,0:0:0:0:
347,190,95453,1,0,0:0:0:0:
258,244,95629,1,0,0:0:0:0:
221,334,95806,1,0,0:0:0:0:
347,190,95982,1,4,0:0:0:0:
148,70,96158,53,4,0:0:0:0:
178,164,96335,1,0,0:0:0:0:
227,245,96511,1,0,0:0:0:0:
302,308,96688,2,0,P|330:324|370:335,1,70,4|0,0:0|0:0,0:0:0:0:
462,319,97041,1,0,0:0:0:0:
265,226,97217,2,0,P|237:248|220:278,1,70,4|0,0:0|0:0,0:0:0:0:
192,370,97570,53,4,0:2:0:0:
122,300,97747,1,0,0:0:0:0:
92,203,97923,1,0,0:0:0:0:
100,100,98100,1,4,0:0:0:0:
122,300,98453,1,0,0:0:0:0:
100,100,98629,1,4,0:0:0:0:
100,100,98806,1,4,0:0:0:0:
280,271,98982,37,4,0:0:0:0:
299,177,99158,1,0,0:0:0:0:
327,84,99335,1,0,0:0:0:0:
379,0,99511,1,4,0:0:0:0:
299,177,99864,1,0,0:0:0:0:
379,0,100041,1,4,0:0:0:0:
379,0,100217,1,4,0:0:0:0:
424,243,100394,53,4,0:0:0:0:
391,149,100570,1,0,0:0:0:0:
330,75,100747,1,0,0:0:0:0:
247,30,100923,1,4,0:0:0:0:
425,104,101100,1,0,0:0:0:0:
330,75,101276,1,0,0:0:0:0:
247,30,101453,1,4,0:0:0:0:
247,30,101629,1,4,0:0:0:0:
250,171,101806,37,4,0:0:0:0:
254,167,101894,2,0,L|299:162,1,35,8|0,0:0|0:0,0:0:0:0:
240,135,102070,2,0,L|277:119,1,35,8|0,0:0|0:0,0:0:0:0:
52,88,102335,1,4,0:0:0:0:
52,94,102423,2,0,L|5:113,1,35,8|0,0:0|0:0,0:0:0:0:
70,122,102600,2,0,L|32:147,1,35,8|0,0:0|0:0,0:0:0:0:
176,263,102864,6,0,L|187:234,3,17.5,4|0|0|0,0:0|0:0|0:0|0:0,0:0:0:0:
204,275,103041,2,0,L|195:301,3,17.5
235,285,103217,70,0,P|290:298|334:295,1,90.9999958343508,4|0,0:2|0:0,0:0:0:0:
509,211,103570,2,0,P|459:231|420:233,1,90.9999958343508,8|4,0:0|0:0,0:0:0:0:
222,170,103923,1,0,0:0:0:0:
457,105,104100,2,0,P|412:122|367:130,1,90.9999958343508,4|8,0:0|0:0,0:0:0:0:
317,321,104453,2,0,P|369:334|415:331,1,90.9999958343508,4|4,0:0|0:0,0:0:0:0:
501,229,104806,22,0,P|455:228|410:236,1,90.9999958343508,0|4,0:0|0:0,0:0:0:0:
125,291,105158,69,4,0:0:0:0:
101,277,105247,1,8,0:0:0:0:
78,262,105335,1,8,0:0:0:0:
87,218,105423,1,0,0:0:0:0:
111,181,105511,1,4,0:0:0:0:
150,159,105600,1,0,0:0:0:0:
195,157,105688,1,4,0:0:0:0:
232,183,105776,1,4,0:0:0:0:
275,198,105864,1,8,0:0:0:0:
321,202,105953,1,8,0:0:0:0:
364,182,106041,22,0,P|372:247|346:322,1,136.499993751526,4|0,0:2|0:0,0:0:0:0:
324,342,106394,1,8,0:0:0:0:
154,139,106570,2,0,P|186:174|278:197,1,136.499993751526,4|0,0:0|0:0,0:0:0:0:
400,127,106923,2,0,P|342:82|274:65,1,136.499993751526,4|8,0:0|0:0,0:0:0:0:
246,65,107276,1,0,0:0:0:0:
376,295,107453,37,4,0:0:0:0:
432,69,107629,1,0,0:0:0:0:
410,85,107717,1,0,0:0:0:0:
389,101,107806,1,8,0:0:0:0:
285,175,107982,5,4,0:0:0:0:
235,153,108070,1,8,0:0:0:0:
180,154,108158,1,8,0:0:0:0:
134,181,108247,1,0,0:0:0:0:
107,227,108335,1,8,0:0:0:0:
113,281,108423,1,0,0:0:0:0:
152,320,108511,1,8,0:0:0:0:
206,331,108600,1,8,0:0:0:0:
258,312,108688,1,4,0:0:0:0:
313,312,108776,1,4,0:0:0:0:
365,331,108864,5,4,0:2:0:0:
480,239,109041,1,0,0:0:0:0:
354,45,109217,1,8,0:0:0:0:
283,269,109394,2,0,P|326:256|371:261,1,90.9999958343508,4|0,0:0|0:0,0:0:0:0:
117,201,109747,1,4,0:0:0:0:
173,349,109923,1,8,0:0:0:0:
200,61,110100,1,4,0:0:0:0:
231,239,110276,5,4,0:0:0:0:
337,74,110453,2,0,P|388:76|438:94,1,90.9999958343508,0|8,0:0|0:0,0:0:0:0:
200,142,110806,1,4,0:0:0:0:
42,89,110982,1,4,0:0:0:0:
130,264,111158,1,0,0:0:0:0:
135,49,111335,1,4,0:0:0:0:
12,234,111511,1,8,0:0:0:0:
246,148,111688,38,0,P|312:126|393:136,1,136.499993751526,4|0,0:2|0:0,0:0:0:0:
402,144,112041,1,8,0:0:0:0:
351,317,112217,2,0,P|285:331|200:325,1,136.499993751526,4|0,0:0|0:0,0:0:0:0:
189,321,112570,1,4,0:0:0:0:
144,182,112747,1,8,0:0:0:0:
33,346,112923,1,4,0:0:0:0:
277,246,113100,5,4,0:0:0:0:
303,254,113188,1,4,0:0:0:0:
329,262,113276,1,8,0:0:0:0:
373,236,113364,1,8,0:0:0:0:
394,190,113453,1,0,0:0:0:0:
379,142,113541,1,0,0:0:0:0:
333,122,113629,1,4,0:0:0:0:
284,129,113717,1,4,0:0:0:0:
246,160,113806,1,4,0:0:0:0:
199,174,113894,1,8,0:0:0:0:
153,155,113982,1,8,0:0:0:0:
132,109,114070,1,8,0:0:0:0:
142,59,114158,1,4,0:0:0:0:
183,29,114247,1,4,0:0:0:0:
233,30,114335,1,8,0:0:0:0:
268,66,114423,1,8,0:0:0:0:
275,116,114511,5,4,0:2:0:0:
467,186,114688,1,0,0:0:0:0:
460,159,114776,1,0,0:0:0:0:
453,132,114864,1,8,0:0:0:0:
411,341,115041,1,0,0:0:0:0:
365,162,115217,1,4,0:0:0:0:
358,135,115305,1,0,0:0:0:0:
351,108,115393,1,0,0:0:0:0:
301,268,115570,1,8,0:0:0:0:
257,160,115747,1,0,0:0:0:0:
181,330,115923,5,4,0:0:0:0:
155,198,116100,1,0,0:0:0:0:
145,223,116188,1,0,0:0:0:0:
135,248,116276,1,8,0:0:0:0:
101,118,116453,1,0,0:0:0:0:
34,339,116629,1,4,0:0:0:0:
74,138,116806,2,0,P|44:174|32:217,1,90.9999958343508,0|8,0:0|0:0,0:0:0:0:
29,309,117158,1,0,0:0:0:0:
52,24,117335,38,0,P|101:61|177:62,1,136.499993751526,4|0,0:2|0:0,0:0:0:0:
201,57,117688,1,8,0:0:0:0:
256,204,117864,1,0,0:0:0:0:
299,21,118041,1,4,0:0:0:0:
363,196,118217,1,0,0:0:0:0:
439,369,118394,1,8,0:0:0:0:
305,265,118570,1,0,0:0:0:0:
498,284,118747,21,4,0:0:0:0:
393,114,118923,1,0,0:0:0:0:
408,137,119011,1,0,0:0:0:0:
423,160,119100,1,8,0:0:0:0:
232,20,119276,1,4,0:0:0:0:
308,181,119453,1,0,0:0:0:0:
320,205,119541,1,0,0:0:0:0:
332,229,119629,1,4,0:0:0:0:
232,20,119806,1,8,0:0:0:0:
53,347,120158,5,4,0:2:0:0:
85,181,120335,1,0,0:0:0:0:
94,206,120423,1,0,0:0:0:0:
103,231,120511,1,8,0:0:0:0:
32,13,120688,1,0,0:0:0:0:
195,171,120864,1,4,0:0:0:0:
204,196,120952,1,0,0:0:0:0:
213,221,121040,1,0,0:0:0:0:
131,10,121217,1,8,0:0:0:0:
131,10,121394,1,0,0:0:0:0:
351,129,121570,37,4,0:0:0:0:
302,289,121747,1,0,0:0:0:0:
294,314,121835,1,0,0:0:0:0:
286,339,121923,1,8,0:0:0:0:
240,141,122100,1,0,0:0:0:0:
187,266,122276,1,4,0:0:0:0:
176,290,122364,1,0,0:0:0:0:
165,314,122453,1,0,0:0:0:0:
360,175,122629,1,8,0:0:0:0:
421,288,122806,1,4,0:0:0:0:
300,26,122982,22,0,P|249:62|174:59,1,136.499993751526,4|0,0:2|0:0,0:0:0:0:
149,50,123335,1,8,0:0:0:0:
199,193,123511,1,4,0:0:0:0:
37,35,123688,1,0,0:0:0:0:
104,214,123864,1,4,0:0:0:0:
170,369,124041,1,0,0:0:0:0:
293,243,124217,1,4,0:0:0:0:
147,59,124394,69,4,0:0:0:0:
154,71,124482,1,4,0:0:0:0:
160,83,124570,1,8,0:0:0:0:
167,95,124658,1,8,0:0:0:0:
174,107,124747,1,8,0:0:0:0:
214,85,124835,1,0,0:0:0:0:
259,77,124923,1,0,0:0:0:0:
304,83,125011,1,0,0:0:0:0:
345,102,125100,1,4,0:0:0:0:
378,132,125188,1,4,0:0:0:0:
401,172,125276,1,8,0:0:0:0:
410,216,125364,1,8,0:0:0:0:
406,261,125453,1,8,0:0:0:0:
388,303,125541,1,8,0:0:0:0:
358,337,125629,1,4,0:0:0:0:
319,360,125717,1,4,0:0:0:0:
275,371,125806,21,4,0:2:0:0:
127,300,125982,1,0,0:0:0:0:
133,270,126070,1,0,0:0:0:0:
140,240,126158,1,8,0:0:0:0:
326,132,126335,1,0,0:0:0:0:
319,162,126423,1,0,0:0:0:0:
312,192,126511,1,4,0:0:0:0:
271,344,126688,1,0,0:0:0:0:
204,129,126864,2,0,P|161:114|95:116,1,105.000004005432,8|0,0:0|0:0,0:0:0:0:
340,281,127217,38,0,P|392:286|443:273,1,105.000004005432,4|0,0:0|0:0,0:0:0:0:
456,239,127482,1,0,0:0:0:0:
470,205,127570,1,8,0:0:0:0:
369,38,127747,1,0,0:0:0:0:
270,263,127923,1,4,0:0:0:0:
369,38,128100,1,0,0:0:0:0:
134,51,128276,2,0,P|180:66|238:68,1,105.000004005432,8|0,0:0|0:0,0:0:0:0:
138,306,128629,22,0,P|180:274|230:260,1,105.000004005432,4|0,0:2|0:0,0:0:0:0:
261,264,128894,1,0,0:0:0:0:
290,274,128982,1,8,0:0:0:0:
392,53,129158,1,4,0:0:0:0:
373,239,129335,2,0,P|331:209|281:192,1,105.000004005432,4|0,0:0|0:0,0:0:0:0:
250,187,129600,1,0,0:0:0:0:
219,188,129688,1,8,0:0:0:0:
93,3,129864,1,4,0:0:0:0:
38,260,130041,53,4,0:0:0:0:
54,287,130129,1,0,0:0:0:0:
168,239,130306,1,4,0:0:0:0:
164,270,130394,1,0,0:0:0:0:
343,255,130570,1,4,0:0:0:0:
343,286,130658,1,0,0:0:0:0:
456,284,130835,1,4,0:0:0:0:
440,310,130923,1,0,0:0:0:0:
256,155,131100,6,0,L|255:119,2,35.0000013351441,4|0|0,0:0|0:0|0:0,0:0:0:0:
209,188,131276,2,0,L|210:224,2,35.0000013351441
161,157,131453,21,4,0:2:0:0:
131,151,131541,1,0,0:0:0:0:
100,153,131629,1,0,0:0:0:0:
70,161,131717,1,0,0:0:0:0:
43,175,131806,2,0,P|20:197|10:216,1,52.5000020027161
153,308,131982,1,4,0:0:0:0:
183,314,132070,1,0,0:0:0:0:
214,312,132158,1,0,0:0:0:0:
244,304,132247,1,0,0:0:0:0:
271,290,132335,2,0,P|294:268|304:249,1,52.5000020027161
343,71,132511,1,4,0:0:0:0:
355,100,132600,1,0,0:0:0:0:
357,131,132688,2,0,P|355:164|352:187,1,52.5000020027161
200,125,132864,53,4,0:0:0:0:
170,117,132953,1,0,0:0:0:0:
139,115,133041,1,0,0:0:0:0:
109,122,133129,1,0,0:0:0:0:
81,135,133217,2,0,P|55:150|30:172,1,52.5000020027161
61,343,133394,1,4,0:0:0:0:
91,351,133482,1,0,0:0:0:0:
122,353,133570,1,0,0:0:0:0:
152,346,133658,1,0,0:0:0:0:
185,328,133747,1,4,0:0:0:0:
193,268,133835,1,0,0:0:0:0:
235,225,133923,1,0,0:0:0:0:
294,215,134011,1,0,0:0:0:0:
347,243,134100,1,4,0:0:0:0:
373,298,134188,1,0,0:0:0:0:
361,357,134276,69,4,0:2:0:0:
335,338,134364,1,0,0:0:0:0:
305,330,134453,1,0,0:0:0:0:
274,330,134541,1,0,0:0:0:0:
245,340,134629,2,0,P|223:353|201:373,1,52.5000020027161
117,187,134806,1,4,0:0:0:0:
147,198,134894,1,0,0:0:0:0:
178,203,134982,1,0,0:0:0:0:
210,201,135070,1,0,0:0:0:0:
241,192,135158,2,0,P|268:182|293:165,1,52.5000020027161
441,80,135335,1,4,0:0:0:0:
425,106,135423,1,0,0:0:0:0:
417,136,135511,2,0,P|418:163|436:192,1,52.5000020027161
206,29,135688,5,4,0:0:0:0:
200,93,135776,1,0,0:0:0:0:
170,151,135864,1,0,0:0:0:0:
122,195,135953,1,0,0:0:0:0:
61,217,136041,1,0,0:0:0:0:
77,243,136129,1,0,0:3:0:0:
97,267,136217,1,4,0:3:0:0:
123,283,136306,1,0,0:3:0:0:
153,292,136394,1,0,0:0:0:0:
205,282,136482,1,0,0:0:0:0:
257,290,136570,1,0,0:0:0:0:
303,313,136658,1,0,0:0:0:0:
339,351,136747,1,4,0:0:0:0:
364,305,136835,1,0,0:0:0:0:
403,270,136923,1,0,0:0:0:0:
451,249,137011,1,0,0:0:0:0:
503,245,137100,5,4,0:2:0:0:
508,212,137188,1,0,0:0:0:0:
507,180,137276,1,0,0:0:0:0:
502,149,137364,1,0,0:0:0:0:
494,119,137453,2,0,P|479:82|462:61,1,52.5000020027161
288,5,137629,1,4,0:0:0:0:
284,37,137717,1,0,0:0:0:0:
285,69,137806,1,0,0:0:0:0:
290,100,137894,1,0,0:0:0:0:
298,130,137982,2,0,P|314:166|331:187,1,52.5000020027161
385,325,138158,1,4,0:0:0:0:
354,335,138247,1,0,0:0:0:0:
322,339,138335,2,0,P|293:338|263:326,1,52.5000020027161
117,177,138511,69,4,0:0:0:0:
140,155,138600,1,0,0:0:0:0:
169,141,138688,1,0,0:0:0:0:
200,132,138776,1,0,0:0:0:0:
231,130,138864,2,0,P|269:129|295:141,1,52.5000020027161
165,292,139041,1,4,0:0:0:0:
195,304,139129,1,0,0:0:0:0:
227,307,139217,1,0,0:0:0:0:
258,257,139306,1,0,0:0:0:0:
303,220,139394,1,0,0:0:0:0:
359,206,139482,1,0,0:0:0:0:
416,217,139570,1,4,0:0:0:0:
382,169,139658,1,0,0:0:0:0:
367,113,139747,1,0,0:0:0:0:
377,56,139835,1,0,0:0:0:0:
403,4,139923,21,4,0:2:0:0:
373,12,140011,1,0,0:0:0:0:
345,24,140100,1,0,0:0:0:0:
317,37,140188,1,0,0:0:0:0:
294,58,140276,2,0,P|276:81|267:107,1,52.5000020027161
79,138,140453,1,4,0:0:0:0:
109,146,140541,1,0,0:0:0:0:
137,158,140629,1,0,0:0:0:0:
165,171,140717,1,0,0:0:0:0:
188,192,140806,2,0,P|206:215|215:241,1,52.5000020027161
379,159,140982,1,4,0:0:0:0:
359,182,141070,1,0,0:0:0:0:
344,209,141158,2,0,P|335:235|336:279,1,52.5000020027161
104,359,141335,53,4,0:0:0:0:
142,322,141423,1,0,0:0:0:0:
155,272,141511,1,0,0:0:0:0:
142,222,141600,1,0,0:0:0:0:
106,185,141688,1,0,0:0:0:0:
138,185,141776,1,0,0:0:0:0:
170,186,141864,1,4,0:0:0:0:
202,187,141953,1,0,0:0:0:0:
234,188,142041,1,0,0:0:0:0:
282,167,142129,1,0,0:0:0:0:
321,131,142217,1,0,0:0:0:0:
345,85,142306,1,0,0:0:0:0:
352,33,142394,1,4,0:0:0:0:
366,84,142482,1,0,0:0:0:0:
393,129,142570,1,0,0:0:0:0:
431,164,142658,1,0,0:0:0:0:
478,187,142747,69,4,0:2:0:0:
