osu file format v14

[General]
AudioFilename: audio.mp3
AudioLeadIn: 0
PreviewTime: 43344
Countdown: 0
SampleSet: Soft
StackLeniency: 0.7
Mode: 3
LetterboxInBreaks: 0
SpecialStyle: 0
WidescreenStoryboard: 0

[Editor]
Bookmarks: 66658,76944,87915,100258,122201,133172,145515,156486,159229,170201,194886,216829,238772
DistanceSpacing: 0.4
BeatDivisor: 4
GridSize: 4
TimelineZoom: 2.2

[Metadata]
Title:Aa Kenran no Yume ga Gotoku (Epsilon Remix)
TitleUnicode:嗚呼 絢爛の泡沫が如く (Epsilon Remix)
Artist:Uinyasu, Occhoko Bunny
ArtistUnicode:ういにゃす・おっちょこバニー
Creator:Lude
Version:Reincarnation
Source:千の刃濤、桃花染の皇姫
Tags:Electronic Japanese Opening OP August Soft Thousand Blades Princess of Peach Blossom Sen no Hatou Tsukisome no Kouki Eroge Visual Novel VN Video Game Epsilon114 小高光太郎 Kotaro Kodaka ラムシーニ Ramsini
BeatmapID:2677294
BeatmapSetID:1289750

[Difficulty]
HPDrainRate:8.9
CircleSize:5
OverallDifficulty:8.3
ApproachRate:5
SliderMultiplier:1.4
SliderTickRate:1

[Events]
//Background and Video events
0,0,"extrabg.jpg",0,0
//Break Periods
2,77144,80544
//Storyboard Layer 0 (Background)
//Storyboard Layer 1 (Fail)
//Storyboard Layer 2 (Pass)
//Storyboard Layer 3 (Foreground)
//Storyboard Layer 4 (Overlay)
//Storyboard Sound Samples
Sample,168144,0,"LR3_ReverseFXG.wav",70
Sample,169515,0,"climax.wav",50

[TimingPoints]
830,342.857142857143,4,2,1,50,1,0
22430,-32.258064516129,4,2,1,50,0,0
22472,-100,4,2,1,50,0,0
22515,-111.111111111111,4,2,1,50,0,0
22558,-125,4,2,1,50,0,0
22601,-142.857142857143,4,2,1,50,0,0
22644,-166.666666666667,4,2,1,50,0,0
22687,-200,4,2,1,50,0,0
22730,-250,4,2,1,50,0,0
22772,-100,4,2,1,50,0,0
55344,-32.258064516129,4,2,1,50,0,0
55386,-100,4,2,1,50,0,0
55429,-111.111111111111,4,2,1,50,0,0
55472,-125,4,2,1,50,0,0
55515,-142.857142857143,4,2,1,50,0,0
55558,-166.666666666667,4,2,1,50,0,0
55601,-200,4,2,1,50,0,0
55644,-250,4,2,1,50,0,0
55686,-100,4,2,1,50,0,0
66315,-32.258064516129,4,2,1,50,0,0
66357,-100,4,2,1,50,0,0
66400,-111.111111111111,4,2,1,50,0,0
66443,-125,4,2,1,50,0,0
66486,-142.857142857143,4,2,1,50,0,0
66529,-166.666666666667,4,2,1,50,0,0
66572,-200,4,2,1,50,0,0
66615,-250,4,2,1,50,0,0
66657,-100,4,2,1,50,0,0
76944,342.857142857143,4,2,1,50,1,0
122201,-125,4,2,1,50,0,0
127686,-111.111111111111,4,2,1,50,0,0
130429,-100,4,2,1,50,0,0
158201,-50,4,2,1,50,0,0
158244,-133.333333333333,4,2,1,50,0,0
158372,-50,4,2,1,50,0,0
158415,-133.333333333333,4,2,1,50,0,0
158544,-50,4,2,1,50,0,0
158587,-133.333333333333,4,2,1,50,0,0
158886,-20,4,2,1,50,0,0
158928,-100,4,2,1,50,0,0
158971,-111.111111111111,4,2,1,50,0,0
159014,-125,4,2,1,50,0,0
159057,-142.857142857143,4,2,1,50,0,0
159100,-166.666666666667,4,2,1,50,0,0
159143,-200,4,2,1,50,0,0
159186,-250,4,2,1,50,0,0
159228,-20,4,2,1,50,0,0
159251,-142.857142857143,4,2,1,50,0,0
159572,-138.888888888889,4,2,1,50,0,0
159915,-135.135135135135,4,2,1,50,0,0
160258,-131.578947368421,4,2,1,50,0,0
160601,-129.87012987013,4,2,1,50,0,0
160944,-126.582278481013,4,2,1,50,0,0
161286,-123.456790123457,4,2,1,50,0,0
161629,-120.481927710843,4,2,1,50,0,0
161972,-117.647058823529,4,2,1,50,0,0
162315,-114.942528735632,4,2,1,50,0,0
162658,-112.359550561798,4,2,1,50,0,0
163001,-109.89010989011,4,2,1,50,0,0
163344,-107.52688172043,4,2,1,50,0,0
163686,-106.382978723404,4,2,1,50,0,0
164029,-104.166666666667,4,2,1,50,0,0
164372,-102.040816326531,4,2,1,50,0,0
164715,-100,4,2,1,50,0,0
180829,-32.258064516129,4,2,1,50,0,0
180871,-100,4,2,1,50,0,0
180914,-111.111111111111,4,2,1,50,0,0
180957,-125,4,2,1,50,0,0
181000,-142.857142857143,4,2,1,50,0,0
181043,-166.666666666667,4,2,1,50,0,0
181086,-200,4,2,1,50,0,0
181129,-250,4,2,1,50,0,0
181171,-100,4,2,1,50,0,0
194544,-32.258064516129,4,2,1,50,0,0
194586,-100,4,2,1,50,0,0
194629,-111.111111111111,4,2,1,50,0,0
194672,-125,4,2,1,50,0,0
194715,-142.857142857143,4,2,1,50,0,0
194758,-166.666666666667,4,2,1,50,0,0
194801,-200,4,2,1,50,0,0
194844,-250,4,2,1,50,0,0
194886,-100,4,2,1,50,0,1
216486,-32.258064516129,4,2,1,50,0,1
216528,-100,4,2,1,50,0,1
216571,-111.111111111111,4,2,1,50,0,1
216614,-125,4,2,1,50,0,1
216657,-142.857142857143,4,2,1,50,0,1
216700,-166.666666666667,4,2,1,50,0,1
216743,-200,4,2,1,50,0,1
216786,-250,4,2,1,50,0,1
216829,-100,4,2,1,50,0,0

[HitObjects]
153,192,829,5,2,0:0:0:0:
448,192,829,1,4,0:0:0:0:
51,192,829,1,0,0:0:0:0:
320,192,1001,1,0,0:0:0:0:
448,192,1172,1,2,0:0:0:0:
64,192,1172,1,0,0:0:0:0:
153,192,1172,1,0,0:0:0:0:
256,192,1344,1,0,0:0:0:0:
448,192,1515,1,2,0:0:0:0:
64,192,1515,1,0,0:0:0:0:
153,192,1515,1,0,0:0:0:0:
320,192,1687,128,0,1772:0:0:0:0:
320,192,1858,128,2,1944:0:0:0:0:
64,192,1858,1,0,0:0:0:0:
256,192,1858,1,0,0:0:0:0:
320,192,2030,128,0,2115:0:0:0:0:
448,192,2201,1,2,0:0:0:0:
64,192,2201,1,0,0:0:0:0:
256,192,2201,1,0,0:0:0:0:
192,192,2372,128,0,2544:0:0:0:0:
448,192,2544,1,2,0:0:0:0:
320,192,2544,1,0,0:0:0:0:
256,192,2544,1,0,0:0:0:0:
64,192,2715,1,0,0:0:0:0:
320,192,2887,128,2,3058:0:0:0:0:
192,192,2887,1,0,0:0:0:0:
256,192,2887,1,0,0:0:0:0:
448,192,3058,1,0,0:0:0:0:
192,192,3230,1,2,0:0:0:0:
64,192,3230,1,0,0:0:0:0:
256,192,3230,1,0,0:0:0:0:
358,192,3401,1,0,0:0:0:0:
320,192,3487,1,0,0:0:0:0:
448,192,3572,1,2,0:0:0:0:
64,192,3572,1,0,0:0:0:0:
153,192,3572,1,0,0:0:0:0:
320,192,3744,128,0,3915:0:0:0:0:
64,192,3915,1,2,0:0:0:0:
192,192,3915,1,0,0:0:0:0:
256,192,3915,1,0,0:0:0:0:
448,192,4087,1,0,0:0:0:0:
192,192,4258,128,2,4430:0:0:0:0:
320,192,4258,1,0,0:0:0:0:
256,192,4258,1,0,0:0:0:0:
64,192,4430,1,0,0:0:0:0:
448,192,4601,1,2,0:0:0:0:
320,192,4601,1,0,0:0:0:0:
256,192,4601,1,0,0:0:0:0:
153,192,4772,1,0,0:0:0:0:
192,192,4858,1,0,0:0:0:0:
448,192,4944,1,2,0:0:0:0:
64,192,4944,1,0,0:0:0:0:
256,192,4944,1,0,0:0:0:0:
320,192,5115,128,0,5287:0:0:0:0:
448,192,5287,1,2,0:0:0:0:
192,192,5287,1,0,0:0:0:0:
256,192,5287,1,0,0:0:0:0:
64,192,5458,1,0,0:0:0:0:
448,192,5630,128,2,5801:0:0:0:0:
320,192,5630,1,0,0:0:0:0:
153,192,5630,1,0,0:0:0:0:
64,192,5801,1,0,0:0:0:0:
320,192,5972,1,2,0:0:0:0:
192,192,5972,1,0,0:0:0:0:
460,192,5972,1,0,0:0:0:0:
256,192,6144,1,0,0:0:0:0:
256,192,6230,1,0,0:0:0:0:
320,192,6315,1,2,0:0:0:0:
448,192,6315,1,0,0:0:0:0:
51,192,6315,1,0,0:0:0:0:
192,192,6487,1,0,0:0:0:0:
320,192,6658,1,2,0:0:0:0:
64,192,6658,1,0,0:0:0:0:
460,192,6658,1,0,0:0:0:0:
192,192,6830,1,0,0:0:0:0:
448,192,7001,1,2,0:0:0:0:
256,192,7001,1,0,0:0:0:0:
51,192,7001,1,0,0:0:0:0:
192,192,7172,128,0,7258:0:0:0:0:
192,192,7344,128,2,7430:0:0:0:0:
448,192,7344,1,0,0:0:0:0:
358,192,7344,1,0,0:0:0:0:
192,192,7515,128,0,7601:0:0:0:0:
64,192,7687,1,2,0:0:0:0:
448,192,7687,1,0,0:0:0:0:
256,192,7687,1,0,0:0:0:0:
192,192,7858,128,0,8030:0:0:0:0:
64,192,8030,1,2,0:0:0:0:
448,192,8030,1,0,0:0:0:0:
256,192,8030,1,0,0:0:0:0:
320,192,8201,1,0,0:0:0:0:
192,192,8372,1,2,0:0:0:0:
64,192,8372,128,0,8544:0:0:0:0:
256,192,8372,1,0,0:0:0:0:
448,192,8544,1,0,0:0:0:0:
64,192,8715,1,2,0:0:0:0:
320,192,8715,1,0,0:0:0:0:
256,192,8715,1,0,0:0:0:0:
192,192,8887,1,0,0:0:0:0:
153,192,8972,1,0,0:0:0:0:
448,192,9058,1,2,0:0:0:0:
64,192,9058,1,0,0:0:0:0:
256,192,9058,1,0,0:0:0:0:
320,192,9230,128,0,9401:0:0:0:0:
192,192,9401,1,2,0:0:0:0:
448,192,9401,1,0,0:0:0:0:
256,192,9401,1,0,0:0:0:0:
64,192,9572,1,0,0:0:0:0:
320,192,9744,128,2,9915:0:0:0:0:
448,192,9744,1,0,0:0:0:0:
256,192,9744,1,0,0:0:0:0:
192,192,9915,1,0,0:0:0:0:
448,192,10087,1,2,0:0:0:0:
64,192,10087,1,0,0:0:0:0:
256,192,10087,1,0,0:0:0:0:
320,192,10258,1,0,0:0:0:0:
358,192,10344,1,0,0:0:0:0:
64,192,10430,1,0,0:0:0:0:
192,192,10430,1,0,0:0:0:0:
460,192,10430,1,2,0:0:0:0:
64,192,10544,1,8,0:0:0:0:
192,192,10544,1,0,0:0:0:0:
192,192,10658,1,8,0:0:0:0:
64,192,10658,1,0,0:0:0:0:
448,192,10772,1,2,0:0:0:0:
320,192,10772,1,0,0:0:0:0:
256,192,10772,1,0,0:0:0:0:
448,192,10887,1,8,0:0:0:0:
320,192,10887,1,0,0:0:0:0:
448,192,11001,1,8,0:0:0:0:
320,192,11001,1,0,0:0:0:0:
192,192,11115,128,0,11230:0:0:0:70:LR3_ReverseFXG.wav
64,192,11115,128,2,11230:0:0:0:0:
256,192,11115,1,0,0:0:0:0:
192,192,11287,128,8,11401:0:0:0:0:
64,192,11287,128,0,11401:0:0:0:0:
448,192,11458,1,0,0:0:0:50:tom.wav
256,192,11458,1,0,0:0:0:0:
153,192,11544,1,0,0:0:0:50:tom.wav
358,192,11544,1,0,0:0:0:0:
256,192,11630,1,0,0:0:0:50:tom.wav
51,192,11630,1,0,0:0:0:0:
358,192,11715,1,0,0:0:0:50:tom.wav
51,192,11801,1,2,0:0:0:0:
153,192,11801,1,4,0:0:0:0:
460,192,11801,1,0,0:0:0:0:
256,192,11887,1,0,0:0:0:0:
358,192,11972,1,0,0:0:0:0:
51,192,11972,1,0,0:0:0:0:
256,192,12058,1,0,0:0:0:0:
460,192,12144,1,8,0:0:0:0:
153,192,12144,1,0,0:0:0:0:
358,192,12230,1,0,0:0:0:0:
256,192,12315,1,0,0:0:0:0:
51,192,12315,1,0,0:0:0:0:
460,192,12401,1,0,0:0:0:0:
358,192,12487,1,2,0:0:0:0:
153,192,12487,1,0,0:0:0:0:
51,192,12658,1,0,0:0:0:0:
256,192,12658,1,0,0:0:0:0:
358,192,12744,1,0,0:0:0:0:
460,192,12830,1,8,0:0:0:0:
51,192,12830,1,0,0:0:0:0:
153,192,12830,1,0,0:0:0:0:
256,192,13001,1,0,0:0:0:0:
358,192,13001,1,0,0:0:0:0:
153,192,13087,1,0,0:0:0:0:
51,192,13172,1,2,0:0:0:0:
460,192,13172,1,0,0:0:0:0:
153,192,13344,1,0,0:0:0:0:
358,192,13344,1,0,0:0:0:0:
256,192,13515,1,8,0:0:0:0:
460,192,13515,1,0,0:0:0:0:
51,192,13515,1,0,0:0:0:0:
51,192,13687,1,0,0:0:0:0:
153,192,13730,1,0,0:0:0:0:
256,192,13772,1,0,0:0:0:0:
358,192,13815,1,0,0:0:0:0:
460,192,13858,1,2,0:0:0:0:
153,192,13858,1,0,0:0:0:0:
51,192,13858,1,0,0:0:0:0:
358,192,13944,1,0,0:0:0:0:
256,192,14030,1,0,0:0:0:0:
51,192,14030,1,0,0:0:0:0:
460,192,14115,1,0,0:0:0:0:
358,192,14201,1,8,0:0:0:0:
153,192,14201,1,0,0:0:0:0:
51,192,14372,1,0,0:0:0:0:
256,192,14372,1,0,0:0:0:0:
358,192,14458,1,0,0:0:0:0:
460,192,14544,1,2,0:0:0:0:
153,192,14544,1,0,0:0:0:0:
51,192,14544,1,0,0:0:0:0:
256,192,14715,1,0,0:0:0:0:
358,192,14715,1,0,0:0:0:0:
460,192,14887,1,8,0:0:0:0:
153,192,14887,1,0,0:0:0:0:
51,192,14887,1,0,0:0:0:0:
358,192,15058,1,0,0:0:0:0:
256,192,15101,1,0,0:0:0:0:
51,192,15144,1,0,0:0:0:0:
153,192,15187,1,0,0:0:0:0:
256,192,15230,1,2,0:0:0:0:
358,192,15230,1,0,0:0:0:0:
460,192,15230,1,0,0:0:0:0:
51,192,15401,1,0,0:0:0:0:
358,192,15401,1,0,0:0:0:0:
256,192,15487,1,0,0:0:0:0:
153,192,15572,1,8,0:0:0:0:
51,192,15572,1,0,0:0:0:0:
460,192,15572,1,0,0:0:0:0:
256,192,15744,1,0,0:0:0:0:
358,192,15744,1,0,0:0:0:0:
153,192,15830,1,0,0:0:0:0:
51,192,15915,1,2,0:0:0:0:
358,192,15915,1,0,0:0:0:0:
460,192,15915,1,0,0:0:0:0:
153,192,16087,1,0,0:0:0:0:
256,192,16087,1,0,0:0:0:0:
358,192,16258,1,8,0:0:0:0:
460,192,16258,1,0,0:0:0:0:
51,192,16258,1,0,0:0:0:0:
153,192,16430,1,0,0:0:0:0:
256,192,16472,1,0,0:0:0:0:
358,192,16515,1,0,0:0:0:0:
460,192,16558,1,0,0:0:0:0:
256,192,16601,1,2,0:0:0:0:
153,192,16601,1,0,0:0:0:0:
51,192,16601,1,0,0:0:0:0:
358,192,16687,1,0,0:0:0:0:
51,192,16772,1,0,0:0:0:0:
153,192,16772,1,0,0:0:0:0:
460,192,16858,1,0,0:0:0:0:
153,192,16944,1,8,0:0:0:0:
358,192,16944,1,0,0:0:0:0:
51,192,17115,1,0,0:0:0:0:
256,192,17115,1,0,0:0:0:0:
358,192,17201,1,0,0:0:0:0:
460,192,17287,1,2,0:0:0:0:
153,192,17287,1,4,0:0:0:0:
51,192,17287,1,0,0:0:0:0:
256,192,17458,1,0,0:0:0:0:
358,192,17458,1,0,0:0:0:0:
460,192,17630,1,2,0:0:0:0:
51,192,17630,1,0,0:0:0:0:
358,192,17630,1,0,0:0:0:0:
153,192,17801,1,0,0:0:0:0:
256,192,17801,1,0,0:0:0:0:
358,192,17887,1,0,0:0:0:0:
51,192,17972,1,2,0:0:0:0:
460,192,17972,1,0,0:0:0:0:
153,192,17972,1,0,0:0:0:0:
51,192,18144,1,0,0:0:0:0:
358,192,18144,1,0,0:0:0:0:
153,192,18315,1,2,0:0:0:0:
256,192,18315,1,0,0:0:0:0:
460,192,18315,1,0,0:0:0:0:
358,192,18487,1,0,0:0:0:0:
51,192,18487,1,0,0:0:0:0:
153,192,18658,1,2,0:0:0:0:
51,192,18658,1,0,0:0:0:0:
460,192,18658,1,0,0:0:0:0:
256,192,18830,1,0,0:0:0:0:
358,192,18830,1,0,0:0:0:0:
460,192,19001,1,2,0:0:0:0:
358,192,19001,1,0,0:0:0:0:
153,192,19001,1,0,0:0:0:0:
256,192,19172,1,0,0:0:0:0:
51,192,19172,1,0,0:0:0:0:
460,192,19258,1,0,0:0:0:0:
153,192,19344,1,2,0:0:0:0:
51,192,19344,1,0,0:0:0:0:
358,192,19344,1,0,0:0:0:0:
256,192,19515,1,0,0:0:0:0:
153,192,19515,1,0,0:0:0:0:
358,192,19601,1,0,0:0:0:0:
460,192,19687,1,2,0:0:0:0:
51,192,19687,1,0,0:0:0:0:
256,192,19687,1,0,0:0:0:0:
153,192,19858,1,0,0:0:0:0:
358,192,19858,1,0,0:0:0:0:
51,192,20030,1,2,0:0:0:0:
256,192,20030,1,0,0:0:0:0:
460,192,20030,1,0,0:0:0:0:
153,192,20201,1,2,0:0:0:0:
51,192,20201,1,0,0:0:0:0:
358,192,20201,1,0,0:0:0:0:
153,192,20372,1,2,0:0:0:0:
256,192,20372,1,0,0:0:0:0:
358,192,20372,1,0,0:0:0:0:
256,192,20544,1,2,0:0:0:0:
460,192,20544,1,0,0:0:0:0:
51,192,20544,1,0,0:0:0:0:
153,192,20715,1,2,0:0:0:0:
51,192,20715,1,0,0:0:0:0:
358,192,20715,1,0,0:0:0:0:
256,192,20801,1,2,0:0:0:0:
460,192,20801,1,0,0:0:0:0:
153,192,20887,1,2,0:0:0:0:
51,192,20887,1,0,0:0:0:0:
358,192,20972,1,2,0:0:0:0:
460,192,20972,1,0,0:0:0:0:
256,192,21058,1,2,0:0:0:0:
51,192,21058,1,0,0:0:0:0:
358,192,21144,1,2,0:0:0:0:
460,192,21144,1,0,0:0:0:0:
153,192,21230,1,2,0:0:0:0:
51,192,21230,1,0,0:0:0:0:
256,192,21315,1,2,0:0:0:0:
460,192,21315,1,0,0:0:0:0:
358,192,21401,1,2,0:0:0:0:
153,192,21401,1,0,0:0:0:50:tom.wav
51,192,21401,1,0,0:0:0:0:
460,192,21487,1,0,0:0:0:50:tom.wav
256,192,21487,1,0,0:0:0:0:
51,192,21572,1,0,0:0:0:50:tom.wav
153,192,21572,1,0,0:0:0:0:
358,192,21658,1,0,0:0:0:50:tom.wav
460,192,21658,1,0,0:0:0:0:
51,192,21744,1,0,0:0:0:50:tom.wav
256,192,21744,1,0,0:0:0:0:
460,192,21830,1,0,0:0:0:50:tom.wav
358,192,21830,1,0,0:0:0:0:
51,192,21915,1,0,0:0:0:50:tom.wav
153,192,21915,1,0,0:0:0:0:
460,192,22001,1,0,0:0:0:50:tom.wav
358,192,22001,1,0,0:0:0:0:
51,192,22087,1,0,0:0:0:70:LR3_ReverseFXG.wav
256,192,22087,1,0,0:0:0:50:tom.wav
358,192,22172,1,0,0:0:0:50:tom.wav
153,192,22258,1,0,0:0:0:50:tom.wav
51,192,22258,1,0,0:0:0:0:
256,192,22344,1,0,0:0:0:50:tom.wav
358,192,22430,1,0,0:0:0:50:climax.wav
460,192,22430,1,0,0:0:0:0:
51,192,22430,1,0,0:0:0:0:
153,192,22772,1,2,0:0:0:0:
358,192,22772,1,4,0:0:0:0:
460,192,22772,1,0,0:0:0:0:
51,192,22772,1,0,0:0:0:0:
256,192,22944,1,0,0:0:0:0:
460,192,22944,1,0,0:0:0:0:
153,192,23030,1,0,0:0:0:0:
51,192,23115,1,2,0:0:0:0:
358,192,23115,1,0,0:0:0:0:
460,192,23115,1,0,0:0:0:0:
153,192,23287,1,0,0:0:0:0:
256,192,23287,1,0,0:0:0:0:
51,192,23458,1,2,0:0:0:0:
358,192,23458,1,0,0:0:0:0:
256,192,23544,1,0,0:0:0:0:
153,192,23630,1,0,0:0:0:0:
460,192,23630,1,0,0:0:0:0:
358,192,23715,1,0,0:0:0:0:
256,192,23801,1,2,0:0:0:0:
51,192,23801,1,0,0:0:0:0:
153,192,23801,1,0,0:0:0:0:
358,192,23972,1,0,0:0:0:0:
460,192,23972,1,0,0:0:0:0:
51,192,24144,1,2,0:0:0:0:
153,192,24144,1,0,0:0:0:0:
256,192,24315,1,0,0:0:0:0:
358,192,24315,1,0,0:0:0:0:
153,192,24401,1,0,0:0:0:0:
51,192,24487,1,2,0:0:0:0:
358,192,24487,1,0,0:0:0:0:
460,192,24487,1,0,0:0:0:0:
153,192,24658,1,0,0:0:0:0:
256,192,24658,1,0,0:0:0:0:
358,192,24830,1,2,0:0:0:0:
460,192,24830,1,0,0:0:0:0:
51,192,25001,1,0,0:0:0:0:
256,192,25001,1,0,0:0:0:0:
153,192,25172,1,2,0:0:0:0:
460,192,25172,1,0,0:0:0:0:
51,192,25172,1,0,0:0:0:0:
460,192,25344,1,0,0:0:0:0:
256,192,25344,1,0,0:0:0:0:
51,192,25515,1,2,0:0:0:0:
358,192,25515,1,0,0:0:0:0:
256,192,25687,1,0,0:0:0:0:
153,192,25858,1,2,0:0:0:0:
51,192,25858,1,0,0:0:0:0:
460,192,25858,1,0,0:0:0:0:
358,192,26030,1,0,0:0:0:0:
153,192,26030,1,0,0:0:0:0:
51,192,26201,1,2,0:0:0:0:
256,192,26201,1,0,0:0:0:0:
460,192,26372,1,0,0:0:0:0:
358,192,26544,1,2,0:0:0:0:
51,192,26544,1,0,0:0:0:0:
153,192,26544,1,0,0:0:0:0:
256,192,26715,1,0,0:0:0:0:
460,192,26715,1,0,0:0:0:0:
51,192,26887,1,2,0:0:0:0:
153,192,26887,1,0,0:0:0:0:
358,192,27058,1,0,0:0:0:0:
153,192,27058,1,0,0:0:0:0:
256,192,27144,1,0,0:0:0:0:
153,192,27230,1,2,0:0:0:0:
51,192,27230,1,0,0:0:0:0:
460,192,27230,1,0,0:0:0:0:
256,192,27401,1,0,0:0:0:0:
358,192,27401,1,0,0:0:0:0:
460,192,27572,1,2,0:0:0:0:
51,192,27572,128,0,27744:0:0:0:70:LR3_ReverseFXG.wav
153,192,27658,128,0,27830:0:0:0:0:
256,192,27744,128,0,27915:0:0:0:0:
358,192,27830,128,0,28001:0:0:0:0:
51,192,27915,1,0,0:0:0:0:
153,192,28001,1,0,0:0:0:0:
256,192,28087,1,0,0:0:0:0:
358,192,28172,1,0,0:0:0:0:
153,192,28258,1,2,0:0:0:0:
51,192,28258,1,4,0:0:0:0:
460,192,28258,1,0,0:0:0:0:
256,192,28258,1,0,0:0:0:0:
51,192,28430,1,0,0:0:0:0:
153,192,28430,1,0,0:0:0:0:
358,192,28515,1,0,0:0:0:0:
460,192,28515,1,0,0:0:0:0:
256,192,28601,1,0,0:0:0:70:clap.wav
153,192,28601,1,0,0:0:0:0:
51,192,28601,1,0,0:0:0:0:
153,192,28772,1,0,0:0:0:0:
358,192,28772,1,0,0:0:0:0:
256,192,28944,1,2,0:0:0:0:
460,192,28944,1,0,0:0:0:0:
358,192,29115,1,0,0:0:0:0:
51,192,29115,1,0,0:0:0:0:
153,192,29287,1,0,0:0:0:70:clap.wav
51,192,29287,1,0,0:0:0:0:
460,192,29287,1,0,0:0:0:0:
153,192,29458,1,0,0:0:0:0:
358,192,29458,1,0,0:0:0:0:
256,192,29630,1,2,0:0:0:0:
460,192,29630,1,0,0:0:0:0:
153,192,29801,1,0,0:0:0:0:
51,192,29801,1,0,0:0:0:0:
460,192,29887,1,0,0:0:0:0:
358,192,29887,1,0,0:0:0:0:
256,192,29972,1,0,0:0:0:70:clap.wav
153,192,29972,1,0,0:0:0:0:
51,192,29972,1,0,0:0:0:0:
153,192,30144,1,0,0:0:0:0:
358,192,30144,1,0,0:0:0:0:
256,192,30315,1,2,0:0:0:0:
460,192,30315,1,0,0:0:0:0:
51,192,30487,1,0,0:0:0:0:
358,192,30487,1,0,0:0:0:0:
51,192,30658,1,0,0:0:0:70:clap.wav
153,192,30658,1,0,0:0:0:50:tom.wav
460,192,30658,1,0,0:0:0:0:
256,192,30744,1,0,0:0:0:50:tom.wav
358,192,30744,1,0,0:0:0:0:
51,192,30830,1,0,0:0:0:50:tom.wav
460,192,30830,1,0,0:0:0:0:
153,192,30915,1,0,0:0:0:50:tom.wav
256,192,30915,1,0,0:0:0:0:
51,192,31001,1,2,0:0:0:0:
358,192,31001,1,0,0:0:0:0:
460,192,31001,1,0,0:0:0:0:
358,192,31172,1,0,0:0:0:0:
153,192,31172,1,0,0:0:0:0:
51,192,31344,1,0,0:0:0:70:clap.wav
256,192,31344,1,0,0:0:0:0:
460,192,31344,1,0,0:0:0:0:
358,192,31515,1,0,0:0:0:0:
51,192,31515,1,0,0:0:0:0:
153,192,31687,1,2,0:0:0:0:
256,192,31687,1,0,0:0:0:0:
358,192,31772,1,0,0:0:0:0:
460,192,31772,1,0,0:0:0:0:
51,192,31858,1,2,0:0:0:0:
153,192,31858,1,0,0:0:0:0:
358,192,31944,1,0,0:0:0:0:
460,192,31944,1,0,0:0:0:0:
256,192,32030,1,2,0:0:0:0:
51,192,32030,1,0,0:0:0:0:
153,192,32115,1,2,0:0:0:0:
358,192,32115,1,0,0:0:0:0:
256,192,32201,1,2,0:0:0:0:
460,192,32201,1,0,0:0:0:0:
358,192,32287,1,2,0:0:0:0:
153,192,32287,1,0,0:0:0:0:
256,192,32372,1,2,0:0:0:0:
51,192,32372,1,0,0:0:0:0:
460,192,32372,1,0,0:0:0:0:
153,192,32544,1,0,0:0:0:50:tom.wav
358,192,32544,1,0,0:0:0:0:
256,192,32630,1,0,0:0:0:50:tom.wav
153,192,32715,1,0,0:0:0:50:tom.wav
51,192,32715,1,0,0:0:0:0:
460,192,32715,1,0,0:0:0:0:
256,192,32887,1,0,0:0:0:0:
153,192,33058,1,0,0:0:0:50:climax.wav
51,192,33058,1,0,0:0:0:0:
358,192,33058,1,0,0:0:0:0:
460,192,33058,1,0,0:0:0:0:
153,192,33230,128,0,33315:0:0:0:0:
358,192,33230,128,0,33315:0:0:0:0:
51,192,33401,1,0,0:0:0:0:
153,192,33401,1,0,0:0:0:0:
51,192,33515,1,0,0:0:0:0:
153,192,33515,1,0,0:0:0:0:
51,192,33630,1,0,0:0:0:0:
153,192,33630,1,0,0:0:0:0:
256,192,33744,1,2,0:0:0:0:
358,192,33744,1,4,0:0:0:0:
460,192,33744,1,0,0:0:0:0:
51,192,34087,1,2,0:0:0:0:
153,192,34087,1,0,0:0:0:0:
358,192,34087,1,0,0:0:0:0:
153,192,34258,1,2,0:0:0:0:
256,192,34258,1,0,0:0:0:0:
460,192,34258,1,0,0:0:0:0:
358,192,34430,1,8,0:0:0:0:
460,192,34430,1,0,0:0:0:0:
51,192,34430,1,0,0:0:0:0:
256,192,34430,1,0,0:0:0:0:
51,192,34601,128,0,34687:0:0:0:0:
153,192,34601,128,0,34687:0:0:0:0:
51,192,34772,128,0,35030:0:0:0:0:
153,192,34772,128,0,35030:0:0:0:0:
358,192,34772,1,0,0:0:0:0:
153,192,35115,1,2,0:0:0:0:
51,192,35115,1,0,0:0:0:0:
358,192,35115,1,0,0:0:0:0:
153,192,35372,1,2,0:0:0:0:
256,192,35372,1,0,0:0:0:0:
460,192,35372,1,0,0:0:0:0:
51,192,35458,1,0,0:0:0:0:
358,192,35458,1,0,0:0:0:0:
153,192,35630,1,2,0:0:0:0:
256,192,35630,1,0,0:0:0:0:
460,192,35630,1,0,0:0:0:0:
153,192,35801,1,8,0:0:0:0:
51,192,35801,1,0,0:0:0:0:
358,192,35801,1,0,0:0:0:0:
460,192,35801,1,0,0:0:0:0:
358,192,35972,128,0,36058:0:0:0:0:
460,192,35972,128,0,36058:0:0:0:0:
358,192,36144,128,0,36401:0:0:0:0:
460,192,36144,128,0,36401:0:0:0:0:
153,192,36144,1,0,0:0:0:0:
51,192,36487,1,2,0:0:0:0:
153,192,36487,1,0,0:0:0:0:
358,192,36487,1,0,0:0:0:0:
256,192,36744,1,2,0:0:0:0:
460,192,36744,1,0,0:0:0:0:
51,192,36744,1,0,0:0:0:0:
153,192,36830,1,0,0:0:0:0:
358,192,36830,1,0,0:0:0:0:
51,192,37001,1,2,0:0:0:0:
256,192,37001,1,0,0:0:0:0:
460,192,37001,1,0,0:0:0:0:
51,192,37172,1,8,0:0:0:0:
153,192,37172,1,0,0:0:0:0:
460,192,37172,1,0,0:0:0:0:
358,192,37172,1,0,0:0:0:0:
153,192,37344,128,0,37430:0:0:0:0:
358,192,37344,128,0,37430:0:0:0:0:
358,192,37515,128,2,37772:0:0:0:0:
153,192,37515,128,0,37772:0:0:0:0:
51,192,37515,1,0,0:0:0:0:
51,192,37858,1,2,0:0:0:0:
153,192,37858,1,0,0:0:0:0:
256,192,37858,1,0,0:0:0:0:
51,192,38115,1,2,0:0:0:0:
153,192,38115,1,0,0:0:0:0:
358,192,38115,1,0,0:0:0:0:
51,192,38372,1,2,0:0:0:0:
153,192,38372,1,0,0:0:0:0:
460,192,38372,1,0,0:0:0:0:
51,192,38630,1,2,0:0:0:0:
153,192,38630,1,0,0:0:0:0:
358,192,38630,1,0,0:0:0:0:
460,192,38630,1,0,0:0:0:0:
51,192,38887,1,8,0:0:0:0:
153,192,38887,1,2,0:0:0:0:
460,192,38887,1,0,0:0:0:70:clap.wav
358,192,38887,1,0,0:0:0:0:
256,192,38887,1,0,0:0:0:0:
51,192,39230,1,2,0:0:0:0:
153,192,39230,1,4,0:0:0:0:
460,192,39230,128,0,39572:0:0:0:0:
358,192,39230,1,0,0:0:0:0:
256,192,39401,128,0,39572:0:0:0:0:
51,192,39572,1,0,0:0:0:0:
358,192,39572,1,0,0:0:0:0:
51,192,39687,1,0,0:0:0:0:
51,192,39801,1,0,0:0:0:0:
153,192,39915,1,8,0:0:0:0:
358,192,39915,1,0,0:0:0:0:
460,192,39915,1,0,0:0:0:0:
51,192,40087,128,0,40258:0:0:0:0:
256,192,40087,1,0,0:0:0:0:
358,192,40258,1,0,0:0:0:0:
460,192,40258,1,0,0:0:0:0:
153,192,40430,1,0,0:0:0:0:
358,192,40430,1,0,0:0:0:0:
256,192,40601,1,2,0:0:0:0:
51,192,40601,1,0,0:0:0:0:
460,192,40601,1,0,0:0:0:0:
153,192,40772,1,0,0:0:0:0:
358,192,40772,1,0,0:0:0:0:
256,192,40944,1,0,0:0:0:0:
51,192,40944,1,0,0:0:0:0:
358,192,41115,1,0,0:0:0:0:
256,192,41201,1,0,0:0:0:0:
153,192,41287,1,8,0:0:0:0:
51,192,41287,1,0,0:0:0:0:
460,192,41287,1,0,0:0:0:0:
256,192,41458,1,0,0:0:0:0:
358,192,41630,1,0,0:0:0:0:
51,192,41630,1,0,0:0:0:0:
256,192,41801,1,0,0:0:0:0:
153,192,41858,1,0,0:0:0:0:
358,192,41915,1,0,0:0:0:0:
256,192,41972,1,2,0:0:0:0:
460,192,41972,1,0,0:0:0:0:
51,192,41972,128,0,42315:0:0:0:0:
460,192,42315,1,0,0:0:0:0:
256,192,42315,1,0,0:0:0:0:
460,192,42430,1,0,0:0:0:0:
460,192,42544,1,0,0:0:0:0:
358,192,42658,1,8,0:0:0:0:
153,192,42658,1,0,0:0:0:0:
51,192,42658,1,0,0:0:0:0:
256,192,42744,1,0,0:0:0:0:
153,192,42830,1,0,0:0:0:50:tom.wav
51,192,42830,1,0,0:0:0:0:
358,192,42915,1,0,0:0:0:50:tom.wav
460,192,42915,1,0,0:0:0:0:
51,192,43001,1,0,0:0:0:50:tom.wav
256,192,43001,1,0,0:0:0:0:
358,192,43087,1,0,0:0:0:0:
51,192,43172,1,0,0:0:0:50:tom.wav
460,192,43172,1,0,0:0:0:0:
153,192,43230,1,0,0:0:0:0:
256,192,43287,1,0,0:0:0:0:
358,192,43344,1,2,0:0:0:0:
51,192,43344,1,0,0:0:0:0:
460,192,43344,1,0,0:0:0:0:
153,192,43515,1,2,0:0:0:0:
51,192,43515,1,0,0:0:0:0:
358,192,43515,1,0,0:0:0:0:
153,192,43687,1,2,0:0:0:0:
256,192,43687,1,0,0:0:0:0:
460,192,43687,1,0,0:0:0:0:
358,192,43858,1,2,0:0:0:0:
460,192,43858,1,0,0:0:0:0:
51,192,43858,1,0,0:0:0:0:
153,192,44030,1,2,0:0:0:0:
51,192,44030,1,0,0:0:0:70:LR3_ReverseFXG.wav
256,192,44030,1,0,0:0:0:0:
358,192,44115,1,2,0:0:0:0:
460,192,44115,1,0,0:0:0:0:
51,192,44201,1,2,0:0:0:0:
153,192,44201,1,0,0:0:0:0:
256,192,44287,1,2,0:0:0:0:
358,192,44287,1,0,0:0:0:0:
460,192,44372,1,8,0:0:0:0:
153,192,44372,1,0,0:0:0:50:climax.wav
51,192,44372,1,0,0:0:0:0:
153,192,44458,1,0,0:0:0:0:
358,192,44544,1,0,0:0:0:0:
358,192,44630,1,0,0:0:0:0:
460,192,44715,1,2,0:0:0:0:
256,192,44715,1,4,0:0:0:0:
51,192,44715,128,0,44972:0:0:0:0:
153,192,44715,128,0,44887:0:0:0:0:
358,192,44801,1,0,0:0:0:0:
256,192,44887,1,0,0:0:0:0:
153,192,44972,1,0,0:0:0:0:
460,192,45058,128,8,45315:0:0:0:0:
358,192,45058,128,0,45230:0:0:0:0:
51,192,45058,1,0,0:0:0:0:
153,192,45144,1,0,0:0:0:0:
256,192,45230,1,0,0:0:0:0:
51,192,45230,1,0,0:0:0:0:
358,192,45315,1,0,0:0:0:0:
460,192,45401,1,2,0:0:0:0:
51,192,45401,128,0,45658:0:0:0:0:
153,192,45401,128,0,45572:0:0:0:0:
358,192,45487,1,0,0:0:0:0:
256,192,45572,1,0,0:0:0:0:
153,192,45658,1,0,0:0:0:0:
51,192,45744,1,8,0:0:0:0:
358,192,45744,1,0,0:0:0:0:
460,192,45744,1,0,0:0:0:0:
256,192,45830,1,0,0:0:0:0:
153,192,45915,1,0,0:0:0:0:
460,192,45915,1,0,0:0:0:0:
358,192,46001,1,0,0:0:0:0:
256,192,46087,1,2,0:0:0:0:
51,192,46087,1,0,0:0:0:0:
460,192,46172,1,0,0:0:0:0:
153,192,46258,1,0,0:0:0:0:
51,192,46258,1,0,0:0:0:0:
460,192,46344,1,0,0:0:0:0:
51,192,46430,1,8,0:0:0:0:
358,192,46430,1,0,0:0:0:0:
153,192,46430,1,0,0:0:0:0:
256,192,46515,1,0,0:0:0:0:
153,192,46601,1,0,0:0:0:0:
460,192,46601,1,0,0:0:0:0:
358,192,46687,1,0,0:0:0:0:
256,192,46772,1,2,0:0:0:0:
51,192,46772,1,0,0:0:0:0:
460,192,46858,1,0,0:0:0:0:
51,192,46944,1,0,0:0:0:0:
153,192,47030,1,0,0:0:0:0:
256,192,47115,1,8,0:0:0:0:
358,192,47115,1,0,0:0:0:0:
460,192,47115,1,0,0:0:0:0:
51,192,47201,1,0,0:0:0:0:
153,192,47287,1,0,0:0:0:0:
358,192,47287,1,0,0:0:0:0:
256,192,47372,1,0,0:0:0:0:
51,192,47458,1,2,0:0:0:0:
460,192,47458,1,0,0:0:0:0:
358,192,47544,1,0,0:0:0:0:
153,192,47630,1,0,0:0:0:0:
256,192,47715,1,0,0:0:0:0:
358,192,47801,1,8,0:0:0:0:
460,192,47801,1,0,0:0:0:0:
51,192,47801,1,0,0:0:0:0:
153,192,47887,1,0,0:0:0:0:
256,192,47972,1,0,0:0:0:0:
460,192,47972,1,0,0:0:0:0:
51,192,48058,1,0,0:0:0:0:
153,192,48144,1,2,0:0:0:0:
358,192,48144,1,0,0:0:0:0:
460,192,48230,1,0,0:0:0:0:
51,192,48315,1,0,0:0:0:0:
256,192,48315,1,0,0:0:0:0:
153,192,48401,1,0,0:0:0:0:
358,192,48401,1,0,0:0:0:0:
256,192,48487,1,8,0:0:0:0:
460,192,48487,1,0,0:0:0:0:
51,192,48487,1,0,0:0:0:0:
358,192,48572,1,0,0:0:0:0:
153,192,48658,1,0,0:0:0:0:
51,192,48658,1,0,0:0:0:0:
256,192,48744,1,0,0:0:0:0:
358,192,48830,1,2,0:0:0:0:
460,192,48830,1,0,0:0:0:0:
153,192,48830,1,0,0:0:0:0:
51,192,48915,1,0,0:0:0:0:
460,192,49001,1,0,0:0:0:0:
51,192,49087,1,0,0:0:0:0:
256,192,49172,1,8,0:0:0:0:
358,192,49172,1,0,0:0:0:0:
460,192,49172,1,0,0:0:0:0:
153,192,49172,1,0,0:0:0:0:
51,192,49258,1,0,0:0:0:0:
460,192,49344,1,0,0:0:0:0:
51,192,49430,1,0,0:0:0:0:
460,192,49515,1,2,0:0:0:0:
358,192,49515,1,0,0:0:0:0:
256,192,49515,1,0,0:0:0:0:
51,192,49601,1,0,0:0:0:0:
460,192,49687,1,0,0:0:0:0:
51,192,49772,1,0,0:0:0:0:
256,192,49858,1,8,0:0:0:0:
358,192,49858,1,0,0:0:0:0:
460,192,49858,1,0,0:0:0:0:
153,192,49858,1,0,0:0:0:0:
51,192,49944,1,0,0:0:0:0:
153,192,50030,1,2,0:0:0:0:
358,192,50030,1,0,0:0:0:0:
460,192,50030,1,0,0:0:0:0:
256,192,50115,1,0,0:0:0:0:
153,192,50201,1,2,0:0:0:0:
51,192,50201,1,0,0:0:0:0:
460,192,50201,1,0,0:0:0:0:
358,192,50287,1,0,0:0:0:0:
256,192,50372,1,0,0:0:0:0:
51,192,50372,1,0,0:0:0:0:
153,192,50458,1,0,0:0:0:0:
358,192,50544,1,8,0:0:0:0:
460,192,50544,1,0,0:0:0:0:
51,192,50544,1,0,0:0:0:0:
256,192,50630,1,0,0:0:0:0:
153,192,50715,1,0,0:0:0:0:
460,192,50715,1,0,0:0:0:0:
358,192,50801,1,0,0:0:0:0:
256,192,50887,1,2,0:0:0:0:
51,192,50887,1,0,0:0:0:0:
460,192,50972,1,0,0:0:0:0:
358,192,51058,1,0,0:0:0:0:
153,192,51144,1,0,0:0:0:0:
51,192,51230,1,8,0:0:0:0:
358,192,51230,1,0,0:0:0:0:
460,192,51230,1,0,0:0:0:0:
256,192,51315,1,0,0:0:0:0:
153,192,51401,1,0,0:0:0:0:
358,192,51401,1,0,0:0:0:0:
460,192,51487,1,0,0:0:0:0:
256,192,51572,1,2,0:0:0:0:
51,192,51572,1,0,0:0:0:0:
358,192,51658,1,0,0:0:0:0:
153,192,51744,1,0,0:0:0:0:
460,192,51744,1,0,0:0:0:0:
256,192,51830,1,0,0:0:0:0:
153,192,51915,1,8,0:0:0:0:
51,192,51915,1,0,0:0:0:0:
358,192,51915,1,0,0:0:0:0:
460,192,52001,1,0,0:0:0:0:
51,192,52087,1,0,0:0:0:0:
256,192,52087,1,0,0:0:0:0:
153,192,52172,1,0,0:0:0:0:
51,192,52258,1,2,0:0:0:0:
358,192,52258,1,0,0:0:0:0:
256,192,52344,1,0,0:0:0:0:
153,192,52430,1,0,0:0:0:0:
358,192,52515,1,0,0:0:0:0:
256,192,52601,1,8,0:0:0:0:
460,192,52601,1,0,0:0:0:0:
51,192,52601,1,0,0:0:0:0:
153,192,52687,1,0,0:0:0:0:
358,192,52772,1,0,0:0:0:0:
51,192,52772,1,0,0:0:0:0:
256,192,52858,1,0,0:0:0:0:
153,192,52944,1,2,0:0:0:0:
51,192,52944,1,0,0:0:0:0:
358,192,53030,1,0,0:0:0:0:
153,192,53115,1,0,0:0:0:0:
256,192,53201,1,0,0:0:0:0:
358,192,53287,1,8,0:0:0:0:
460,192,53287,1,0,0:0:0:0:
51,192,53287,1,0,0:0:0:0:
153,192,53372,1,0,0:0:0:0:
256,192,53458,1,0,0:0:0:0:
460,192,53458,1,0,0:0:0:0:
51,192,53544,1,0,0:0:0:0:
153,192,53630,1,2,0:0:0:0:
358,192,53630,1,0,0:0:0:0:
460,192,53715,1,0,0:0:0:0:
51,192,53801,1,0,0:0:0:50:tom.wav
153,192,53801,1,0,0:0:0:0:
358,192,53887,1,0,0:0:0:50:tom.wav
460,192,53887,1,0,0:0:0:0:
256,192,53972,1,8,0:0:0:0:
153,192,53972,1,0,0:0:0:0:
51,192,53972,1,0,0:0:0:0:
460,192,54058,1,0,0:0:0:0:
51,192,54144,1,0,0:0:0:50:tom.wav
358,192,54144,1,0,0:0:0:0:
256,192,54230,1,0,0:0:0:0:
153,192,54315,1,2,0:0:0:0:
51,192,54315,1,0,0:0:0:0:
460,192,54315,1,0,0:0:0:0:
358,192,54401,1,0,0:0:0:0:
153,192,54487,1,0,0:0:0:50:tom.wav
51,192,54487,1,0,0:0:0:0:
358,192,54572,1,0,0:0:0:50:tom.wav
460,192,54572,1,0,0:0:0:0:
256,192,54658,1,8,0:0:0:0:
153,192,54658,1,0,0:0:0:0:
51,192,54658,1,0,0:0:0:0:
358,192,54744,1,0,0:0:0:0:
460,192,54744,1,0,0:0:0:0:
51,192,54830,1,0,0:0:0:50:tom.wav
153,192,54830,1,0,0:0:0:0:
256,192,54915,1,0,0:0:0:0:
358,192,55001,1,2,0:0:0:0:
460,192,55001,1,0,0:0:0:70:LR3_ReverseFXG.wav
153,192,55087,1,0,0:0:0:50:tom.wav
51,192,55087,1,0,0:0:0:0:
460,192,55172,1,0,0:0:0:50:tom.wav
358,192,55172,1,0,0:0:0:0:
51,192,55215,1,0,0:0:0:50:tom.wav
153,192,55258,1,0,0:0:0:50:tom.wav
256,192,55301,1,0,0:0:0:50:tom.wav
460,192,55344,1,8,0:0:0:0:
51,192,55344,1,0,0:0:0:50:climax.wav
358,192,55344,1,0,0:0:0:0:
153,192,55687,1,2,0:0:0:0:
51,192,55687,1,4,0:0:0:0:
460,192,55687,128,0,55944:0:0:0:0:
358,192,55687,128,0,55858:0:0:0:0:
256,192,55772,1,0,0:0:0:0:
51,192,55858,1,0,0:0:0:0:
153,192,55944,1,0,0:0:0:0:
460,192,56030,128,8,56115:0:0:0:0:
256,192,56030,128,0,56115:0:0:0:0:
358,192,56030,1,0,0:0:0:0:
51,192,56115,1,0,0:0:0:0:
153,192,56201,128,0,56287:0:0:0:0:
358,192,56201,128,0,56287:0:0:0:0:
460,192,56287,1,0,0:0:0:0:
51,192,56372,128,2,56630:0:0:0:0:
153,192,56372,1,0,0:0:0:0:
256,192,56372,128,0,56544:0:0:0:0:
460,192,56458,1,0,0:0:0:0:
358,192,56544,1,0,0:0:0:0:
256,192,56630,1,0,0:0:0:0:
153,192,56715,1,8,0:0:0:0:
51,192,56715,1,0,0:0:0:0:
460,192,56715,1,0,0:0:0:0:
358,192,56801,1,0,0:0:0:0:
51,192,56887,1,0,0:0:0:0:
256,192,56887,1,0,0:0:0:0:
460,192,56972,1,0,0:0:0:0:
358,192,57058,1,2,0:0:0:0:
153,192,57058,1,0,0:0:0:0:
51,192,57144,1,0,0:0:0:0:
256,192,57230,1,0,0:0:0:0:
460,192,57230,1,0,0:0:0:0:
153,192,57315,1,0,0:0:0:0:
51,192,57401,1,8,0:0:0:0:
358,192,57401,1,0,0:0:0:0:
460,192,57401,1,0,0:0:0:0:
153,192,57487,1,0,0:0:0:0:
256,192,57572,1,0,0:0:0:0:
51,192,57572,1,0,0:0:0:0:
358,192,57658,1,0,0:0:0:0:
153,192,57744,1,2,0:0:0:0:
460,192,57744,1,0,0:0:0:0:
51,192,57830,1,0,0:0:0:0:
256,192,57915,1,0,0:0:0:0:
358,192,58001,1,0,0:0:0:0:
460,192,58087,1,8,0:0:0:0:
153,192,58087,1,0,0:0:0:0:
51,192,58087,1,0,0:0:0:0:
256,192,58172,1,0,0:0:0:0:
358,192,58258,1,0,0:0:0:0:
51,192,58258,1,0,0:0:0:0:
153,192,58344,1,0,0:0:0:0:
256,192,58430,1,2,0:0:0:0:
460,192,58430,1,0,0:0:0:0:
51,192,58515,1,0,0:0:0:0:
358,192,58601,1,0,0:0:0:0:
153,192,58687,1,0,0:0:0:0:
51,192,58772,1,8,0:0:0:0:
256,192,58772,1,0,0:0:0:0:
460,192,58772,1,0,0:0:0:0:
358,192,58858,1,0,0:0:0:0:
153,192,58944,1,0,0:0:0:0:
51,192,58944,1,0,0:0:0:0:
256,192,59030,1,0,0:0:0:0:
460,192,59115,1,2,0:0:0:0:
153,192,59115,1,0,0:0:0:0:
51,192,59201,1,0,0:0:0:0:
358,192,59287,1,0,0:0:0:0:
460,192,59287,1,0,0:0:0:0:
153,192,59372,1,0,0:0:0:0:
51,192,59372,1,0,0:0:0:0:
256,192,59458,1,8,0:0:0:0:
460,192,59458,1,0,0:0:0:0:
358,192,59458,1,0,0:0:0:0:
51,192,59544,1,0,0:0:0:0:
153,192,59630,1,0,0:0:0:0:
358,192,59630,1,0,0:0:0:0:
460,192,59715,1,0,0:0:0:0:
51,192,59801,1,2,0:0:0:0:
153,192,59801,1,0,0:0:0:0:
256,192,59801,1,0,0:0:0:0:
358,192,59887,1,0,0:0:0:0:
153,192,59972,1,0,0:0:0:0:
358,192,60058,1,0,0:0:0:0:
256,192,60144,1,8,0:0:0:0:
153,192,60144,1,0,0:0:0:0:
51,192,60144,1,0,0:0:0:0:
460,192,60144,1,0,0:0:0:0:
358,192,60230,1,0,0:0:0:0:
153,192,60315,1,0,0:0:0:0:
358,192,60401,1,0,0:0:0:0:
51,192,60487,1,2,0:0:0:0:
153,192,60487,1,0,0:0:0:0:
256,192,60487,1,0,0:0:0:0:
358,192,60572,1,0,0:0:0:0:
153,192,60658,1,0,0:0:0:0:
358,192,60744,1,0,0:0:0:0:
256,192,60830,1,8,0:0:0:0:
153,192,60830,1,0,0:0:0:0:
51,192,60830,1,0,0:0:0:0:
460,192,60830,1,0,0:0:0:0:
358,192,60915,1,0,0:0:0:0:
153,192,61001,1,2,0:0:0:0:
460,192,61001,1,0,0:0:0:0:
51,192,61001,1,0,0:0:0:0:
358,192,61087,1,0,0:0:0:0:
256,192,61172,1,2,0:0:0:0:
51,192,61172,1,0,0:0:0:0:
153,192,61172,1,0,0:0:0:0:
460,192,61258,1,0,0:0:0:0:
358,192,61344,1,0,0:0:0:0:
153,192,61344,1,0,0:0:0:0:
51,192,61430,1,0,0:0:0:0:
256,192,61515,1,8,0:0:0:0:
358,192,61515,1,0,0:0:0:0:
460,192,61515,1,0,0:0:0:0:
51,192,61601,1,0,0:0:0:0:
153,192,61687,1,0,0:0:0:0:
358,192,61687,1,0,0:0:0:0:
460,192,61772,1,0,0:0:0:0:
256,192,61858,1,2,0:0:0:0:
51,192,61858,1,0,0:0:0:0:
358,192,61944,1,0,0:0:0:0:
153,192,62030,1,0,0:0:0:0:
51,192,62030,1,0,0:0:0:0:
256,192,62115,1,0,0:0:0:0:
358,192,62201,1,8,0:0:0:0:
460,192,62201,1,0,0:0:0:0:
153,192,62201,1,0,0:0:0:0:
51,192,62287,1,0,0:0:0:0:
256,192,62372,1,0,0:0:0:0:
460,192,62372,1,0,0:0:0:0:
153,192,62458,1,0,0:0:0:0:
51,192,62544,1,2,0:0:0:0:
358,192,62544,1,0,0:0:0:0:
460,192,62630,1,0,0:0:0:0:
256,192,62715,1,0,0:0:0:0:
153,192,62715,1,0,0:0:0:0:
51,192,62801,1,0,0:0:0:0:
256,192,62887,1,8,0:0:0:0:
358,192,62887,1,0,0:0:0:0:
460,192,62887,1,0,0:0:0:0:
153,192,62972,1,0,0:0:0:0:
51,192,63058,1,0,0:0:0:0:
358,192,63058,1,0,0:0:0:0:
460,192,63144,1,0,0:0:0:0:
153,192,63230,1,2,0:0:0:0:
51,192,63230,1,0,0:0:0:0:
256,192,63315,1,0,0:0:0:0:
358,192,63401,1,0,0:0:0:0:
460,192,63487,1,0,0:0:0:0:
153,192,63572,1,8,0:0:0:0:
51,192,63572,1,0,0:0:0:0:
256,192,63572,1,0,0:0:0:0:
358,192,63658,1,0,0:0:0:0:
153,192,63744,1,0,0:0:0:0:
51,192,63744,1,0,0:0:0:0:
256,192,63830,1,0,0:0:0:0:
460,192,63915,1,2,0:0:0:0:
153,192,63915,1,0,0:0:0:0:
51,192,64001,1,0,0:0:0:0:
256,192,64087,1,0,0:0:0:0:
358,192,64087,1,0,0:0:0:0:
153,192,64172,1,0,0:0:0:0:
51,192,64258,1,8,0:0:0:0:
358,192,64258,1,0,0:0:0:0:
460,192,64258,1,0,0:0:0:0:
256,192,64344,1,0,0:0:0:0:
153,192,64430,1,0,0:0:0:0:
460,192,64430,1,0,0:0:0:0:
358,192,64515,1,0,0:0:0:0:
51,192,64601,1,2,0:0:0:0:
256,192,64601,1,0,0:0:0:0:
460,192,64687,1,0,0:0:0:0:
153,192,64772,1,0,0:0:0:0:
51,192,64772,1,0,0:0:0:0:
358,192,64858,1,0,0:0:0:0:
460,192,64858,1,0,0:0:0:0:
256,192,64944,1,8,0:0:0:0:
153,192,64944,1,0,0:0:0:0:
51,192,64944,1,0,0:0:0:0:
460,192,65030,1,0,0:0:0:0:
358,192,65115,1,0,0:0:0:0:
51,192,65115,1,0,0:0:0:0:
256,192,65201,1,0,0:0:0:0:
153,192,65287,1,2,0:0:0:0:
51,192,65287,1,0,0:0:0:0:
460,192,65287,1,0,0:0:0:0:
358,192,65372,1,0,0:0:0:50:tom.wav
256,192,65372,1,0,0:0:0:0:
153,192,65458,1,0,0:0:0:50:tom.wav
51,192,65458,1,0,0:0:0:0:
358,192,65544,1,0,0:0:0:50:tom.wav
460,192,65544,1,0,0:0:0:0:
256,192,65630,1,2,0:0:0:0:
153,192,65630,1,0,0:0:0:50:tom.wav
51,192,65630,1,0,0:0:0:0:
358,192,65715,1,0,0:0:0:50:tom.wav
460,192,65715,1,0,0:0:0:0:
51,192,65801,1,0,0:0:0:50:tom.wav
153,192,65801,1,0,0:0:0:0:
358,192,65887,1,0,0:0:0:50:tom.wav
256,192,65887,1,0,0:0:0:0:
51,192,65972,1,2,0:0:0:0:
460,192,65972,1,0,0:0:0:50:tom.wav
153,192,66015,1,0,0:0:0:50:tom.wav
358,192,66058,1,0,0:0:0:50:tom.wav
256,192,66101,1,0,0:0:0:50:tom.wav
51,192,66144,1,0,0:0:0:50:tom.wav
460,192,66144,1,0,0:0:0:0:
153,192,66187,1,0,0:0:0:50:tom.wav
358,192,66187,1,0,0:0:0:0:
256,192,66230,1,0,0:0:0:50:tom.wav
460,192,66272,1,0,0:0:0:50:tom.wav
51,192,66315,1,8,0:0:0:0:
153,192,66315,1,0,0:0:0:50:climax.wav
358,192,66315,1,0,0:0:0:0:
460,192,66658,1,2,0:0:0:0:
358,192,66658,1,4,0:0:0:0:
51,192,66658,128,0,66830:0:0:0:0:
153,192,66658,128,0,66830:0:0:0:0:
256,192,66830,1,0,0:0:0:0:
460,192,66830,1,0,0:0:0:0:
358,192,67001,1,8,0:0:0:0:
153,192,67001,1,0,0:0:0:0:
51,192,67001,1,0,0:0:0:0:
256,192,67172,1,0,0:0:0:0:
51,192,67172,1,0,0:0:0:0:
153,192,67344,1,2,0:0:0:0:
460,192,67344,1,0,0:0:0:0:
358,192,67344,1,0,0:0:0:0:
51,192,67515,1,0,0:0:0:50:hai.wav
153,192,67558,1,0,0:0:0:0:
460,192,67601,1,0,0:0:0:0:
358,192,67644,1,0,0:0:0:0:
153,192,67687,1,8,0:0:0:0:
51,192,67687,1,0,0:0:0:0:
256,192,67687,1,0,0:0:0:0:
460,192,67858,1,0,0:0:0:50:hai.wav
358,192,67901,1,0,0:0:0:0:
51,192,67944,1,0,0:0:0:0:
153,192,67987,1,0,0:0:0:0:
256,192,68030,1,2,0:0:0:0:
358,192,68030,1,0,0:0:0:0:
460,192,68030,1,0,0:0:0:0:
153,192,68201,1,0,0:0:0:0:
51,192,68201,1,0,0:0:0:0:
358,192,68287,1,0,0:0:0:0:
256,192,68372,1,8,0:0:0:0:
460,192,68372,1,0,0:0:0:0:
51,192,68372,1,0,0:0:0:0:
153,192,68544,1,0,0:0:0:0:
460,192,68544,1,0,0:0:0:0:
358,192,68715,1,2,0:0:0:0:
51,192,68715,1,0,0:0:0:0:
256,192,68715,1,0,0:0:0:0:
51,192,68887,1,0,0:0:0:0:
153,192,68930,1,0,0:0:0:0:
256,192,68972,1,0,0:0:0:0:
358,192,69015,1,0,0:0:0:0:
153,192,69058,1,8,0:0:0:0:
51,192,69058,1,0,0:0:0:0:
460,192,69058,1,0,0:0:0:0:
460,192,69230,1,0,0:0:0:0:
358,192,69272,1,0,0:0:0:0:
256,192,69315,1,0,0:0:0:0:
153,192,69358,1,0,0:0:0:0:
51,192,69401,1,2,0:0:0:0:
460,192,69401,1,0,0:0:0:0:
358,192,69401,1,0,0:0:0:0:
51,192,69572,1,0,0:0:0:0:
256,192,69572,1,0,0:0:0:0:
153,192,69658,1,0,0:0:0:0:
256,192,69744,1,8,0:0:0:0:
460,192,69744,1,0,0:0:0:0:
358,192,69744,1,0,0:0:0:0:
153,192,69915,1,0,0:0:0:0:
358,192,69915,1,0,0:0:0:0:
256,192,70087,1,2,0:0:0:0:
51,192,70087,1,0,0:0:0:0:
460,192,70087,1,0,0:0:0:0:
51,192,70258,1,0,0:0:0:50:hai.wav
153,192,70301,1,0,0:0:0:0:
358,192,70344,1,0,0:0:0:0:
460,192,70387,1,0,0:0:0:0:
256,192,70430,1,8,0:0:0:0:
153,192,70430,1,0,0:0:0:0:
51,192,70430,1,0,0:0:0:0:
460,192,70601,1,0,0:0:0:50:hai.wav
358,192,70644,1,0,0:0:0:0:
153,192,70687,1,0,0:0:0:0:
51,192,70730,1,0,0:0:0:0:
256,192,70772,1,2,0:0:0:0:
358,192,70772,1,0,0:0:0:0:
460,192,70772,1,0,0:0:0:0:
153,192,71030,1,0,0:0:0:50:tom.wav
51,192,71030,1,0,0:0:0:0:
256,192,71115,1,8,0:0:0:0:
358,192,71115,1,0,0:0:0:0:
460,192,71115,1,0,0:0:0:0:
153,192,71287,1,0,0:0:0:50:tom.wav
51,192,71287,1,0,0:0:0:0:
358,192,71287,1,0,0:0:0:0:
256,192,71458,1,2,0:0:0:0:
460,192,71458,1,0,0:0:0:0:
51,192,71630,1,0,0:0:0:50:tom.wav
153,192,71630,1,0,0:0:0:0:
358,192,71630,1,0,0:0:0:0:
256,192,71801,1,8,0:0:0:0:
460,192,71801,1,0,0:0:0:0:
51,192,71801,1,0,0:0:0:0:
358,192,71801,1,0,0:0:0:0:
153,192,71972,1,0,0:0:0:50:tom.wav
51,192,71972,1,0,0:0:0:0:
256,192,71972,1,0,0:0:0:0:
153,192,72144,1,2,0:0:0:0:
358,192,72144,1,4,0:0:0:0:
460,192,72144,1,0,0:0:0:0:
51,192,72144,1,0,0:0:0:0:
153,192,72401,1,2,0:0:0:0:
358,192,72401,1,0,0:0:0:0:
256,192,72401,1,0,0:0:0:0:
51,192,72658,1,2,0:0:0:0:
153,192,72658,1,0,0:0:0:0:
256,192,72658,1,0,0:0:0:0:
51,192,73001,1,8,0:0:0:0:
153,192,73001,1,0,0:0:0:0:
256,192,73001,1,0,0:0:0:0:
358,192,73001,1,0,0:0:0:0:
51,192,73172,1,2,0:0:0:0:
153,192,73172,1,0,0:0:0:0:
256,192,73172,1,0,0:0:0:0:
358,192,73172,1,0,0:0:0:0:
460,192,73172,1,0,0:0:0:0:
153,192,73430,1,2,0:0:0:0:
358,192,73430,1,0,0:0:0:0:
460,192,73430,1,0,0:0:0:0:
51,192,73687,1,2,0:0:0:0:
256,192,73687,1,0,0:0:0:0:
358,192,73687,1,0,0:0:0:0:
153,192,73772,1,2,0:0:0:0:
460,192,73772,1,0,0:0:0:0:
153,192,74030,1,8,0:0:0:0:
51,192,74030,1,0,0:0:0:0:
358,192,74030,1,0,0:0:0:0:
460,192,74030,1,0,0:0:0:0:
256,192,74201,1,2,0:0:0:0:
51,192,74201,1,0,0:0:0:0:
153,192,74201,1,0,0:0:0:0:
358,192,74287,1,0,0:0:0:50:tom.wav
460,192,74287,1,0,0:0:0:0:
51,192,74458,1,2,0:0:0:0:
153,192,74458,1,0,0:0:0:0:
358,192,74458,1,0,0:0:0:0:
256,192,74544,1,0,0:0:0:50:tom.wav
460,192,74544,1,0,0:0:0:0:
51,192,74715,1,2,0:0:0:0:
256,192,74715,1,0,0:0:0:0:
358,192,74715,1,0,0:0:0:0:
153,192,74801,1,0,0:0:0:50:tom.wav
460,192,74801,1,0,0:0:0:0:
51,192,75058,1,2,0:0:0:0:
460,192,75058,1,0,0:0:0:0:
153,192,75058,1,0,0:0:0:0:
256,192,75144,1,0,0:0:0:50:tom.wav
358,192,75144,1,0,0:0:0:0:
51,192,75230,1,0,0:0:0:50:tom.wav
460,192,75230,1,0,0:0:0:0:
153,192,75272,1,0,0:0:0:50:tom.wav
256,192,75315,1,0,0:0:0:50:tom.wav
358,192,75358,1,0,0:0:0:50:tom.wav
460,192,75401,1,0,0:0:0:50:tom.wav
153,192,75444,1,0,0:0:0:50:tom.wav
256,192,75487,1,0,0:0:0:50:tom.wav
358,192,75530,1,0,0:0:0:50:tom.wav
51,192,75572,128,2,76172:0:0:0:0:
460,192,75572,128,0,76172:0:0:0:0:
153,192,76258,1,8,0:0:0:0:
51,192,76258,1,0,0:0:0:50:climax.wav
358,192,76258,1,0,0:0:0:0:
460,192,76258,1,0,0:0:0:0:
51,192,76944,1,2,0:0:0:0:
153,192,76944,1,4,0:0:0:0:
256,192,76944,1,0,0:0:0:0:
358,192,76944,1,0,0:0:0:0:
460,192,76944,1,0,0:0:0:0:
358,192,81744,5,0,0:0:0:0:
153,192,81829,1,0,0:0:0:0:
460,192,81915,1,0,0:0:0:0:
256,192,82001,1,0,0:0:0:0:
51,192,82086,1,0,0:0:0:0:
358,192,82172,1,0,0:0:0:0:
51,192,82258,1,0,0:0:0:0:
358,192,82344,1,0,0:0:0:0:
256,192,82429,1,2,0:0:0:0:
51,192,82429,1,4,0:0:0:0:
460,192,82429,1,0,0:0:0:0:
153,192,82429,1,0,0:0:0:0:
358,192,82601,1,0,0:0:0:0:
153,192,82686,1,0,0:0:0:0:
51,192,82772,1,0,0:0:0:0:
256,192,82772,1,0,0:0:0:0:
153,192,82944,1,0,0:0:0:0:
358,192,83029,1,0,0:0:0:0:
51,192,83115,1,8,0:0:0:0:
153,192,83115,1,0,0:0:0:0:
460,192,83115,1,0,0:0:0:0:
256,192,83115,1,0,0:0:0:0:
358,192,83286,1,0,0:0:0:0:
256,192,83372,1,0,0:0:0:0:
153,192,83458,1,0,0:0:0:0:
358,192,83458,1,0,0:0:0:0:
153,192,83629,1,0,0:0:0:0:
358,192,83629,1,0,0:0:0:0:
51,192,83801,1,2,0:0:0:0:
256,192,83801,1,0,0:0:0:0:
460,192,83801,1,0,0:0:0:0:
358,192,83972,1,0,0:0:0:0:
153,192,84058,1,0,0:0:0:0:
256,192,84144,1,0,0:0:0:0:
51,192,84144,1,0,0:0:0:0:
153,192,84315,1,0,0:0:0:0:
256,192,84401,1,0,0:0:0:0:
358,192,84486,1,8,0:0:0:0:
460,192,84486,1,0,0:0:0:0:
51,192,84486,1,0,0:0:0:0:
153,192,84486,1,0,0:0:0:0:
256,192,84658,1,0,0:0:0:0:
153,192,84744,1,0,0:0:0:0:
358,192,84829,1,0,0:0:0:0:
460,192,84829,1,0,0:0:0:0:
358,192,85001,1,0,0:0:0:0:
460,192,85001,1,0,0:0:0:0:
51,192,85172,1,2,0:0:0:0:
256,192,85172,1,0,0:0:0:0:
153,192,85172,1,0,0:0:0:0:
153,192,85344,1,0,0:0:0:0:
358,192,85429,1,0,0:0:0:0:
460,192,85515,1,2,0:0:0:0:
51,192,85515,1,0,0:0:0:0:
358,192,85686,1,0,0:0:0:0:
153,192,85772,1,0,0:0:0:0:
51,192,85858,1,8,0:0:0:0:
256,192,85858,1,0,0:0:0:0:
460,192,85858,1,0,0:0:0:0:
358,192,85858,1,0,0:0:0:0:
153,192,85944,1,0,0:0:0:0:
358,192,86029,1,0,0:0:0:0:
256,192,86115,1,0,0:0:0:0:
358,192,86201,1,2,0:0:0:0:
51,192,86201,1,0,0:0:0:0:
460,192,86201,1,0,0:0:0:0:
153,192,86286,1,0,0:0:0:0:
256,192,86372,1,0,0:0:0:0:
358,192,86458,1,0,0:0:0:0:
460,192,86544,1,2,0:0:0:0:
153,192,86544,1,0,0:0:0:0:
51,192,86544,1,0,0:0:0:0:
256,192,86629,1,0,0:0:0:0:
153,192,86715,1,2,0:0:0:0:
51,192,86715,1,0,0:0:0:0:
256,192,86801,1,0,0:0:0:0:
358,192,86801,1,0,0:0:0:0:
460,192,86886,1,2,0:0:0:0:
51,192,86886,1,0,0:0:0:0:
153,192,86886,1,0,0:0:0:0:
256,192,86972,1,2,0:0:0:0:
358,192,86972,1,0,0:0:0:0:
51,192,87058,1,2,0:0:0:0:
460,192,87058,1,0,0:0:0:0:
358,192,87101,1,2,0:0:0:0:
153,192,87101,1,0,0:0:0:0:
256,192,87144,1,2,0:0:0:0:
51,192,87186,1,2,0:0:0:0:
153,192,87229,1,8,0:0:0:0:
358,192,87229,1,0,0:0:0:70:LR3_ReverseFXG.wav
460,192,87229,1,0,0:0:0:50:climax.wav
153,192,87401,128,0,87572:0:0:0:0:
358,192,87401,128,0,87572:0:0:0:0:
51,192,87572,1,0,0:0:0:0:
460,192,87572,1,0,0:0:0:0:
51,192,87686,1,0,0:0:0:0:
460,192,87686,1,0,0:0:0:0:
460,192,87801,1,0,0:0:0:0:
51,192,87801,1,0,0:0:0:0:
153,192,87915,1,2,0:0:0:0:
256,192,87915,1,4,0:0:0:0:
358,192,87915,1,0,0:0:0:0:
460,192,88258,1,2,0:0:0:0:
256,192,88258,1,0,0:0:0:0:
51,192,88258,1,0,0:0:0:0:
460,192,88429,1,2,0:0:0:0:
358,192,88429,1,0,0:0:0:0:
153,192,88429,1,0,0:0:0:0:
153,192,88601,1,8,0:0:0:0:
51,192,88601,1,0,0:0:0:0:
358,192,88601,1,0,0:0:0:0:
256,192,88601,1,0,0:0:0:0:
460,192,88772,128,2,88858:0:0:0:0:
51,192,88772,128,0,88858:0:0:0:0:
460,192,88944,128,2,89201:0:0:0:0:
51,192,88944,128,0,89201:0:0:0:0:
256,192,88944,1,0,0:0:0:0:
358,192,89286,1,2,0:0:0:0:
460,192,89286,1,0,0:0:0:0:
51,192,89286,1,0,0:0:0:0:
153,192,89544,1,2,0:0:0:0:
256,192,89544,1,0,0:0:0:0:
51,192,89544,1,0,0:0:0:0:
460,192,89629,1,0,0:0:0:0:
358,192,89629,1,0,0:0:0:0:
358,192,89801,1,2,0:0:0:0:
153,192,89801,1,0,0:0:0:0:
51,192,89801,1,0,0:0:0:0:
256,192,89972,1,8,0:0:0:0:
460,192,89972,1,0,0:0:0:0:
153,192,89972,1,0,0:0:0:0:
51,192,89972,1,0,0:0:0:0:
153,192,90144,128,2,90229:0:0:0:0:
51,192,90144,128,0,90229:0:0:0:0:
153,192,90315,128,2,90572:0:0:0:0:
51,192,90315,128,0,90572:0:0:0:0:
358,192,90315,1,0,0:0:0:0:
460,192,90658,1,2,0:0:0:0:
358,192,90658,1,0,0:0:0:0:
153,192,90658,1,0,0:0:0:0:
358,192,90915,1,2,0:0:0:0:
51,192,90915,1,0,0:0:0:0:
460,192,90915,1,0,0:0:0:0:
256,192,91001,1,0,0:0:0:0:
153,192,91001,1,0,0:0:0:0:
460,192,91172,1,2,0:0:0:0:
358,192,91172,1,0,0:0:0:0:
51,192,91172,1,0,0:0:0:0:
460,192,91344,1,8,0:0:0:0:
358,192,91344,1,0,0:0:0:0:
51,192,91344,1,0,0:0:0:0:
153,192,91344,1,0,0:0:0:0:
358,192,91515,128,2,91601:0:0:0:0:
153,192,91515,128,0,91601:0:0:0:0:
153,192,91686,128,2,91944:0:0:0:0:
358,192,91686,128,0,91944:0:0:0:0:
460,192,91686,1,0,0:0:0:0:
460,192,92029,1,2,0:0:0:0:
358,192,92029,1,0,0:0:0:0:
256,192,92029,1,0,0:0:0:0:
460,192,92286,1,2,0:0:0:0:
358,192,92286,1,0,0:0:0:0:
153,192,92286,1,0,0:0:0:0:
460,192,92544,1,2,0:0:0:0:
358,192,92544,1,0,0:0:0:0:
51,192,92544,1,0,0:0:0:0:
460,192,92801,1,2,0:0:0:0:
358,192,92801,1,0,0:0:0:0:
153,192,92801,1,0,0:0:0:0:
51,192,92801,1,0,0:0:0:0:
460,192,93058,1,8,0:0:0:0:
358,192,93058,1,0,0:0:0:50:climax.wav
51,192,93058,1,0,0:0:0:0:
153,192,93058,1,0,0:0:0:0:
256,192,93058,1,0,0:0:0:0:
460,192,93401,1,2,0:0:0:0:
358,192,93401,1,4,0:0:0:0:
51,192,93401,128,0,93744:0:0:0:0:
153,192,93401,1,0,0:0:0:0:
256,192,93572,128,0,93744:0:0:0:0:
460,192,93744,1,0,0:0:0:0:
153,192,93744,1,0,0:0:0:0:
460,192,93858,1,0,0:0:0:0:
460,192,93972,1,0,0:0:0:0:
358,192,94086,1,8,0:0:0:0:
153,192,94086,1,0,0:0:0:0:
51,192,94086,1,0,0:0:0:0:
460,192,94258,128,0,94429:0:0:0:0:
256,192,94258,1,0,0:0:0:0:
153,192,94429,1,0,0:0:0:0:
51,192,94429,1,0,0:0:0:0:
358,192,94601,1,0,0:0:0:0:
153,192,94601,1,0,0:0:0:0:
256,192,94772,1,2,0:0:0:0:
460,192,94772,1,0,0:0:0:0:
51,192,94772,1,0,0:0:0:0:
358,192,94944,1,0,0:0:0:0:
153,192,94944,1,0,0:0:0:0:
256,192,95115,1,0,0:0:0:0:
460,192,95115,1,0,0:0:0:0:
153,192,95286,1,0,0:0:0:0:
256,192,95372,1,0,0:0:0:0:
358,192,95458,1,8,0:0:0:0:
460,192,95458,1,0,0:0:0:0:
51,192,95458,1,0,0:0:0:0:
256,192,95629,1,0,0:0:0:0:
153,192,95801,1,0,0:0:0:0:
460,192,95801,1,0,0:0:0:0:
256,192,95972,1,0,0:0:0:0:
358,192,96029,1,0,0:0:0:0:
153,192,96086,1,0,0:0:0:0:
256,192,96144,1,2,0:0:0:0:
51,192,96144,1,0,0:0:0:0:
460,192,96144,128,0,96486:0:0:0:0:
153,192,96315,128,0,96486:0:0:0:0:
51,192,96486,1,0,0:0:0:0:
256,192,96486,1,0,0:0:0:0:
51,192,96601,1,0,0:0:0:0:
51,192,96715,1,0,0:0:0:0:
153,192,96829,1,8,0:0:0:0:
358,192,96829,1,0,0:0:0:0:
460,192,96829,1,0,0:0:0:0:
358,192,97001,1,0,0:0:0:0:
153,192,97086,1,0,0:0:0:0:
460,192,97172,1,0,0:0:0:0:
256,192,97172,1,0,0:0:0:0:
153,192,97258,1,0,0:0:0:0:
358,192,97344,1,0,0:0:0:0:
51,192,97344,1,0,0:0:0:0:
256,192,97429,1,0,0:0:0:0:
153,192,97515,1,2,0:0:0:0:
460,192,97515,1,0,0:0:0:0:
51,192,97515,1,0,0:0:0:0:
153,192,97686,1,0,0:0:0:0:
358,192,97686,1,0,0:0:0:0:
256,192,97858,1,0,0:0:0:0:
460,192,97858,1,0,0:0:0:0:
358,192,98029,1,0,0:0:0:0:
153,192,98029,1,0,0:0:0:0:
153,192,98201,1,8,0:0:0:0:
51,192,98201,1,0,0:0:0:0:
358,192,98201,1,0,0:0:0:0:
256,192,98372,1,2,0:0:0:0:
51,192,98372,1,0,0:0:0:0:
153,192,98544,1,8,0:0:0:0:
358,192,98544,1,0,0:0:0:0:
460,192,98544,1,0,0:0:0:0:
153,192,98715,1,0,0:0:0:50:tom.wav
153,192,98801,1,0,0:0:0:50:tom.wav
51,192,98886,1,2,0:0:0:0:
358,192,98886,1,0,0:0:0:0:
460,192,98886,1,0,0:0:0:0:
153,192,99058,1,2,0:0:0:0:
51,192,99058,1,0,0:0:0:0:
358,192,99058,1,0,0:0:0:0:
153,192,99229,1,8,0:0:0:0:
256,192,99229,1,0,0:0:0:0:
460,192,99229,1,0,0:0:0:0:
358,192,99229,1,0,0:0:0:0:
51,192,99401,1,2,0:0:0:0:
256,192,99401,1,0,0:0:0:0:
460,192,99401,1,0,0:0:0:0:
153,192,99572,1,0,0:0:0:50:tom.wav
51,192,99572,1,0,0:0:0:70:LR3_ReverseFXG.wav
358,192,99572,1,0,0:0:0:0:
256,192,99744,1,2,0:0:0:0:
460,192,99744,1,0,0:0:0:0:
358,192,99915,1,0,0:0:0:50:climax.wav
460,192,99915,1,0,0:0:0:50:tom.wav
153,192,99915,1,0,0:0:0:0:
51,192,99915,1,0,0:0:0:0:
256,192,100001,1,0,0:0:0:50:tom.wav
51,192,100086,1,0,0:0:0:50:tom.wav
460,192,100086,1,0,0:0:0:0:
358,192,100129,1,0,0:0:0:50:tom.wav
153,192,100129,1,0,0:0:0:0:
256,192,100172,1,0,0:0:0:50:tom.wav
460,192,100215,1,0,0:0:0:50:tom.wav
153,192,100258,1,2,0:0:0:0:
358,192,100258,1,4,0:0:0:0:
51,192,100258,128,0,100515:0:0:0:0:
51,192,100601,128,8,100858:0:0:0:0:
153,192,100601,1,0,0:0:0:0:
460,192,100601,1,0,0:0:0:0:
256,192,100601,1,0,0:0:0:0:
460,192,100772,1,0,0:0:0:0:
358,192,100772,1,0,0:0:0:0:
51,192,100944,128,0,101201:0:0:0:0:
153,192,100944,1,0,0:0:0:0:
256,192,101115,1,2,0:0:0:0:
460,192,101115,1,0,0:0:0:0:
358,192,101115,1,0,0:0:0:0:
51,192,101286,1,8,0:0:0:0:
153,192,101286,1,0,0:0:0:0:
358,192,101286,1,0,0:0:0:0:
460,192,101286,1,0,0:0:0:0:
256,192,101458,128,0,101629:0:0:0:0:
460,192,101629,128,2,101801:0:0:0:0:
358,192,101629,1,0,0:0:0:0:
51,192,101629,128,0,101801:0:0:0:0:
358,192,101801,128,0,101972:0:0:0:0:
153,192,101801,1,0,0:0:0:0:
256,192,101972,128,8,102144:0:0:0:0:
153,192,101972,1,0,0:0:0:0:
460,192,101972,1,0,0:0:0:0:
51,192,101972,1,0,0:0:0:0:
153,192,102144,128,0,102315:0:0:0:0:
51,192,102144,1,0,0:0:0:0:
358,192,102229,1,8,0:0:0:0:
460,192,102229,1,0,0:0:0:0:
51,192,102315,128,0,102486:0:0:0:0:
256,192,102315,1,0,0:0:0:0:
153,192,102486,1,2,0:0:0:0:
358,192,102486,1,0,0:0:0:0:
460,192,102486,1,0,0:0:0:0:
256,192,102658,1,8,0:0:0:0:
460,192,102658,1,0,0:0:0:0:
51,192,102658,1,0,0:0:0:0:
153,192,102658,128,0,102829:0:0:0:0:
358,192,102829,128,0,103172:0:0:0:0:
256,192,102829,1,0,0:0:0:0:
51,192,103001,128,2,103172:0:0:0:0:
153,192,103001,1,0,0:0:0:0:
460,192,103001,1,0,0:0:0:0:
256,192,103172,1,0,0:0:0:0:
51,192,103344,1,8,0:0:0:0:
358,192,103344,1,0,0:0:0:0:
460,192,103344,1,0,0:0:0:0:
153,192,103344,128,0,103515:0:0:0:0:
256,192,103515,128,0,103686:0:0:0:0:
460,192,103515,1,0,0:0:0:0:
358,192,103686,128,0,103858:0:0:0:0:
51,192,103686,1,0,0:0:0:0:
153,192,103858,1,2,0:0:0:0:
256,192,103858,1,0,0:0:0:0:
460,192,103858,1,0,0:0:0:0:
358,192,103944,1,0,0:0:0:0:
51,192,104029,1,8,0:0:0:0:
153,192,104029,1,0,0:0:0:0:
460,192,104029,1,0,0:0:0:0:
256,192,104201,1,0,0:0:0:0:
51,192,104201,1,0,0:0:0:0:
153,192,104286,1,8,0:0:0:0:
358,192,104286,1,0,0:0:0:0:
460,192,104286,1,0,0:0:0:0:
256,192,104372,1,0,0:0:0:0:
51,192,104372,128,0,104629:0:0:0:0:
358,192,104544,1,2,0:0:0:0:
153,192,104544,1,0,0:0:0:0:
256,192,104715,1,8,0:0:0:0:
460,192,104715,1,0,0:0:0:0:
153,192,104715,1,0,0:0:0:0:
51,192,104715,128,0,104972:0:0:0:0:
358,192,104886,1,2,0:0:0:0:
460,192,104886,1,0,0:0:0:0:
153,192,105058,1,0,0:0:0:0:
256,192,105058,1,0,0:0:0:0:
51,192,105058,128,0,105315:0:0:0:0:
153,192,105229,1,2,0:0:0:0:
358,192,105229,1,0,0:0:0:0:
256,192,105315,1,2,0:0:0:0:
460,192,105315,1,0,0:0:0:0:
358,192,105401,1,8,0:0:0:0:
153,192,105401,1,0,0:0:0:0:
51,192,105401,1,0,0:0:0:0:
256,192,105572,1,2,0:0:0:0:
153,192,105572,1,0,0:0:0:0:
460,192,105572,1,0,0:0:0:0:
51,192,105744,1,2,0:0:0:0:
460,192,105744,1,0,0:0:0:0:
358,192,105744,128,0,105915:0:0:0:0:
153,192,105915,128,0,106086:0:0:0:0:
256,192,105915,1,0,0:0:0:0:
460,192,106086,128,8,106258:0:0:0:0:
51,192,106086,1,0,0:0:0:0:
358,192,106086,1,0,0:0:0:0:
256,192,106086,1,0,0:0:0:0:
51,192,106258,128,0,106601:0:0:0:0:
153,192,106258,1,0,0:0:0:0:
460,192,106429,128,0,106601:0:0:0:0:
358,192,106429,1,0,0:0:0:0:
153,192,106601,1,2,0:0:0:0:
256,192,106601,1,0,0:0:0:0:
358,192,106601,1,0,0:0:0:0:
460,192,106772,128,8,106944:0:0:0:0:
51,192,106772,1,0,0:0:0:0:
153,192,106772,1,0,0:0:0:0:
256,192,106772,1,0,0:0:0:0:
358,192,106944,128,0,107115:0:0:0:0:
51,192,106944,1,0,0:0:0:0:
153,192,107115,128,2,107286:0:0:0:0:
256,192,107115,1,0,0:0:0:0:
460,192,107115,1,0,0:0:0:0:
460,192,107286,128,0,107458:0:0:0:0:
51,192,107286,1,0,0:0:0:0:
358,192,107458,128,8,107629:0:0:0:0:
256,192,107458,1,0,0:0:0:0:
153,192,107458,1,0,0:0:0:0:
51,192,107458,1,0,0:0:0:0:
256,192,107629,128,0,107801:0:0:0:0:
51,192,107629,1,0,0:0:0:0:
358,192,107715,1,8,0:0:0:0:
460,192,107715,1,0,0:0:0:0:
153,192,107801,128,0,107972:0:0:0:0:
51,192,107801,1,0,0:0:0:0:
256,192,107972,1,2,0:0:0:0:
460,192,107972,1,0,0:0:0:0:
358,192,107972,1,0,0:0:0:0:
358,192,108144,128,8,108315:0:0:0:0:
51,192,108144,1,0,0:0:0:0:
153,192,108144,1,0,0:0:0:0:
460,192,108144,1,0,0:0:0:0:
51,192,108315,128,0,108658:0:0:0:0:
256,192,108315,1,0,0:0:0:0:
460,192,108486,128,2,108658:0:0:0:0:
358,192,108486,1,0,0:0:0:0:
153,192,108486,1,0,0:0:0:0:
256,192,108658,1,0,0:0:0:0:
51,192,108829,1,8,0:0:0:0:
256,192,108829,1,0,0:0:0:0:
358,192,108829,1,0,0:0:0:0:
460,192,108829,1,0,0:0:0:0:
153,192,109001,1,0,0:0:0:0:
358,192,109086,1,0,0:0:0:0:
256,192,109172,1,0,0:0:0:0:
51,192,109172,1,0,0:0:0:0:
460,192,109172,1,0,0:0:0:0:
153,192,109344,1,2,0:0:0:0:
51,192,109344,1,0,0:0:0:0:
358,192,109344,1,0,0:0:0:0:
256,192,109429,1,0,0:0:0:0:
460,192,109429,1,0,0:0:0:0:
358,192,109515,1,8,0:0:0:0:
153,192,109515,1,0,0:0:0:0:
51,192,109515,1,0,0:0:0:0:
256,192,109686,1,0,0:0:0:0:
460,192,109686,1,0,0:0:0:0:
358,192,109858,128,2,110029:0:0:0:0:
460,192,109858,128,0,110029:0:0:0:0:
153,192,109858,1,0,0:0:0:0:
256,192,110029,1,0,0:0:0:0:
51,192,110029,1,0,0:0:0:0:
358,192,110201,128,8,110372:0:0:0:0:
460,192,110201,128,0,110372:0:0:0:0:
51,192,110201,1,0,0:0:0:0:
153,192,110201,1,0,0:0:0:0:
51,192,110372,128,2,110544:0:0:0:0:
153,192,110372,128,0,110544:0:0:0:0:
256,192,110372,1,0,0:0:0:0:
358,192,110544,1,0,0:0:0:0:
460,192,110544,1,0,0:0:0:0:
460,192,110715,1,8,0:0:0:0:
51,192,110715,1,0,0:0:0:0:
153,192,110715,1,0,0:0:0:0:
358,192,110715,1,0,0:0:0:0:
51,192,110886,1,2,0:0:0:0:
256,192,110886,1,0,0:0:0:0:
460,192,110886,1,0,0:0:0:0:
153,192,111058,1,8,0:0:0:0:
51,192,111058,1,0,0:0:0:0:
358,192,111058,1,0,0:0:0:0:
460,192,111058,1,0,0:0:0:0:
51,192,111229,1,2,0:0:0:0:
153,192,111229,1,4,0:0:0:0:
358,192,111229,1,0,0:0:0:0:
256,192,111229,1,0,0:0:0:0:
460,192,111229,128,0,111401:0:0:0:0:
153,192,111401,1,0,0:0:0:0:
358,192,111401,1,0,0:0:0:0:
51,192,111486,1,0,0:0:0:0:
256,192,111572,1,8,0:0:0:0:
358,192,111572,1,0,0:0:0:0:
153,192,111572,1,0,0:0:0:0:
460,192,111572,1,0,0:0:0:0:
256,192,111744,128,0,111829:0:0:0:0:
51,192,111744,1,0,0:0:0:0:
358,192,111915,128,0,112172:0:0:0:0:
460,192,111915,1,0,0:0:0:0:
153,192,111915,1,0,0:0:0:0:
51,192,112086,1,2,0:0:0:0:
256,192,112086,1,0,0:0:0:0:
153,192,112258,1,8,0:0:0:0:
51,192,112258,1,0,0:0:0:0:
358,192,112258,1,0,0:0:0:0:
460,192,112258,1,0,0:0:0:0:
256,192,112429,1,0,0:0:0:0:
51,192,112429,128,0,112601:0:0:0:0:
153,192,112601,1,2,0:0:0:0:
460,192,112601,1,0,0:0:0:0:
358,192,112601,128,0,112772:0:0:0:0:
51,192,112772,128,0,112944:0:0:0:0:
256,192,112772,1,0,0:0:0:0:
460,192,112944,128,8,113115:0:0:0:0:
153,192,112944,1,0,0:0:0:0:
358,192,112944,1,0,0:0:0:0:
256,192,112944,1,0,0:0:0:0:
51,192,113115,128,0,113286:0:0:0:0:
153,192,113115,1,0,0:0:0:0:
358,192,113201,1,8,0:0:0:0:
460,192,113201,1,0,0:0:0:0:
256,192,113286,128,0,113458:0:0:0:0:
153,192,113286,1,0,0:0:0:0:
51,192,113458,1,2,0:0:0:0:
358,192,113458,1,0,0:0:0:0:
460,192,113458,1,0,0:0:0:0:
153,192,113629,128,8,113801:0:0:0:0:
358,192,113629,1,0,0:0:0:0:
460,192,113629,1,0,0:0:0:0:
51,192,113629,1,0,0:0:0:0:
256,192,113801,128,0,113972:0:0:0:0:
460,192,113801,1,0,0:0:0:0:
358,192,113972,128,2,114315:0:0:0:0:
51,192,113972,1,0,0:0:0:0:
153,192,113972,1,0,0:0:0:0:
256,192,114144,1,0,0:0:0:0:
460,192,114315,128,8,114486:0:0:0:0:
153,192,114315,1,0,0:0:0:0:
51,192,114315,1,0,0:0:0:0:
256,192,114315,1,0,0:0:0:0:
51,192,114486,128,0,114658:0:0:0:0:
358,192,114486,1,0,0:0:0:0:
460,192,114572,1,0,0:0:0:0:
153,192,114658,128,0,114829:0:0:0:0:
256,192,114658,1,0,0:0:0:0:
256,192,114829,1,2,0:0:0:0:
460,192,114829,1,0,0:0:0:0:
358,192,114829,1,0,0:0:0:0:
51,192,115001,128,8,115172:0:0:0:0:
153,192,115001,1,0,0:0:0:0:
460,192,115001,1,0,0:0:0:0:
358,192,115001,1,0,0:0:0:0:
153,192,115172,128,0,115344:0:0:0:0:
256,192,115258,1,8,0:0:0:0:
358,192,115258,1,0,0:0:0:0:
460,192,115344,128,0,115601:0:0:0:0:
51,192,115344,1,0,0:0:0:0:
153,192,115515,1,2,0:0:0:0:
358,192,115515,1,0,0:0:0:0:
460,192,115686,128,8,115944:0:0:0:0:
256,192,115686,1,0,0:0:0:0:
51,192,115686,1,0,0:0:0:0:
358,192,115686,1,0,0:0:0:0:
153,192,115858,1,2,0:0:0:0:
51,192,115858,1,0,0:0:0:0:
460,192,116029,128,0,116286:0:0:0:0:
256,192,116029,1,0,0:0:0:0:
153,192,116201,1,2,0:0:0:0:
51,192,116201,1,0,0:0:0:0:
358,192,116201,1,0,0:0:0:0:
51,192,116372,1,8,0:0:0:0:
358,192,116372,1,0,0:0:0:0:
460,192,116372,1,0,0:0:0:0:
256,192,116372,1,0,0:0:0:0:
153,192,116544,1,2,0:0:0:0:
460,192,116544,1,0,0:0:0:0:
256,192,116715,128,2,116886:0:0:0:0:
51,192,116715,1,0,0:0:0:0:
358,192,116715,1,0,0:0:0:0:
51,192,116886,128,0,117058:0:0:0:0:
460,192,116886,1,0,0:0:0:0:
358,192,117058,128,8,117229:0:0:0:0:
153,192,117058,1,0,0:0:0:0:
460,192,117058,1,0,0:0:0:0:
256,192,117058,1,0,0:0:0:0:
153,192,117229,128,0,117401:0:0:0:0:
51,192,117229,1,0,0:0:0:0:
460,192,117401,128,0,117572:0:0:0:0:
256,192,117401,1,0,0:0:0:0:
153,192,117572,1,2,0:0:0:0:
51,192,117572,1,0,0:0:0:0:
358,192,117572,1,0,0:0:0:0:
358,192,117744,128,8,117915:0:0:0:0:
256,192,117744,1,0,0:0:0:0:
153,192,117744,1,0,0:0:0:0:
51,192,117744,1,0,0:0:0:0:
256,192,117915,128,0,118086:0:0:0:0:
460,192,117915,1,0,0:0:0:0:
51,192,118086,128,2,118258:0:0:0:0:
153,192,118086,1,0,0:0:0:0:
460,192,118086,1,0,0:0:0:0:
358,192,118258,128,0,118429:0:0:0:0:
153,192,118258,1,0,0:0:0:0:
51,192,118429,128,8,118601:0:0:0:0:
256,192,118429,1,0,0:0:0:0:
153,192,118429,1,0,0:0:0:0:
460,192,118429,1,0,0:0:0:0:
460,192,118601,128,0,118944:0:0:0:0:
358,192,118601,1,0,0:0:0:0:
153,192,118686,1,8,0:0:0:0:
256,192,118686,1,0,0:0:0:0:
51,192,118772,128,0,118944:0:0:0:0:
358,192,118772,1,0,0:0:0:0:
256,192,118944,1,2,0:0:0:0:
153,192,118944,1,0,0:0:0:0:
153,192,119115,128,8,119286:0:0:0:0:
51,192,119115,1,0,0:0:0:0:
460,192,119115,1,0,0:0:0:0:
358,192,119115,1,0,0:0:0:0:
358,192,119286,128,0,119458:0:0:0:0:
256,192,119286,1,0,0:0:0:0:
153,192,119458,128,2,119801:0:0:0:0:
460,192,119458,1,0,0:0:0:0:
51,192,119458,1,0,0:0:0:0:
51,192,119629,128,0,119801:0:0:0:0:
256,192,119629,1,0,0:0:0:0:
358,192,119801,128,8,119972:0:0:0:0:
256,192,119801,1,0,0:0:0:0:
460,192,119801,1,0,0:0:0:0:
460,192,119972,128,2,120315:0:0:0:0:
153,192,119972,1,0,0:0:0:0:
51,192,119972,1,0,0:0:0:0:
358,192,120144,128,0,120315:0:0:0:0:
256,192,120144,1,0,0:0:0:0:
256,192,120315,1,2,0:0:0:0:
51,192,120315,1,0,0:0:0:0:
153,192,120315,1,0,0:0:0:0:
358,192,120401,1,2,0:0:0:0:
51,192,120486,1,8,0:0:0:0:
153,192,120486,1,0,0:0:0:0:
460,192,120486,1,0,0:0:0:0:
256,192,120486,1,0,0:0:0:0:
153,192,120658,1,2,0:0:0:0:
358,192,120658,1,0,0:0:0:0:
460,192,120658,1,0,0:0:0:0:
256,192,120829,128,2,121001:0:0:0:0:
51,192,120829,128,0,121344:0:0:0:0:
460,192,120829,1,0,0:0:0:0:
153,192,121001,128,0,121172:0:0:0:0:
358,192,121001,128,0,121344:0:0:0:0:
256,192,121172,128,0,121344:0:0:0:0:
460,192,121172,128,0,121344:0:0:0:0:
153,192,121344,128,0,121858:0:0:0:0:
51,192,121515,128,8,121858:0:0:0:0:
256,192,121515,128,0,121858:0:0:0:50:climax.wav
358,192,121515,128,0,121858:0:0:0:0:
460,192,121515,128,0,121858:0:0:0:0:
51,192,122201,1,2,0:0:0:0:
153,192,122201,1,4,0:0:0:0:
256,192,122201,1,0,0:0:0:0:
358,192,122201,1,0,0:0:0:0:
460,192,122201,1,0,0:0:0:0:
256,192,122372,1,0,0:0:0:0:
51,192,122544,1,0,0:0:0:0:
153,192,122715,1,0,0:0:0:0:
460,192,122886,1,0,0:0:0:0:
153,192,123058,1,0,0:0:0:0:
358,192,123229,1,0,0:0:0:0:
256,192,123401,1,0,0:0:0:0:
51,192,123572,1,0,0:0:0:0:
256,192,123744,1,0,0:0:0:0:
358,192,123915,1,0,0:0:0:0:
460,192,124086,1,0,0:0:0:0:
153,192,124258,1,0,0:0:0:0:
460,192,124429,1,0,0:0:0:0:
153,192,124601,1,0,0:0:0:0:
358,192,124772,1,0,0:0:0:0:
153,192,124944,1,0,0:0:0:0:
51,192,125115,1,0,0:0:0:0:
358,192,125286,1,0,0:0:0:0:
256,192,125458,1,0,0:0:0:0:
153,192,125629,1,0,0:0:0:0:
358,192,125801,1,0,0:0:0:0:
256,192,125972,1,0,0:0:0:0:
153,192,126144,1,0,0:0:0:0:
358,192,126315,1,0,0:0:0:0:
51,192,126486,1,0,0:0:0:0:
358,192,126658,1,0,0:0:0:0:
460,192,126829,1,0,0:0:0:0:
153,192,127001,1,0,0:0:0:0:
358,192,127172,1,0,0:0:0:0:
256,192,127344,1,0,0:0:0:0:
153,192,127515,1,0,0:0:0:0:
51,192,127686,1,2,0:0:0:0:
358,192,127686,1,4,0:0:0:0:
460,192,127686,1,0,0:0:0:0:
256,192,127686,1,0,0:0:0:0:
51,192,127858,1,0,0:0:0:50:tom.wav
153,192,128029,1,2,0:0:0:0:
358,192,128029,1,0,0:0:0:0:
460,192,128029,1,0,0:0:0:0:
460,192,128201,1,0,0:0:0:50:tom.wav
51,192,128372,1,8,0:0:0:0:
153,192,128372,1,0,0:0:0:0:
256,192,128372,1,0,0:0:0:0:
358,192,128372,1,0,0:0:0:0:
153,192,128544,1,0,0:0:0:50:tom.wav
51,192,128715,1,2,0:0:0:0:
358,192,128715,1,0,0:0:0:0:
460,192,128715,1,0,0:0:0:0:
358,192,128886,1,0,0:0:0:50:tom.wav
256,192,128972,1,0,0:0:0:50:tom.wav
153,192,129058,1,2,0:0:0:0:
51,192,129058,1,0,0:0:0:0:
460,192,129058,1,0,0:0:0:0:
153,192,129229,1,0,0:0:0:50:tom.wav
51,192,129401,1,2,0:0:0:0:
256,192,129401,1,0,0:0:0:0:
460,192,129401,1,0,0:0:0:0:
256,192,129572,1,0,0:0:0:50:tom.wav
358,192,129744,1,8,0:0:0:0:
460,192,129744,1,0,0:0:0:0:
153,192,129744,1,0,0:0:0:0:
51,192,129744,1,0,0:0:0:0:
358,192,129915,1,0,0:0:0:50:tom.wav
256,192,130086,1,0,0:0:0:50:tom.wav
51,192,130086,1,0,0:0:0:0:
460,192,130086,1,0,0:0:0:0:
358,192,130172,1,0,0:0:0:50:tom.wav
153,192,130258,1,0,0:0:0:50:tom.wav
256,192,130344,1,0,0:0:0:50:tom.wav
51,192,130429,1,2,0:0:0:0:
153,192,130429,1,0,0:0:0:0:
358,192,130429,1,0,0:0:0:0:
256,192,130601,1,2,0:0:0:0:
460,192,130601,1,0,0:0:0:0:
153,192,130601,1,0,0:0:0:0:
51,192,130686,1,0,0:0:0:50:tom.wav
460,192,130772,1,2,0:0:0:0:
358,192,130772,1,0,0:0:0:0:
256,192,130772,1,0,0:0:0:0:
153,192,130944,1,2,0:0:0:0:
51,192,130944,1,0,0:0:0:0:
256,192,130944,1,0,0:0:0:0:
358,192,131029,1,0,0:0:0:50:tom.wav
460,192,131115,1,8,0:0:0:0:
153,192,131115,1,0,0:0:0:0:
51,192,131115,1,0,0:0:0:0:
256,192,131115,1,0,0:0:0:0:
358,192,131286,1,2,0:0:0:0:
460,192,131286,1,0,0:0:0:0:
153,192,131286,1,0,0:0:0:0:
256,192,131372,1,0,0:0:0:50:tom.wav
153,192,131458,1,2,0:0:0:0:
51,192,131458,1,0,0:0:0:0:
358,192,131458,1,0,0:0:0:0:
256,192,131629,1,2,0:0:0:0:
460,192,131629,1,0,0:0:0:0:
51,192,131629,1,0,0:0:0:0:
153,192,131801,1,2,0:0:0:0:
358,192,131801,1,0,0:0:0:0:
460,192,131801,1,0,0:0:0:0:
256,192,131886,1,2,0:0:0:0:
51,192,131886,1,0,0:0:0:0:
358,192,131972,1,2,0:0:0:0:
460,192,131972,1,0,0:0:0:0:
153,192,132058,1,2,0:0:0:0:
51,192,132058,1,0,0:0:0:0:
460,192,132144,1,2,0:0:0:0:
358,192,132144,1,0,0:0:0:0:
51,192,132186,1,2,0:0:0:0:
153,192,132229,1,2,0:0:0:0:
256,192,132229,1,0,0:0:0:0:
358,192,132272,1,2,0:0:0:0:
460,192,132315,1,2,0:0:0:0:
51,192,132315,1,0,0:0:0:0:
153,192,132358,1,2,0:0:0:0:
256,192,132401,1,2,0:0:0:0:
358,192,132401,1,0,0:0:0:0:
460,192,132444,1,2,0:0:0:0:
153,192,132486,1,8,0:0:0:0:
51,192,132486,1,0,0:0:0:50:climax.wav
153,192,133001,128,0,133172:0:0:0:0:
51,192,133172,1,2,0:0:0:0:
256,192,133172,1,4,0:0:0:0:
358,192,133172,1,0,0:0:0:0:
460,192,133172,1,0,0:0:0:0:
153,192,133344,1,0,0:0:0:0:
51,192,133344,1,0,0:0:0:0:
358,192,133429,1,0,0:0:0:0:
460,192,133429,1,0,0:0:0:0:
256,192,133515,1,0,0:0:0:0:
51,192,133515,1,0,0:0:0:0:
153,192,133686,1,0,0:0:0:0:
358,192,133686,1,0,0:0:0:0:
256,192,133772,1,0,0:0:0:0:
460,192,133772,1,0,0:0:0:0:
358,192,133858,1,8,0:0:0:0:
153,192,133858,1,0,0:0:0:0:
51,192,133858,1,0,0:0:0:0:
460,192,133944,1,0,0:0:0:0:
51,192,134029,1,0,0:0:0:0:
256,192,134029,1,0,0:0:0:0:
153,192,134115,1,0,0:0:0:0:
358,192,134115,1,0,0:0:0:0:
256,192,134201,1,0,0:0:0:0:
460,192,134201,1,0,0:0:0:0:
51,192,134201,1,0,0:0:0:0:
153,192,134372,1,0,0:0:0:0:
358,192,134372,1,0,0:0:0:0:
460,192,134544,128,2,134715:0:0:0:0:
51,192,134544,1,0,0:0:0:0:
256,192,134544,1,0,0:0:0:0:
358,192,134715,128,0,134886:0:0:0:0:
153,192,134715,1,0,0:0:0:0:
460,192,134886,128,0,135229:0:0:0:0:
51,192,134886,1,0,0:0:0:0:
358,192,135058,128,0,135229:0:0:0:0:
256,192,135058,1,0,0:0:0:0:
51,192,135229,128,8,135401:0:0:0:0:
256,192,135229,1,0,0:0:0:0:
153,192,135229,1,0,0:0:0:0:
153,192,135401,128,0,135486:0:0:0:0:
358,192,135401,1,0,0:0:0:0:
51,192,135486,128,0,135744:0:0:0:0:
460,192,135486,1,0,0:0:0:0:
153,192,135572,128,0,135744:0:0:0:0:
358,192,135572,1,0,0:0:0:0:
256,192,135744,1,0,0:0:0:0:
460,192,135744,1,0,0:0:0:0:
153,192,135829,1,0,0:0:0:0:
358,192,135829,1,0,0:0:0:0:
51,192,135915,1,2,0:0:0:0:
256,192,135915,1,0,0:0:0:0:
460,192,135915,1,0,0:0:0:0:
153,192,136086,1,0,0:0:0:0:
358,192,136086,1,0,0:0:0:0:
256,192,136172,1,0,0:0:0:0:
460,192,136172,1,0,0:0:0:0:
51,192,136258,1,0,0:0:0:0:
153,192,136258,1,0,0:0:0:0:
256,192,136429,1,0,0:0:0:0:
460,192,136429,1,0,0:0:0:0:
153,192,136515,1,0,0:0:0:0:
51,192,136515,1,0,0:0:0:0:
256,192,136601,1,8,0:0:0:0:
358,192,136601,1,0,0:0:0:0:
460,192,136601,1,0,0:0:0:0:
153,192,136686,1,0,0:0:0:0:
51,192,136686,1,0,0:0:0:0:
358,192,136772,1,0,0:0:0:0:
460,192,136772,1,0,0:0:0:0:
153,192,136858,1,0,0:0:0:0:
51,192,136858,1,0,0:0:0:0:
256,192,136944,1,0,0:0:0:0:
358,192,136944,1,0,0:0:0:0:
460,192,136944,128,0,137286:0:0:0:0:
153,192,137115,1,0,0:0:0:0:
51,192,137115,1,0,0:0:0:0:
51,192,137286,128,2,137458:0:0:0:0:
153,192,137286,128,0,137458:0:0:0:0:
358,192,137286,1,0,0:0:0:0:
256,192,137458,1,0,0:0:0:0:
358,192,137544,1,0,0:0:0:0:
51,192,137629,128,0,137801:0:0:0:0:
153,192,137629,128,0,137801:0:0:0:0:
460,192,137629,1,0,0:0:0:0:
358,192,137801,1,0,0:0:0:0:
256,192,137886,1,0,0:0:0:0:
358,192,137972,128,8,138144:0:0:0:0:
460,192,137972,1,0,0:0:0:0:
51,192,137972,1,0,0:0:0:0:
153,192,137972,1,0,0:0:0:0:
460,192,138144,128,0,138315:0:0:0:0:
153,192,138144,1,0,0:0:0:0:
358,192,138315,128,0,138658:0:0:0:0:
51,192,138315,1,0,0:0:0:0:
460,192,138486,128,0,138658:0:0:0:0:
153,192,138486,1,0,0:0:0:0:
51,192,138658,1,2,0:0:0:0:
153,192,138658,1,0,0:0:0:0:
256,192,138658,1,0,0:0:0:0:
358,192,138829,128,0,139001:0:0:0:0:
51,192,138829,1,0,0:0:0:0:
153,192,139001,128,0,139172:0:0:0:0:
460,192,139001,1,0,0:0:0:0:
358,192,139172,1,0,0:0:0:0:
51,192,139172,1,0,0:0:0:0:
358,192,139258,1,0,0:0:0:0:
460,192,139344,1,8,0:0:0:0:
153,192,139344,1,0,0:0:0:0:
51,192,139344,1,0,0:0:0:0:
358,192,139429,1,0,0:0:0:0:
460,192,139515,1,0,0:0:0:0:
358,192,139601,1,0,0:0:0:0:
256,192,139686,1,0,0:0:0:0:
51,192,139686,1,0,0:0:0:0:
153,192,139686,1,0,0:0:0:0:
153,192,139858,1,0,0:0:0:0:
460,192,139858,1,0,0:0:0:0:
358,192,140029,128,2,140201:0:0:0:0:
51,192,140029,1,0,0:0:0:0:
460,192,140029,1,0,0:0:0:0:
256,192,140201,128,0,140372:0:0:0:0:
153,192,140201,1,0,0:0:0:0:
358,192,140286,1,0,0:0:0:0:
153,192,140372,128,0,140544:0:0:0:0:
460,192,140372,1,0,0:0:0:0:
51,192,140372,1,0,0:0:0:0:
51,192,140544,128,0,140715:0:0:0:0:
358,192,140544,1,0,0:0:0:0:
358,192,140629,1,0,0:0:0:0:
460,192,140715,128,8,140886:0:0:0:0:
153,192,140715,1,0,0:0:0:0:
256,192,140715,1,0,0:0:0:0:
51,192,140886,128,0,141058:0:0:0:0:
358,192,140886,1,0,0:0:0:0:
153,192,141058,128,0,141229:0:0:0:0:
460,192,141058,1,0,0:0:0:0:
256,192,141229,128,0,141401:0:0:0:0:
51,192,141229,1,0,0:0:0:0:
153,192,141401,1,2,0:0:0:0:
358,192,141401,1,0,0:0:0:0:
460,192,141401,1,0,0:0:0:0:
256,192,141572,1,0,0:0:0:0:
51,192,141572,1,0,0:0:0:0:
358,192,141744,1,0,0:0:0:0:
460,192,141744,1,0,0:0:0:0:
153,192,141915,1,0,0:0:0:0:
51,192,141915,1,0,0:0:0:0:
256,192,142086,1,8,0:0:0:0:
358,192,142086,1,0,0:0:0:0:
460,192,142086,1,0,0:0:0:0:
51,192,142086,128,0,142258:0:0:0:0:
153,192,142258,128,0,142429:0:0:0:0:
358,192,142258,1,0,0:0:0:0:
256,192,142429,128,0,142601:0:0:0:0:
51,192,142429,1,0,0:0:0:0:
358,192,142601,128,0,142772:0:0:0:0:
153,192,142601,1,0,0:0:0:0:
51,192,142772,1,2,0:0:0:0:
153,192,142772,1,0,0:0:0:0:
460,192,142772,1,0,0:0:0:0:
153,192,143029,1,2,0:0:0:0:
358,192,143029,1,0,0:0:0:0:
460,192,143029,1,0,0:0:0:0:
51,192,143286,1,2,0:0:0:0:
256,192,143286,1,0,0:0:0:0:
358,192,143286,1,0,0:0:0:0:
153,192,143458,1,8,0:0:0:0:
51,192,143458,1,0,0:0:0:0:
358,192,143458,1,0,0:0:0:0:
460,192,143458,1,0,0:0:0:0:
153,192,143715,1,2,0:0:0:0:
256,192,143715,1,0,0:0:0:0:
460,192,143715,1,0,0:0:0:0:
358,192,143972,1,2,0:0:0:0:
51,192,143972,1,0,0:0:0:0:
460,192,143972,1,0,0:0:0:0:
153,192,144144,1,2,0:0:0:0:
256,192,144144,1,0,0:0:0:0:
51,192,144144,128,0,145344:0:0:0:0:
460,192,145515,128,2,145858:0:0:0:0:
358,192,145515,1,4,0:0:0:0:
51,192,145515,1,0,0:0:0:0:
153,192,145515,128,0,145686:0:0:0:0:
256,192,145686,128,0,145858:0:0:0:0:
51,192,145686,1,0,0:0:0:0:
358,192,145858,128,0,146029:0:0:0:0:
153,192,145858,1,0,0:0:0:0:
256,192,146029,128,0,146201:0:0:0:0:
51,192,146029,1,0,0:0:0:0:
51,192,146201,128,8,146544:0:0:0:0:
153,192,146201,128,0,146372:0:0:0:0:
358,192,146201,1,0,0:0:0:0:
256,192,146372,128,0,146544:0:0:0:0:
460,192,146372,1,0,0:0:0:0:
358,192,146544,128,0,146715:0:0:0:0:
153,192,146544,1,0,0:0:0:0:
256,192,146715,128,0,146886:0:0:0:0:
51,192,146715,1,0,0:0:0:0:
460,192,146886,1,2,0:0:0:0:
51,192,146886,1,0,0:0:0:0:
358,192,147058,1,0,0:0:0:0:
153,192,147058,1,0,0:0:0:0:
51,192,147229,1,0,0:0:0:0:
256,192,147229,1,0,0:0:0:0:
358,192,147401,1,0,0:0:0:0:
153,192,147401,1,0,0:0:0:0:
460,192,147572,1,8,0:0:0:0:
51,192,147572,1,0,0:0:0:0:
358,192,147572,1,0,0:0:0:0:
256,192,147744,1,0,0:0:0:0:
153,192,147744,1,0,0:0:0:0:
51,192,147915,1,0,0:0:0:0:
358,192,147915,1,0,0:0:0:0:
153,192,148086,1,0,0:0:0:0:
460,192,148086,1,0,0:0:0:0:
51,192,148258,128,2,148601:0:0:0:0:
256,192,148258,1,0,0:0:0:0:
358,192,148258,128,0,148429:0:0:0:0:
153,192,148429,128,0,148601:0:0:0:0:
256,192,148601,1,0,0:0:0:0:
460,192,148601,1,0,0:0:0:0:
358,192,148601,128,0,148772:0:0:0:0:
153,192,148772,128,0,148944:0:0:0:0:
51,192,148944,1,8,0:0:0:0:
460,192,148944,128,0,149286:0:0:0:0:
358,192,148944,128,0,149115:0:0:0:0:
153,192,149115,128,0,149286:0:0:0:0:
256,192,149286,1,0,0:0:0:0:
51,192,149286,1,0,0:0:0:0:
358,192,149286,128,0,149458:0:0:0:0:
153,192,149458,128,0,149629:0:0:0:0:
460,192,149458,1,0,0:0:0:0:
358,192,149629,1,2,0:0:0:0:
256,192,149629,1,0,0:0:0:0:
51,192,149629,1,0,0:0:0:0:
153,192,149801,1,0,0:0:0:0:
460,192,149801,1,0,0:0:0:0:
51,192,149972,1,0,0:0:0:0:
256,192,149972,1,0,0:0:0:0:
358,192,150144,1,0,0:0:0:0:
460,192,150144,1,0,0:0:0:0:
256,192,150315,1,8,0:0:0:0:
153,192,150315,1,0,0:0:0:0:
51,192,150315,1,0,0:0:0:0:
460,192,150486,1,0,0:0:0:0:
358,192,150658,1,0,0:0:0:0:
256,192,150829,1,0,0:0:0:0:
358,192,151001,1,2,0:0:0:0:
153,192,151001,1,4,0:0:0:0:
460,192,151001,1,0,0:0:0:0:
51,192,151001,128,0,151515:0:0:0:0:
256,192,151172,1,0,0:0:0:0:
358,192,151344,1,0,0:0:0:0:
460,192,151344,1,0,0:0:0:0:
460,192,151515,128,0,151686:0:0:0:0:
256,192,151515,1,0,0:0:0:0:
51,192,151686,128,8,152201:0:0:0:0:
256,192,151686,1,0,0:0:0:0:
358,192,151686,1,0,0:0:0:0:
153,192,151858,1,0,0:0:0:0:
358,192,151858,1,0,0:0:0:0:
256,192,152029,1,0,0:0:0:0:
460,192,152029,1,0,0:0:0:0:
460,192,152201,128,0,152372:0:0:0:0:
358,192,152201,1,0,0:0:0:0:
153,192,152372,128,2,152544:0:0:0:0:
51,192,152372,1,0,0:0:0:0:
256,192,152372,1,0,0:0:0:0:
358,192,152544,128,0,152715:0:0:0:0:
460,192,152544,1,0,0:0:0:0:
51,192,152715,128,0,152886:0:0:0:0:
256,192,152715,1,0,0:0:0:0:
460,192,152886,128,0,153058:0:0:0:0:
358,192,152886,1,0,0:0:0:0:
153,192,153058,128,8,153229:0:0:0:0:
51,192,153058,1,0,0:0:0:0:
256,192,153058,1,0,0:0:0:0:
358,192,153229,128,0,153401:0:0:0:0:
460,192,153229,1,0,0:0:0:0:
51,192,153401,128,0,153572:0:0:0:0:
153,192,153401,1,0,0:0:0:0:
460,192,153572,128,0,153744:0:0:0:0:
256,192,153572,1,0,0:0:0:0:
153,192,153744,128,2,154258:0:0:0:0:
51,192,153744,1,0,0:0:0:0:
358,192,153744,1,0,0:0:0:0:
358,192,153915,128,0,154001:0:0:0:0:
256,192,153915,1,0,0:0:0:0:
460,192,154001,128,0,154258:0:0:0:0:
51,192,154086,1,0,0:0:0:0:
256,192,154086,1,0,0:0:0:0:
51,192,154258,128,0,154429:0:0:0:0:
358,192,154258,1,0,0:0:0:0:
256,192,154429,128,8,154772:0:0:0:0:
153,192,154429,1,0,0:0:0:0:
460,192,154429,1,0,0:0:0:0:
51,192,154601,1,0,0:0:0:0:
358,192,154601,1,0,0:0:0:0:
460,192,154772,128,0,155115:0:0:0:0:
153,192,154772,1,0,0:0:0:0:
51,192,154944,1,0,0:0:0:0:
358,192,154944,1,0,0:0:0:0:
358,192,155115,128,2,155458:0:0:0:0:
51,192,155115,128,0,155286:0:0:0:0:
256,192,155115,1,0,0:0:0:0:
153,192,155286,128,0,155629:0:0:0:0:
51,192,155458,128,0,155629:0:0:0:0:
460,192,155458,128,0,155629:0:0:0:0:
256,192,155629,128,0,155801:0:0:0:0:
358,192,155629,1,0,0:0:0:0:
153,192,155801,128,8,156144:0:0:0:0:
460,192,155801,128,0,155972:0:0:0:0:
51,192,155801,1,0,0:0:0:0:
358,192,155801,1,0,0:0:0:0:
358,192,155972,128,0,156315:0:0:0:0:
460,192,156144,128,0,156315:0:0:0:0:
51,192,156144,128,0,156315:0:0:0:0:
256,192,156315,128,0,156486:0:0:0:0:
153,192,156315,1,0,0:0:0:0:
51,192,156486,128,2,156658:0:0:0:0:
358,192,156486,128,0,157001:0:0:0:0:
460,192,156486,1,0,0:0:0:0:
153,192,156658,128,0,157001:0:0:0:0:
256,192,156658,1,0,0:0:0:0:
460,192,156829,128,0,157001:0:0:0:0:
51,192,156829,128,0,157001:0:0:0:0:
256,192,157001,128,0,157172:0:0:0:0:
51,192,157172,128,8,157686:0:0:0:0:
153,192,157172,128,0,157429:0:0:0:0:
358,192,157172,128,0,157429:0:0:0:0:
460,192,157172,128,0,157686:0:0:0:0:
153,192,157515,1,0,0:0:0:0:
358,192,157515,1,0,0:0:0:0:
256,192,157686,1,0,0:0:0:0:
51,192,157858,5,0,0:0:0:50:tom.wav
460,192,157858,1,0,0:0:0:0:
153,192,157901,1,0,0:0:0:50:tom.wav
358,192,157901,1,0,0:0:0:0:
256,192,157944,1,0,0:0:0:50:tom.wav
51,192,157986,1,0,0:0:0:50:tom.wav
460,192,157986,1,0,0:0:0:0:
358,192,158029,1,0,0:0:0:50:tom.wav
153,192,158029,1,0,0:0:0:0:
51,192,158115,1,0,0:0:0:50:tom.wav
460,192,158115,1,0,0:0:0:0:
358,192,158201,1,0,0:0:0:50:tom.wav
153,192,158201,1,0,0:0:0:0:
153,192,158372,1,0,0:0:0:50:tom.wav
358,192,158372,1,0,0:0:0:0:
153,192,158544,1,0,0:0:0:50:tom.wav
358,192,158544,1,0,0:0:0:0:
153,192,158886,1,8,0:0:0:0:
51,192,158886,1,0,0:0:0:50:climax.wav
460,192,158886,1,0,0:0:0:0:
358,192,158886,1,0,0:0:0:0:
51,192,159229,1,2,0:0:0:0:
153,192,159229,1,4,0:0:0:0:
358,192,159229,1,0,0:0:0:0:
460,192,159229,1,0,0:0:0:0:
256,192,159401,1,0,0:0:0:0:
153,192,159572,1,0,0:0:0:70:clap.wav
51,192,159572,1,0,0:0:0:0:
460,192,159572,1,0,0:0:0:0:
256,192,159744,1,0,0:0:0:0:
51,192,159915,1,0,0:0:0:70:clap.wav
153,192,159915,1,0,0:0:0:0:
460,192,159915,1,0,0:0:0:0:
256,192,160086,1,0,0:0:0:0:
51,192,160258,1,0,0:0:0:70:clap.wav
153,192,160258,1,0,0:0:0:0:
460,192,160258,1,0,0:0:0:0:
256,192,160429,1,0,0:0:0:0:
153,192,160601,1,0,0:0:0:70:clap.wav
51,192,160601,1,0,0:0:0:0:
460,192,160601,1,0,0:0:0:0:
256,192,160772,1,0,0:0:0:0:
153,192,160944,1,0,0:0:0:70:clap.wav
51,192,160944,1,0,0:0:0:0:
460,192,160944,1,0,0:0:0:0:
256,192,161115,1,0,0:0:0:0:
153,192,161286,1,0,0:0:0:70:clap.wav
51,192,161286,1,0,0:0:0:0:
460,192,161286,1,0,0:0:0:0:
256,192,161458,1,0,0:0:0:0:
153,192,161629,1,0,0:0:0:70:clap.wav
51,192,161629,1,0,0:0:0:0:
358,192,161629,1,0,0:0:0:0:
256,192,161801,1,0,0:0:0:0:
460,192,161972,1,0,0:0:0:70:clap.wav
358,192,161972,1,0,0:0:0:0:
51,192,161972,1,0,0:0:0:0:
256,192,162144,1,0,0:0:0:0:
358,192,162315,1,0,0:0:0:70:clap.wav
460,192,162315,1,0,0:0:0:0:
51,192,162315,1,0,0:0:0:0:
256,192,162486,1,0,0:0:0:0:
460,192,162658,1,0,0:0:0:70:clap.wav
358,192,162658,1,0,0:0:0:0:
51,192,162658,1,0,0:0:0:0:
256,192,162829,1,0,0:0:0:0:
460,192,163001,1,0,0:0:0:70:clap.wav
358,192,163001,1,0,0:0:0:0:
51,192,163001,1,0,0:0:0:0:
256,192,163172,1,0,0:0:0:0:
358,192,163344,1,0,0:0:0:70:clap.wav
460,192,163344,1,0,0:0:0:0:
51,192,163344,1,0,0:0:0:0:
256,192,163515,1,0,0:0:0:0:
358,192,163686,1,0,0:0:0:70:clap.wav
460,192,163686,1,0,0:0:0:0:
51,192,163686,1,0,0:0:0:0:
256,192,163858,1,0,0:0:0:0:
358,192,164029,1,0,0:0:0:70:clap.wav
460,192,164029,1,0,0:0:0:0:
51,192,164029,1,0,0:0:0:0:
256,192,164201,1,0,0:0:0:0:
358,192,164372,1,0,0:0:0:70:clap.wav
460,192,164372,1,0,0:0:0:0:
153,192,164372,1,0,0:0:0:0:
256,192,164544,1,0,0:0:0:0:
51,192,164715,1,2,0:0:0:0:
358,192,164715,1,4,0:0:0:0:
460,192,164715,1,0,0:0:0:70:clap.wav
153,192,164715,1,0,0:0:0:0:
153,192,164886,1,0,0:0:0:0:
358,192,164886,1,0,0:0:0:0:
256,192,165058,1,2,0:0:0:0:
51,192,165058,1,0,0:0:0:70:clap.wav
460,192,165058,1,0,0:0:0:0:
358,192,165229,1,0,0:0:0:0:
460,192,165229,1,0,0:0:0:0:
256,192,165401,1,2,0:0:0:0:
51,192,165401,1,0,0:0:0:70:clap.wav
153,192,165401,1,0,0:0:0:0:
153,192,165572,1,0,0:0:0:0:
358,192,165572,1,0,0:0:0:0:
256,192,165744,1,2,0:0:0:0:
460,192,165744,1,0,0:0:0:70:clap.wav
51,192,165744,1,0,0:0:0:0:
358,192,165915,1,0,0:0:0:0:
460,192,165915,1,0,0:0:0:0:
256,192,166086,1,2,0:0:0:0:
153,192,166086,1,0,0:0:0:70:clap.wav
51,192,166086,1,0,0:0:0:0:
153,192,166258,1,2,0:0:0:0:
358,192,166258,1,0,0:0:0:0:
460,192,166258,1,0,0:0:0:0:
256,192,166429,1,2,0:0:0:0:
51,192,166429,1,0,0:0:0:70:clap.wav
358,192,166429,1,0,0:0:0:0:
153,192,166601,1,2,0:0:0:0:
51,192,166601,1,0,0:0:0:0:
460,192,166601,1,0,0:0:0:0:
153,192,166772,1,2,0:0:0:0:
256,192,166772,1,0,0:0:0:70:clap.wav
358,192,166772,1,0,0:0:0:0:
358,192,166944,1,2,0:0:0:0:
460,192,166944,1,0,0:0:0:0:
51,192,166944,1,0,0:0:0:0:
256,192,167115,1,2,0:0:0:0:
51,192,167115,1,0,0:0:0:70:clap.wav
153,192,167115,1,0,0:0:0:0:
358,192,167286,1,2,0:0:0:0:
153,192,167286,1,0,0:0:0:0:
460,192,167286,1,0,0:0:0:0:
51,192,167458,1,2,0:0:0:0:
256,192,167458,1,0,0:0:0:70:clap.wav
153,192,167458,1,4,0:0:0:0:
358,192,167501,1,0,0:0:0:0:
51,192,167544,1,2,0:0:0:0:
153,192,167544,1,0,0:0:0:0:
460,192,167629,1,2,0:0:0:0:
256,192,167629,1,0,0:0:0:0:
153,192,167715,1,2,0:0:0:0:
51,192,167715,1,0,0:0:0:0:
256,192,167801,1,2,0:0:0:0:
358,192,167801,1,0,0:0:0:70:clap.wav
460,192,167801,1,0,0:0:0:0:
153,192,167886,1,2,0:0:0:0:
51,192,167886,1,0,0:0:0:0:
358,192,167972,1,2,0:0:0:0:
460,192,167972,1,0,0:0:0:0:
256,192,168058,1,2,0:0:0:0:
153,192,168058,1,0,0:0:0:0:
358,192,168144,1,2,0:0:0:0:
460,192,168144,1,0,0:0:0:70:clap.wav
256,192,168186,1,2,0:0:0:0:
153,192,168229,1,2,0:0:0:0:
51,192,168229,1,0,0:0:0:0:
460,192,168272,1,0,0:0:0:0:
358,192,168315,1,2,0:0:0:0:
256,192,168315,1,0,0:0:0:0:
153,192,168358,1,0,0:0:0:0:
51,192,168401,1,2,0:0:0:0:
460,192,168401,1,0,0:0:0:0:
358,192,168444,1,0,0:0:0:0:
256,192,168486,1,2,0:0:0:0:
153,192,168486,1,0,0:0:0:70:clap.wav
51,192,168529,1,0,0:0:0:0:
358,192,168572,1,2,0:0:0:0:
460,192,168572,1,0,0:0:0:0:
256,192,168615,1,0,0:0:0:0:
153,192,168658,1,2,0:0:0:0:
51,192,168658,1,0,0:0:0:0:
460,192,168701,1,0,0:0:0:0:
358,192,168744,1,2,0:0:0:0:
256,192,168744,1,0,0:0:0:0:
153,192,168786,1,0,0:0:0:0:
51,192,168829,1,2,0:0:0:0:
460,192,168829,1,4,0:0:0:0:
358,192,168829,1,0,0:0:0:0:
256,192,169515,5,0,0:0:0:70:LR3_ReverseFXG.wav
358,192,169601,1,0,0:0:0:0:
153,192,169686,1,0,0:0:0:0:
256,192,169772,1,0,0:0:0:0:
358,192,169858,1,0,0:0:0:0:
460,192,169901,1,0,0:0:0:0:
51,192,169944,1,0,0:0:0:0:
153,192,169986,1,0,0:0:0:0:
256,192,170029,1,0,0:0:0:0:
460,192,170072,1,0,0:0:0:0:
358,192,170115,1,0,0:0:0:0:
256,192,170158,1,0,0:0:0:0:
51,192,170201,128,2,170458:0:0:0:0:
153,192,170201,128,4,170458:0:0:0:0:
460,192,170201,1,0,0:0:0:0:
358,192,170286,1,0,0:0:0:0:
460,192,170372,1,0,0:0:0:0:
256,192,170458,1,0,0:0:0:0:
358,192,170544,128,8,170801:0:0:0:0:
460,192,170544,128,0,170801:0:0:0:0:
51,192,170544,1,0,0:0:0:0:
256,192,170629,1,0,0:0:0:0:
51,192,170715,128,0,170801:0:0:0:0:
153,192,170715,128,0,170801:0:0:0:0:
256,192,170801,1,0,0:0:0:0:
51,192,170886,128,2,171144:0:0:0:0:
153,192,170886,128,0,171144:0:0:0:0:
358,192,170886,1,0,0:0:0:0:
460,192,170972,1,0,0:0:0:0:
256,192,171058,1,0,0:0:0:0:
358,192,171144,1,0,0:0:0:0:
256,192,171229,1,8,0:0:0:0:
460,192,171229,1,0,0:0:0:0:
51,192,171229,1,0,0:0:0:0:
358,192,171315,1,0,0:0:0:0:
153,192,171401,1,0,0:0:0:0:
51,192,171401,1,0,0:0:0:0:
460,192,171401,1,0,0:0:0:0:
256,192,171486,1,0,0:0:0:0:
358,192,171572,1,2,0:0:0:0:
153,192,171572,1,0,0:0:0:0:
51,192,171572,1,0,0:0:0:0:
460,192,171658,1,0,0:0:0:0:
256,192,171744,1,0,0:0:0:0:
51,192,171744,1,0,0:0:0:0:
358,192,171744,1,0,0:0:0:0:
153,192,171829,1,0,0:0:0:0:
460,192,171915,1,8,0:0:0:0:
256,192,171915,1,0,0:0:0:0:
51,192,171915,1,0,0:0:0:0:
358,192,172001,1,0,0:0:0:0:
153,192,172086,1,0,0:0:0:0:
51,192,172086,1,0,0:0:0:0:
460,192,172086,1,0,0:0:0:0:
256,192,172172,1,0,0:0:0:0:
358,192,172258,1,2,0:0:0:0:
460,192,172258,1,0,0:0:0:0:
153,192,172258,1,0,0:0:0:0:
51,192,172344,1,0,0:0:0:0:
358,192,172429,1,0,0:0:0:0:
256,192,172515,1,0,0:0:0:0:
153,192,172601,1,8,0:0:0:0:
51,192,172601,1,0,0:0:0:0:
460,192,172601,1,0,0:0:0:0:
256,192,172686,1,0,0:0:0:0:
51,192,172772,1,0,0:0:0:0:
153,192,172772,1,0,0:0:0:0:
460,192,172772,1,0,0:0:0:0:
358,192,172858,1,0,0:0:0:0:
153,192,172944,1,2,0:0:0:0:
256,192,172944,1,0,0:0:0:0:
460,192,172944,1,0,0:0:0:0:
51,192,173029,1,0,0:0:0:0:
358,192,173115,1,0,0:0:0:0:
153,192,173201,1,0,0:0:0:0:
51,192,173286,1,8,0:0:0:0:
256,192,173286,1,0,0:0:0:0:
460,192,173286,1,0,0:0:0:0:
358,192,173372,1,0,0:0:0:0:
153,192,173458,1,0,0:0:0:0:
51,192,173458,1,0,0:0:0:0:
460,192,173458,1,0,0:0:0:0:
256,192,173544,1,0,0:0:0:0:
358,192,173629,1,2,0:0:0:0:
460,192,173629,1,0,0:0:0:0:
153,192,173629,1,0,0:0:0:0:
51,192,173715,1,0,0:0:0:0:
256,192,173801,1,0,0:0:0:0:
460,192,173801,1,0,0:0:0:0:
358,192,173801,1,0,0:0:0:0:
153,192,173886,1,0,0:0:0:0:
51,192,173886,1,0,0:0:0:0:
256,192,173972,1,8,0:0:0:0:
358,192,173972,1,0,0:0:0:0:
460,192,173972,1,0,0:0:0:0:
51,192,174058,1,0,0:0:0:0:
153,192,174144,1,0,0:0:0:0:
460,192,174144,1,0,0:0:0:0:
256,192,174144,1,0,0:0:0:0:
358,192,174229,1,0,0:0:0:0:
51,192,174315,1,2,0:0:0:0:
153,192,174315,1,0,0:0:0:0:
256,192,174315,1,0,0:0:0:0:
460,192,174401,1,0,0:0:0:0:
358,192,174401,1,0,0:0:0:0:
153,192,174486,1,0,0:0:0:0:
51,192,174486,1,0,0:0:0:0:
358,192,174572,1,0,0:0:0:0:
460,192,174572,1,0,0:0:0:0:
256,192,174658,1,8,0:0:0:0:
153,192,174658,1,0,0:0:0:0:
51,192,174658,1,0,0:0:0:0:
358,192,174744,1,0,0:0:0:0:
460,192,174744,1,0,0:0:0:0:
256,192,174829,1,0,0:0:0:0:
51,192,174829,1,0,0:0:0:0:
358,192,174915,1,0,0:0:0:0:
460,192,174915,1,0,0:0:0:0:
153,192,175001,1,2,0:0:0:0:
256,192,175001,1,0,0:0:0:0:
51,192,175001,1,0,0:0:0:0:
358,192,175086,1,0,0:0:0:0:
460,192,175086,1,0,0:0:0:0:
153,192,175172,1,0,0:0:0:0:
51,192,175172,1,0,0:0:0:0:
358,192,175258,1,0,0:0:0:0:
460,192,175258,1,0,0:0:0:0:
51,192,175344,1,8,0:0:0:0:
256,192,175344,1,0,0:0:0:0:
153,192,175344,1,0,0:0:0:0:
358,192,175429,1,0,0:0:0:0:
51,192,175515,1,2,0:0:0:0:
256,192,175515,1,0,0:0:0:0:
153,192,175515,1,0,0:0:0:0:
358,192,175601,1,0,0:0:0:0:
51,192,175686,1,2,0:0:0:0:
460,192,175686,1,0,0:0:0:0:
153,192,175686,1,0,0:0:0:0:
358,192,175772,1,0,0:0:0:0:
153,192,175858,1,0,0:0:0:0:
51,192,175858,1,0,0:0:0:0:
460,192,175858,1,0,0:0:0:0:
256,192,175944,1,0,0:0:0:0:
358,192,176029,1,8,0:0:0:0:
460,192,176029,1,0,0:0:0:0:
51,192,176029,1,0,0:0:0:0:
153,192,176115,1,0,0:0:0:0:
51,192,176201,1,0,0:0:0:0:
256,192,176201,1,0,0:0:0:0:
460,192,176201,1,0,0:0:0:0:
358,192,176286,1,0,0:0:0:0:
153,192,176372,1,2,0:0:0:0:
256,192,176372,1,0,0:0:0:0:
51,192,176372,1,0,0:0:0:0:
460,192,176458,1,0,0:0:0:0:
358,192,176544,1,0,0:0:0:0:
256,192,176629,1,0,0:0:0:0:
153,192,176715,1,8,0:0:0:0:
51,192,176715,1,0,0:0:0:0:
460,192,176715,1,0,0:0:0:0:
358,192,176801,1,0,0:0:0:0:
256,192,176886,1,0,0:0:0:0:
51,192,176886,1,0,0:0:0:0:
460,192,176886,1,0,0:0:0:0:
153,192,176972,1,0,0:0:0:0:
358,192,177058,1,2,0:0:0:0:
51,192,177058,1,0,0:0:0:0:
460,192,177058,1,0,0:0:0:0:
256,192,177144,1,0,0:0:0:0:
153,192,177229,1,0,0:0:0:0:
51,192,177229,1,0,0:0:0:0:
358,192,177229,1,0,0:0:0:0:
460,192,177315,1,0,0:0:0:0:
256,192,177401,1,8,0:0:0:0:
358,192,177401,1,0,0:0:0:0:
51,192,177401,1,0,0:0:0:0:
153,192,177486,1,0,0:0:0:0:
460,192,177572,1,0,0:0:0:0:
256,192,177572,1,0,0:0:0:0:
51,192,177572,1,0,0:0:0:0:
358,192,177658,1,0,0:0:0:0:
153,192,177744,1,2,0:0:0:0:
51,192,177744,1,0,0:0:0:0:
256,192,177744,1,0,0:0:0:0:
460,192,177829,1,0,0:0:0:0:
358,192,177915,1,0,0:0:0:0:
256,192,178001,1,0,0:0:0:0:
460,192,178086,1,8,0:0:0:0:
153,192,178086,1,0,0:0:0:0:
51,192,178086,1,0,0:0:0:0:
358,192,178172,1,0,0:0:0:0:
256,192,178258,1,0,0:0:0:0:
460,192,178258,1,0,0:0:0:0:
51,192,178258,1,0,0:0:0:0:
153,192,178344,1,0,0:0:0:0:
358,192,178429,1,2,0:0:0:0:
460,192,178429,1,0,0:0:0:0:
51,192,178429,1,0,0:0:0:0:
153,192,178515,1,0,0:0:0:0:
51,192,178601,1,0,0:0:0:0:
153,192,178686,1,0,0:0:0:0:
460,192,178772,1,8,0:0:0:0:
51,192,178772,1,0,0:0:0:0:
358,192,178772,1,0,0:0:0:0:
256,192,178858,1,0,0:0:0:0:
153,192,178944,1,0,0:0:0:0:
460,192,178944,1,0,0:0:0:0:
358,192,178944,1,0,0:0:0:0:
256,192,179029,1,0,0:0:0:0:
51,192,179115,1,2,0:0:0:0:
460,192,179115,1,0,0:0:0:0:
153,192,179115,1,0,0:0:0:0:
358,192,179201,1,0,0:0:0:0:
256,192,179286,1,0,0:0:0:50:tom.wav
153,192,179286,1,0,0:0:0:0:
51,192,179286,1,0,0:0:0:0:
358,192,179372,1,0,0:0:0:50:tom.wav
460,192,179372,1,0,0:0:0:0:
256,192,179458,1,8,0:0:0:0:
153,192,179458,1,0,0:0:0:0:
51,192,179458,1,0,0:0:0:0:
460,192,179544,1,0,0:0:0:0:
51,192,179629,1,0,0:0:0:50:tom.wav
358,192,179629,1,0,0:0:0:0:
153,192,179629,1,0,0:0:0:0:
256,192,179715,1,0,0:0:0:0:
153,192,179801,1,2,0:0:0:0:
51,192,179801,1,0,0:0:0:0:
460,192,179801,1,0,0:0:0:0:
358,192,179886,1,0,0:0:0:0:
51,192,179972,1,0,0:0:0:50:tom.wav
153,192,179972,1,0,0:0:0:0:
256,192,180058,1,0,0:0:0:50:tom.wav
358,192,180058,1,0,0:0:0:0:
460,192,180058,1,0,0:0:0:0:
153,192,180144,1,8,0:0:0:0:
51,192,180144,1,0,0:0:0:0:
256,192,180229,1,0,0:0:0:0:
460,192,180229,1,0,0:0:0:0:
358,192,180315,1,0,0:0:0:50:tom.wav
153,192,180315,1,0,0:0:0:0:
51,192,180315,1,0,0:0:0:0:
256,192,180401,1,0,0:0:0:0:
460,192,180401,1,0,0:0:0:0:
51,192,180486,1,2,0:0:0:0:
153,192,180486,1,0,0:0:0:70:LR3_ReverseFXG.wav
358,192,180486,1,0,0:0:0:0:
256,192,180572,1,0,0:0:0:50:tom.wav
460,192,180572,1,0,0:0:0:0:
51,192,180658,1,0,0:0:0:50:tom.wav
153,192,180658,1,0,0:0:0:0:
460,192,180701,1,0,0:0:0:50:tom.wav
358,192,180744,1,0,0:0:0:50:tom.wav
256,192,180786,1,0,0:0:0:50:tom.wav
460,192,180829,1,8,0:0:0:0:
153,192,180829,1,0,0:0:0:50:climax.wav
51,192,180829,1,0,0:0:0:0:
153,192,181172,128,2,181258:0:0:0:0:
358,192,181172,1,4,0:0:0:0:
460,192,181172,1,0,0:0:0:0:
51,192,181172,1,0,0:0:0:0:
256,192,181258,128,0,181344:0:0:0:0:
358,192,181344,128,0,181429:0:0:0:0:
460,192,181429,128,0,181515:0:0:0:0:
256,192,181515,128,8,181601:0:0:0:0:
51,192,181515,1,0,0:0:0:0:
358,192,181515,1,0,0:0:0:0:
153,192,181601,128,0,181686:0:0:0:0:
51,192,181686,128,0,181772:0:0:0:0:
460,192,181686,1,0,0:0:0:0:
358,192,181686,1,0,0:0:0:0:
256,192,181772,128,0,181858:0:0:0:0:
358,192,181858,128,2,181944:0:0:0:0:
153,192,181858,1,0,0:0:0:0:
51,192,181858,1,0,0:0:0:0:
460,192,181944,128,0,182029:0:0:0:0:
256,192,182029,128,0,182115:0:0:0:0:
358,192,182115,128,0,182201:0:0:0:0:
51,192,182201,1,8,0:0:0:0:
460,192,182201,1,0,0:0:0:0:
153,192,182201,128,0,182286:0:0:0:0:
256,192,182286,128,0,182372:0:0:0:0:
51,192,182372,1,0,0:0:0:0:
460,192,182372,1,0,0:0:0:0:
358,192,182372,128,0,182458:0:0:0:0:
153,192,182458,128,0,182544:0:0:0:0:
256,192,182544,1,2,0:0:0:0:
358,192,182544,1,0,0:0:0:0:
51,192,182544,1,0,0:0:0:0:
460,192,182629,1,0,0:0:0:0:
153,192,182715,1,0,0:0:0:0:
51,192,182715,1,0,0:0:0:0:
358,192,182715,1,0,0:0:0:0:
256,192,182801,1,0,0:0:0:0:
358,192,182886,1,8,0:0:0:0:
460,192,182886,1,0,0:0:0:0:
153,192,182886,1,0,0:0:0:0:
51,192,182972,1,0,0:0:0:0:
256,192,183058,1,0,0:0:0:0:
358,192,183058,1,0,0:0:0:0:
460,192,183058,1,0,0:0:0:0:
153,192,183144,1,0,0:0:0:0:
51,192,183229,1,2,0:0:0:0:
256,192,183229,1,0,0:0:0:0:
460,192,183229,128,0,183315:0:0:0:0:
358,192,183315,128,0,183401:0:0:0:0:
256,192,183401,128,0,183486:0:0:0:0:
153,192,183486,128,0,183572:0:0:0:0:
51,192,183572,1,8,0:0:0:0:
460,192,183572,1,0,0:0:0:0:
358,192,183572,128,0,183658:0:0:0:0:
256,192,183658,128,0,183744:0:0:0:0:
51,192,183744,1,0,0:0:0:0:
460,192,183744,1,0,0:0:0:0:
153,192,183744,128,0,183829:0:0:0:0:
358,192,183829,128,0,183915:0:0:0:0:
256,192,183915,1,2,0:0:0:0:
153,192,183915,1,0,0:0:0:0:
51,192,183915,1,0,0:0:0:0:
460,192,184001,1,0,0:0:0:0:
358,192,184086,1,0,0:0:0:0:
153,192,184172,1,0,0:0:0:0:
256,192,184258,1,8,0:0:0:0:
51,192,184258,1,0,0:0:0:0:
460,192,184258,1,0,0:0:0:0:
358,192,184344,1,0,0:0:0:0:
153,192,184429,1,0,0:0:0:0:
51,192,184429,1,0,0:0:0:0:
460,192,184429,1,0,0:0:0:0:
256,192,184515,1,0,0:0:0:0:
358,192,184601,1,2,0:0:0:0:
460,192,184601,1,0,0:0:0:0:
51,192,184601,1,0,0:0:0:0:
153,192,184686,1,0,0:0:0:0:
51,192,184772,1,0,0:0:0:0:
358,192,184772,1,0,0:0:0:0:
460,192,184772,1,0,0:0:0:0:
256,192,184858,1,0,0:0:0:0:
153,192,184858,1,0,0:0:0:0:
51,192,184944,1,8,0:0:0:0:
358,192,184944,1,0,0:0:0:0:
460,192,184944,1,0,0:0:0:0:
256,192,185029,1,0,0:0:0:0:
153,192,185115,1,0,0:0:0:0:
51,192,185115,1,0,0:0:0:0:
460,192,185115,1,0,0:0:0:0:
358,192,185201,1,0,0:0:0:0:
51,192,185286,1,2,0:0:0:0:
460,192,185286,1,0,0:0:0:0:
153,192,185286,1,0,0:0:0:0:
256,192,185372,1,0,0:0:0:0:
358,192,185372,1,0,0:0:0:0:
51,192,185458,1,0,0:0:0:0:
153,192,185458,1,0,0:0:0:0:
256,192,185544,1,0,0:0:0:0:
358,192,185544,1,0,0:0:0:0:
51,192,185629,1,8,0:0:0:0:
153,192,185629,1,0,0:0:0:0:
460,192,185629,1,0,0:0:0:0:
358,192,185715,1,0,0:0:0:0:
256,192,185715,1,0,0:0:0:0:
153,192,185801,1,0,0:0:0:0:
460,192,185801,1,0,0:0:0:0:
358,192,185886,1,0,0:0:0:0:
256,192,185886,1,0,0:0:0:0:
51,192,185972,1,2,0:0:0:0:
460,192,185972,1,0,0:0:0:0:
153,192,185972,1,0,0:0:0:0:
256,192,186058,1,0,0:0:0:0:
358,192,186058,1,0,0:0:0:0:
51,192,186144,1,0,0:0:0:0:
153,192,186144,1,0,0:0:0:0:
358,192,186229,1,0,0:0:0:0:
256,192,186229,1,0,0:0:0:0:
51,192,186315,1,8,0:0:0:0:
153,192,186315,1,0,0:0:0:0:
460,192,186315,1,0,0:0:0:0:
256,192,186401,1,0,0:0:0:0:
358,192,186486,1,2,0:0:0:0:
460,192,186486,1,0,0:0:0:0:
51,192,186486,1,0,0:0:0:0:
256,192,186572,1,0,0:0:0:0:
153,192,186658,1,2,0:0:0:0:
51,192,186658,1,0,0:0:0:0:
358,192,186658,1,0,0:0:0:0:
460,192,186744,1,0,0:0:0:0:
358,192,186829,1,0,0:0:0:0:
51,192,186829,1,0,0:0:0:0:
256,192,186829,1,0,0:0:0:0:
153,192,186915,1,0,0:0:0:0:
358,192,187001,1,8,0:0:0:0:
460,192,187001,1,0,0:0:0:0:
51,192,187001,1,0,0:0:0:0:
256,192,187086,1,0,0:0:0:0:
153,192,187172,1,0,0:0:0:0:
51,192,187172,1,0,0:0:0:0:
460,192,187172,1,0,0:0:0:0:
358,192,187258,1,0,0:0:0:0:
256,192,187344,1,2,0:0:0:0:
460,192,187344,1,0,0:0:0:0:
51,192,187344,128,0,187429:0:0:0:0:
153,192,187429,128,0,187515:0:0:0:0:
358,192,187515,128,0,187601:0:0:0:0:
460,192,187601,128,0,187686:0:0:0:0:
256,192,187686,1,8,0:0:0:0:
153,192,187686,1,0,0:0:0:0:
51,192,187686,1,0,0:0:0:0:
358,192,187772,1,0,0:0:0:0:
153,192,187858,1,0,0:0:0:0:
460,192,187858,1,0,0:0:0:0:
51,192,187858,1,0,0:0:0:0:
358,192,187944,1,0,0:0:0:0:
256,192,188029,1,2,0:0:0:0:
51,192,188029,1,0,0:0:0:0:
153,192,188029,1,0,0:0:0:0:
460,192,188115,1,0,0:0:0:0:
358,192,188201,1,0,0:0:0:0:
153,192,188201,1,0,0:0:0:0:
51,192,188201,1,0,0:0:0:0:
256,192,188286,1,0,0:0:0:0:
153,192,188372,1,8,0:0:0:0:
51,192,188372,1,0,0:0:0:0:
460,192,188372,1,0,0:0:0:0:
358,192,188458,1,0,0:0:0:0:
256,192,188544,1,0,0:0:0:0:
460,192,188544,1,0,0:0:0:0:
153,192,188544,1,0,0:0:0:0:
51,192,188629,1,0,0:0:0:0:
358,192,188715,1,2,0:0:0:0:
460,192,188715,1,0,0:0:0:0:
256,192,188715,128,0,188801:0:0:0:0:
51,192,188801,128,0,188886:0:0:0:0:
153,192,188886,128,0,188972:0:0:0:0:
256,192,188972,128,0,189058:0:0:0:0:
358,192,189058,1,8,0:0:0:0:
460,192,189058,1,0,0:0:0:0:
51,192,189058,1,0,0:0:0:0:
256,192,189144,1,0,0:0:0:0:
153,192,189229,1,0,0:0:0:0:
51,192,189229,1,0,0:0:0:0:
460,192,189229,1,0,0:0:0:0:
256,192,189315,1,0,0:0:0:0:
51,192,189401,1,2,0:0:0:0:
460,192,189401,1,0,0:0:0:0:
153,192,189401,1,0,0:0:0:0:
358,192,189486,1,0,0:0:0:0:
460,192,189572,1,0,0:0:0:0:
358,192,189658,1,0,0:0:0:0:
256,192,189744,1,8,0:0:0:0:
153,192,189744,1,0,0:0:0:0:
51,192,189744,1,0,0:0:0:0:
460,192,189829,1,0,0:0:0:0:
358,192,189915,1,0,0:0:0:0:
153,192,189915,1,0,0:0:0:0:
51,192,189915,1,0,0:0:0:0:
256,192,190001,1,0,0:0:0:0:
358,192,190086,1,2,0:0:0:0:
460,192,190086,1,0,0:0:0:0:
153,192,190086,1,0,0:0:0:0:
51,192,190172,1,0,0:0:0:0:
153,192,190258,1,0,0:0:0:0:
358,192,190258,1,0,0:0:0:0:
460,192,190258,1,0,0:0:0:0:
51,192,190344,5,0,0:0:0:0:
256,192,190344,1,0,0:0:0:0:
153,192,190429,1,8,0:0:0:0:
358,192,190429,1,0,0:0:0:0:
460,192,190429,1,0,0:0:0:0:
51,192,190515,1,0,0:0:0:0:
256,192,190601,1,0,0:0:0:0:
153,192,190601,1,0,0:0:0:0:
460,192,190601,1,0,0:0:0:0:
358,192,190686,1,0,0:0:0:0:
153,192,190772,1,2,0:0:0:0:
51,192,190772,1,0,0:0:0:50:tom.wav
460,192,190772,1,0,0:0:0:0:
358,192,190858,1,0,0:0:0:50:tom.wav
256,192,190944,1,0,0:0:0:50:tom.wav
460,192,190944,1,0,0:0:0:0:
51,192,190944,1,0,0:0:0:0:
153,192,191029,1,0,0:0:0:50:tom.wav
358,192,191115,1,0,0:0:0:50:tom.wav
460,192,191115,1,0,0:0:0:0:
51,192,191115,1,0,0:0:0:0:
256,192,191201,1,0,0:0:0:50:tom.wav
51,192,191286,1,0,0:0:0:50:tom.wav
153,192,191286,1,0,0:0:0:0:
358,192,191286,1,0,0:0:0:0:
460,192,191372,1,0,0:0:0:50:tom.wav
51,192,191458,5,2,0:0:0:0:
358,192,191458,1,0,0:0:0:50:tom.wav
256,192,191458,1,0,0:0:0:0:
153,192,191501,1,0,0:0:0:50:tom.wav
460,192,191544,1,0,0:0:0:50:tom.wav
358,192,191586,1,0,0:0:0:50:tom.wav
51,192,191629,1,0,0:0:0:50:tom.wav
153,192,191672,1,0,0:0:0:50:tom.wav
460,192,191715,1,0,0:0:0:50:tom.wav
358,192,191758,1,0,0:0:0:50:tom.wav
256,192,191801,1,8,0:0:0:0:
51,192,191801,1,0,0:0:0:50:climax.wav
153,192,191801,1,0,0:0:0:0:
358,192,191972,128,0,192144:0:0:0:0:
460,192,192144,1,2,0:0:0:0:
51,192,192144,1,4,0:0:0:0:
153,192,192144,1,0,0:0:0:0:
256,192,192144,1,0,0:0:0:0:
153,192,192315,1,0,0:0:0:0:
358,192,192315,1,0,0:0:0:0:
256,192,192486,1,8,0:0:0:0:
460,192,192486,1,0,0:0:0:0:
51,192,192486,1,0,0:0:0:0:
358,192,192486,1,0,0:0:0:0:
153,192,192658,1,0,0:0:0:0:
460,192,192658,1,0,0:0:0:0:
358,192,192829,1,2,0:0:0:0:
51,192,192829,1,0,0:0:0:0:
256,192,192829,1,0,0:0:0:0:
358,192,193001,1,0,0:0:0:0:
153,192,193001,1,0,0:0:0:0:
358,192,193086,1,0,0:0:0:0:
51,192,193172,1,8,0:0:0:0:
153,192,193172,1,0,0:0:0:0:
256,192,193172,1,0,0:0:0:0:
460,192,193172,1,0,0:0:0:0:
51,192,193344,1,0,0:0:0:0:
358,192,193344,1,0,0:0:0:0:
153,192,193515,1,2,0:0:0:0:
256,192,193515,1,0,0:0:0:0:
460,192,193515,128,0,193772:0:0:0:0:
153,192,193686,1,0,0:0:0:0:
358,192,193686,1,0,0:0:0:0:
460,192,193858,128,8,194115:0:0:0:0:
256,192,193858,1,0,0:0:0:0:
51,192,193858,1,0,0:0:0:0:
358,192,193858,128,0,194115:0:0:0:0:
51,192,194029,1,0,0:0:0:0:
256,192,194029,1,0,0:0:0:0:
358,192,194201,128,2,194458:0:0:0:0:
51,192,194201,128,0,194458:0:0:0:70:LR3_ReverseFXG.wav
460,192,194201,128,0,194458:0:0:0:0:
153,192,194372,1,0,0:0:0:0:
256,192,194458,1,0,0:0:0:0:
153,192,194544,128,8,194801:0:0:0:0:
51,192,194544,128,0,194801:0:0:0:50:climax.wav
460,192,194544,128,0,194801:0:0:0:0:
358,192,194544,128,0,194801:0:0:0:0:
51,192,194886,5,2,0:0:0:0:
153,192,194886,1,4,0:0:0:0:
460,192,194886,1,0,0:0:0:0:
358,192,194886,1,0,0:0:0:0:
256,192,194972,1,0,0:0:0:0:
51,192,195058,1,0,0:0:0:70:clap.wav
358,192,195058,1,0,0:0:0:0:
256,192,195144,1,0,0:0:0:0:
460,192,195144,1,0,0:0:0:0:
358,192,195229,1,8,0:0:0:0:
51,192,195229,1,0,0:0:0:0:
153,192,195229,1,0,0:0:0:0:
460,192,195315,1,0,0:0:0:0:
51,192,195401,1,0,0:0:0:70:clap.wav
256,192,195401,1,0,0:0:0:0:
358,192,195486,1,0,0:0:0:0:
460,192,195486,1,0,0:0:0:0:
256,192,195572,1,2,0:0:0:0:
153,192,195572,1,0,0:0:0:0:
51,192,195572,1,0,0:0:0:0:
460,192,195658,1,0,0:0:0:0:
256,192,195744,1,0,0:0:0:70:clap.wav
153,192,195744,1,0,0:0:0:50:hai.wav
51,192,195744,1,0,0:0:0:0:
358,192,195744,1,0,0:0:0:0:
51,192,195915,1,8,0:0:0:0:
153,192,195915,1,0,0:0:0:0:
358,192,195915,1,0,0:0:0:0:
256,192,196001,1,0,0:0:0:0:
460,192,196001,1,0,0:0:0:0:
51,192,196086,1,0,0:0:0:70:clap.wav
153,192,196086,1,0,0:0:0:50:hai.wav
358,192,196086,1,0,0:0:0:0:
256,192,196172,1,0,0:0:0:0:
460,192,196172,1,0,0:0:0:0:
153,192,196258,1,2,0:0:0:0:
51,192,196258,1,0,0:0:0:0:
358,192,196258,1,0,0:0:0:0:
256,192,196344,1,0,0:0:0:0:
51,192,196429,1,0,0:0:0:70:clap.wav
460,192,196429,1,0,0:0:0:0:
153,192,196515,1,0,0:0:0:0:
358,192,196515,1,0,0:0:0:0:
256,192,196601,1,8,0:0:0:0:
460,192,196601,1,0,0:0:0:0:
51,192,196601,1,0,0:0:0:0:
358,192,196686,1,0,0:0:0:0:
153,192,196772,1,0,0:0:0:70:clap.wav
256,192,196772,1,0,0:0:0:0:
358,192,196858,1,0,0:0:0:0:
460,192,196858,1,0,0:0:0:0:
256,192,196944,1,2,0:0:0:0:
153,192,196944,1,0,0:0:0:0:
51,192,196944,1,0,0:0:0:0:
358,192,197029,1,0,0:0:0:0:
153,192,197115,1,0,0:0:0:70:clap.wav
51,192,197115,1,0,0:0:0:0:
256,192,197115,1,0,0:0:0:0:
460,192,197115,1,0,0:0:0:0:
51,192,197286,1,8,0:0:0:0:
460,192,197286,1,0,0:0:0:0:
256,192,197286,1,0,0:0:0:0:
358,192,197372,1,0,0:0:0:0:
153,192,197372,1,0,0:0:0:0:
51,192,197458,1,0,0:0:0:70:clap.wav
256,192,197458,1,0,0:0:0:0:
460,192,197458,1,0,0:0:0:0:
153,192,197544,1,0,0:0:0:0:
358,192,197544,1,0,0:0:0:0:
256,192,197629,1,2,0:0:0:0:
460,192,197629,1,0,0:0:0:0:
51,192,197629,1,0,0:0:0:0:
153,192,197715,1,0,0:0:0:0:
358,192,197801,1,0,0:0:0:70:clap.wav
460,192,197801,1,0,0:0:0:0:
153,192,197886,1,0,0:0:0:0:
51,192,197886,1,0,0:0:0:0:
358,192,197972,1,8,0:0:0:0:
460,192,197972,1,0,0:0:0:0:
256,192,197972,1,0,0:0:0:0:
51,192,198058,1,0,0:0:0:0:
460,192,198144,1,0,0:0:0:70:clap.wav
256,192,198144,1,0,0:0:0:0:
358,192,198144,1,0,0:0:0:0:
153,192,198229,1,0,0:0:0:0:
51,192,198315,1,2,0:0:0:0:
358,192,198315,1,0,0:0:0:0:
460,192,198315,1,0,0:0:0:0:
256,192,198315,1,0,0:0:0:0:
153,192,198401,1,0,0:0:0:0:
460,192,198486,1,0,0:0:0:70:clap.wav
358,192,198486,1,0,0:0:0:50:hai.wav
153,192,198572,1,0,0:0:0:0:
51,192,198572,1,0,0:0:0:0:
256,192,198572,1,0,0:0:0:0:
460,192,198658,1,8,0:0:0:0:
358,192,198658,1,0,0:0:0:0:
51,192,198744,1,0,0:0:0:0:
153,192,198744,1,0,0:0:0:0:
256,192,198829,1,0,0:0:0:70:clap.wav
358,192,198829,1,0,0:0:0:50:hai.wav
460,192,198829,1,0,0:0:0:0:
51,192,198915,1,0,0:0:0:0:
153,192,199001,1,2,0:0:0:0:
256,192,199001,1,0,0:0:0:0:
460,192,199001,1,0,0:0:0:0:
51,192,199172,1,0,0:0:0:70:clap.wav
153,192,199172,1,0,0:0:0:0:
256,192,199258,1,0,0:0:0:0:
460,192,199258,1,0,0:0:0:0:
358,192,199344,1,8,0:0:0:0:
153,192,199344,1,0,0:0:0:0:
51,192,199344,1,0,0:0:0:0:
460,192,199429,1,0,0:0:0:0:
256,192,199429,1,0,0:0:0:0:
153,192,199515,1,0,0:0:0:70:clap.wav
51,192,199515,1,0,0:0:0:0:
358,192,199515,1,0,0:0:0:0:
51,192,199686,1,2,0:0:0:0:
256,192,199686,1,0,0:0:0:0:
153,192,199686,1,0,0:0:0:0:
460,192,199772,1,0,0:0:0:0:
358,192,199772,1,0,0:0:0:0:
51,192,199858,1,0,0:0:0:70:clap.wav
153,192,199858,1,0,0:0:0:0:
256,192,199858,1,0,0:0:0:0:
358,192,199944,1,0,0:0:0:0:
256,192,200029,1,8,0:0:0:0:
153,192,200029,1,0,0:0:0:0:
460,192,200029,1,0,0:0:0:0:
51,192,200029,1,0,0:0:0:0:
256,192,200201,1,0,0:0:0:70:clap.wav
51,192,200201,1,2,0:0:0:0:
153,192,200201,1,0,0:0:0:0:
460,192,200286,1,0,0:0:0:0:
358,192,200286,1,0,0:0:0:0:
256,192,200372,1,2,0:0:0:0:
153,192,200372,1,4,0:0:0:0:
51,192,200372,1,0,0:0:0:0:
358,192,200458,1,0,0:0:0:0:
51,192,200544,1,0,0:0:0:70:clap.wav
153,192,200544,1,0,0:0:0:0:
256,192,200629,1,0,0:0:0:0:
358,192,200629,1,0,0:0:0:0:
460,192,200715,1,8,0:0:0:0:
153,192,200715,1,0,0:0:0:0:
51,192,200715,1,0,0:0:0:0:
358,192,200801,1,0,0:0:0:0:
256,192,200886,1,0,0:0:0:70:clap.wav
460,192,200886,1,0,0:0:0:0:
153,192,200972,1,0,0:0:0:0:
358,192,200972,1,0,0:0:0:0:
51,192,201058,1,2,0:0:0:0:
256,192,201058,1,0,0:0:0:0:
460,192,201058,1,0,0:0:0:0:
153,192,201144,1,0,0:0:0:0:
51,192,201229,1,0,0:0:0:70:clap.wav
256,192,201229,1,0,0:0:0:50:hai.wav
358,192,201229,1,0,0:0:0:0:
460,192,201229,1,0,0:0:0:0:
358,192,201401,1,8,0:0:0:0:
460,192,201401,1,0,0:0:0:0:
51,192,201401,1,0,0:0:0:0:
256,192,201486,1,0,0:0:0:0:
153,192,201486,1,0,0:0:0:0:
51,192,201572,1,0,0:0:0:70:clap.wav
358,192,201572,1,0,0:0:0:50:hai.wav
460,192,201572,1,0,0:0:0:0:
256,192,201658,1,0,0:0:0:0:
153,192,201658,1,0,0:0:0:0:
51,192,201744,1,2,0:0:0:0:
358,192,201744,1,0,0:0:0:0:
460,192,201744,1,0,0:0:0:0:
256,192,201829,1,0,0:0:0:0:
153,192,201915,1,0,0:0:0:70:clap.wav
51,192,201915,1,0,0:0:0:0:
256,192,202001,1,0,0:0:0:0:
358,192,202001,1,0,0:0:0:0:
460,192,202086,1,8,0:0:0:0:
153,192,202086,1,0,0:0:0:0:
51,192,202086,1,0,0:0:0:0:
358,192,202172,1,0,0:0:0:0:
51,192,202258,1,0,0:0:0:70:clap.wav
153,192,202258,1,0,0:0:0:0:
256,192,202344,1,0,0:0:0:0:
358,192,202344,1,0,0:0:0:0:
153,192,202429,1,2,0:0:0:0:
460,192,202429,1,0,0:0:0:0:
51,192,202429,1,0,0:0:0:0:
358,192,202515,1,0,0:0:0:0:
51,192,202601,1,0,0:0:0:70:clap.wav
256,192,202601,1,0,0:0:0:0:
153,192,202601,1,0,0:0:0:0:
460,192,202601,1,0,0:0:0:0:
460,192,202772,1,8,0:0:0:0:
256,192,202772,1,0,0:0:0:0:
51,192,202772,1,0,0:0:0:0:
153,192,202858,1,0,0:0:0:0:
358,192,202858,1,0,0:0:0:0:
51,192,202944,1,0,0:0:0:70:clap.wav
256,192,202944,1,0,0:0:0:0:
460,192,202944,1,0,0:0:0:0:
358,192,203029,1,0,0:0:0:0:
153,192,203029,1,0,0:0:0:0:
51,192,203115,1,2,0:0:0:0:
256,192,203115,1,0,0:0:0:0:
460,192,203115,1,0,0:0:0:0:
153,192,203201,1,0,0:0:0:0:
358,192,203286,1,0,0:0:0:70:clap.wav
460,192,203286,1,0,0:0:0:0:
256,192,203372,1,0,0:0:0:0:
51,192,203372,1,0,0:0:0:0:
153,192,203458,1,8,0:0:0:0:
358,192,203458,1,0,0:0:0:0:
460,192,203458,1,0,0:0:0:0:
51,192,203544,1,0,0:0:0:0:
256,192,203629,1,0,0:0:0:70:clap.wav
358,192,203629,1,0,0:0:0:0:
460,192,203629,1,0,0:0:0:0:
153,192,203715,1,0,0:0:0:0:
256,192,203801,1,2,0:0:0:0:
358,192,203801,1,0,0:0:0:0:
460,192,203801,1,0,0:0:0:0:
51,192,203801,1,0,0:0:0:0:
153,192,203886,1,0,0:0:0:0:
358,192,203972,1,0,0:0:0:70:clap.wav
256,192,203972,1,0,0:0:0:50:hai.wav
51,192,204058,1,0,0:0:0:0:
153,192,204058,1,0,0:0:0:0:
460,192,204058,1,0,0:0:0:0:
358,192,204144,1,8,0:0:0:0:
256,192,204144,1,0,0:0:0:0:
51,192,204229,1,0,0:0:0:0:
153,192,204229,1,0,0:0:0:0:
256,192,204315,1,0,0:0:0:50:hai.wav
358,192,204315,1,0,0:0:0:0:
460,192,204315,1,0,0:0:0:0:
153,192,204401,1,0,0:0:0:0:
51,192,204486,1,2,0:0:0:0:
256,192,204486,1,4,0:0:0:0:
358,192,204486,1,0,0:0:0:0:
460,192,204486,1,0,0:0:0:0:
153,192,204658,1,0,0:0:0:0:
358,192,204658,1,0,0:0:0:0:
256,192,204744,1,0,0:0:0:0:
460,192,204744,1,0,0:0:0:0:
153,192,204829,1,2,0:0:0:0:
51,192,204829,1,0,0:0:0:0:
358,192,204829,1,0,0:0:0:0:
256,192,205001,1,2,0:0:0:0:
460,192,205001,1,0,0:0:0:0:
51,192,205001,1,0,0:0:0:0:
153,192,205172,1,8,0:0:0:0:
358,192,205172,1,0,0:0:0:50:climax.wav
460,192,205172,1,0,0:0:0:70:LR3_ReverseFXG.wav
256,192,205172,1,0,0:0:0:0:
358,192,205344,1,0,0:0:0:0:
51,192,205344,1,0,0:0:0:0:
460,192,205344,1,0,0:0:0:0:
153,192,205429,1,0,0:0:0:0:
51,192,205515,1,2,0:0:0:0:
256,192,205515,1,0,0:0:0:0:
460,192,205515,1,0,0:0:0:0:
358,192,205515,1,0,0:0:0:0:
153,192,205686,1,0,0:0:0:0:
51,192,205686,1,0,0:0:0:0:
358,192,205686,1,0,0:0:0:0:
256,192,205772,1,0,0:0:0:0:
460,192,205858,128,2,205944:0:0:0:0:
358,192,205858,128,4,205944:0:0:0:0:
153,192,205858,128,0,205944:0:0:0:0:
51,192,205858,128,0,205944:0:0:0:0:
256,192,205944,128,0,206029:0:0:0:0:
460,192,206029,128,0,206115:0:0:0:70:clap.wav
153,192,206029,128,0,206115:0:0:0:0:
256,192,206115,128,0,206201:0:0:0:0:
51,192,206115,128,0,206201:0:0:0:0:
460,192,206201,128,8,206286:0:0:0:0:
358,192,206201,128,0,206286:0:0:0:50:hai.wav
153,192,206201,128,0,206286:0:0:0:0:
51,192,206286,128,0,206372:0:0:0:0:
256,192,206372,128,0,206458:0:0:0:70:clap.wav
460,192,206372,128,0,206458:0:0:0:0:
51,192,206458,128,0,206544:0:0:0:0:
153,192,206458,128,0,206629:0:0:0:0:
460,192,206544,128,2,206629:0:0:0:0:
358,192,206544,128,0,206629:0:0:0:0:
256,192,206544,128,0,206629:0:0:0:0:
51,192,206629,128,0,206801:0:0:0:0:
460,192,206715,128,0,206801:0:0:0:70:clap.wav
358,192,206715,128,0,206801:0:0:0:0:
256,192,206715,128,0,206801:0:0:0:0:
153,192,206715,128,0,206801:0:0:0:0:
153,192,206886,1,8,0:0:0:0:
358,192,206886,1,0,0:0:0:50:hai.wav
460,192,206886,1,0,0:0:0:0:
256,192,206972,1,0,0:0:0:0:
51,192,206972,1,0,0:0:0:0:
153,192,207058,1,0,0:0:0:70:clap.wav
358,192,207058,1,0,0:0:0:0:
460,192,207058,1,0,0:0:0:0:
51,192,207144,1,0,0:0:0:0:
256,192,207144,1,0,0:0:0:0:
358,192,207229,128,2,207315:0:0:0:0:
153,192,207229,128,0,207315:0:0:0:0:
460,192,207229,128,0,207315:0:0:0:0:
256,192,207315,128,0,207401:0:0:0:0:
460,192,207401,128,0,207486:0:0:0:70:clap.wav
51,192,207401,128,0,207486:0:0:0:0:
358,192,207486,128,0,207572:0:0:0:0:
153,192,207486,128,0,207572:0:0:0:0:
51,192,207572,128,8,207658:0:0:0:0:
460,192,207572,128,0,207658:0:0:0:50:hai.wav
256,192,207572,128,0,207658:0:0:0:0:
358,192,207658,128,0,207744:0:0:0:0:
153,192,207744,128,0,207829:0:0:0:70:clap.wav
51,192,207744,128,0,207829:0:0:0:0:
460,192,207829,128,0,207915:0:0:0:0:
358,192,207829,128,0,208001:0:0:0:0:
51,192,207915,128,2,208001:0:0:0:0:
153,192,207915,128,0,208001:0:0:0:0:
256,192,207915,128,0,208001:0:0:0:0:
460,192,208001,128,0,208172:0:0:0:0:
51,192,208086,128,0,208172:0:0:0:70:clap.wav
153,192,208086,128,0,208172:0:0:0:0:
256,192,208086,128,0,208172:0:0:0:0:
358,192,208086,128,0,208172:0:0:0:0:
51,192,208258,1,8,0:0:0:0:
358,192,208258,1,0,0:0:0:50:hai.wav
460,192,208258,1,0,0:0:0:0:
153,192,208344,1,0,0:0:0:0:
256,192,208344,1,0,0:0:0:0:
51,192,208429,1,0,0:0:0:70:clap.wav
358,192,208429,1,0,0:0:0:0:
460,192,208429,1,0,0:0:0:0:
153,192,208515,1,0,0:0:0:0:
256,192,208515,1,0,0:0:0:0:
460,192,208601,128,2,208686:0:0:0:0:
358,192,208601,128,0,208686:0:0:0:0:
51,192,208601,128,0,208686:0:0:0:0:
256,192,208686,128,0,208772:0:0:0:0:
153,192,208772,128,0,208858:0:0:0:70:clap.wav
51,192,208772,128,0,208858:0:0:0:0:
358,192,208858,128,0,208944:0:0:0:0:
460,192,208858,128,0,208944:0:0:0:0:
256,192,208944,128,8,209029:0:0:0:0:
51,192,208944,128,0,209029:0:0:0:50:hai.wav
153,192,208944,128,0,209029:0:0:0:0:
460,192,209029,128,0,209115:0:0:0:0:
358,192,209115,128,0,209201:0:0:0:70:clap.wav
153,192,209115,128,0,209201:0:0:0:0:
51,192,209115,128,0,209201:0:0:0:0:
460,192,209201,128,0,209286:0:0:0:0:
358,192,209286,128,2,209458:0:0:0:0:
256,192,209286,128,0,209458:0:0:0:0:
153,192,209286,128,0,209372:0:0:0:0:
51,192,209286,128,0,209372:0:0:0:0:
460,192,209372,128,0,209458:0:0:0:0:
153,192,209458,128,0,209544:0:0:0:70:clap.wav
51,192,209458,128,0,209544:0:0:0:0:
256,192,209544,128,0,209715:0:0:0:0:
358,192,209544,128,0,209715:0:0:0:0:
460,192,209544,128,0,209629:0:0:0:0:
153,192,209629,128,8,209715:0:0:0:0:
51,192,209629,128,0,209715:0:0:0:50:hai.wav
460,192,209715,128,0,209886:0:0:0:0:
358,192,209801,128,0,209886:0:0:0:70:clap.wav
256,192,209801,128,0,209886:0:0:0:0:
153,192,209801,128,0,209886:0:0:0:0:
51,192,209801,128,0,209886:0:0:0:0:
51,192,209972,1,2,0:0:0:0:
256,192,209972,1,0,0:0:0:0:
358,192,209972,1,0,0:0:0:0:
153,192,210058,1,0,0:0:0:0:
358,192,210144,1,0,0:0:0:70:clap.wav
460,192,210144,1,0,0:0:0:0:
256,192,210229,1,0,0:0:0:0:
51,192,210229,1,0,0:0:0:0:
153,192,210315,1,8,0:0:0:0:
358,192,210315,1,0,0:0:0:50:hai.wav
460,192,210315,1,0,0:0:0:0:
51,192,210401,1,0,0:0:0:0:
256,192,210401,1,0,0:0:0:0:
358,192,210486,128,0,210572:0:0:0:70:clap.wav
460,192,210486,128,0,210572:0:0:0:0:
153,192,210486,128,0,210572:0:0:0:0:
153,192,210658,1,2,0:0:0:0:
256,192,210658,1,0,0:0:0:0:
460,192,210658,1,0,0:0:0:0:
51,192,210744,1,0,0:0:0:0:
256,192,210829,128,8,210915:0:0:0:0:
358,192,210829,128,0,210915:0:0:0:0:
460,192,210829,128,0,210915:0:0:0:0:
153,192,210915,1,0,0:0:0:0:
256,192,211001,128,8,211086:0:0:0:0:
358,192,211001,128,0,211086:0:0:0:70:clap.wav
460,192,211001,128,0,211086:0:0:0:50:hai.wav
51,192,211001,128,0,211086:0:0:0:0:
256,192,211172,1,2,0:0:0:0:
460,192,211172,1,0,0:0:0:70:clap.wav
358,192,211172,1,0,0:0:0:0:
51,192,211258,1,0,0:0:0:0:
153,192,211258,1,0,0:0:0:0:
256,192,211344,1,2,0:0:0:0:
358,192,211344,1,4,0:0:0:0:
460,192,211344,1,0,0:0:0:0:
153,192,211429,1,0,0:0:0:0:
51,192,211515,1,0,0:0:0:70:clap.wav
460,192,211515,1,0,0:0:0:0:
256,192,211601,1,0,0:0:0:0:
358,192,211601,1,0,0:0:0:0:
460,192,211686,1,8,0:0:0:0:
153,192,211686,1,0,0:0:0:0:
51,192,211686,1,0,0:0:0:0:
358,192,211772,1,0,0:0:0:0:
256,192,211858,1,0,0:0:0:70:clap.wav
460,192,211858,1,0,0:0:0:0:
153,192,211944,1,0,0:0:0:0:
358,192,211944,1,0,0:0:0:0:
51,192,212029,1,2,0:0:0:0:
256,192,212029,1,0,0:0:0:0:
460,192,212029,1,0,0:0:0:0:
153,192,212115,1,0,0:0:0:0:
51,192,212201,128,0,212286:0:0:0:70:clap.wav
256,192,212201,128,0,212286:0:0:0:0:
358,192,212201,128,0,212286:0:0:0:0:
460,192,212201,128,0,212286:0:0:0:0:
358,192,212372,1,8,0:0:0:0:
460,192,212372,1,0,0:0:0:0:
51,192,212372,1,0,0:0:0:0:
256,192,212458,1,0,0:0:0:0:
153,192,212458,1,0,0:0:0:0:
51,192,212544,1,0,0:0:0:70:clap.wav
358,192,212544,1,0,0:0:0:0:
460,192,212544,1,0,0:0:0:0:
256,192,212629,1,0,0:0:0:0:
153,192,212629,1,0,0:0:0:0:
51,192,212715,1,2,0:0:0:0:
358,192,212715,1,0,0:0:0:0:
460,192,212715,1,0,0:0:0:0:
256,192,212801,1,0,0:0:0:0:
153,192,212886,1,0,0:0:0:70:clap.wav
51,192,212886,1,0,0:0:0:0:
256,192,212972,5,0,0:0:0:0:
358,192,212972,1,0,0:0:0:0:
460,192,213058,1,8,0:0:0:0:
153,192,213058,1,0,0:0:0:0:
51,192,213058,1,0,0:0:0:0:
358,192,213144,1,0,0:0:0:0:
51,192,213229,1,0,0:0:0:70:clap.wav
153,192,213229,1,0,0:0:0:0:
256,192,213315,1,0,0:0:0:0:
358,192,213315,1,0,0:0:0:0:
153,192,213401,1,2,0:0:0:0:
460,192,213401,1,0,0:0:0:0:
51,192,213401,1,0,0:0:0:0:
358,192,213486,1,0,0:0:0:0:
51,192,213572,128,0,213658:0:0:0:70:clap.wav
153,192,213572,128,0,213658:0:0:0:0:
256,192,213572,128,0,213658:0:0:0:0:
460,192,213572,128,0,213658:0:0:0:0:
460,192,213744,1,8,0:0:0:0:
256,192,213744,1,0,0:0:0:0:
51,192,213744,1,0,0:0:0:0:
153,192,213829,1,0,0:0:0:0:
358,192,213829,1,0,0:0:0:0:
51,192,213915,1,0,0:0:0:70:clap.wav
256,192,213915,1,0,0:0:0:0:
460,192,213915,1,0,0:0:0:0:
358,192,214001,1,0,0:0:0:0:
153,192,214001,1,0,0:0:0:0:
51,192,214086,1,0,0:0:0:50:tom.wav
256,192,214086,1,2,0:0:0:0:
460,192,214086,1,0,0:0:0:0:
358,192,214172,1,0,0:0:0:50:tom.wav
153,192,214172,1,0,0:0:0:0:
51,192,214258,1,0,0:0:0:50:tom.wav
256,192,214258,1,0,0:0:0:0:
460,192,214344,1,0,0:0:0:50:tom.wav
358,192,214344,1,0,0:0:0:0:
256,192,214429,1,0,0:0:0:50:tom.wav
51,192,214429,1,2,0:0:0:0:
153,192,214429,1,0,0:0:0:0:
358,192,214515,1,0,0:0:0:50:tom.wav
460,192,214515,1,0,0:0:0:0:
256,192,214601,1,0,0:0:0:50:tom.wav
153,192,214601,1,0,0:0:0:0:
358,192,214686,1,0,0:0:0:50:tom.wav
460,192,214686,1,0,0:0:0:0:
153,192,214772,1,2,0:0:0:0:
51,192,214772,1,0,0:0:0:50:tom.wav
256,192,214772,1,0,0:0:0:0:
358,192,214829,1,0,0:0:0:50:tom.wav
51,192,214886,1,0,0:0:0:50:tom.wav
460,192,214886,1,0,0:0:0:0:
153,192,214944,1,0,0:0:0:50:tom.wav
256,192,214944,1,0,0:0:0:0:
358,192,215001,1,0,0:0:0:50:tom.wav
460,192,215058,1,0,0:0:0:50:tom.wav
51,192,215058,1,0,0:0:0:0:
153,192,215115,1,0,0:0:0:50:tom.wav
256,192,215115,1,2,0:0:0:0:
358,192,215172,1,0,0:0:0:50:tom.wav
460,192,215229,1,0,0:0:0:50:tom.wav
51,192,215229,1,0,0:0:0:0:
153,192,215286,1,0,0:0:0:50:tom.wav
256,192,215286,1,0,0:0:0:0:
358,192,215344,1,0,0:0:0:50:tom.wav
460,192,215401,1,0,0:0:0:50:tom.wav
51,192,215401,1,0,0:0:0:0:
153,192,215458,1,2,0:0:0:0:
256,192,215458,1,4,0:0:0:0:
358,192,215458,1,0,0:0:0:0:
460,192,215544,1,0,0:0:0:0:
51,192,215629,1,0,0:0:0:0:
153,192,215715,1,2,0:0:0:0:
256,192,215715,1,0,0:0:0:0:
358,192,215715,1,0,0:0:0:0:
460,192,215715,1,0,0:0:0:0:
51,192,215801,1,0,0:0:0:0:
460,192,215886,1,0,0:0:0:0:
358,192,215972,1,2,0:0:0:0:
256,192,215972,1,0,0:0:0:0:
153,192,215972,1,0,0:0:0:0:
51,192,215972,1,0,0:0:0:0:
460,192,216058,1,0,0:0:0:0:
153,192,216144,1,0,0:0:0:0:
51,192,216229,1,2,0:0:0:0:
256,192,216229,1,0,0:0:0:0:
358,192,216229,1,0,0:0:0:0:
460,192,216229,1,0,0:0:0:0:
153,192,216315,1,0,0:0:0:0:
358,192,216401,1,0,0:0:0:0:
256,192,216486,1,2,0:0:0:0:
153,192,216486,1,0,0:0:0:50:climax.wav
51,192,216486,1,0,0:0:0:0:
460,192,216486,1,0,0:0:0:0:
51,192,216829,1,2,0:0:0:0:
153,192,216829,1,4,0:0:0:0:
256,192,216829,1,0,0:0:0:0:
358,192,216829,1,0,0:0:0:0:
460,192,216829,1,0,0:0:0:0:
