osu file format v14

[General]
AudioFilename: audio.mp3
AudioLeadIn: 0
PreviewTime: 44613
Countdown: 0
SampleSet: Normal
StackLeniency: 0.2
Mode: 0
LetterboxInBreaks: 0
WidescreenStoryboard: 1

[Editor]
Bookmarks: 194869
DistanceSpacing: 0.87
BeatDivisor: 4
GridSize: 32
TimelineZoom: 2.4

[Metadata]
Title:Aa Kenran no Yume ga Gotoku (Epsilon Remix)
TitleUnicode:嗚呼 絢爛の泡沫が如く (Epsilon Remix)
Artist:Uinyasu, Occhoko Bunny
ArtistUnicode:ういにゃす・おっちょこバニー
Creator:GIDZ
Version:Skystar's Ethereal
Source:千の刃濤、桃花染の皇姫
Tags:Dirty Farmer Regou hellgou Flask little CloudSplash16 Matha -_Matha_- Petal xlolicore xLolicore- Elsa Valentine My Angel Watame Naotoshi Lasse Flask Dailycare Morinaga Sing Nao Tomori Amamiya Yuko Skystar opening eroge visual novel sen no hatou tsukisome no kouki senmomo august soft OP Japanese Gal game electronic jpop
BeatmapID:1804058
BeatmapSetID:749096

[Difficulty]
HPDrainRate:6.9
CircleSize:4.1
OverallDifficulty:8.5
ApproachRate:9.4
SliderMultiplier:2.88
SliderTickRate:1

[Events]
//Background and Video events
0,0,"Skystar.jpg",0,0
//Break Periods
2,76927,81872
2,122384,126444
//Storyboard Layer 0 (Background)
//Storyboard Layer 1 (Fail)
//Storyboard Layer 2 (Pass)
//Storyboard Layer 3 (Foreground)
//Storyboard Layer 4 (Overlay)
//Storyboard Sound Samples

[TimingPoints]
813,342.857142857143,4,1,0,45,1,0
1327,-200,4,1,0,45,0,0
1670,-133.333333333333,4,1,0,45,0,0
2355,-100,4,1,0,45,0,0
6127,-66.6666666666667,4,1,0,45,0,0
6298,-100,4,1,0,45,0,0
6813,-125,4,1,0,45,0,0
6984,-166.666666666667,4,1,0,45,0,0
7155,-250,4,1,0,45,0,0
7327,-1000,4,1,0,45,0,0
7670,-100,4,1,0,45,0,0
10241,-200,4,1,0,45,0,0
10413,-133.333333333333,4,1,0,45,0,0
10755,-133.333333333333,4,1,0,45,0,0
11098,-100,4,1,0,45,0,0
11784,-200,4,1,0,60,0,0
11955,-100,4,1,0,60,0,0
12041,-100,4,2,0,5,0,0
12127,-100,4,1,0,60,0,0
12298,-133.333333333333,4,1,0,60,0,0
12641,-66.6666666666667,4,1,0,60,0,0
12813,-100,4,1,0,60,0,0
13670,-66.6666666666667,4,1,0,60,0,0
13841,-100,4,1,0,60,0,0
14355,-66.6666666666667,4,1,0,60,0,0
14527,-200,4,1,0,60,0,0
14698,-80,4,1,0,60,0,0
15727,-100,4,1,0,60,0,0
16413,-66.6666666666667,4,1,0,60,0,0
16584,-100,4,1,0,60,0,0
17098,-66.6666666666667,4,1,0,60,0,0
18127,-100,4,1,0,60,0,0
18298,-133.333333333333,4,1,0,60,0,0
18470,-200,4,1,0,60,0,0
18641,-80,4,1,0,60,0,0
18898,-133.333333333333,4,1,0,60,0,0
19155,-200,4,1,0,60,0,0
19498,-100,4,1,0,60,0,0
20013,-133.333333333333,4,1,0,60,0,0
21384,-133.333333333333,4,1,0,50,0,0
21641,-133.333333333333,4,1,0,40,0,0
21898,-133.333333333333,4,1,0,35,0,0
22755,-100,4,1,0,60,0,0
26870,-166.666666666667,4,1,0,60,0,0
27555,-100,4,1,0,60,0,0
30641,-83.3333333333333,4,1,0,80,0,0
30984,-100,4,1,0,60,0,0
33384,-100,4,1,0,60,0,0
34584,-62.5,4,1,0,60,0,0
34755,-83.3333333333333,4,1,0,60,0,0
35098,-100,4,1,0,60,0,0
36127,-83.3333333333333,4,1,0,60,0,0
36470,-100,4,1,0,60,0,0
37327,-133.333333333333,4,1,0,60,0,0
37841,-80,4,1,0,60,0,0
38870,-160,4,1,0,60,0,0
41784,-200,4,1,0,60,0,0
41955,-160,4,1,0,60,0,0
42641,-100,4,1,0,60,0,0
42813,-133.333333333333,4,1,0,60,0,0
43327,-133.333333333333,4,1,0,80,0,0
44013,-133.333333333333,4,1,0,80,0,0
44355,-200,4,1,0,60,0,0
44698,-66.6666666666667,4,1,0,60,0,1
45041,-100,4,1,0,60,0,0
45898,-83.3333333333333,4,1,0,60,0,0
46413,-100,4,1,0,60,0,0
47784,-83.3333333333333,4,1,0,60,0,0
47955,-100,4,1,0,60,0,0
48813,-76.9230769230769,4,1,0,60,0,1
49155,-100,4,1,0,60,0,1
49841,-100,4,1,0,60,0,0
51041,-200,4,1,0,60,0,0
51555,-76.9230769230769,4,1,0,60,0,0
52070,-100,4,1,0,60,0,0
52584,-76.9230769230769,4,1,0,60,0,0
52927,-117.647058823529,4,1,0,60,0,0
53270,-76.9230769230769,4,1,0,60,0,0
53613,-66.6666666666667,4,1,0,60,0,0
53955,-62.5,4,1,0,60,0,0
54298,-100,4,1,0,60,0,0
54641,-50,4,1,0,60,0,0
54813,-66.6666666666667,4,1,0,60,0,0
54984,-133.333333333333,4,1,0,60,0,0
55327,-166.666666666667,4,1,0,80,0,0
55498,-166.666666666667,4,2,0,20,0,0
55670,-66.6666666666667,4,1,0,60,0,1
56013,-100,4,1,0,60,0,0
56870,-76.9230769230769,4,1,0,60,0,0
57384,-100,4,1,0,60,0,0
57727,-76.9230769230769,4,1,0,60,0,0
58413,-100,4,1,0,60,0,0
58755,-76.9230769230769,4,1,0,60,0,0
58841,-100,4,1,0,40,0,0
59098,-100,4,1,0,60,0,0
59184,-100,4,1,0,40,0,0
59441,-100,4,1,0,60,0,0
59527,-100,4,1,0,40,0,0
59784,-76.9230769230769,4,1,0,60,0,1
60127,-100,4,1,0,60,0,1
60813,-100,4,1,0,60,0,0
61070,-100,4,1,0,60,0,0
65270,-166.666666666667,4,1,0,80,0,0
66641,-83.3333333333333,4,1,1,60,0,0
66984,-200,4,1,1,60,0,0
67498,-100,4,1,1,60,0,0
67670,-200,4,1,1,60,0,0
67841,-100,4,1,1,60,0,0
68013,-83.3333333333333,4,1,1,60,0,0
68355,-200,4,1,1,60,0,0
68698,-100,4,1,1,60,0,0
68870,-66.6666666666667,4,1,1,60,0,0
69384,-133.333333333333,4,1,1,60,0,0
70241,-66.6666666666667,4,1,1,60,0,0
70755,-200,4,1,0,60,0,0
72127,-66.6666666666667,4,1,0,60,0,0
72984,-200,4,1,1,60,0,0
73155,-66.6666666666667,4,1,0,60,0,0
73670,-200,4,1,0,60,0,0
74013,-200,4,1,1,60,0,0
74184,-66.6666666666667,4,1,0,60,0,0
75041,-133.333333333333,4,1,0,60,0,0
75555,-200,4,1,0,60,0,0
76927,342.857142857143,4,1,0,60,1,0
82412,-200,4,1,0,40,0,0
85841,-100,4,1,0,50,0,0
87384,-66.6666666666667,4,1,0,60,0,0
87469,-66.6666666666667,4,1,0,5,0,0
87555,-200,4,1,0,60,0,0
87898,-100,4,1,0,60,0,0
88241,-200,4,1,0,60,0,0
88412,-100,4,1,0,60,0,0
88927,-66.6666666666667,4,1,0,60,0,0
89098,-133.333333333333,4,1,0,60,0,0
89269,-100,4,1,0,60,0,0
89527,-200,4,1,0,60,0,0
89955,-100,4,1,0,60,0,0
90127,-66.6666666666667,4,1,0,60,0,0
90641,-133.333333333333,4,1,0,60,0,0
91327,-76.9230769230769,4,1,0,60,0,0
91498,-100,4,1,0,60,0,0
92012,-80,4,1,0,60,0,0
93041,-160,4,1,0,60,0,0
95612,-100,4,1,0,60,0,0
96127,-160,4,1,0,60,0,0
97841,-160,4,1,0,60,0,0
98012,-133.333333333333,4,1,0,60,0,0
98184,-100,4,1,0,60,0,0
98527,-83.3333333333333,4,1,0,60,0,0
99212,-166.666666666667,4,1,0,60,0,0
99384,-55.5555555555556,4,1,0,60,0,0
99727,-200,4,1,0,60,0,0
100241,-100,4,2,0,69,0,1
100584,-133.333333333333,4,2,1,69,0,1
100669,-133.333333333333,4,2,0,69,0,1
101098,-83.3333333333333,4,2,0,69,0,1
101269,-83.3333333333333,4,2,1,69,0,1
101355,-83.3333333333333,4,2,0,69,0,1
101955,-76.9230769230769,4,2,1,69,0,1
102127,-76.9230769230769,4,2,0,69,0,1
102212,-76.9230769230769,4,2,1,69,0,1
102298,-76.9230769230769,4,2,0,69,0,1
102641,-76.9230769230769,4,2,1,69,0,1
102812,-133.333333333333,4,2,0,69,0,1
102984,-100,4,2,0,69,0,1
103327,-100,4,2,1,69,0,1
103412,-100,4,2,0,69,0,1
104012,-55.5555555555556,4,2,1,69,0,1
104098,-55.5555555555556,4,2,0,69,0,1
104269,-55.5555555555556,4,2,1,69,0,1
104355,-55.5555555555556,4,2,0,69,0,1
104698,-76.9230769230769,4,2,1,69,0,1
105041,-50,4,2,0,69,0,1
105384,-200,4,2,0,69,0,1
105555,-38.4615384615385,4,2,0,69,0,1
105641,-38.4615384615385,4,2,0,5,0,1
105727,-100,4,2,0,69,0,1
106069,-100,4,2,1,69,0,1
106155,-100,4,2,0,69,0,1
106412,-66.6666666666667,4,2,0,69,0,1
106755,-83.3333333333333,4,2,1,69,0,1
107098,-66.6666666666667,4,2,0,69,0,1
107441,-58.8235294117647,4,2,1,69,0,1
107698,-76.9230769230769,4,2,1,69,0,1
107955,-55.5555555555556,4,2,0,69,0,1
108041,-55.5555555555556,4,2,0,5,0,1
108127,-83.3333333333333,4,2,1,69,0,1
108298,-50,4,2,0,69,0,1
108469,-100,4,2,0,69,0,1
108812,-83.3333333333333,4,2,1,69,0,1
109155,-76.9230769230769,4,2,0,69,0,1
109327,-200,4,2,0,69,0,1
109498,-100,4,2,1,69,0,1
109755,-100,4,2,0,69,0,1
110184,-50,4,2,1,69,0,1
110355,-50,4,2,0,69,0,1
110698,-133.333333333333,4,2,1,69,0,1
110869,-133.333333333333,4,2,0,69,0,1
111041,-133.333333333333,4,2,1,69,0,1
111212,-100,4,2,0,69,0,1
111555,-83.3333333333333,4,2,1,69,0,1
111598,-83.3333333333333,4,2,0,5,0,1
111727,-55.5555555555556,4,2,0,69,0,1
112069,-153.846153846154,4,2,0,69,0,1
112241,-153.846153846154,4,2,1,69,0,1
112412,-50,4,2,0,69,0,1
112584,-55.5555555555556,4,2,0,69,0,1
112669,-55.5555555555556,4,2,0,5,0,1
112755,-50,4,2,0,69,0,1
112927,-66.6666666666667,4,2,1,69,0,1
113098,-200,4,2,1,69,0,1
113441,-66.6666666666667,4,2,0,69,0,1
113612,-66.6666666666667,4,2,1,69,0,1
113955,-100,4,2,0,69,0,1
114298,-100,4,2,1,69,0,1
114469,-100,4,2,0,69,0,1
114984,-66.6666666666667,4,2,1,69,0,1
115498,-66.6666666666667,4,2,0,69,0,1
115669,-66.6666666666667,4,2,1,69,0,1
116012,-50,4,2,0,69,0,1
116355,-200,4,2,1,69,0,1
116527,-38.4615384615385,4,2,0,69,0,1
116612,-38.4615384615385,4,2,0,5,0,1
116698,-100,4,2,0,69,0,1
117041,-100,4,2,1,69,0,1
117384,-66.6666666666667,4,2,0,69,0,1
117727,-83.3333333333333,4,2,1,69,0,1
118069,-100,4,2,0,69,0,1
118412,-66.6666666666667,4,2,1,69,0,1
118927,-66.6666666666667,4,2,0,69,0,1
119098,-66.6666666666667,4,2,1,69,0,1
119269,-66.6666666666667,4,2,0,69,0,1
119784,-100,4,2,1,69,0,1
119955,-66.6666666666667,4,2,0,69,0,1
120298,-133.333333333333,4,2,0,69,0,1
120469,-133.333333333333,4,2,1,69,0,1
120555,-133.333333333333,4,2,0,69,0,1
122184,-133.333333333333,4,1,0,80,0,0
126984,-133.333333333333,4,2,0,45,0,0
127669,-133.333333333333,4,1,0,60,0,0
130069,-100,4,1,0,60,0,0
132812,-1000,4,2,0,60,0,0
132898,-1000,4,2,0,5,0,0
132984,-33.3333333333333,4,2,0,60,0,0
133069,-33.3333333333333,4,2,0,5,0,0
133155,-200,4,1,0,60,0,0
133498,-66.6666666666667,4,1,0,60,0,0
134012,-100,4,1,0,60,0,0
135298,-200,4,1,0,60,0,0
135898,-400,4,1,0,60,0,0
136241,-66.6666666666667,4,1,0,60,0,0
136584,-200,4,1,0,60,0,0
136927,-100,4,1,0,60,0,0
137012,-100,4,2,0,5,0,0
137098,-100,4,1,0,60,0,0
137184,-100,4,2,0,5,0,0
137269,-133.333333333333,4,1,0,60,0,0
138298,-100,4,1,0,60,0,0
138641,-200,4,1,0,60,0,0
138984,-66.6666666666667,4,1,0,60,0,0
139669,-100,4,1,0,60,0,0
140698,-200,4,1,0,60,0,0
141727,-66.6666666666667,4,1,0,60,0,0
142069,-133.333333333333,4,1,0,60,0,0
142412,-66.6666666666667,4,1,0,60,0,0
142755,-133.333333333333,4,1,0,75,0,0
144212,-200,4,2,0,40,0,0
145498,-200,4,2,0,60,0,0
148241,-166.666666666667,4,2,0,60,0,0
150984,-142.857142857143,4,2,0,60,0,0
153727,-100,4,2,0,60,0,0
157155,-133.333333333333,4,2,0,60,0,0
157841,-100,4,1,0,50,0,0
158869,-200,4,1,0,60,0,0
159041,-200,4,1,0,5,0,0
159212,-133.333333333333,4,1,0,60,0,0
167098,-200,4,1,0,60,0,0
168127,-100,4,1,0,60,0,0
168812,-571.428571428571,4,1,0,24,0,0
169327,-571.428571428571,4,2,0,5,0,0
169498,-571.428571428571,4,1,0,20,0,0
169584,-571.428571428571,4,1,0,30,0,0
169669,-571.428571428571,4,1,0,40,0,0
169755,-571.428571428571,4,1,0,50,0,0
169841,-100,4,1,0,69,0,0
170184,-66.6666666666667,4,1,0,69,0,1
170527,-133.333333333333,4,1,0,69,0,0
170698,-66.6666666666667,4,1,0,69,0,0
171212,-133.333333333333,4,1,0,69,0,0
171384,-66.6666666666667,4,1,0,69,0,0
172927,-133.333333333333,4,1,0,69,0,0
173269,-100,4,1,0,69,0,0
173955,-66.6666666666667,4,1,0,69,0,0
174298,-66.6666666666667,4,1,0,69,0,1
174641,-151.515151515152,4,1,0,69,0,1
174984,-66.6666666666667,4,1,0,69,0,1
175327,-200,4,1,0,69,0,0
175669,-100,4,1,0,69,0,0
176527,-200,4,1,0,69,0,0
177212,-100,4,1,0,69,0,0
178069,-133.333333333333,4,1,0,69,0,0
178412,-100,4,1,0,69,0,0
180641,-200,4,1,0,69,0,0
181155,-66.6666666666667,4,1,0,69,0,1
181498,-133.333333333333,4,1,0,69,0,0
181669,-66.6666666666667,4,1,0,69,0,0
182184,-133.333333333333,4,1,0,69,0,0
182355,-66.6666666666667,4,1,0,69,0,0
183898,-133.333333333333,4,1,0,69,0,0
184241,-66.6666666666667,4,1,0,69,0,0
184327,-133.333333333333,4,1,0,40,0,0
184584,-133.333333333333,4,1,0,69,0,0
184669,-133.333333333333,4,1,0,40,0,0
184927,-133.333333333333,4,1,0,69,0,0
185012,-66.6666666666667,4,1,0,40,0,0
185269,-66.6666666666667,4,1,0,69,0,1
185612,-114.942528735632,4,1,0,69,0,1
185955,-80,4,1,0,69,0,1
186298,-200,4,1,0,69,0,0
186641,-100,4,1,0,69,0,0
191784,-200,4,1,0,69,0,0
192127,-50,4,1,0,69,0,1
192469,-133.333333333333,4,2,1,69,0,1
192812,-100,4,1,0,69,0,1
193155,-100,4,2,1,69,0,1
193327,-66.6666666666667,4,1,0,69,0,1
193498,-133.333333333333,4,1,0,69,0,1
193841,-80,4,2,1,69,0,1
194184,-133.333333333333,4,1,0,69,0,1
194527,-66.6666666666667,4,1,0,69,0,0
194869,-100,4,1,0,69,0,0
195727,-66.6666666666667,4,1,0,69,0,0
195898,-133.333333333333,4,1,0,69,0,0
196841,-80,4,1,0,69,0,0
197098,-66.6666666666667,4,1,0,69,0,0
197269,-133.333333333333,4,1,0,69,0,0
197612,-100,4,1,0,69,0,0
197784,-100,4,1,0,69,0,0
198298,-80,4,1,0,69,0,0
198984,-66.6666666666667,4,1,0,69,0,0
199498,-133.333333333333,4,1,0,69,0,0
199669,-133.333333333333,4,2,0,5,0,0
199841,-66.6666666666667,4,1,0,69,0,0
200355,-100,4,1,0,69,0,0
201212,-66.6666666666667,4,1,0,69,0,0
201727,-100,4,1,0,69,0,0
202327,-80,4,1,0,69,0,0
202584,-66.6666666666667,4,1,0,69,0,0
203098,-100,4,1,0,69,0,0
203784,-80,4,1,0,69,0,0
204469,-66.6666666666667,4,1,0,69,0,0
205841,-100,4,1,0,69,0,0
206698,-66.6666666666667,4,1,0,69,0,0
207212,-100,4,1,0,69,0,0
207727,-80,4,1,0,69,0,0
208069,-66.6666666666667,4,1,0,69,0,0
208584,-100,4,1,0,69,0,0
209269,-80,4,1,0,69,0,0
209955,-66.6666666666667,4,1,0,69,0,0
210469,-133.333333333333,4,1,0,69,0,0
210641,-133.333333333333,4,2,0,5,0,0
210812,-66.6666666666667,4,1,0,69,0,0
211327,-100,4,1,0,69,0,0
211841,-80,4,1,0,69,0,0
212184,-66.6666666666667,4,1,0,69,0,0
212355,-66.6666666666667,4,1,0,69,0,0
212698,-100,4,1,0,69,0,0
213041,-100,4,1,0,69,0,0
213298,-80,4,1,0,69,0,0
213555,-66.6666666666667,4,1,0,69,0,0
213727,-66.6666666666667,4,1,0,69,0,0
216212,-133.333333333333,4,1,0,69,0,0
216469,-66.6666666666667,4,1,0,69,0,0
216812,-100,4,1,0,60,0,0
217327,-66.6666666666667,4,1,0,60,0,0
217498,-100,4,1,0,60,0,0
218012,-100,4,1,0,60,0,0
218698,-66.6666666666667,4,1,0,60,0,0
218869,-100,4,1,0,60,0,0
219384,-66.6666666666667,4,1,0,60,0,0
219555,-100,4,1,0,60,0,0
220069,-66.6666666666667,4,1,0,60,0,0
220241,-100,4,1,0,60,0,0
221441,-66.6666666666667,4,1,0,60,0,0
221612,-100,4,1,0,60,0,0
222812,-66.6666666666667,4,1,0,60,0,0
222984,-100,4,1,0,60,0,0
224184,-66.6666666666667,4,1,0,60,0,0
224355,-100,4,1,0,60,0,0
225212,-66.6666666666667,4,1,0,60,0,0
225384,-100,4,1,0,60,0,0
225555,-66.6666666666667,4,1,0,60,0,0
225727,-100,4,1,0,60,0,0
226412,-100,4,1,0,80,0,0
227698,-100,4,1,0,60,0,0

[Colours]
Combo1 : 252,242,131
Combo2 : 255,89,89
Combo3 : 252,120,213
Combo4 : 252,132,97

[HitObjects]
446,145,812,6,0,B|416:182|432:224|432:224|379:168|406:122|406:122|429:82|402:35,1,288
402,36,1327,2,0,P|405:79|442:107,1,72
372,180,1670,5,2,0:1:0:0:
327,106,1841,2,0,P|277:86|224:85,1,108.000004119873,2|0,0:1|0:0,0:0:0:0:
129,200,2184,5,0,0:0:0:0:
105,73,2355,2,0,B|94:123|94:123|55:146|55:146|44:193,1,144,2|0,0:1|2:0,0:0:0:0:
19,68,2698,1,0,0:0:0:0:
19,68,2870,2,0,B|64:50|64:50|71:226|71:226|129:201,1,288,2|0,0:1|0:0,0:0:0:0:
217,234,3384,6,0,P|226:200|208:139,2,72,2|0|0,0:0|0:0|0:0,0:0:0:0:
328,72,3727,2,0,P|358:151|372:224,1,144,2|0,0:0|2:0,0:0:0:0:
301,250,4070,1,0,0:0:0:0:
453,128,4241,2,0,B|409:192|309:194|265:123|265:123|298:158|351:149,1,288,2|0,0:0|0:0,0:0:0:0:
328,72,4755,6,0,B|366:65|366:65|388:108,2,72,2|0|0,0:0|0:0|0:0,0:0:0:0:
265,122,5098,2,0,P|225:163|133:144,1,144,2|0,0:0|2:0,0:0:0:0:
37,243,5441,1,0,0:0:0:0:
37,243,5613,2,0,B|116:215|126:130|79:138|95:40|174:14,1,288,2|0,0:0|0:0,0:0:0:0:
172,14,6127,2,0,P|173:76|222:123,1,108.000004119873,2|0,0:0|0:0,0:0:0:0:
401,189,6298,6,0,P|328:163|227:173,1,144
250,171,6555,1,0,0:0:0:0:
262,164,6641,2,0,P|277:128|270:53,1,72,0|0,0:0|2:0,0:0:0:0:
372,52,6813,2,0,P|378:80|413:125,1,57.6,0|0,0:0|2:0,0:0:0:0:
386,316,6984,6,0,P|398:303|409:271,1,43.1999986816407,0|0,0:0|2:0,0:0:0:0:
476,212,7155,6,0,P|459:207|425:213,1,28.8,2|0,0:0|2:0,0:0:0:0:
358,188,7327,6,0,P|360:196|371:209,1,21.6,2|0,0:0|2:0,0:0:0:0:
376,215,7670,5,0,0:0:0:0:
408,280,7841,2,0,B|426:310|426:310|276:294,1,144,2|0,0:0|2:0,0:0:0:0:
155,337,8184,1,0,0:0:0:0:
155,337,8355,2,0,B|185:273|185:273|294:261|294:261|250:359,1,288,2|0,0:0|0:0,0:0:0:0:
180,198,8870,6,0,P|138:208|108:256,2,72,2|0|0,0:0|0:0|0:0,0:0:0:0:
342,151,9213,2,0,P|272:151|222:102,1,144,2|0,0:0|2:0,0:0:0:0:
462,38,9555,1,0,0:0:0:0:
384,49,9727,2,0,P|301:113|269:296,1,288,2|0,0:0|0:0,0:0:0:0:
222,353,10241,2,0,P|238:363|267:359,1,36,2|0,0:0|0:0,0:0:0:0:
351,199,10413,6,0,P|358:243|329:281,2,72.0000027465821
403,337,10755,2,0,P|429:313|438:279,2,72.0000027465821
340,118,11098,6,0,P|299:129|291:206,1,72,0|0,0:0|2:0,0:0:0:0:
254,363,11270,2,0,P|211:360|189:285,1,72,0|0,0:0|2:0,0:0:0:0:
119,174,11441,5,0,0:0:0:0:
155,160,11527,1,0,0:0:0:0:
197,169,11613,1,0,0:0:0:0:
228,202,11698,1,0,0:0:0:0:
249,251,11784,6,0,L|244:293,1,36,0|0,0:0|2:0,0:0:0:0:
92,373,11955,2,2,P|54:350|39:285,1,108,2|0,0:0|0:0,0:1:0:0:
42,282,12127,2,0,P|77:280|127:298,1,72,0|0,0:0|2:0,0:0:0:0:
313,379,12298,2,0,B|301:291|370:315|354:226,1,162.00000617981,0|0,0:0|2:0,0:0:0:0:
354,229,12641,6,0,P|385:225|445:286,1,108.000004119873
512,329,12813,2,0,P|484:246|493:137,1,144
488,169,13070,1,0,0:0:0:0:
498,150,13155,5,0,0:0:0:0:
369,311,13327,2,0,P|333:339|229:313,1,144,2|0,0:0|0:0,0:0:0:0:
127,88,13670,6,0,P|79:144|65:266,1,162.00000617981
57,376,13841,6,0,P|49:336|84:288,1,72
196,260,14013,2,0,P|156:268|108:233,1,72
3,137,14184,1,0,0:0:0:0:
3,137,14355,6,0,L|67:239,1,108.000004119873,2|2,0:2|0:2,0:0:0:0:
151,373,14527,6,0,L|131:342,1,36,0|0,0:0|2:0,0:0:0:0:
196,260,14698,2,0,L|197:158,1,90,2|0,0:0|2:0,0:0:0:0:
295,189,14870,2,0,L|409:18,1,180,0|2,0:0|2:2,0:0:0:0:
476,78,15127,1,0,0:0:0:0:
472,98,15213,5,0,0:0:0:0:
435,124,15298,1,0,0:0:0:0:
390,117,15384,1,0,0:0:0:0:
344,117,15470,1,0,0:0:0:0:
315,82,15555,1,0,0:0:0:0:
195,16,15727,6,0,P|157:7|113:51,2,72
215,130,16070,2,0,L|174:305,1,144,2|0,0:0|0:0,0:0:0:0:
379,379,16413,6,0,B|310:365|310:365|298:348|298:348|226:337,1,162.00000617981,2|0,0:2|0:0,0:0:0:0:
182,270,16584,6,0,B|213:255|213:255|249:263,1,72
511,324,16755,2,0,B|494:357|494:357|463:372,1,72
227,338,16927,1,0,0:0:0:0:
227,338,17098,6,0,P|278:359|354:310,1,108.000004119873,2|2,0:2|0:2,0:0:0:0:
426,293,17270,5,0,0:0:0:0:
399,273,17441,1,2,0:2:0:0:
495,222,17613,5,0,0:0:0:0:
378,177,17784,1,2,0:2:0:0:
446,41,17955,5,0,0:0:0:0:
446,41,18127,2,0,P|468:68|473:103,1,72,2|0,0:0|2:0,0:0:0:0:
495,222,18298,2,0,P|469:202|464:157,2,54.0000020599366,2|0|0,0:0|2:0|0:0,0:0:0:0:
131,82,18641,6,0,B|91:97|91:97|227:113,1,180
306,124,18898,2,0,L|374:134,1,54.0000020599366
460,331,19155,6,0,P|434:351|373:342,1,72
407,250,19498,1,2,0:0:0:0:
470,349,19670,2,0,B|353:379|373:296|262:324,1,216,2|0,0:0|0:0,0:0:0:0:
193,357,20013,6,0,P|187:324|200:282,1,54.0000020599366,0|0,0:0|2:0,0:0:0:0:
55,193,20184,2,0,P|61:226|48:268,1,54.0000020599366,0|0,0:0|2:0,0:0:0:0:
181,370,20355,6,0,P|175:337|188:295,1,54.0000020599366,0|0,0:0|2:0,0:0:0:0:
50,212,20527,2,0,P|56:245|43:287,1,54.0000020599366,0|0,0:0|2:0,0:0:0:0:
311,266,20698,5,0,0:0:0:0:
319,252,20784,1,0,0:0:0:0:
325,238,20870,1,0,0:0:0:0:
329,223,20955,1,0,0:0:0:0:
331,207,21041,1,0,0:0:0:0:
331,191,21127,1,0,0:0:0:0:
329,175,21213,1,0,0:0:0:0:
326,160,21298,1,0,0:0:0:0:
255,181,21384,5,0,0:0:0:0:
243,228,21470,1,0,0:0:0:0:
236,275,21555,1,0,0:0:0:0:
203,266,21641,5,0,0:0:0:0:
207,228,21726,1,0,0:0:0:0:
215,190,21812,1,0,0:0:0:0:
175,200,21898,5,0,0:0:0:0:
172,229,21984,1,0,0:0:0:0:
170,257,22069,1,2,2:0:0:0:
137,248,22155,5,2,2:0:0:0:
144,212,22241,1,2,2:0:0:0:
115,225,22327,1,2,2:0:0:0:
131,188,22413,1,2,2:0:0:0:
104,201,22498,1,2,2:0:0:0:
117,169,22584,1,2,2:0:0:0:
93,175,22670,1,2,2:0:0:0:
93,155,22755,6,0,P|100:94|152:17,1,144,0|0,0:0|2:0,0:0:0:0:
207,71,23013,2,0,P|195:108|208:176,1,72,0|0,2:0|0:0,0:0:0:0:
355,254,23270,2,0,P|392:242|460:255,1,72,0|0,2:0|2:0,0:0:0:0:
490,42,23441,6,0,P|424:57|357:150,1,144,0|0,0:0|2:0,0:0:0:0:
329,175,23698,2,0,P|302:145|313:71,1,72,0|0,2:0|0:0,0:0:0:0:
484,297,23955,2,0,P|489:337|436:390,1,72,0|0,2:0|2:0,0:0:0:0:
387,373,24127,6,0,P|384:316|442:229,1,144,0|0,0:0|2:0,0:0:0:0:
246,193,24384,2,0,P|212:221|192:272,1,72,0|0,2:0|0:2,0:0:0:0:
83,246,24555,1,0,2:2:0:0:
83,246,24641,2,0,P|63:285|65:339,1,72,0|0,2:0|2:0,0:0:0:0:
115,368,24813,5,0,0:0:0:0:
279,268,24984,1,0,0:0:0:0:
83,246,25155,1,0,0:0:0:0:
117,115,25327,2,0,P|141:149|128:215,1,72
60,312,25498,6,0,P|41:225|77:159,1,144,0|0,0:0|2:0,0:0:0:0:
229,86,25841,1,0,0:0:0:0:
236,106,25927,2,0,P|275:131|381:129,1,144,0|0,0:0|2:0,0:0:0:0:
471,118,26184,2,0,P|444:136|479:183,1,72,0|0,0:0|2:0,0:0:0:0:
281,261,26355,2,0,P|308:279|273:326,1,72,0|0,0:0|2:0,0:0:0:0:
402,371,26527,5,0,0:0:0:0:
389,354,26613,2,0,P|344:343|245:381,1,144,0|0,0:0|2:0,0:0:0:0:
193,321,26870,6,0,P|188:300|191:279,1,43.1999986816407,0|0,0:0|2:0,0:0:0:0:
133,106,27041,1,0,0:0:0:0:
136,114,27127,1,0,0:0:0:0:
137,122,27213,2,0,P|141:143|136:164,1,43.1999986816407,0|0,0:0|2:0,0:0:0:0:
31,196,27384,2,0,P|47:210|57:229,1,43.1999986816407,0|0,0:0|2:0,0:0:0:0:
254,373,27555,6,0,P|272:334|255:270,1,72,0|0,0:0|2:0,0:0:0:0:
256,94,27727,5,2,2:0:0:0:
247,117,27812,1,2,2:0:0:0:
267,155,27898,1,2,2:0:0:0:
240,202,27984,1,2,2:0:0:0:
280,243,28069,1,2,2:0:0:0:
244,293,28155,1,2,2:0:0:0:
285,354,28241,6,0,P|227:324|139:328,1,144,2|0,0:2|2:0,0:0:0:0:
75,344,28498,2,0,P|75:308|89:275,1,72,0|2,0:0|0:2,0:0:0:0:
80,45,28755,2,0,P|89:94|74:136,1,72
21,183,28927,5,2,0:2:0:0:
198,93,29098,1,0,0:0:0:0:
391,242,29270,1,2,0:2:0:0:
310,52,29441,1,0,0:0:0:0:
302,72,29527,1,0,0:0:0:0:
294,92,29613,1,2,0:2:0:0:
381,326,29784,6,0,P|358:326|326:285,1,72
294,92,29955,2,0,B|309:164|259:155|272:231,1,144,2|0,0:2|0:0,0:0:0:0:
255,318,30213,1,0,0:0:0:0:
250,306,30298,2,0,P|196:295|143:321,1,72,2|0,0:2|2:0,0:0:0:0:
416,237,30470,2,0,P|444:258|462:289,1,72,2|0,0:2|2:0,0:0:0:0:
334,366,30641,5,0,0:0:0:0:
326,291,30727,1,0,0:0:0:0:
335,216,30813,1,0,0:0:0:0:
370,150,30898,1,0,0:0:0:0:
426,100,30984,1,0,0:0:0:0:
488,366,31155,5,0,0:0:0:0:
335,216,31327,1,0,0:0:0:0:
130,155,31498,1,0,0:0:0:0:
55,318,31670,6,0,P|83:332|148:313,3,72
212,295,32013,5,0,0:0:0:0:
220,220,32099,1,0,0:0:0:0:
211,145,32185,1,0,0:0:0:0:
176,79,32270,1,0,0:0:0:0:
120,29,32356,1,0,0:0:0:0:
503,15,32527,5,0,0:0:0:0:
512,34,32613,1,0,0:0:0:0:
511,55,32698,1,2,0:2:0:0:
452,126,32870,1,0,0:0:0:0:
365,91,33041,2,0,P|351:59|355:24,1,72,8|0,0:0|0:0,0:0:0:0:
134,2,33384,6,0,P|187:-4|257:58,1,96,2|2,0:2|0:2,0:0:0:0:
433,50,33613,1,2,0:2:0:0:
452,126,33727,6,0,P|403:97|225:100,1,216,4|0,0:2|2:0,0:0:0:0:
172,73,34070,6,0,P|169:109|220:162,1,72,0|0,0:0|2:0,0:0:0:0:
23,161,34241,2,0,P|39:192|70:210,1,72,0|0,0:0|2:0,0:0:0:0:
247,90,34413,1,8,0:2:0:0:
23,70,34584,6,0,P|84:95|79:176,1,115.2,0|0,0:0|2:0,0:0:0:0:
258,212,34755,2,0,B|208:128|113:151|98:205|107:250|168:274|194:222,1,259.199992089844,0|0,0:0|2:0,0:0:0:0:
232,315,35098,6,0,P|302:303|370:327,1,144,0|0,0:0|2:0,0:0:0:0:
475,347,35355,2,0,P|449:358|460:331,1,72,0|0,0:0|2:0,0:0:0:0:
370,177,35613,2,0,P|390:147|421:129,1,72,0|0,0:0|2:0,0:0:0:0:
475,347,35784,6,0,P|449:281|458:173,1,144,8|2,0:2|0:1,0:0:0:0:
366,26,36127,2,2,B|408:20|442:47|442:47|340:28|244:76,1,259.199992089844,2|0,0:1|2:0,0:1:0:0:
186,63,36470,6,0,B|192:103|192:103|199:110|199:110|214:202,1,144,0|0,0:0|2:0,0:0:0:0:
278,260,36727,2,0,B|306:240|306:240|366:240,1,72,0|0,0:0|2:0,0:0:0:0:
0,267,36984,2,0,B|12:234|12:234|62:202,1,72,0|0,0:0|2:0,0:0:0:0:
53,67,37155,6,0,L|38:137,1,72,8|0,0:2|0:0,0:0:0:0:
75,315,37327,2,0,L|85:272,8,27.0000010299683,2|2|2|2|2|2|2|2|2,2:0|2:0|2:0|2:0|2:0|2:0|2:0|2:0|2:0,0:0:0:0:
44,214,37841,6,0,P|98:151|216:199,1,180,0|0,0:0|2:0,0:0:0:0:
240,234,38098,2,0,B|178:286|221:374|221:374|245:337,1,180,0|0,0:0|2:0,0:0:0:0:
398,365,38355,2,0,B|364:314|364:314|285:296|285:296|323:330,1,180,0|0,0:0|2:0,0:0:0:0:
313,321,38613,2,0,B|393:307|393:307|401:302|401:302|489:287,1,180,0|0,0:0|2:0,0:0:0:0:
500,207,38870,6,0,B|496:165|496:165|480:209,1,90,8|0,0:0|2:0,0:0:0:0:
226,384,39213,6,0,B|237:279|173:328|186:215,1,180
55,150,39670,2,0,P|25:153|-13:182,1,60,2|2,2:0|2:0,0:0:0:0:
35,17,39898,6,0,P|127:43|120:124,1,180,8|0,0:2|0:0,0:0:0:0:
130,195,40355,2,0,P|155:211|185:215,1,60,2|2,2:0|2:0,0:0:0:0:
237,52,40584,5,0,0:0:0:0:
277,189,40755,1,0,0:0:0:0:
205,314,40927,1,0,0:0:0:0:
358,93,41098,5,0,0:0:0:0:
311,289,41270,1,8,0:2:0:0:
454,169,41441,5,0,0:0:0:0:
400,238,41613,1,2,2:0:0:0:
503,239,41784,6,0,L|475:250,2,24,2|2|2,2:0|2:0|2:0,0:0:0:0:
446,329,41955,6,0,B|394:313|364:345|362:367|326:396|276:377,1,180
75,320,42470,1,2,2:0:0:0:
299,300,42641,6,0,P|268:282|233:280,1,72,8|0,0:2|2:0,0:0:0:0:
61,336,42813,1,0,0:0:0:0:
70,330,42898,1,0,0:0:0:0:
75,320,42984,2,0,P|80:285|53:242,1,54.0000020599366,0|0,0:0|2:0,0:0:0:0:
190,59,43155,2,0,P|211:76|223:100,1,54.0000020599366,0|0,0:0|2:0,0:0:0:0:
283,379,43327,5,0,0:0:0:0:
137,129,43498,1,0,0:0:0:0:
411,362,43670,1,0,0:0:0:0:
415,20,43841,1,0,0:0:0:0:
84,298,44013,5,0,0:2:0:0:
69,296,44098,1,0,0:2:0:0:
57,287,44184,1,0,0:2:0:0:
50,273,44270,1,0,0:2:0:0:
33,234,44355,6,0,L|36:198,1,36,8|2,2:1|2:0,0:0:0:0:
51,232,44527,2,0,L|36:198,1,36,2|2,2:0|2:0,0:0:0:0:
0,120,44698,6,0,B|60:139|98:83|86:77|124:22|194:49,1,216.000008239746,4|0,0:2|2:0,0:1:0:0:
259,17,44955,1,0,0:0:0:0:
259,17,45041,2,0,P|265:52|255:86,1,72,8|0,0:0|2:0,0:0:0:0:
224,318,45213,6,0,P|207:286|208:250,1,72,0|0,0:0|2:0,0:0:0:0:
167,176,45384,2,0,P|233:136|313:168,1,144
334,223,45641,1,0,0:0:0:0:
344,241,45727,2,0,P|375:250|437:203,1,72,8|0,0:0|2:0,0:0:0:0:
487,362,45898,6,0,P|461:342|375:351,1,86.3999973632813,0|0,0:0|2:0,0:0:0:0:
294,151,46070,2,0,P|303:66|367:1,1,172.799994726563
433,28,46327,1,0,0:0:0:0:
436,49,46413,2,0,P|432:88|379:125,1,72,8|0,0:0|2:0,0:0:0:0:
276,236,46584,2,0,P|291:267|322:285,1,72,0|0,0:0|2:0,0:0:0:0:
476,268,46755,6,0,P|412:221|316:223,1,144,0|4,0:0|0:2,0:0:0:0:
81,154,47098,1,8,0:0:0:0:
164,13,47270,1,4,0:2:0:0:
317,115,47441,6,0,B|198:101|223:153|105:140,1,216,4|0,0:2|2:0,0:0:0:0:
57,76,47784,2,0,P|31:115|31:161,1,86.3999973632813,8|0,0:0|2:0,0:0:0:0:
281,273,47955,2,0,P|268:240|272:205,1,72,0|0,0:0|2:0,0:0:0:0:
410,16,48127,6,0,P|418:51|391:165,1,144
348,228,48384,1,0,0:0:0:0:
361,224,48470,2,0,P|378:279|310:351,1,144,8|0,0:0|0:0,0:0:0:0:
90,212,48813,6,0,B|124:248|121:296|121:296|148:256|201:247,1,187.199991430664,2|0,0:0|0:0,0:0:0:0:
130,74,49155,2,0,B|93:82|62:62|62:62|78:95|64:134,1,144,10|0,0:0|0:0,0:0:0:0:
229,177,49498,2,2,B|239:140|272:124|272:124|235:121|209:89,1,144,2|2,0:0|0:2,0:1:0:0:
282,43,49755,1,0,0:2:0:0:
292,23,49841,2,0,P|327:20|385:59,1,72,8|2,0:0|2:2,0:0:0:0:
477,238,50013,2,0,P|461:206|477:138,1,72,0|0,0:0|2:0,0:0:0:0:
512,113,50184,5,2,0:2:0:0:
317,97,50355,1,2,0:1:0:0:
284,113,50441,1,0,0:2:0:0:
270,146,50527,1,8,0:0:0:0:
229,329,50698,5,2,0:2:0:0:
270,146,50870,1,2,0:1:0:0:
19,37,51041,6,0,L|28:81,1,36,4|0,0:2|2:0,0:0:0:0:
41,148,51213,1,8,0:0:0:0:
41,148,51384,2,0,L|48:183,1,36,4|0,0:2|2:0,0:0:0:0:
300,51,51555,5,2,0:2:0:0:
254,210,51727,2,0,P|209:203|177:170,1,93.5999957153322,2|0,0:0|2:0,0:0:0:0:
170,16,51898,2,0,P|141:52|140:98,1,93.5999957153322,10|0,0:0|2:0,0:0:0:0:
220,295,52070,5,2,0:2:0:0:
140,98,52241,2,0,P|230:142|352:123,1,216,2|0,0:0|2:0,0:0:0:0:
412,75,52584,6,0,B|437:57|437:57|420:155,1,93.5999957153322,8|0,0:0|2:0,0:0:0:0:
385,332,52755,2,0,B|402:357|402:357|413:295,1,93.5999957153322,4|0,0:2|2:0,0:0:0:0:
298,0,52927,6,0,P|369:47|342:128,1,183.600003501892,4|0,0:2|2:0,0:0:0:0:
259,155,53270,2,0,B|220:132|220:132|152:162,1,93.5999957153322,8|0,0:2|2:0,0:0:0:0:
42,360,53441,5,2,0:2:0:0:
127,290,53613,1,2,0:2:0:0:
232,276,53784,1,2,0:2:0:0:
245,293,53870,1,2,0:2:0:0:
249,315,53955,1,10,0:2:0:0:
412,377,54127,5,2,0:2:0:0:
512,257,54298,2,0,P|519:222|483:151,1,72,2|0,0:2|2:0,0:0:0:0:
447,47,54470,1,2,0:2:0:0:
447,47,54555,1,2,0:2:0:0:
447,47,54641,6,0,B|436:111|436:111|438:121|438:121|425:208,1,144,10|0,0:2|2:0,0:0:0:0:
348,227,54813,6,0,P|301:252|251:237,1,108.000004119873,2|0,0:2|2:0,0:0:0:0:
243,77,54984,6,0,L|245:110,1,27.0000010299683
268,86,55070,2,0,L|259:118,1,27.0000010299683
287,104,55155,2,0,L|270:124,1,27.0000010299683
383,306,55327,6,0,P|384:350|419:392,1,86.3999973632813,8|2,0:0|0:0,0:0:0:0:
464,323,55670,6,0,P|382:281|227:323,1,216.000008239746,4|0,0:2|2:0,0:0:0:0:
52,36,56013,2,0,P|82:67|79:132,1,72,8|0,0:0|2:0,0:0:0:0:
263,298,56184,6,0,L|276:219,1,72,0|0,0:0|2:0,0:0:0:0:
307,31,56355,2,0,L|152:68,1,144
9,109,56613,1,0,0:0:0:0:
2,129,56698,2,0,P|0:180|41:218,1,72,8|0,0:0|2:0,0:0:0:0:
121,341,56870,6,0,B|99:364|99:364|128:258,1,93.5999957153322,0|0,0:0|2:0,0:0:0:0:
187,137,57041,1,0,0:0:0:0:
196,250,57213,1,0,0:0:0:0:
202,267,57298,1,0,0:0:0:0:
215,278,57384,1,8,0:0:0:0:
356,303,57555,1,0,0:0:0:0:
481,188,57727,6,2,B|292:172|292:172|343:176|368:219,1,280.799987145997,2|0,0:0|2:0,0:1:0:0:
279,332,58070,2,0,B|263:290|263:290|294:251,1,93.5999957153322,8|0,0:0|2:0,0:0:0:0:
186,93,58241,2,0,B|225:68|225:68|256:104,1,93.5999957153322,2|0,0:1|2:0,0:0:0:0:
367,218,58413,6,0,B|389:99|305:130|327:10,1,216,0|0,0:0|2:0,0:0:0:0:
490,30,58755,2,0,B|472:78|455:50|437:107,1,93.5999957153322,8|0,0:0|2:0,0:0:0:0:
435,254,58927,5,8,0:0:0:0:
436,261,59013,1,0,0:0:0:0:
438,267,59098,2,0,P|461:292|516:299,1,72,0|0,0:0|2:0,0:0:0:0:
390,383,59270,2,0,P|386:349|345:311,1,72,8|0,0:0|2:0,0:0:0:0:
239,235,59441,2,0,P|250:201|278:178,1,72,8|0,0:0|2:0,0:0:0:0:
386,4,59613,6,0,P|366:42|385:107,1,72,8|0,0:0|2:0,0:0:0:0:
506,226,59784,2,0,B|459:216|448:164|448:164|397:178|348:139,1,187.199991430664,2|0,0:0|0:0,0:0:0:0:
107,82,60127,2,0,P|199:75|236:160,1,144,10|0,0:0|0:0,0:0:0:0:
264,319,60470,2,2,P|260:248|278:178,1,144,2|2,0:0|0:2,0:1:0:0:
385,216,60727,1,0,0:0:0:0:
403,226,60813,2,0,P|434:227|483:189,1,72,8|2,0:0|2:2,0:0:0:0:
344,72,60984,2,0,P|319:52|257:54,1,72,0|0,0:0|2:0,0:0:0:0:
83,117,61155,5,4,0:2:0:0:
313,174,61327,1,2,2:0:0:0:
117,206,61498,5,4,0:2:0:0:
254,272,61670,1,2,2:0:0:0:
132,305,61841,6,0,P|150:258|140:145,1,144,4|2,0:2|2:1,0:0:0:0:
83,117,62098,1,2,2:0:0:0:
97,101,62184,2,0,P|54:103|-21:137,1,72,4|2,0:2|2:1,0:0:0:0:
254,272,62355,2,0,P|239:316|201:347,1,72,2|2,2:0|2:0,0:0:0:0:
117,206,62526,5,4,0:2:0:0:
233,143,62698,1,2,2:0:0:0:
366,290,62870,2,0,P|326:216|327:122,1,144,4|2,0:2|2:0,0:0:0:0:
503,233,63213,2,0,P|468:226|433:234,1,72,4|0,0:2|2:0,0:0:0:0:
233,143,63384,2,0,P|247:102|232:42,1,72
444,24,63555,5,4,0:2:0:0:
165,100,63727,1,0,0:2:0:0:
261,240,63898,6,2,P|273:157|405:83,1,216,6|0,0:1|2:0,0:1:0:0:
451,113,64241,1,0,0:0:0:0:
333,355,64413,1,2,0:0:0:0:
298,64,64584,5,2,0:1:0:0:
415,384,64755,1,0,0:0:0:0:
420,363,64841,1,0,0:0:0:0:
418,341,64927,2,0,P|414:316|341:276,1,72,2|0,0:0|2:0,0:0:0:0:
230,159,65098,2,0,P|208:145|130:172,1,72,2|0,0:0|2:0,0:0:0:0:
21,251,65270,5,4,0:2:0:0:
97,231,65355,1,0,0:0:0:0:
173,234,65441,1,0,0:0:0:0:
242,256,65527,1,0,0:0:0:0:
301,290,65613,1,4,0:2:0:0:
341,338,65698,1,0,0:0:0:0:
391,366,65784,1,0,0:0:0:0:
441,363,65870,1,0,0:0:0:0:
469,334,65955,6,0,L|480:296,1,21.5999993408203,4|0,0:2|0:0,0:0:0:0:
465,300,66041,2,0,L|455:270,1,21.5999993408203
445,283,66127,2,0,L|418:268,1,21.5999993408203
428,285,66213,2,0,L|399:285,1,21.5999993408203
421,290,66298,1,8,0:0:0:0:
124,83,66641,6,0,B|95:27|95:27|174:42|215:99|188:186,1,259.199992089844,4|0,3:0|2:0,0:0:0:0:
215,308,66984,6,0,B|222:282|222:282|221:279|221:279|226:276|226:276|225:272|225:272|238:229,1,72,8|0,0:0|0:0,0:0:0:0:
13,157,67327,1,0,3:0:0:0:
13,157,67498,6,0,L|60:271,1,72,2|0,0:0|2:0,0:0:0:0:
234,241,67670,6,0,L|195:246,1,36,8|0,0:0|2:0,0:0:0:0:
370,383,67841,6,0,L|386:303,1,72,2|0,0:0|2:0,0:0:0:0:
249,218,68013,6,0,B|310:194|368:229|368:229|362:239|362:239|413:286|481:263,1,259.199992089844,0|0,3:0|2:0,0:0:0:0:
476,264,68355,6,0,P|483:242|474:200,1,36,8|0,0:0|2:0,0:0:0:0:
296,334,68527,2,0,P|278:318|236:309,1,36,0|0,0:0|2:0,0:0:0:0:
265,150,68698,6,0,P|265:186|249:218,1,72,0|0,3:0|2:0,0:0:0:0:
57,323,68870,6,0,B|83:340|83:340|128:335|128:335|157:295,1,108.000004119873,2|0,0:1|2:0,0:0:0:0:
144,140,69041,2,2,B|128:74|128:74|33:230|33:230|63:236|63:236|63:238|63:238|65:235|65:235|102:245,1,324.00001235962,8|0,0:0|2:0,0:1:0:0:
100,244,69384,6,0,L|266:289,1,162.00000617981,0|0,3:0|2:0,0:0:0:0:
337,319,69727,6,0,P|352:350|353:382,1,54.0000020599366,8|0,0:0|2:0,0:0:0:0:
442,363,69898,1,0,0:0:0:0:
446,352,69984,1,0,0:0:0:0:
449,341,70070,1,0,3:0:0:0:
373,54,70241,6,2,B|383:155|383:155|389:160|389:160|402:281,2,216.000008239746,2|8|2,0:1|0:0|0:1,0:1:0:0:
478,190,70755,5,2,0:2:0:0:
47,117,71013,1,2,0:2:0:0:
478,190,71270,2,0,L|404:180,1,72,2|4,0:2|2:0,0:0:0:0:
129,126,71613,6,0,L|146:186,1,36,2|0,0:0|2:0,0:0:0:0:
171,270,71784,2,0,L|161:235,1,36,0|0,0:0|2:0,0:0:0:0:
0,234,71955,2,0,L|34:224,1,36,2|0,0:0|2:0,0:0:0:0:
328,89,72127,6,0,B|307:348|307:348|367:389,1,324.00001235962,4|4,0:2|0:2,0:0:0:0:
359,384,72641,1,0,0:0:0:0:
432,356,72984,2,0,L|441:296,1,36,8|0,0:0|2:0,0:0:0:0:
491,138,73155,6,0,B|467:200|467:200|278:229|278:229|236:169,1,324.00001235962,4|4,0:2|0:2,0:0:0:0:
240,175,73670,2,0,L|181:164,1,36
6,142,74013,2,0,L|42:149,1,36,8|0,0:0|2:0,0:0:0:0:
205,168,74184,6,0,P|159:171|109:254,1,108.000004119873
205,168,74441,2,0,P|226:127|179:42,1,108.000004119873,0|0,3:0|0:0,3:0:0:0:
205,168,74698,2,0,P|231:206|328:208,1,108.000004119873,0|0,3:0|0:0,3:0:0:0:
288,223,75041,6,0,L|280:293,1,54.0000020599366,0|0,0:0|2:0,0:0:0:0:
239,373,75213,2,0,L|242:346,6,27.0000010299683
177,298,75555,6,0,B|188:267|188:267|112:295|112:295|107:317|107:317|25:339|25:339|36:310,1,252,0|0,0:0|2:0,0:0:0:0:
36,310,76241,1,8,0:0:0:0:
69,71,82412,5,0,0:0:0:0:
163,136,82584,1,0,0:0:0:0:
150,143,82670,1,0,0:0:0:0:
135,143,82755,1,0,0:0:0:0:
6,201,82927,1,0,0:0:0:0:
78,251,83098,6,0,P|119:266|153:265,1,72,8|0,0:2|0:0,0:0:0:0:
318,384,83441,2,0,P|281:359|262:331,1,72
415,378,83784,5,0,0:0:0:0:
441,295,83955,2,0,P|454:273|479:263,2,36
356,313,84298,1,0,0:2:0:0:
424,382,84469,5,8,0:2:0:0:
285,274,84641,1,0,0:0:0:0:
205,254,84812,1,0,0:0:0:0:
130,287,84984,1,0,0:0:0:0:
25,358,85155,6,0,L|34:238,1,108,0|0,0:0|2:0,0:0:0:0:
19,241,85498,2,0,P|54:221|114:228,1,72,0|0,0:0|2:0,0:0:0:0:
297,283,85841,6,0,L|122:255,1,144,8|0,0:2|2:0,0:0:0:0:
154,260,86184,2,0,P|163:225|132:147,1,72
334,363,86355,6,0,P|360:339|376:256,1,72
365,161,86527,2,0,L|388:277,1,72,0|0,0:0|2:0,0:0:0:0:
512,294,86698,2,0,L|400:255,1,72
289,219,86869,5,0,0:0:0:0:
260,220,86955,1,0,0:0:0:0:
236,237,87041,2,0,L|228:278,4,36,0|0|0|0|8,0:0|0:0|0:0|0:0|0:2,0:0:0:0:
31,37,87384,6,0,P|97:51|134:168,1,162.00000617981
140,159,87555,2,0,P|122:171|87:166,2,48,2|2|2,0:2|0:2|0:2,0:0:0:0:
27,123,87898,6,0,L|17:226,1,72,0|0,0:0|2:0,0:0:0:0:
294,384,88241,6,0,L|289:332,1,36,0|0,0:0|2:0,0:0:0:0:
283,274,88412,2,0,L|273:171,1,72,0|0,0:0|2:0,0:0:0:0:
417,60,88584,5,8,0:2:0:0:
255,84,88755,2,0,P|288:49|348:43,1,72,0|0,0:0|2:0,0:0:0:0:
309,42,88927,2,0,P|332:88|320:170,1,108.000004119873,0|0,0:0|2:0,0:0:0:0:
216,327,89098,6,0,L|178:335,2,27.0000010299683
410,186,89269,6,0,P|341:173|276:202,1,144,0|0,0:0|2:0,0:0:0:0:
216,327,89527,2,0,L|228:270,1,36,0|0,0:0|2:0,0:0:0:0:
29,73,89784,2,0,L|21:108,1,36,0|0,0:0|2:0,0:0:0:0:
19,120,89955,6,0,L|133:102,1,72,8|0,0:2|2:0,0:0:0:0:
169,218,90127,2,0,L|283:200,1,108.000004119873,0|0,0:0|2:0,0:0:0:0:
421,315,90298,6,0,B|457:341|465:381|465:381|520:301|499:201|402:184,1,324.00001235962,0|0,0:0|2:0,0:0:0:0:
410,185,90641,6,0,P|471:168|494:66,2,162.00000617981
499,80,91327,6,0,P|446:81|401:106,1,93.5999957153322,8|0,0:2|2:0,0:0:0:0:
247,13,91498,6,0,P|250:61|313:105,1,72,0|0,0:0|2:0,0:0:0:0:
305,199,91669,2,0,P|330:158|305:85,1,72,0|0,0:0|2:0,0:0:0:0:
339,50,91841,2,0,L|349:2,2,36
173,85,92012,6,0,P|133:22|19:15,1,180,0|0,0:0|2:0,0:0:0:0:
0,72,92269,2,0,P|31:136|33:208,1,90,0|0,0:0|2:0,0:0:0:0:
209,163,92527,2,0,P|200:233|162:295,1,90,0|0,0:0|2:0,0:0:0:0:
372,320,92784,2,0,P|326:374|261:405,1,90,0|0,0:0|2:0,0:0:0:0:
500,363,93041,6,0,P|466:350|482:382,1,90,8|0,0:0|2:0,0:0:0:0:
480,382,93384,6,0,P|489:313|468:174,1,180
436,128,93841,2,0,P|427:87|448:52,1,60,2|2,2:0|2:0,2:0:0:0:
503,2,94069,2,0,P|401:53|316:54,1,180,8|0,0:2|0:0,0:0:0:0:
240,70,94527,6,0,L|236:17,3,30,2|0|2|0,2:0|2:0|2:0|2:0,0:0:0:0:
152,43,94755,5,0,0:0:0:0:
336,56,94927,2,0,L|329:116,1,45,0|0,0:0|2:0,0:0:0:0:
152,43,95098,2,0,L|154:100,1,45,0|0,0:0|2:0,0:0:0:0:
288,171,95269,1,0,0:0:0:0:
190,167,95441,1,8,0:2:0:0:
352,289,95612,6,0,P|321:283|286:243,1,72,0|0,0:0|2:0,0:0:0:0:
165,289,95784,6,0,P|142:267|134:214,1,72,0|0,0:0|2:0,0:0:0:0:
8,187,95955,6,0,P|0:156|23:107,1,72,0|0,0:0|2:0,0:0:0:0:
34,45,96127,6,0,B|77:22|135:45|113:69|171:88|202:73,1,180
271,28,96584,2,0,P|312:19|346:37,1,60,2|2,2:0|2:0,2:0:0:0:
429,57,96812,2,0,P|484:128|482:228,1,180
407,271,97269,6,0,L|435:281,2,30,2|0|2,2:0|2:0|2:0,0:0:0:0:
503,358,97498,6,0,L|513:311,1,45,0|0,0:0|2:0,0:0:0:0:
285,221,97669,1,0,0:0:0:0:
285,221,97841,6,0,L|331:218,1,45,0|0,0:0|2:0,0:0:0:0:
206,45,98012,6,0,L|182:138,1,54.0000020599366,0|0,0:0|2:0,0:0:0:0:
329,218,98184,6,0,P|334:253|320:286,1,72,8|0,0:0|2:0,0:0:0:0:
103,349,98355,1,0,0:0:0:0:
361,125,98527,6,0,P|326:202|252:244,1,172.799994726563,8|0,0:0|0:0,0:0:0:0:
115,102,98784,1,0,0:0:0:0:
109,86,98869,2,0,P|153:83|233:143,1,86.3999973632813,0|0,0:0|2:0,0:0:0:0:
411,59,99041,6,0,P|439:85|418:166,1,86.3999973632813,0|0,0:0|2:0,0:0:0:0:
346,320,99212,6,0,L|303:305,1,43.1999986816407,8|0,0:0|2:0,0:0:0:0:
361,125,99384,6,0,L|389:386,1,259.199992089844,0|2,0:0|2:0,0:0:0:0:
469,308,99727,1,0,0:0:0:0:
305,305,99898,6,0,L|310:281,1,18,8|0,0:0|0:0,0:0:0:0:
282,304,99984,2,0,L|295:283,1,18
261,294,100069,2,0,L|281:280,1,18,0|0,3:0|3:0,3:0:0:0:
245,276,100155,2,0,L|268:270,1,18,0|0,3:0|3:0,3:0:0:0:
220,197,100241,6,0,B|236:154|236:154|163:153|118:226|148:291,1,216,6|0,1:2|2:0,0:0:0:0:
75,384,100584,2,0,B|67:341|67:341|61:333|61:333|67:323|67:323|63:318|63:318|55:272,1,108.000004119873,8|2,0:1|0:0,0:0:0:0:
44,206,100841,1,0,0:0:0:0:
41,195,100927,2,0,L|115:205,1,54.0000020599366,2|0,0:0|2:0,0:0:0:0:
207,111,101098,6,0,L|220:197,1,86.3999973632813,0|0,1:0|0:0,0:0:0:0:
405,339,101269,1,8,0:1:0:0:
405,339,101441,6,0,P|378:363|279:335,1,86.3999973632813,2|0,1:0|2:0,0:0:0:0:
468,102,101612,2,0,P|434:168|452:286,1,172.799994726563,2|2,1:0|0:0,0:0:0:0:
490,331,101869,1,2,0:0:0:0:
490,335,101955,1,8,0:1:0:0:
333,143,102127,5,2,0:0:0:0:
349,175,102212,2,0,P|309:218|180:192,1,187.199991430664,8|2,0:1|0:0,0:0:0:0:
88,47,102469,2,0,P|48:73|66:150,1,93.5999957153322,0|0,1:0|0:0,0:0:0:0:
123,320,102641,2,0,P|144:219|65:85,1,187.199991430664,8|0,0:1|0:0,0:0:0:0:
129,125,102855,2,0,L|144:96,2,27.0000010299683
201,23,102984,6,0,P|214:103|240:22,1,216,0|0,1:0|0:0,0:0:0:0:
259,127,103327,2,0,P|322:118|436:164,1,144,8|2,0:1|0:0,0:0:0:0:
465,96,103584,1,0,0:0:0:0:
468,82,103669,2,0,P|493:121|478:185,1,72,2|0,0:0|2:0,0:0:0:0:
432,374,103841,1,0,1:0:0:0:
432,374,104012,6,0,P|466:323|389:248,1,129.599996044922,8|0,0:1|2:0,0:0:0:0:
189,334,104184,1,0,0:2:0:0:
205,331,104269,2,0,B|375:315|375:315|260:355,1,259.199992089844,8|0,0:1|2:0,0:0:0:0:
111,373,104527,6,0,B|104:321|104:321|127:286|112:247,1,129.599996044922,0|0,1:0|2:0,0:0:0:0:
152,83,104698,2,0,B|137:116|146:152|179:177|179:177|177:279|177:279|110:246,1,280.799987145997,8|0,0:1|2:0,0:0:0:0:
37,277,105041,6,2,P|20:216|109:182,1,144,2|0,0:2|2:0,0:1:0:0:
320,103,105212,6,2,B|336:130|336:130|200:107,1,144,2|0,1:2|1:0,0:1:0:0:
61,92,105384,2,0,B|25:85,1,36,8|0,0:0|2:0,0:0:0:0:
398,188,105555,6,2,B|423:233|423:233|196:194,1,280.799987145997,2|0,0:2|2:0,0:1:0:0:
132,154,105727,6,0,P|119:197|151:252,1,72,0|0,1:0|2:0,0:0:0:0:
200,353,105898,1,0,0:0:0:0:
197,195,106069,5,8,0:1:0:0:
302,321,106241,1,0,0:0:0:0:
406,180,106412,6,0,B|391:113|391:113|314:129|314:129|328:196,1,216.000008239746,2|0,0:0|1:0,0:1:0:0:
329,197,106755,2,0,B|252:189|252:189|239:140|239:140|109:124,1,259.199992089844,8|0,0:1|0:0,0:0:0:0:
84,124,107098,6,2,B|314:88|314:88|239:140,1,324.00001235962,2|0,1:0|0:0,0:1:0:0:
116,222,107441,2,0,B|104:301|104:301|142:344,1,122.400002334595,8|0,0:1|0:0,0:0:0:0:
223,344,107612,1,0,0:0:0:0:
223,344,107698,2,0,B|273:285|357:307|357:307|343:319|337:351,1,187.199991430664,8|0,0:1|0:0,0:0:0:0:
416,363,107955,6,0,L|209:342,1,194.399994067383,0|0,1:0|0:0,0:0:0:0:
133,333,108127,2,0,B|95:346|95:346|186:359,1,86.3999973632813,8|0,0:1|0:0,0:0:0:0:
459,239,108298,6,0,B|494:264|494:264|373:288,1,144
223,344,108469,6,2,L|229:301,6,36,0|0|0|0|0|0|0,1:1|0:1|0:1|0:1|0:1|0:1|0:1,0:1:0:0:
223,344,108812,2,0,B|137:372|137:372|150:273,1,172.799994726563,8|0,0:1|0:0,0:0:0:0:
287,203,109155,6,0,P|314:166|358:156,1,93.5999957153322
446,327,109327,6,0,L|450:292,1,36,0|0,1:0|0:0,0:0:0:0:
462,202,109498,2,0,B|502:260|502:260|309:224,1,216,8|0,0:1|0:0,0:0:0:0:
359,157,109841,6,2,L|367:113,6,36,0|0|0|0|0|0|0,1:1|0:1|0:1|0:1|0:1|0:1|0:1,0:1:0:0:
355,0,110184,6,0,B|399:2|399:2|441:46|441:46|438:88,1,144,8|0,0:1|0:0,0:0:0:0:
428,198,110355,2,2,B|133:162|133:162|268:220,1,432,0|0,1:0|0:0,0:1:0:0:
325,318,110698,6,0,B|328:291|328:291|316:263,1,54.0000020599366,8|0,0:1|0:0,0:0:0:0:
408,103,110869,1,0,1:0:0:0:
408,103,111041,2,0,B|385:87|385:87|355:85,1,54.0000020599366,8|0,0:1|0:0,0:0:0:0:
256,215,111212,6,0,P|284:147|244:12,1,216,4|0,1:2|0:0,0:0:0:0:
230,8,111555,2,0,L|273:1,1,43.1999986816407,8|0,0:1|0:0,0:0:0:0:
103,122,111727,6,0,B|62:168|62:168|275:134,1,259.199992089844,2|2,0:0|0:0,0:0:0:0:
354,127,111984,1,0,0:0:0:0:
354,127,112069,6,0,B|350:176,1,46.7999978576661,0|0,1:0|0:0,0:0:0:0:
262,280,112241,2,0,B|266:217,1,46.7999978576661,8|0,0:1|0:0,0:0:0:0:
423,238,112412,6,0,B|451:257|451:257|311:275,1,144,2|0,0:1|0:0,0:0:0:0:
27,101,112584,6,2,P|118:116|149:204,1,194.399994067383,2|0,1:1|0:0,0:0:0:0:
98,277,112755,2,0,B|75:303|75:303|215:284,1,144
298,73,112927,6,0,B|289:171|289:171|269:193|269:193|261:291,1,216.000008239746,8|0,0:1|0:0,0:0:0:0:
257,359,113184,2,0,L|209:365,1,36,8|0,0:1|0:0,0:0:0:0:
457,21,113441,6,0,B|434:9|434:9|466:120,1,108.000004119873,0|0,1:0|0:0,0:0:0:0:
502,148,113612,2,0,B|343:124|343:124|333:130|333:130|163:102,1,324.00001235962,8|0,0:1|0:0,0:0:0:0:
105,126,113955,6,0,P|63:48|169:52,1,216,0|0,1:0|0:0,0:0:0:0:
315,56,114298,2,0,P|295:132|295:222,1,144,8|2,0:1|0:0,0:0:0:0:
254,271,114555,1,0,0:0:0:0:
241,263,114641,2,0,P|214:226|229:160,1,72,2|0,0:0|0:0,0:0:0:0:
410,133,114812,1,0,1:0:0:0:
410,133,114984,6,0,P|462:204|364:200,1,216.000008239746,8|0,0:1|0:0,0:0:0:0:
326,150,115241,1,8,0:1:0:0:
326,146,115327,1,0,0:0:0:0:
173,22,115498,2,0,P|131:46|159:123,1,108.000004119873,0|0,1:0|0:0,0:0:0:0:
371,215,115669,6,0,B|307:206|290:155|290:155|273:97|207:95,1,216.000008239746,8|0,0:1|0:0,0:0:0:0:
55,132,115927,1,0,0:0:0:0:
44,148,116012,6,2,P|102:187|171:172,1,144,2|0,0:0|0:0,0:1:0:0:
322,37,116184,6,2,B|396:34|396:34|370:115,1,144,2|0,1:2|1:0,0:1:0:0:
318,314,116355,2,0,L|328:279,1,36,8|0,0:1|0:0,0:0:0:0:
468,201,116527,6,2,B|503:152|462:97|462:97|406:104|365:163|387:224,1,280.799987145997,2|0,0:0|0:0,0:1:0:0:
387,223,116698,6,0,B|439:278|439:278|414:348,1,144,0|0,1:0|0:0,0:0:0:0:
140,380,117041,1,8,0:1:0:0:
251,167,117212,1,0,0:1:0:0:
267,293,117384,6,0,B|151:347|181:241|50:299,1,216.000008239746,2|0,0:0|1:0,0:0:0:0:
61,295,117727,2,0,B|92:377|180:359|245:286|201:204,1,259.199992089844,8|0,0:1|0:0,0:0:0:0:
199,62,118069,6,2,P|109:95|135:199,1,216,2|0,1:0|0:0,0:1:0:0:
209,221,118412,2,0,B|300:194|300:194|352:179|386:191|403:229,1,216.000008239746,8|0,0:1|0:0,0:0:0:0:
331,352,118669,2,0,B|296:378|296:378|256:343|256:343|269:294|269:294|358:266,1,216.000008239746,8|0,0:1|0:0,0:0:0:0:
512,131,118927,2,0,B|467:99|467:99|427:158,1,108.000004119873,0|0,1:0|0:0,0:0:0:0:
335,273,119098,6,0,B|307:218|342:176|342:176|381:131|353:72,1,216.000008239746,8|2,0:1|0:0,0:0:0:0:
74,339,119441,1,2,1:0:0:0:
74,339,119612,6,0,P|116:357|187:339,1,108.000004119873,0|2,0:0|0:2,0:0:0:0:
126,120,119784,2,0,L|143:189,1,72,8|0,0:1|0:0,0:0:0:0:
131,275,119955,6,0,P|176:267|225:213,1,108.000004119873,2|0,1:2|0:0,0:0:0:0:
75,48,120127,2,0,P|118:34|187:59,1,108.000004119873,2|0,0:1|0:0,0:0:0:0:
418,289,120298,5,0,1:0:0:0:
411,293,120384,1,0,1:0:0:0:
403,295,120469,2,0,P|373:298|323:260,1,54.0000020599366,8|0,0:1|0:0,0:0:0:0:
143,189,120641,2,0,P|157:162|216:142,1,54.0000020599366,0|0,1:0|0:0,0:0:0:0:
485,41,120812,6,0,L|469:107,1,54.0000020599366,2|0,1:0|0:0,0:0:0:0:
394,100,120984,2,0,L|403:167,1,54.0000020599366,2|0,0:1|0:0,0:0:0:0:
331,188,121155,2,2,L|348:217,6,27.0000010299683,2|0|0|0|0|0|0,0:1|0:1|0:1|0:1|0:1|0:1|0:1,0:1:0:0:
351,290,121498,6,0,B|367:231|309:188|300:216|246:175|261:111,1,216.000008239746,10|0,0:1|0:0,0:1:0:0:
261,112,122184,1,4,1:2:0:0:
123,138,126984,6,0,P|104:155|47:147,1,54.0000020599366,2|0,0:0|0:0,0:0:0:0:
16,55,127155,2,0,P|42:59|62:77,1,54.0000020599366,2|0,0:0|0:0,0:0:0:0:
231,208,127327,5,2,0:0:0:0:
234,197,127412,1,2,0:0:0:0:
235,186,127498,1,2,0:0:0:0:
235,175,127584,1,2,0:0:0:0:
213,134,127669,5,4,0:2:0:0:
344,35,127841,1,2,2:2:0:0:
450,162,128012,1,0,0:0:0:0:
295,106,128184,1,2,2:0:0:0:
376,115,128355,1,8,0:0:0:0:
376,260,128527,6,0,P|362:314|364:374,1,108.000004119873,2|8,2:0|0:2,0:0:0:0:
362,365,128869,2,0,P|392:373|438:345,1,54.0000020599366
486,338,129041,5,0,0:0:0:0:
503,253,129212,1,2,2:2:0:0:
322,190,129384,5,0,0:0:0:0:
225,177,129555,1,2,0:2:0:0:
193,17,129727,5,8,0:0:0:0:
193,17,129898,6,0,L|267:28,1,54.0000020599366,2|0,2:0|2:0,0:0:0:0:
322,190,130069,6,0,L|339:278,1,72,8|0,0:2|0:0,0:0:0:0:
491,61,130241,2,0,L|475:136,1,72
512,286,130412,5,8,0:2:0:0:
461,352,130584,1,0,0:0:0:0:
426,361,130669,1,0,0:0:0:0:
394,344,130755,1,8,0:2:0:0:
342,278,130927,1,0,0:0:0:0:
359,247,131012,1,0,0:0:0:0:
350,211,131098,1,8,0:0:0:0:
394,107,131269,5,0,0:0:0:0:
290,152,131441,1,8,0:2:0:0:
158,143,131612,1,0,0:0:0:0:
17,69,131784,1,0,0:0:0:0:
22,55,131869,1,0,0:0:0:0:
33,46,131955,1,0,0:0:0:0:
46,42,132041,1,0,0:0:0:0:
59,46,132127,6,0,L|54:91,8,36,0|0|0|0|0|0|0|0|8,0:0|0:0|0:0|0:0|0:0|0:0|0:0|0:0|0:0,0:0:0:0:
141,91,132812,6,0,L|142:101,1,10.8
138,74,132984,6,2,P|190:52|276:165,1,216,2|0,0:1|0:0,0:1:0:0:
375,227,133155,6,0,L|388:138,1,72
387,148,133412,1,0,0:0:0:0:
388,140,133498,6,0,B|302:175|290:258|290:258|282:171|198:132,1,324.00001235962,0|0,0:0|2:0,0:0:0:0:
143,212,133841,5,8,0:2:0:0:
163,208,133927,1,0,0:0:0:0:
65,222,134012,1,0,0:0:0:0:
43,225,134098,1,0,0:0:0:0:
95,151,134184,6,0,L|116:300,1,144
190,325,134441,1,0,0:0:0:0:
194,329,134527,6,0,P|217:311|222:343,1,72,0|0,0:0|2:0,0:0:0:0:
372,346,134698,2,0,P|395:364|400:332,1,72,0|0,0:0|2:0,0:0:0:0:
505,250,134869,2,0,P|482:232|477:264,1,72,0|0,0:0|2:0,0:0:0:0:
327,267,135041,2,0,P|304:285|299:253,1,72,0|0,0:0|2:0,0:0:0:0:
418,159,135212,5,8,0:2:0:0:
418,159,135384,2,0,L|474:165,1,36
387,1,135555,2,0,L|443:7,1,36,0|0,0:0|2:0,0:0:0:0:
267,96,135727,2,0,L|323:102,1,36,0|0,0:0|2:0,0:0:0:0:
128,19,135898,6,0,L|122:62,1,36
46,134,136155,1,0,0:0:0:0:
54,123,136241,6,0,B|93:94|138:99|187:130|167:149|249:189|327:139|308:54,1,324.00001235962,0|0,0:0|2:0,0:0:0:0:
380,22,136584,6,0,L|396:65,1,36,8|0,0:2|2:0,0:0:0:0:
512,100,136755,1,0,0:0:0:0:
508,109,136841,1,0,0:0:0:0:
493,125,136927,6,0,P|453:138|426:208,1,96
435,260,137098,2,0,P|475:247|502:177,1,96
347,139,137269,6,0,P|379:185|301:197,1,162.00000617981
210,191,137612,2,0,P|235:244|239:325,1,108.000004119873
182,349,137869,1,0,0:0:0:0:
191,362,137955,6,0,P|216:374|261:355,1,54.0000020599366,8|0,0:2|2:0,0:0:0:0:
353,192,138127,2,0,P|326:189|303:201,1,54.0000020599366,0|0,0:0|2:0,0:0:0:0:
445,358,138298,6,0,P|399:290|399:372,1,216,0|0,0:0|2:0,0:0:0:0:
399,372,138641,6,0,P|410:327|404:280,1,72
454,238,138898,1,0,0:0:0:0:
458,247,138984,6,0,B|478:180|393:96|359:169|272:80|299:0,1,324.00001235962,0|0,0:0|2:0,0:0:0:0:
499,18,139327,5,8,0:2:0:0:
477,21,139413,1,0,0:0:0:0:
399,31,139498,1,0,0:0:0:0:
379,35,139584,1,0,0:0:0:0:
299,0,139669,6,0,B|225:4|246:41|166:47,1,144
56,44,139927,1,0,0:0:0:0:
52,40,140012,6,0,P|75:22|80:54,1,72,0|0,0:0|2:0,0:0:0:0:
165,181,140184,2,0,P|188:199|193:167,1,72,0|0,0:0|2:0,0:0:0:0:
194,34,140355,2,0,P|171:16|166:48,1,72,0|0,0:0|2:0,0:0:0:0:
81,175,140527,2,0,P|58:193|53:161,1,72,0|0,0:0|2:0,0:0:0:0:
137,328,140698,5,8,0:2:0:0:
137,328,140869,2,0,B|122:332|122:332|102:326,1,36,0|0,0:0|2:0,0:0:0:0:
284,244,141041,2,0,B|270:249|270:249|250:243,1,36
380,384,141212,2,0,B|365:388|365:388|345:382,1,36
437,221,141384,6,0,P|460:260|458:316,1,72
469,363,141641,1,0,0:0:0:0:
484,369,141727,6,0,B|511:311|464:255|464:255|396:229|359:260|359:260|317:224|331:162,1,324.00001235962,0|0,0:0|2:0,0:0:0:0:
368,78,142069,6,0,P|360:52|370:28,1,54.0000020599366,8|0,0:2|2:0,0:0:0:0:
368,78,142241,2,0,P|373:104|394:121,1,54.0000020599366,0|0,0:0|2:0,0:0:0:0:
268,250,142412,6,0,P|314:231|312:149,1,108.000004119873,0|0,0:0|2:0,0:0:0:0:
196,11,142584,2,0,P|245:4|284:76,1,108.000004119873,0|0,0:0|2:0,0:0:0:0:
271,122,142755,5,0,0:0:0:0:
27,163,143012,1,0,0:0:0:0:
271,122,143269,1,0,0:0:0:0:
328,178,143441,6,0,P|349:167|352:120,1,54.0000020599366,8|0,0:2|2:0,0:0:0:0:
27,163,143698,5,0,0:0:0:0:
271,122,143955,1,0,0:0:0:0:
328,178,144127,1,0,0:0:0:0:
256,192,144212,12,0,145327,0:0:0:0:
85,320,145498,6,0,P|152:311|180:231,1,144,4|2,1:2|0:0,0:0:0:0:
138,184,146012,1,2,0:0:0:0:
299,326,146184,6,0,P|316:295|311:241,1,72,8|0,0:0|0:0,0:0:0:0:
415,282,146527,2,0,P|412:246|378:204,1,72,2|2,0:0|0:0,0:0:0:0:
326,181,146784,1,2,0:0:0:0:
331,167,146869,6,0,L|268:176,1,36,0|0,1:0|0:0,0:0:0:0:
138,184,147041,1,0,0:0:0:0:
159,72,147212,2,0,L|148:132,1,36,2|0,0:0|0:0,0:0:0:0:
138,184,147384,2,0,L|127:244,1,36,2|0,0:0|0:0,0:0:0:0:
50,384,147555,6,0,P|78:386|89:375,1,36,8|0,0:0|0:0,0:0:0:0:
152,331,147727,2,0,L|141:271,1,36,2|0,0:0|0:0,0:0:0:0:
131,219,147899,2,0,L|120:159,1,36,2|0,0:0|0:0,0:0:0:0:
40,45,148069,5,0,0:0:0:0:
40,45,148241,2,0,P|96:81|219:57,1,172.799994726563,0|2,1:0|0:0,0:0:0:0:
312,26,148755,1,2,0:0:0:0:
124,183,148927,6,0,P|130:145|103:91,1,86.3999973632813,8|0,0:0|0:0,0:0:0:0:
273,103,149269,2,0,P|326:111|357:136,1,86.3999973632813,2|2,0:0|0:0,0:0:0:0:
390,198,149527,1,2,0:0:0:0:
393,210,149612,5,0,1:0:0:0:
504,63,149784,2,0,P|506:91|489:120,1,43.1999986816407,2|0,0:0|0:0,0:0:0:0:
429,45,149955,2,0,P|420:71|394:92,1,43.1999986816407,2|2,0:0|0:0,0:0:0:0:
221,37,150127,5,2,0:0:0:0:
351,129,150298,2,0,P|338:107|336:70,1,43.1999986816407,8|0,0:0|0:0,0:0:0:0:
284,170,150469,2,0,P|263:154|248:120,1,43.1999986816407
189,315,150641,6,0,P|192:353|215:323,1,86.3999973632813,2|0,0:0|0:0,0:0:0:0:
22,75,150984,6,0,P|89:152|108:262,1,201.599993847656,4|2,1:2|0:0,0:0:0:0:
217,333,151498,1,2,0:0:0:0:
48,309,151669,6,0,P|142:276|213:170,1,201.599993847656,8|2,0:0|0:0,0:0:0:0:
293,276,152184,1,2,0:0:0:0:
103,198,152355,6,0,P|101:223|109:247,1,50.3999984619141,0|0,1:0|0:0,0:0:0:0:
169,348,152527,2,0,P|171:323|163:299,1,50.3999984619141
231,113,152698,6,0,P|228:137|236:161,1,50.3999984619141,2|0,0:0|0:0,0:0:0:0:
298,324,152869,2,0,P|300:299|292:275,1,50.3999984619141,2|2,0:0|0:0,0:0:0:0:
359,28,153041,6,0,P|356:52|364:76,1,50.3999984619141,8|0,0:0|0:0,0:0:0:0:
427,300,153212,2,0,P|429:275|421:251,1,50.3999984619141,2|0,0:0|0:0,0:0:0:0:
482,136,153384,6,0,B|399:119|421:169|332:150,1,151.199995385742,2|0,0:0|0:0,0:0:0:0:
258,137,153727,6,0,P|300:196|198:154,1,288,0|2,1:0|0:0,0:0:0:0:
1,215,154241,1,2,0:0:0:0:
63,158,154412,2,0,P|129:182|160:245,1,144,8|0,0:0|0:0,0:0:0:0:
130,353,154755,2,0,P|67:322|0:342,1,144,2|2,0:0|0:0,0:0:0:0:
65,287,155012,1,2,0:0:0:0:
72,266,155098,5,0,1:0:0:0:
212,313,155269,2,0,P|234:298|243:223,1,72,2|2,0:0|0:0,0:0:0:0:
325,307,155441,2,0,P|335:282|301:214,1,72,2|0,0:0|0:0,0:0:0:0:
416,240,155612,2,0,P|411:213|346:175,1,72,2|0,0:0|0:0,0:0:0:0:
439,57,155784,5,8,0:0:0:0:
381,181,155955,2,0,P|356:170|334:97,1,72
268,194,156127,2,0,P|253:171|274:99,1,72,2|0,0:0|0:0,0:0:0:0:
167,144,156298,2,0,P|167:117|224:67,1,72,2|2,0:0|0:0,0:0:0:0:
39,17,156469,6,0,P|76:9|121:45,1,72,0|0,1:0|0:0,0:0:0:0:
82,185,156641,2,0,P|110:209|108:267,1,72
186,364,156812,6,0,P|177:327|212:281,1,72,2|2,0:0|0:0,0:0:0:0:
40,237,156984,2,0,P|54:202|109:185,1,72,2|2,0:0|0:0,0:0:0:0:
194,220,157155,6,0,P|237:279|345:282,1,162.00000617981,8|0,0:0|0:0,0:0:0:0:
383,238,157498,1,2,0:0:0:0:
495,377,157669,1,0,0:0:0:0:
383,238,157841,6,0,L|389:187,4,36
320,292,158098,1,0,0:0:0:0:
333,308,158184,2,0,P|352:345|347:377,1,72,0|0,0:0|2:0,0:0:0:0:
484,299,158355,2,0,P|444:311|425:337,1,72,0|0,0:0|2:0,0:0:0:0:
198,384,158527,2,0,P|274:314|294:204,1,216,0|0,0:0|2:0,0:0:0:0:
180,255,158869,6,0,P|152:273|186:258,1,108,8|0,0:0|2:0,0:0:0:0:
195,276,159212,6,0,P|198:227|152:158,1,108.000004119873,2|0,0:2|0:0,0:0:0:0:
294,206,159555,2,0,P|279:159|212:111,1,108.000004119873,2|0,0:2|0:0,0:0:0:0:
442,39,159898,2,0,B|501:50|501:50|410:52|380:130,1,216.000008239746,2|2,0:2|0:2,0:0:0:0:
434,210,160412,1,0,0:0:0:0:
369,336,160584,6,0,P|326:348|258:335,1,108.000004119873,2|0,0:2|0:0,0:0:0:0:
280,119,160927,2,0,P|373:157|531:118,1,216.000008239746,2|2,0:2|0:2,0:0:0:0:
485,143,161612,6,0,P|486:118|479:147,1,108.000004119873,2|0,0:2|0:0,0:0:0:0:
437,322,161955,2,0,B|465:264|425:223|425:223|368:195|372:128,1,216.000008239746,2|2,0:2|0:2,0:0:0:0:
398,53,162469,1,0,0:0:0:0:
112,125,162641,6,0,L|119:40,1,54.0000020599366,2|0,0:2|2:0,0:0:0:0:
253,97,162812,1,0,0:0:0:0:
254,93,162898,1,0,0:0:0:0:
255,89,162984,2,0,L|262:4,1,54.0000020599366,2|0,0:2|2:0,0:0:0:0:
398,53,163155,2,0,L|405:-32,1,54.0000020599366,0|0,0:0|2:0,0:0:0:0:
466,187,163327,6,0,B|504:243|504:243|487:95,1,216.000008239746,2|2,0:2|0:2,0:0:0:0:
319,18,163841,1,0,0:0:0:0:
402,0,164012,2,0,B|373:39|373:39|200:70,1,216.000008239746,2|2,0:2|0:2,0:0:0:0:
83,42,164527,1,2,0:2:0:0:
181,182,164698,6,0,P|170:152|122:131,1,54.0000020599366,4|0,0:2|2:0,0:0:0:0:
28,258,164869,1,0,0:0:0:0:
28,258,165041,6,0,L|16:316,1,54.0000020599366,4|0,0:2|2:0,0:0:0:0:
196,309,165212,1,0,0:0:0:0:
196,309,165384,6,0,L|208:367,1,54.0000020599366,4|0,0:2|2:0,0:0:0:0:
394,377,165555,1,0,0:0:0:0:
394,377,165727,6,0,L|324:358,1,54.0000020599366,4|0,0:2|2:0,0:0:0:0:
129,261,165898,2,0,P|152:235|197:235,1,54.0000020599366,4|0,0:2|2:0,0:0:0:0:
264,40,166069,6,0,L|254:93,1,54.0000020599366,0|0,0:0|2:0,0:0:0:0:
209,375,166241,2,0,L|222:300,1,54.0000020599366,0|0,0:0|2:0,0:0:0:0:
357,91,166412,6,0,P|348:115|305:135,1,54.0000020599366,0|0,0:0|2:0,0:0:0:0:
129,261,166584,2,0,P|155:259|177:243,1,54.0000020599366,0|0,0:0|2:0,0:0:0:0:
512,285,166755,6,0,L|451:239,1,54.0000020599366,0|0,0:0|2:0,0:0:0:0:
210,60,166927,2,0,L|253:92,1,54.0000020599366,0|0,0:0|2:0,0:0:0:0:
372,339,167098,6,0,B|381:351|381:351|422:357,1,36,2|0,0:0|2:0,0:0:0:0:
482,44,167269,2,0,B|462:48|462:48|453:60,1,36,2|0,0:0|2:0,0:0:0:0:
323,255,167441,5,2,0:0:0:0:
283,294,167527,1,0,0:0:0:0:
230,295,167612,1,0,0:0:0:0:
189,262,167698,1,0,0:0:0:0:
175,214,167784,1,0,0:0:0:0:
188,173,167869,1,0,0:0:0:0:
185,141,167955,1,2,0:0:0:0:
169,122,168041,1,0,0:0:0:0:
98,108,168127,6,0,P|95:103|98:110,1,36,2|0,0:0|0:0,0:0:0:0:
58,148,168212,1,0,0:0:0:0:
38,207,168298,1,2,0:0:0:0:
46,265,168384,1,0,0:0:0:0:
108,308,168469,6,0,P|111:313|108:306,1,36
159,284,168554,1,0,0:0:0:0:
221,285,168640,1,2,0:0:0:0:
273,312,168726,1,0,0:0:0:0:
334,358,168812,6,2,P|346:381|329:360,1,75.5999976928712,4|0,1:2|2:0,0:1:0:0:
273,312,169498,5,0,0:0:0:0:
253,294,169584,5,0,0:0:0:0:
221,285,169669,5,0,0:0:0:0:
176,285,169755,5,0,0:0:0:0:
107,312,169841,6,0,P|90:309|72:279,1,36
38,282,169927,6,0,P|30:266|43:234,1,36
20,211,170012,6,0,P|27:195|61:186,1,36
60,149,170098,6,0,P|76:145|104:167,1,36
121,157,170184,6,0,B|209:170|209:170|218:167|218:167|223:172|223:172|470:210,1,324.00001235962,4|0,0:2|2:0,0:0:0:0:
493,154,170527,2,0,P|502:130|495:73,1,54.0000020599366,8|0,0:0|2:0,0:0:0:0:
241,23,170698,6,0,B|168:36|168:36|230:46,1,108.000004119873,0|0,0:0|2:0,0:0:0:0:
462,279,170869,2,0,B|381:267|381:267|357:198|357:198|353:198|353:198|356:197|356:197|326:118|326:118|249:104,1,324.00001235962,0|0,0:0|2:0,0:0:0:0:
195,162,171212,2,0,P|204:186|197:243,1,54.0000020599366,8|0,0:0|2:0,0:0:0:0:
167,287,171384,6,0,P|124:317|72:313,1,108.000004119873,0|0,0:0|2:0,0:0:0:0:
54,64,171555,2,0,P|81:39|61:72,1,108.000004119873,0|0,0:0|2:0,0:0:0:0:
250,338,171727,5,0,0:0:0:0:
244,346,171812,1,0,0:0:0:0:
238,356,171898,2,0,P|284:374|363:321,1,108.000004119873,8|0,0:0|2:0,0:0:0:0:
396,167,172069,2,0,P|444:155|515:218,1,108.000004119873,0|0,0:0|2:0,0:0:0:0:
483,264,172241,6,0,P|434:275|363:212,1,108.000004119873,0|0,0:0|2:0,0:0:0:0:
324,40,172412,2,0,P|277:21|198:74,1,108.000004119873,4|0,0:2|2:0,0:0:0:0:
105,234,172584,6,0,B|208:215|208:215|220:221|220:221|326:202,1,216.000008239746,8|4,0:0|0:2,0:0:0:0:
396,167,172841,1,0,0:0:0:0:
409,160,172927,2,0,P|425:199|389:178,1,108.000004119873,4|0,0:2|2:0,0:0:0:0:
38,26,173269,6,0,L|49:105,1,72,8|0,0:0|2:0,0:0:0:0:
16,274,173441,1,0,0:0:0:0:
16,274,173612,6,0,P|36:245|15:172,1,72,0|0,0:0|2:0,0:0:0:0:
201,171,173784,2,0,P|201:135|144:86,1,72,0|0,0:0|2:0,0:0:0:0:
47,97,173955,6,0,P|80:145|186:111,1,108.000004119873,8|0,0:0|2:0,0:0:0:0:
144,333,174127,2,0,P|199:349|260:256,1,108.000004119873,0|0,0:0|2:0,0:0:0:0:
354,69,174298,6,0,B|367:125|316:181|309:148|252:202|270:260|270:260|317:267|317:267|319:270|319:270|322:268|322:268|374:275,1,324.00001235962,2|0,0:0|2:0,0:0:0:0:
442,306,174641,2,0,B|456:266|437:234|437:234|416:200|436:151,1,142.559999564941,10|0,0:0|2:0,0:0:0:0:
273,85,174984,2,2,B|247:70|247:70|406:-11|507:137,1,324.00001235962,2|0,0:0|2:0,0:1:0:0:
499,207,175327,6,0,L|492:243,1,36,8|0,0:0|2:0,0:0:0:0:
442,306,175498,2,0,L|453:358,1,36,0|0,0:0|2:0,0:0:0:0:
430,122,175669,6,0,P|369:122|311:216,1,144,2|2,0:2|0:0,0:0:0:0:
245,246,175927,1,0,0:0:0:0:
262,258,176012,2,0,P|270:191|232:73,1,144,8|2,0:0|0:2,0:0:0:0:
175,59,176355,1,2,0:0:0:0:
15,204,176527,6,0,L|25:238,1,36,4|0,0:2|2:0,0:0:0:0:
78,319,176698,1,8,0:0:0:0:
78,319,176869,2,0,L|88:284,1,36,4|0,0:2|2:0,0:0:0:0:
255,117,177041,5,2,0:2:0:0:
6,25,177212,2,0,P|15:58|84:90,1,72,2|0,0:0|2:0,0:0:0:0:
96,211,177384,2,0,P|108:179|71:112,1,72,10|0,0:0|2:0,0:0:0:0:
281,35,177555,5,2,0:2:0:0:
314,244,177727,2,0,P|244:242|119:334,1,216,2|0,0:0|2:0,0:0:0:0:
55,384,178069,6,0,P|47:353|58:290,1,54.0000020599366,8|0,0:0|2:0,0:0:0:0:
88,242,178241,2,0,P|80:211|91:148,1,54.0000020599366,4|0,0:2|2:0,0:0:0:0:
9,4,178412,6,0,B|-28:143|-28:143|68:117,1,216,4|0,0:2|2:0,0:0:0:0:
118,92,178755,2,0,P|134:81|109:86,1,72,8|0,0:2|2:0,0:0:0:0:
46,331,178927,5,2,0:2:0:0:
339,58,179098,1,2,0:2:0:0:
119,239,179269,5,2,0:2:0:0:
191,260,179355,1,2,0:2:0:0:
263,281,179441,1,10,0:2:0:0:
251,38,179612,5,2,0:2:0:0:
331,369,179784,1,2,0:2:0:0:
134,224,179955,5,2,0:2:0:0:
214,248,180041,1,2,0:2:0:0:
293,271,180127,1,10,0:2:0:0:
417,28,180298,1,2,0:2:0:0:
454,263,180469,5,2,0:2:0:0:
413,186,180555,1,2,0:2:0:0:
500,190,180641,2,0,L|509:162,4,18,0|0|0|0|8,0:0|0:0|0:0|0:0|0:0,0:0:0:0:
255,31,181155,6,0,B|310:-5|387:26|402:93|402:93|329:115|325:197,1,324.00001235962,4|0,0:2|2:0,0:0:0:0:
306,267,181498,2,0,L|382:279,1,54.0000020599366,8|0,0:0|2:0,0:0:0:0:
491,349,181669,6,0,P|513:374|487:350,1,108.000004119873,0|0,0:0|2:0,0:0:0:0:
422,79,181841,2,0,B|367:78|336:123|336:123|249:111|249:111|245:106|245:106|237:109|237:109|119:92,1,324.00001235962,0|0,0:0|2:0,0:0:0:0:
40,82,182184,2,0,L|55:156,1,54.0000020599366,8|0,0:0|2:0,0:0:0:0:
399,176,182355,2,0,P|364:202|270:155,1,108.000004119873,0|0,0:0|2:0,0:0:0:0:
212,37,182527,2,0,P|182:21|210:44,1,108.000004119873,0|0,0:0|2:0,0:0:0:0:
137,353,182698,5,0,0:0:0:0:
137,353,182784,1,0,0:0:0:0:
136,352,182869,2,0,P|122:302|145:254,1,108.000004119873,8|0,0:0|2:0,0:0:0:0:
231,262,183041,2,0,P|245:312|222:360,1,108.000004119873,0|0,0:0|2:0,0:0:0:0:
58,187,183212,6,2,B|104:257|186:268|285:205|266:94,1,324.00001235962,2|0,0:0|2:0,0:1:0:0:
278,14,183555,6,0,B|329:31|329:31|342:83,1,108.000004119873,8|0,0:0|2:0,0:0:0:0:
421,361,183727,2,0,B|403:383|403:383|416:286,1,108.000004119873,2|0,0:1|2:0,0:0:0:0:
467,137,183898,6,0,B|384:120|407:179|303:160,1,162.00000617981,0|0,0:0|2:0,0:0:0:0:
266,94,184241,2,0,P|252:71|261:103,1,108.000004119873,8|0,0:0|2:0,0:0:0:0:
158,333,184412,6,0,P|170:359|167:406,1,54.0000020599366,8|0,0:0|2:0,0:0:0:0:
163,214,184584,2,0,P|185:232|203:275,1,54.0000020599366,0|0,0:0|2:0,0:0:0:0:
115,104,184755,2,0,P|142:110|177:141,1,54.0000020599366,8|0,0:0|2:0,0:0:0:0:
23,26,184927,2,0,P|50:19|95:32,1,54.0000020599366,8|0,0:0|2:0,0:0:0:0:
361,184,185098,6,0,B|367:154|367:154|373:153|373:153|369:149|369:149|383:79,1,108.000004119873,8|0,0:0|2:0,0:0:0:0:
468,38,185269,6,0,B|530:249|530:249|427:228,1,324.00001235962,2|0,0:0|2:0,0:0:0:0:
299,122,185612,2,0,B|292:151|292:151|420:131|420:131|408:160,1,187.920001577087,10|0,0:0|2:0,0:0:0:0:
326,354,185955,2,2,B|277:277|343:195|343:195|376:243|441:225,1,270,2|0,0:0|2:0,0:1:0:0:
509,283,186298,6,0,L|454:295,1,36,8|0,0:0|2:0,0:0:0:0:
409,157,186469,2,0,L|421:102,1,36,0|0,0:0|2:0,0:0:0:0:
464,53,186641,5,4,0:2:0:0:
403,338,186812,1,2,2:0:0:0:
288,62,186984,1,12,0:2:0:0:
300,327,187155,1,2,2:0:0:0:
129,88,187327,1,4,0:2:0:0:
198,345,187498,6,0,P|177:323|131:317,1,72,2|2,2:1|2:0,0:0:0:0:
3,269,187669,1,8,0:0:0:0:
14,255,187755,2,0,P|46:240|80:246,1,72,2|2,2:1|2:0,0:0:0:0:
483,36,188012,5,4,0:2:0:0:
415,352,188184,1,2,2:0:0:0:
287,46,188355,1,12,0:2:0:0:
301,340,188527,1,2,2:0:0:0:
111,75,188698,1,4,0:2:0:0:
187,360,188869,5,0,0:0:0:0:
187,360,188955,1,0,0:0:0:0:
187,360,189041,2,0,P|153:353|120:292,1,72,8|0,0:0|2:0,0:0:0:0:
0,16,189212,2,0,P|23:42|14:111,1,72,0|0,0:0|2:0,0:0:0:0:
0,347,189384,1,6,0:0:0:0:
325,24,189555,5,0,0:0:0:0:
325,24,189641,1,0,0:0:0:0:
325,24,189727,2,0,P|359:31|392:92,1,72,8|0,0:0|2:0,0:0:0:0:
512,368,189898,2,0,P|489:342|498:273,1,72,2|0,0:0|2:0,0:0:0:0:
512,37,190070,1,2,0:0:0:0:
28,239,190241,5,0,0:0:0:0:
484,145,190412,1,10,0:0:0:0:
23,125,190584,1,2,0:0:0:0:
489,259,190755,5,0,0:0:0:0:
443,323,190841,1,0,0:0:0:0:
369,352,190927,1,0,0:0:0:0:
290,351,191012,1,0,0:0:0:0:
239,281,191098,5,0,0:0:0:0:
226,221,191184,1,0,0:0:0:0:
249,165,191269,1,0,0:0:0:0:
302,134,191355,1,0,0:0:0:0:
376,115,191441,6,0,L|386:63,1,36
410,118,191527,2,0,L|401:66,1,36
444,109,191612,2,0,L|418:63,1,36
473,88,191698,2,0,L|433:53,1,36,2|0,0:1|0:0,0:0:0:0:
484,95,191784,6,0,B|487:117|487:117|485:122|485:122|488:126|488:126|499:178,1,72,8|2,0:0|2:1,0:0:0:0:
469,266,192127,6,2,B|471:299|449:325|449:325|520:294|521:183|427:136|339:186|354:273|354:273|374:278|395:271,1,432,2|0,0:0|2:0,0:1:0:0:
395,271,192469,2,0,P|325:211|229:223,1,162.00000617981,8|0,0:1|2:0,0:0:0:0:
199,264,192812,6,0,P|221:207|183:88,1,144
158,64,193069,1,0,0:0:0:0:
158,60,193155,1,8,0:1:0:0:
460,57,193327,6,0,B|429:66|408:56|408:56|396:81|366:87,1,108.000004119873,2|0,0:0|2:0,0:0:0:0:
209,127,193498,2,2,P|288:135|353:182,1,162.00000617981,2|0,0:0|0:0,0:1:0:0:
407,260,193841,2,0,B|337:289|319:352|319:352|323:285|271:226,1,270,10|0,0:1|0:0,0:1:0:0:
271,226,194184,2,0,P|241:233|207:220,1,54.0000020599366,2|0,0:0|2:0,0:0:0:0:
359,162,194355,5,0,0:0:0:0:
356,172,194441,1,0,0:0:0:0:
353,182,194527,2,0,B|385:178|385:178|387:174|387:174|392:177|392:177|485:168,1,108.000004119873,8|0,0:0|0:0,0:0:0:0:
484,361,194869,6,0,B|428:320|428:320|342:348,1,144,2|0,0:0|0:0,0:0:0:0:
320,359,195127,1,0,0:0:0:0:
325,338,195212,1,0,0:0:0:0:
94,344,195384,6,0,P|191:348|208:210,1,216,2|2,0:0|0:0,0:0:0:0:
258,275,195727,2,0,L|269:149,1,108.000004119873,2|0,0:0|2:0,0:0:0:0:
100,239,195898,5,2,0:2:0:0:
122,225,195984,1,2,0:2:0:0:
87,208,196069,1,2,0:2:0:0:
121,190,196155,1,2,0:2:0:0:
121,190,196241,6,0,P|113:136|137:60,1,108.000004119873,2|0,0:0|0:0,0:0:0:0:
283,93,196498,1,2,0:0:0:0:
283,93,196584,2,0,P|291:147|267:223,1,108.000004119873,2|0,0:0|0:0,0:0:0:0:
204,199,196841,6,0,L|194:14,1,180,2|0,0:0|0:0,0:0:0:0:
292,5,197098,2,0,B|249:32|249:32|168:12,1,108.000004119873,2|0,0:0|2:0,0:0:0:0:
375,98,197269,5,2,0:2:0:0:
399,76,197355,1,2,0:2:0:0:
436,71,197441,1,2,0:2:0:0:
473,92,197527,1,2,0:2:0:0:
473,92,197612,6,0,P|486:162|452:277,1,144,2|0,0:0|0:0,0:0:0:0:
303,140,197869,2,0,P|290:210|324:325,1,144,2|0,0:0|0:0,0:0:0:0:
381,306,198127,2,0,L|388:234,1,72,2|0,0:0|0:0,0:0:0:0:
251,376,198298,6,0,P|198:294|82:306,1,180,2|0,0:0|0:0,0:0:0:0:
151,170,198555,2,0,B|69:208|69:208|-7:146,1,180,2|0,0:0|0:0,0:0:0:0:
99,17,198812,2,0,L|94:107,1,90,2|0,0:0|0:0,0:0:0:0:
144,325,198984,6,0,P|144:281|227:261,1,108.000004119873,2|0,0:0|2:0,0:0:0:0:
278,101,199155,1,0,0:0:0:0:
278,101,199241,2,0,B|336:67|404:114|400:210|345:232,1,216.000008239746,2|0,0:0|0:0,0:0:0:0:
300,289,199498,6,0,B|244:276|253:314|194:298,1,108.000004119873,2|0,0:0|0:0,0:0:0:0:
0,238,199841,6,0,P|46:260|23:343,1,108.000004119873,0|0,0:1|2:1,0:0:0:0:
215,123,200012,2,0,B|191:160|191:160|212:241,1,108.000004119873,0|0,0:0|2:0,0:0:0:0:
0,58,200184,2,0,B|38:80|38:80|56:161,1,108.000004119873,0|0,0:0|2:0,0:0:0:0:
285,166,200355,6,0,P|253:96|115:96,1,216,2|0,0:0|0:0,0:0:0:0:
137,110,200698,1,0,0:0:0:0:
207,221,200869,1,0,0:0:0:0:
207,221,200955,2,0,B|270:256|270:256|355:229,1,144,2|0,0:0|0:0,0:0:0:0:
424,165,201212,6,0,L|407:277,1,108.000004119873,2|0,0:0|2:0,0:0:0:0:
449,95,201384,5,2,0:2:0:0:
447,67,201469,1,2,0:2:0:0:
468,60,201555,1,2,0:2:0:0:
457,44,201641,1,2,0:2:0:0:
468,36,201727,6,0,B|378:23|423:83|310:65,1,144,2|0,0:0|0:0,0:0:0:0:
248,45,201984,1,2,0:0:0:0:
255,29,202069,2,0,P|179:54|179:139,1,144,2|0,0:0|0:0,0:0:0:0:
342,154,202327,6,0,P|398:183|395:327,1,180,2|0,0:0|0:0,0:0:0:0:
344,384,202584,2,0,B|319:337|319:337|341:287,1,108.000004119873,2|0,0:0|2:0,0:0:0:0:
223,236,202755,5,2,0:2:0:0:
234,220,202841,1,2,0:2:0:0:
240,243,202927,1,2,0:2:0:0:
250,226,203012,1,2,0:2:0:0:
237,230,203098,6,4,L|52:250,1,144,2|4,0:0|0:2,0:2:0:0:
7,107,203355,2,0,B|37:169|37:169|12:240,1,144,2|0,0:0|0:0,0:0:0:0:
180,100,203612,2,0,L|85:84,1,72,2|0,0:0|0:0,0:0:0:0:
96,311,203784,6,0,P|133:253|239:230,1,180,2|0,0:0|0:0,0:0:0:0:
374,96,204041,2,0,B|396:197|341:162|377:296,1,180,2|0,0:0|0:0,0:0:0:0:
291,372,204298,2,0,P|300:340|281:263,1,90,2|0,0:0|0:0,0:0:0:0:
484,200,204469,6,0,P|513:282|395:331,1,216.000008239746,2|2,0:0|2:0,0:0:0:0:
371,273,204727,1,2,2:2:0:0:
377,253,204812,1,2,2:2:0:0:
367,199,204898,1,2,2:2:0:0:
386,134,204984,1,2,2:2:0:0:
496,81,205155,6,0,B|324:46|405:162|174:127,1,324.00001235962,8|2,0:0|2:0,0:0:0:0:
145,57,205498,1,2,2:0:0:0:
81,138,205669,1,2,2:0:0:0:
19,91,205841,6,0,P|113:164|95:291,1,216.000008239746,2|0,0:0|0:0,0:0:0:0:
75,313,206184,1,0,0:0:0:0:
233,384,206355,1,0,0:0:0:0:
233,384,206441,2,0,P|216:326|226:210,1,144,2|0,0:0|0:0,0:0:0:0:
364,160,206698,6,0,B|318:188|318:188|264:178,1,108.000004119873,2|0,0:0|2:0,0:0:0:0:
98,254,206869,5,2,0:2:0:0:
74,268,206955,1,2,0:2:0:0:
37,262,207041,1,2,0:2:0:0:
6,234,207127,1,2,0:2:0:0:
0,178,207212,6,0,P|52:153|164:214,1,144,2|0,0:0|0:0,0:0:0:0:
172,233,207469,1,2,0:0:0:0:
158,303,207555,1,2,0:0:0:0:
275,378,207727,5,0,0:0:0:0:
279,375,207812,2,0,L|260:133,1,180,2|0,0:0|0:0,0:0:0:0:
332,163,208069,2,0,B|346:116|346:116|313:38,1,108.000004119873,2|0,0:0|0:0,0:0:0:0:
442,50,208241,5,2,0:2:0:0:
415,56,208327,1,2,0:2:0:0:
442,62,208412,1,2,0:2:0:0:
415,68,208498,1,2,0:2:0:0:
431,58,208584,6,0,L|415:270,1,144,2|0,0:0|0:0,0:0:0:0:
475,298,208841,2,0,P|426:348|319:317,1,144,2|0,0:0|0:0,0:0:0:0:
264,195,209098,2,0,L|282:309,1,72,2|0,0:0|0:0,0:0:0:0:
105,365,209269,6,0,P|67:300|149:174,1,180,2|0,0:0|0:0,0:0:0:0:
168,306,209527,2,0,P|243:305|311:439,1,180,2|0,0:0|0:0,0:0:0:0:
370,198,209784,2,0,P|358:251|401:335,1,90,2|0,0:0|0:0,0:0:0:0:
443,231,209955,6,0,P|436:129|286:109,1,216.000008239746,2|0,0:0|0:0,0:0:0:0:
69,174,210212,2,0,P|76:72|226:52,1,216.000008239746,2|0,0:0|0:0,0:0:0:0:
244,17,210469,6,0,B|246:66|246:66|242:74|242:74|248:147,1,108.000004119873,2|0,0:0|0:0,0:0:0:0:
460,357,210812,6,0,B|480:307|480:307|473:219,1,108.000004119873,0|0,0:0|2:0,0:0:0:0:
295,330,210984,2,0,B|290:276|290:276|310:226,1,108.000004119873,0|0,0:0|2:0,0:0:0:0:
371,384,211155,2,0,L|385:277,1,108.000004119873,0|0,0:0|2:0,0:0:0:0:
203,362,211327,6,0,P|198:297|83:260,1,144,2|0,0:0|0:0,0:0:0:0:
80,299,211584,1,0,0:0:0:0:
84,314,211669,1,0,0:0:0:0:
312,168,211841,5,0,0:0:0:0:
309,150,211927,2,0,B|327:263|273:214|294:335,1,180,2|0,0:0|0:0,0:0:0:0:
371,384,212184,2,0,P|420:359|411:256,1,108.000004119873,2|0,0:0|2:0,0:0:0:0:
506,95,212355,5,2,0:2:0:0:
463,81,212441,1,2,0:2:0:0:
425,103,212527,1,2,0:2:0:0:
414,146,212612,1,2,0:2:0:0:
451,213,212698,6,0,P|404:231|296:203,1,144,2|0,0:0|0:0,0:0:0:0:
274,196,212955,1,2,0:0:0:0:
261,220,213041,2,0,B|227:212|227:212|174:242,1,72,2|0,0:0|0:0,0:0:0:0:
306,294,213212,5,0,0:0:0:0:
306,294,213298,2,0,P|257:265|127:310,1,180,2|0,0:0|0:0,0:0:0:0:
170,360,213555,2,0,B|125:388|125:388|37:364,1,108.000004119873,2|0,0:0|2:0,0:0:0:0:
26,312,213727,5,2,0:2:0:0:
62,294,213812,1,2,0:2:0:0:
28,286,213898,1,2,0:2:0:0:
55,271,213984,1,2,0:2:0:0:
55,271,214069,5,2,0:0:0:0:
36,238,214155,1,0,0:0:0:0:
36,191,214241,1,0,0:0:0:0:
54,180,214327,5,2,0:0:0:0:
62,129,214412,1,0,0:0:0:0:
29,82,214498,1,0,0:0:0:0:
65,115,214584,5,2,0:0:0:0:
104,126,214669,1,0,0:0:0:0:
162,127,214755,6,0,P|173:106|171:66,6,54.0000020599366,2|0|0|0|0|0|0,0:0|0:0|0:0|0:0|0:0|0:0|0:0,0:0:0:0:
238,27,215098,2,0,P|251:46|253:86,6,54.0000020599366,2|0|0|0|0|0|0,0:0|0:0|0:0|0:0|0:0|0:0|0:0,0:0:0:0:
371,164,215441,5,4,0:2:0:0:
405,89,215698,1,4,0:2:0:0:
462,161,215955,1,4,0:2:0:0:
493,93,216212,1,2,0:2:0:0:
487,71,216298,6,0,P|489:44|515:0,1,54.0000020599366,2|2,0:2|0:2,0:0:0:0:
468,28,216469,2,2,B|451:149|524:107|488:258,1,216.000008239746,4|0,0:2|2:0,0:1:0:0:
504,368,216812,6,0,L|324:353,1,144
287,342,217069,1,0,0:0:0:0:
272,348,217155,2,0,B|264:316|264:316|278:251,1,72,8|0,0:2|2:0,0:0:0:0:
282,89,217327,6,2,L|275:236,1,108.000004119873,0|0,0:0|0:0,0:1:0:0:
81,372,217498,5,0,0:0:0:0:
110,296,217669,1,0,0:0:0:0:
49,217,217841,1,8,0:2:0:0:
103,69,218012,2,0,L|149:48,1,36
99,51,218098,2,0,L|145:30,1,36
82,27,218184,6,0,P|73:92|143:195,1,144
179,173,218441,1,0,0:0:0:0:
179,173,218527,2,0,L|274:176,1,72,8|0,0:2|2:0,0:0:0:0:
324,326,218698,6,2,B|336:279|336:279|313:211,1,108.000004119873,0|0,0:0|0:0,0:1:0:0:
491,280,218869,6,0,L|408:273,1,72,0|0,0:0|2:0,0:0:0:0:
303,113,219041,1,0,0:0:0:0:
332,128,219127,1,0,0:0:0:0:
364,122,219212,2,0,L|383:45,1,72,8|0,0:2|2:0,0:0:0:0:
177,23,219384,6,0,B|165:70|165:70|188:138,1,108.000004119873,2|2,0:2|0:2,0:1:0:0:
270,196,219555,6,0,B|256:105|291:145|274:46,1,144
358,204,219812,1,0,0:0:0:0:
358,204,219898,2,0,P|374:240|361:299,1,72,8|0,0:2|2:0,0:0:0:0:
168,310,220069,6,2,B|185:264|185:264|175:158,1,108.000004119873,0|0,0:0|0:0,0:1:0:0:
252,349,220241,6,0,L|340:338,1,72,0|0,0:0|2:0,0:0:0:0:
101,234,220412,2,0,L|29:225,1,72,0|0,0:0|2:0,0:0:0:0:
198,65,220584,2,0,P|138:135|-6:113,1,216,8|0,0:2|2:0,0:0:0:0:
35,148,220927,6,0,L|15:-6,1,144,2|2,0:2|0:2,0:0:0:0:
99,8,221184,1,2,0:2:0:0:
99,8,221269,2,0,P|113:47|86:120,1,72,8|0,0:2|2:0,0:0:0:0:
280,253,221441,6,2,L|303:100,1,108.000004119873,2|0,0:2|0:0,0:1:0:0:
223,66,221612,2,0,P|209:105|236:178,1,72,0|0,0:0|2:0,0:0:0:0:
48,313,221784,6,0,P|34:274|61:201,1,72,2|0,0:2|2:0,0:0:0:0:
55,305,221955,2,2,B|173:281|135:375|265:339,1,216,10|0,0:2|2:0,0:1:0:0:
341,330,222298,6,0,P|349:300|328:226,1,72,2|0,0:2|2:0,0:0:0:0:
491,199,222469,1,2,0:2:0:0:
477,173,222555,1,2,0:2:0:0:
449,163,222641,2,0,L|351:190,1,72,8|0,0:2|2:0,0:0:0:0:
258,340,222812,6,2,B|232:294|232:294|242:240,1,108.000004119873,2|0,0:2|0:0,0:1:0:0:
115,162,222984,6,0,L|210:173,1,72,0|0,0:0|2:0,0:0:0:0:
389,273,223155,2,0,L|294:284,1,72,2|0,0:2|2:0,0:0:0:0:
450,88,223327,6,2,P|377:84|308:212,1,216,10|0,0:2|2:0,0:0:0:0:
324,207,223669,2,0,L|311:49,1,144,0|2,0:0|0:2,0:0:0:0:
246,24,223927,1,2,0:2:0:0:
246,24,224012,2,0,B|212:13|212:13|152:21,1,72,8|0,0:2|2:0,0:0:0:0:
171,277,224184,6,2,B|223:293|223:293|313:248,1,108.000004119873,2|0,0:2|0:0,0:1:0:0:
407,154,224355,5,0,0:0:0:0:
489,221,224527,1,2,0:2:0:0:
419,277,224698,1,10,0:2:0:0:
473,348,224869,2,0,L|484:300,2,36
490,365,225041,6,0,L|388:352,1,72,0|0,0:0|2:0,0:0:0:0:
300,268,225212,6,0,B|287:320|287:320|315:403,1,108.000004119873,2|2,0:2|2:2,0:0:0:0:
136,329,225384,2,0,L|245:313,1,72,8|0,0:2|2:0,0:0:0:0:
85,149,225555,6,2,B|98:201|98:201|70:284,1,108.000004119873,2|0,0:2|0:0,0:1:0:0:
29,374,225727,6,0,L|13:295,1,72,0|0,0:0|2:0,0:0:0:0:
24,47,225898,2,0,L|8:126,1,72,2|0,0:2|2:0,0:0:0:0:
136,329,226069,2,0,B|273:344|209:261|334:272,1,216,10|0,0:2|2:0,0:0:0:0:
381,339,226412,5,0,0:0:0:0:
512,241,226669,1,0,0:0:0:0:
414,110,226927,5,0,0:0:0:0:
481,138,227098,1,4,0:2:0:0:
456,67,227269,1,2,0:0:0:0:
501,73,227441,2,0,P|456:112|289:31,1,216,2|0,0:0|2:0,0:0:0:0:
303,56,227784,6,0,B|329:144|281:112|307:196,1,144,2|0,0:2|0:0,0:0:0:0:
430,287,228127,2,0,P|383:273|280:332,1,144,2|2,0:2|0:2,0:0:0:0:
20,114,228469,5,0,0:0:0:0:
73,60,228641,1,2,0:2:0:0:
73,60,228812,2,0,P|156:55|194:179,1,216,2|0,0:2|2:0,0:0:0:0:
156,234,229155,6,0,B|100:198|100:198|9:213,1,144,2|0,0:2|0:0,0:0:0:0:
288,168,229498,1,2,0:2:0:0:
288,168,229669,2,0,P|274:243|325:309,1,144,2|0,0:2|0:0,0:0:0:0:
363,237,230012,5,2,0:2:0:0:
424,286,230184,2,0,P|445:228|353:112,1,216,2|0,0:2|2:0,0:0:0:0:
354,87,230527,6,0,P|290:124|205:76,1,144,2|0,0:2|0:0,0:0:0:0:
215,27,230869,2,0,P|279:-10|364:38,1,144,2|2,0:2|0:2,0:0:0:0:
477,265,231212,5,0,0:0:0:0:
501,196,231384,1,2,0:2:0:0:
501,196,231555,2,0,B|398:169|421:261|297:227,1,216,2|0,0:2|2:0,0:0:0:0:
274,240,231898,6,0,P|322:199|307:110,1,144,2|0,0:0|0:0,0:0:0:0:
235,48,232155,2,0,B|230:87|230:87|256:143,1,72,2|0,2:1|0:0,0:0:0:0:
391,97,232412,2,0,B|396:58|396:58|370:2,1,72,2|0,0:1|2:0,0:0:0:0:
382,28,232584,1,0,0:0:0:0:
470,157,232755,5,2,0:0:0:0:
481,86,232927,2,0,P|421:167|505:284,1,216,2|0,0:0|2:0,0:0:0:0:
484,268,233269,6,0,P|419:233|317:304,1,144,2|0,0:2|0:0,0:0:0:0:
0,356,233612,2,0,P|65:321|167:392,1,144,2|2,0:2|0:2,0:0:0:0:
245,192,233955,6,0,P|238:235|243:271,1,72,0|0,0:0|2:0,0:0:0:0:
267,343,234127,1,2,0:2:0:0:
250,365,234298,2,0,B|279:218|207:305|241:155,1,216,2|0,0:2|2:0,0:0:0:0:
302,105,234641,6,0,P|360:133|373:254,1,144,2|0,0:2|0:0,0:0:0:0:
484,0,234984,1,2,0:2:0:0:
484,0,235155,2,0,P|420:36|309:10,1,144,2|0,0:2|0:0,0:0:0:0:
278,15,235498,5,2,0:2:0:0:
224,68,235669,2,0,P|181:17|26:35,1,216,2|0,0:2|2:0,0:0:0:0:
20,91,236012,5,0,0:0:0:0:
153,168,236184,1,2,0:2:0:0:
329,86,236355,1,0,0:0:0:0:
449,216,236527,1,2,0:2:0:0:
481,65,236698,5,0,0:0:0:0:
381,145,236869,1,2,0:2:0:0:
449,216,237041,1,0,0:0:0:0:
413,292,237212,1,2,0:2:0:0:
440,333,237384,6,0,P|373:310|303:321,1,144,2|0,0:0|0:0,0:0:0:0:
14,358,237641,2,0,P|81:334|151:345,1,144,2|0,0:0|0:0,0:0:0:0:
235,364,237898,6,0,B|208:289|261:307|235:224,1,144,2|0,0:0|0:0,0:0:0:0:
194,161,238155,1,2,0:0:0:0:
229,146,238241,1,0,0:0:0:0:
267,151,238327,1,0,0:0:0:0:
328,207,238412,6,0,P|279:106|365:18,1,216,10|0,0:0|2:0,0:0:0:0:
332,29,238755,1,4,0:0:0:0:
