osu file format v14

[General]
AudioFilename: audio.mp3
AudioLeadIn: 0
PreviewTime: 44613
Countdown: 0
SampleSet: Soft
StackLeniency: 0.9
Mode: 0
LetterboxInBreaks: 0
WidescreenStoryboard: 1

[Editor]
Bookmarks: 33727,55713,76884,77098,77441,77698,77870,78041,78213,78384,78555,78641,78727,78898,78984,79070,79241,79327,79413,79584,79755,79927,80013,80184,80355,80527,80698,80870,81041,81127,81213,81384,81470,81641,81727,81813,81984,82155,82327,100241,122227,122441,122612,122783,122955,123126,123298,123469,123641,123812,123983,124155,124326,124583,124755,124926,125098,125269,125441,125612,125783,125955,126126,126298,126469,126641,126812,126983,127155,127326,127669,145498,170227,192127,216984
DistanceSpacing: 1.4
BeatDivisor: 4
GridSize: 16
TimelineZoom: 2.500006

[Metadata]
Title:Aa Kenran no Yume ga Gotoku (Epsilon Remix)
TitleUnicode:嗚呼 絢爛の泡沫が如く (Epsilon Remix)
Artist:Uinyasu, Occhoko Bunny
ArtistUnicode:ういにゃす・おっちょこバニー
Creator:GIDZ
Version:Naosse's Hard
Source:千の刃濤、桃花染の皇姫
Tags:Dirty Farmer Regou hellgou Flask little CloudSplash16 Matha -_Matha_- Petal xlolicore xLolicore- Elsa Valentine My Angel Watame Naotoshi Lasse Flask Dailycare Morinaga Sing Nao Tomori Amamiya Yuko Skystar opening eroge visual novel sen no hatou tsukisome no kouki senmomo august soft OP Japanese Gal game electronic jpop
BeatmapID:1599813
BeatmapSetID:749096

[Difficulty]
HPDrainRate:5
CircleSize:3.5
OverallDifficulty:6
ApproachRate:7.4
SliderMultiplier:1.4
SliderTickRate:1

[Events]
//Background and Video events
0,0,"bg_main.jpg",0,0
//Break Periods
2,76927,81574
2,122384,126769
//Storyboard Layer 0 (Background)
//Storyboard Layer 1 (Fail)
//Storyboard Layer 2 (Pass)
//Storyboard Layer 3 (Foreground)
//Storyboard Layer 4 (Overlay)
//Storyboard Sound Samples

[TimingPoints]
813,342.857142857143,4,2,1,80,1,0
813,-100,4,2,1,80,0,0
11784,-100,4,2,1,90,0,0
21384,-100,4,2,1,70,0,0
22413,-100,4,2,1,90,0,0
22670,-100,4,2,1,5,0,0
22755,-100,4,2,1,80,0,0
27555,-100,4,2,1,60,0,0
27813,-100,4,2,1,70,0,0
28241,-100,4,2,1,80,0,0
33727,-100,4,2,1,90,0,0
38013,-100,4,2,1,5,0,0
38098,-100,4,2,1,90,0,0
38270,-100,4,2,1,5,0,0
38355,-100,4,2,1,90,0,0
38527,-100,4,2,1,5,0,0
38613,-100,4,2,1,90,0,0
38784,-100,4,2,1,5,0,0
38870,-100,4,2,1,90,0,0
39127,-100,4,2,1,5,0,0
39213,-100,4,2,1,80,0,0
43413,-100,4,2,1,5,0,0
43498,-100,4,2,1,80,0,0
43584,-100,4,2,1,5,0,0
43670,-100,4,2,1,80,0,0
43755,-100,4,2,1,5,0,0
43841,-100,4,2,1,80,0,0
43927,-100,4,2,1,5,0,0
44013,-100,4,2,1,80,0,0
44698,-90.9090909090909,4,2,1,100,0,1
54984,-90.9090909090909,4,2,1,80,0,1
55327,-90.9090909090909,4,2,1,90,0,1
55584,-90.9090909090909,4,2,1,5,0,1
55670,-90.9090909090909,4,2,1,100,0,1
65955,-90.9090909090909,4,2,1,80,0,1
66298,-90.9090909090909,4,2,1,90,0,1
66641,-100,4,2,1,90,0,0
75213,-100,4,2,1,80,0,0
75555,-100,4,2,1,70,0,0
76155,-100,4,2,1,5,0,0
76241,-100,4,2,1,80,0,0
76755,-100,4,2,1,40,0,0
76927,342.857142857143,4,2,1,60,1,0
100241,-90.9090909090909,4,2,1,100,0,1
110869,-90.9090909090909,4,2,1,90,0,1
111212,-90.9090909090909,4,2,1,100,0,1
121498,-90.9090909090909,4,2,1,70,0,1
122012,-90.9090909090909,4,2,1,5,0,1
122184,-100,4,2,1,60,0,0
123555,-100,4,2,1,40,0,0
123727,-100,4,2,1,60,0,0
127669,-100,4,2,1,80,0,0
132469,-100,4,2,1,60,0,0
132898,-100,4,2,1,5,0,0
132984,-100,4,2,1,80,0,0
133069,-100,4,2,1,5,0,0
133155,-100,4,2,1,70,0,0
144212,-100,4,2,1,50,0,0
145498,-100,4,2,1,60,0,0
157841,-100,4,2,1,70,0,0
158527,-100,4,2,1,60,0,0
158869,-100,4,2,1,80,0,0
168812,-100,4,2,1,70,0,0
169498,-100,4,2,1,60,0,0
169841,-100,4,2,1,90,0,0
170184,-90.9090909090909,4,2,1,100,0,1
180469,-90.9090909090909,4,2,1,80,0,1
180812,-90.9090909090909,4,2,1,70,0,1
181069,-90.9090909090909,4,2,1,5,0,1
181155,-90.9090909090909,4,2,1,100,0,1
191441,-90.9090909090909,4,2,1,80,0,1
191784,-90.9090909090909,4,2,1,90,0,1
192127,-100,4,2,1,80,0,0
194869,-90.9090909090909,4,2,1,90,0,1
215441,-90.9090909090909,4,2,1,80,0,1
215612,-90.9090909090909,4,2,1,5,0,1
215698,-90.9090909090909,4,2,1,80,0,1
215869,-90.9090909090909,4,2,1,5,0,1
215955,-90.9090909090909,4,2,1,80,0,1
216127,-90.9090909090909,4,2,1,5,0,1
216212,-90.9090909090909,4,2,1,80,0,1
216469,-90.9090909090909,4,2,1,60,0,1
216812,-100,4,2,1,90,0,0
227784,-100,4,2,1,80,0,0

[Colours]
Combo1 : 252,242,131
Combo2 : 255,89,89
Combo3 : 252,120,213
Combo4 : 252,132,97

[HitObjects]
136,161,812,6,0,B|173:127|218:160|194:250,1,140,0|0,1:2|1:2,0:0:0:0:
115,62,1498,2,0,P|180:54|252:87,1,140,0|0,1:0|1:2,0:0:0:0:
402,185,2184,2,0,P|432:166|363:117,1,140,0|0,1:0|1:0,0:0:0:0:
328,276,2870,2,0,L|345:364,2,70,0|0|0,1:2|0:0|1:0,0:0:0:0:
237,225,3384,1,0,0:0:0:0:
237,225,3470,1,0,0:0:0:0:
237,225,3555,6,0,B|180:266|152:249|105:202,1,140,0|0,1:0|1:0,0:0:0:0:
286,127,4241,2,0,B|325:164|371:181|417:133,1,140,0|0,1:2|1:0,0:0:0:0:
406,51,4755,2,0,L|243:31,1,140,0|0,0:0|0:0,0:0:0:0:
195,92,5270,2,0,L|110:101,1,70,0|0,1:0|0:0,0:0:0:0:
29,73,5613,6,0,B|74:32|74:32|78:193,1,210,0|0,1:2|0:0,0:0:0:0:
71,215,6213,1,0,0:0:0:0:
71,215,6298,6,0,B|128:194|147:246|225:219,1,140,0|0,1:2|1:2,0:0:0:0:
306,157,6813,2,0,P|258:119|171:146,1,140,0|0,0:0|0:0,0:0:0:0:
224,224,7327,1,0,1:2:0:0:
224,224,7498,1,0,0:0:0:0:
151,287,7670,6,0,B|83:283|66:272|48:196,2,140,0|0|0,1:0|1:0|1:2,0:0:0:0:
358,233,8698,2,0,B|369:271|380:299|381:323,1,70,0|0,1:0|0:0,0:0:0:0:
375,334,8955,1,0,0:0:0:0:
375,334,9041,6,0,B|296:306|290:373|241:338,1,140,0|0,1:0|1:0,0:0:0:0:
116,223,9727,2,0,B|162:146|162:146|193:189,1,140,0|0,1:2|1:0,0:0:0:0:
268,115,10241,1,0,0:0:0:0:
268,115,10327,1,0,0:0:0:0:
268,115,10413,6,0,P|338:128|347:128,2,46.6666666666667,2|2|2,1:3|0:3|0:3,0:0:0:0:
285,34,10755,2,0,P|308:29|331:23,2,46.6666666666667,2|2|2,1:3|0:3|0:3,0:0:0:0:
200,51,11098,5,0,1:0:0:0:
87,194,11441,1,0,3:2:0:0:
87,194,11527,1,0,1:0:0:0:
87,194,11613,1,0,3:2:0:0:
87,194,11698,1,0,1:0:0:0:
87,194,11784,6,0,B|149:177|149:177|163:219|163:219|212:260,1,140,4|8,1:0|0:0,0:0:0:0:
292,229,12298,2,0,B|323:173|323:173|244:124,1,140,2|2,0:1|0:0,0:0:0:0:
182,68,12813,2,0,B|206:10|206:6|239:20,1,70,8|2,0:0|0:0,0:0:0:0:
249,17,13070,1,2,0:0:0:0:
249,17,13155,6,0,P|305:43|386:31,1,140,0|8,1:0|0:0,0:0:0:0:
473,77,13670,1,2,0:1:0:0:
473,77,13841,2,0,B|488:140|488:140|440:203|440:203,1,140,2|10,1:2|0:0,0:0:0:0:
345,190,14355,2,0,L|256:182,1,70,0|0,0:0|1:0,0:0:0:0:
196,252,14698,6,0,B|189:291|189:291|212:347,1,70,2|8,0:1|0:0,0:0:0:0:
307,340,15041,2,0,B|324:294|324:292|301:195,1,140,2|2,0:1|0:0,0:0:0:0:
223,120,15555,2,0,P|163:145|144:148,1,70,8|2,0:0|0:0,0:0:0:0:
121,144,15813,1,2,0:0:0:0:
121,144,15898,6,0,B|85:96|85:96|71:268,1,210,0|2,1:0|0:1,0:0:0:0:
162,310,16584,2,0,P|225:288|247:282,1,70,2|0,1:2|0:0,0:0:0:0:
258,288,16841,1,0,0:0:0:0:
258,288,16927,1,10,0:0:0:0:
371,330,17098,1,2,0:0:0:0:
470,280,17270,6,0,P|493:233|443:152,1,140,4|0,1:0|1:0,0:0:0:0:
361,207,17784,2,0,B|275:202|275:202|212:161,1,140,2|2,0:1|0:0,0:0:0:0:
299,40,18298,2,0,P|306:83|302:121,1,70,0|2,1:0|0:0,0:0:0:0:
201,141,18641,6,0,L|90:130,2,105,0|0|2,1:0|0:0|0:1,0:0:0:0:
234,242,19327,2,0,L|247:316,1,70,0|2,1:0|0:0,0:0:0:0:
254,320,19584,1,0,0:0:0:0:
254,320,19670,1,0,1:0:0:0:
394,180,20013,6,0,P|409:108|411:100,1,70,0|0,1:0|1:0,0:0:0:0:
492,198,20355,2,0,L|510:273,1,70,0|0,1:0|1:0,0:0:0:0:
419,345,20698,2,0,L|428:286,3,35,0|0|0|0,1:0|1:0|1:0|1:0,0:0:0:0:
334,267,21041,2,0,L|316:219,3,35,0|0|0|0,3:0|1:0|1:0|1:0,0:0:0:0:
248,320,21384,6,0,P|203:338|136:315,2,105,0|0|0,1:0|3:0|3:0,0:0:0:0:
145,220,22070,2,0,B|100:221|54:258|54:258|54:218,1,140,0|8,1:0|1:0,0:0:0:0:
192,92,22755,6,0,P|240:115|283:188,1,140,4|0,1:0|0:0,0:0:0:0:
261,280,23270,1,2,0:2:0:0:
343,334,23441,2,0,L|452:295,2,105,0|0|2,1:0|0:0|0:0,0:0:0:0:
226,297,24127,6,0,B|193:286|163:282|163:282|144:319|85:321,1,140,0|0,1:0|1:0,0:0:0:0:
13,292,24641,1,2,0:0:0:0:
85,219,24813,2,0,P|97:175|88:142,1,70,0|2,1:0|0:0,0:0:0:0:
168,99,25155,2,0,P|200:135|233:142,1,70,0|2,1:0|0:0,0:0:0:0:
182,231,25498,6,0,B|222:238|251:233|251:233|279:244|324:288,1,140,0|0,1:0|1:0,0:0:0:0:
221,330,26013,1,2,0:0:0:0:
221,330,26184,1,0,1:0:0:0:
438,276,26527,1,0,1:0:0:0:
278,122,26870,6,0,P|267:155|256:189,1,70,0|2,1:0|0:0,0:0:0:0:
364,265,27213,2,0,P|358:230|351:196,1,70,0|2,1:0|0:0,0:0:0:0:
270,281,27555,2,0,B|238:304|238:304|209:323|132:292|104:248|113:184|113:184|152:208|152:208,1,280,0|0,1:0|1:0,0:0:0:0:
359,153,28584,6,0,P|331:77|265:62,1,140,8|0,0:0|1:0,0:0:0:0:
191,121,29098,1,0,0:0:0:0:
113,63,29270,2,0,P|56:78|41:87,1,70,8|0,0:0|0:0,0:0:0:0:
96,172,29613,6,0,P|113:245|116:264,1,70,0|0,1:0|0:0,0:0:0:0:
78,330,29955,2,0,L|-20:324,2,70,8|0|0,0:0|0:0|1:0,0:0:0:0:
169,287,30470,1,0,0:0:0:0:
252,333,30641,2,0,L|255:376,3,35,8|0|0|0,0:0|3:0|1:0|3:0,0:0:0:0:
308,368,30984,6,0,P|379:372|419:297,1,140,0|8,1:0|0:0,0:0:0:0:
380,229,31498,1,0,0:0:0:0:
380,229,31584,1,0,0:0:0:0:
380,229,31670,2,0,L|396:185,3,35,0|0|0|0,1:0|3:0|1:0|3:0,0:0:0:0:
319,130,32013,2,0,L|311:70,3,35,8|0|0|0,1:2|1:0|1:0|1:0,0:0:0:0:
396,30,32355,6,0,B|304:74|221:49|221:49|160:35|105:66,1,280,0|8,1:0|0:0,0:0:0:0:
36,182,33384,2,0,L|51:246,2,46.6666666666667,2|2|2,0:3|0:3|0:3,0:0:0:0:
83,146,33727,6,0,B|112:152|112:152|142:155|151:107|221:129,1,140,2|2,1:3|1:0,0:0:0:0:
312,78,34241,2,0,L|321:149,1,70,2|8,0:0|0:1,0:0:0:0:
378,227,34584,2,0,B|391:250|415:252|415:252|402:240|400:223,1,70,2|2,0:1|0:0,0:0:0:0:
387,56,35098,6,0,B|352:42|352:42|334:40|316:52|316:52|278:43,1,105,2|2,1:0|1:0,0:0:0:0:
139,12,35613,2,0,L|147:90,1,70,2|8,1:0|0:1,0:0:0:0:
83,137,35955,1,2,0:1:0:0:
91,225,36127,1,2,0:1:0:0:
91,225,36470,6,0,B|114:226|136:221|136:221|142:227|142:227|159:207|204:210,1,105,2|2,1:0|1:0,0:0:0:0:
330,171,36984,2,0,L|324:240,1,70,2|8,1:0|0:1,0:0:0:0:
388,294,37327,1,2,0:1:0:0:
472,286,37498,1,2,1:2:0:0:
472,286,37841,6,0,B|468:263|474:253|474:253|472:237|472:237|479:215|479:174,1,105,2|2,1:0|1:0,0:0:0:0:
403,81,38355,2,0,B|403:116|388:142|388:142|389:167|410:193,1,105,2|2,1:0|1:0,0:0:0:0:
493,27,38870,1,10,0:0:0:0:
493,27,39213,6,0,L|504:102,1,70,2|0,1:0|0:0,0:0:0:0:
446,169,39555,2,0,L|400:180,2,46.6666666666667,2|0|0,0:3|0:0|0:0,0:0:0:0:
496,191,39898,2,0,L|507:266,1,70,10|0,0:0|0:0,0:0:0:0:
439,332,40241,2,0,L|393:343,2,46.6666666666667,2|2|2,0:3|0:3|0:3,0:0:0:0:
470,355,40584,6,0,B|508:361|508:361|505:237,1,140,2|0,1:3|0:0,0:0:0:0:
423,240,41098,1,0,0:0:0:0:
340,222,41270,2,0,L|330:142,1,70,8|0,0:0|0:0,0:0:0:0:
248,89,41613,2,0,L|239:158,1,70,0|0,0:0|0:0,0:0:0:0:
194,236,41955,6,0,P|160:247|126:242,1,70,0|0,1:0|0:0,0:0:0:0:
70,178,42298,2,0,L|59:129,2,46.6666666666667,2|0|0,0:3|0:0|0:0,0:0:0:0:
41,226,42641,2,0,L|32:307,1,70,10|0,0:0|0:0,0:0:0:0:
64,367,42984,2,0,L|18:374,2,46.6666666666667,2|0|0,0:3|0:0|0:0,0:0:0:0:
112,337,43327,6,0,B|132:319|132:319|188:320,1,70,2|0,1:2|1:0,0:0:0:0:
277,368,43670,1,0,1:0:0:0:
277,368,43841,1,0,1:0:0:0:
346,302,44013,6,0,L|349:256,3,35,0|0|0|0,3:0|3:0|3:0|3:0,0:0:0:0:
376,236,44355,2,0,L|379:190,3,35,8|0|0|0,0:0|0:0|0:0|0:0,0:0:0:0:
405,168,44698,6,0,B|436:170|436:170|476:149|476:149|492:185|492:185|522:210,1,154.000004699707,4|8,1:0|0:1,0:0:0:0:
389,53,45384,2,0,B|358:51|358:51|318:72|318:72|302:36|302:36|272:11,1,154.000004699707,0|8,1:0|0:1,0:0:0:0:
181,32,45898,1,2,0:0:0:0:
84,14,46070,6,0,L|109:97,1,77.0000023498536,0|2,1:0|0:0,0:0:0:0:
210,104,46413,2,0,L|185:187,1,77.0000023498536,8|0,0:1|0:0,0:0:0:0:
78,159,46755,1,2,1:2:0:0:
78,159,47098,2,0,L|95:236,1,77.0000023498536,8|0,0:1|0:0,0:0:0:0:
241,204,47441,6,0,L|162:191,1,77.0000023498536,0|0,1:0|0:0,0:0:0:0:
78,266,47784,1,8,0:1:0:0:
78,266,47955,1,2,0:0:0:0:
172,293,48127,2,0,B|182:259|182:259|172:218,1,77.0000023498536,0|2,1:0|0:0,0:0:0:0:
78,266,48470,2,0,B|68:300|68:300|77:340,1,77.0000023498536,8|2,0:1|0:0,0:0:0:0:
177,379,48813,5,0,1:0:0:0:
219,168,49155,1,8,0:1:0:0:
330,352,49498,2,0,B|378:356|435:369|435:369|449:347|464:321,1,154.000004699707,2|8,1:2|1:0,0:0:0:0:
512,265,50013,1,0,1:0:0:0:
429,186,50184,6,0,B|413:164|413:164|418:104,1,77.0000023498536,0|0,1:0|0:0,0:0:0:0:
338,187,50527,2,0,B|322:209|322:209|327:269,1,77.0000023498536,8|2,0:1|0:0,0:0:0:0:
245,169,50870,1,0,1:0:0:0:
245,169,51213,2,0,L|161:159,1,77.0000023498536,8|2,0:1|0:0,0:0:0:0:
305,109,51555,6,0,L|288:13,1,77.0000023498536,0|0,1:0|0:0,0:0:0:0:
155,84,51898,2,0,L|172:180,1,77.0000023498536,8|2,0:1|0:0,0:0:0:0:
83,226,52241,1,0,1:0:0:0:
83,226,52584,1,8,0:1:0:0:
115,295,52755,1,2,0:0:0:0:
185,237,52927,6,0,B|223:228|239:226|239:226|256:237|283:242|283:242|309:232|354:229,1,154.000004699707,0|8,1:0|0:1,0:0:0:0:
405,288,53441,1,2,0:0:0:0:
478,231,53613,2,0,B|471:207|471:207|481:186|481:140,1,77.0000023498536,0|2,1:0|0:0,0:0:0:0:
472,137,53870,1,2,0:0:0:0:
460,122,53955,2,0,B|444:117|431:119|431:119|423:114|423:114|413:121|359:124,1,77.0000023498536,8|2,0:1|0:0,0:0:0:0:
283,174,54298,6,0,B|277:164|278:151|278:151|273:138|273:138|279:113|270:65,1,77.0000023498536,0|2,1:0|0:0,0:0:0:0:
265,82,54555,1,2,0:0:0:0:
248,72,54641,2,0,B|228:73|221:73|221:73|209:66|209:66|196:75|171:73,1,77.0000023498536,8|0,0:1|0:0,0:0:0:0:
58,54,54984,2,0,L|49:14,4,38.5000011749268,2|2|2|2|8,3:2|3:2|3:2|3:2|0:0,0:0:0:0:
49,252,55670,6,0,B|110:228|125:257|163:336,1,154.000004699707,4|8,1:2|0:1,0:0:0:0:
249,300,56184,1,2,0:0:0:0:
328,345,56355,2,0,B|388:315|388:316|401:351|401:351|473:334,1,154.000004699707,0|8,1:0|0:1,0:0:0:0:
499,224,56870,1,2,0:0:0:0:
499,224,56955,1,0,0:0:0:0:
499,224,57041,6,0,P|470:179|468:133,1,77.0000023498536,0|0,1:0|0:0,0:0:0:0:
338,133,57384,2,0,P|360:186|353:236,1,77.0000023498536,8|2,0:1|0:0,0:0:0:0:
423,295,57727,2,0,P|374:321|264:327,1,154.000004699707,2|8,1:2|0:1,0:0:0:0:
186,267,58241,1,2,0:0:0:0:
86,336,58413,6,0,B|51:331|33:321|33:321|0:342|0:342|-13:307|11:255,1,154.000004699707,0|8,1:2|0:1,0:0:0:0:
78,216,58927,1,2,0:0:0:0:
1,140,59098,2,0,B|73:100|73:100|112:120,1,115.50000352478,0|0,1:0|0:0,0:0:0:0:
138,126,59441,2,0,P|193:97|231:97,1,77.0000023498536,8|2,0:1|0:0,0:0:0:0:
316,169,59784,6,0,P|419:160|492:124,2,154.000004699707,0|8|2,1:0|0:1|1:2,0:0:0:0:
302,160,60813,5,8,0:1:0:0:
248,254,60984,1,0,0:0:0:0:
151,302,61155,2,0,P|105:289|50:266,1,77.0000023498536,0|0,1:0|0:0,0:0:0:0:
184,202,61498,2,0,P|141:160|113:134,1,77.0000023498536,8|2,0:1|0:0,0:0:0:0:
276,147,61841,2,0,P|264:97|259:48,2,77.0000023498536,0|0|8,1:0|0:0|0:1,0:0:0:0:
372,211,62355,1,2,0:0:0:0:
478,155,62527,6,0,P|480:94|407:71,1,115.50000352478,0|0,1:0|0:0,0:0:0:0:
405,85,62870,2,0,L|312:89,1,77.0000023498536,8|2,0:1|0:0,0:0:0:0:
225,48,63213,2,0,B|175:99|175:99|197:200,1,154.000004699707,0|8,1:0|0:1,0:0:0:0:
286,230,63727,1,2,0:0:0:0:
209,308,63898,6,0,P|142:319|98:308,1,77.0000023498536,0|2,1:0|0:0,0:0:0:0:
96,307,64155,1,2,0:0:0:0:
96,307,64241,2,0,L|87:225,1,77.0000023498536,2|2,1:2|0:0,0:0:0:0:
111,117,64584,2,0,P|178:106|222:117,1,77.0000023498536,0|2,1:0|0:0,0:0:0:0:
224,118,64841,1,2,0:0:0:0:
224,118,64927,2,0,L|233:200,1,77.0000023498536,2|2,1:2|0:0,0:0:0:0:
355,242,65270,6,0,L|349:296,3,38.5000011749268,0|0|0|0,1:0|0:0|1:0|0:0,0:0:0:0:
432,190,65613,2,0,L|428:152,3,38.5000011749268,0|0|0|0,1:0|0:0|1:0|0:0,0:0:0:0:
284,169,65955,6,0,B|284:168|274:89|274:89|343:113,1,154.000004699707,2|8,3:2|0:0,0:0:0:0:
198,240,66641,6,0,B|157:274|129:270|115:143,1,140,4|8,3:0|0:1,0:0:0:0:
273,168,67155,2,0,B|295:224|271:283|294:316,1,140,2|2,0:0|0:1,0:0:0:0:
393,363,67670,2,0,B|417:329|417:329|382:264,1,105,8|0,0:1|0:0,0:0:0:0:
376,232,68013,6,0,B|423:200|423:200|398:164|425:112,1,140,0|8,1:0|0:1,0:0:0:0:
347,49,68527,1,2,0:0:0:0:
278,117,68698,2,0,L|196:112,1,70,0|2,0:0|0:1,0:0:0:0:
122,176,69041,2,0,B|81:143|81:143|107:62,1,105,8|0,0:1|0:0,0:0:0:0:
121,60,69384,6,0,L|264:57,1,140,0|8,1:0|0:1,0:0:0:0:
355,93,69898,1,2,0:0:0:0:
440,51,70070,1,0,1:0:0:0:
440,51,70241,2,0,P|464:126|467:139,2,70,2|8|0,0:1|0:1|0:0,0:0:0:0:
365,150,70755,6,0,P|364:197|395:256,1,105,0|2,1:0|3:2,0:0:0:0:
244,177,71270,2,0,L|144:166,1,70,2|0,0:1|0:0,0:0:0:0:
87,236,71613,1,2,0:0:0:0:
11,149,71784,2,0,P|23:97|45:67,1,70,8|2,0:1|0:1,0:0:0:0:
145,22,72127,6,0,B|170:55|170:55|170:106|170:106|212:123,2,105,6|6|6,1:0|1:0|1:0,0:0:0:0:
312,136,72984,1,8,0:1:0:0:
397,88,73155,2,0,B|434:122|434:122|465:96|465:96|497:95,2,105,6|6|6,1:0|1:0|1:0,0:0:0:0:
253,234,74013,1,8,0:1:0:0:
161,198,74184,6,0,B|126:170|126:170|169:137|211:139,2,105,2|2|2,1:0|1:0|1:0,0:0:0:0:
355,233,75041,1,0,1:0:0:0:
355,233,75127,1,0,0:0:0:0:
355,233,75213,2,0,L|433:227,1,70,2|2,3:2|3:2,0:0:0:0:
305,152,75555,6,0,B|262:167|244:182|244:182|247:218|268:255|268:255|250:280|167:282|167:282|184:239,1,280,0|8,1:0|0:0,0:0:0:0:
91,26,82413,6,0,P|98:84|99:135,1,105,4|0,1:0|0:0,0:0:0:0:
94,147,82755,2,0,P|81:178|81:231,1,70,0|2,0:0|0:0,0:0:0:0:
140,272,83098,2,0,P|173:267|219:241,1,70,8|0,0:0|0:0,0:0:0:0:
226,170,83441,2,0,P|205:143|159:116,1,70,2|2,0:0|0:0,0:0:0:0:
94,147,83784,6,0,P|81:178|81:231,1,70,0|0,1:0|0:0,0:0:0:0:
86,229,84041,1,0,0:0:0:0:
99,240,84127,2,0,P|149:251|186:276,1,70,0|2,0:0|0:0,0:0:0:0:
242,294,84470,2,0,P|292:283|329:258,1,70,8|0,0:0|0:0,0:0:0:0:
386,242,84813,2,0,P|436:253|473:278,1,70,2|2,0:0|0:0,0:0:0:0:
499,175,85155,6,0,B|489:151|489:151|501:129|501:129|479:86|510:31,2,140,0|0|8,1:0|1:0|0:0,0:0:0:0:
507,183,86184,1,0,1:0:0:0:
507,183,86527,2,0,L|483:265,1,70,0|0,1:0|1:0,0:0:0:0:
482,267,86784,1,0,0:0:0:0:
474,282,86870,2,0,L|438:296,3,35,0|0|0|0,1:0|1:0|3:0|3:0,0:0:0:0:
428,306,87213,2,0,P|380:306|334:335,2,70,8|0|2,0:0|0:0|0:3,0:0:0:0:
512,149,87898,6,0,B|506:131|518:120|518:120|511:107|501:100|501:100|525:66|495:11,1,140,6|2,1:3|1:0,0:0:0:0:
390,2,88413,2,0,L|397:75,1,70,0|8,1:0|0:1,0:0:0:0:
358,162,88755,2,0,B|331:147|328:161|328:161|339:155|319:128,1,70,2|2,1:2|1:0,0:0:0:0:
146,38,89269,6,0,B|128:32|128:32|115:23|115:23|96:24|96:24|76:36|76:36|72:50|72:50|61:72,1,105,2|2,1:0|1:0,0:0:0:0:
13,199,89784,2,0,L|26:278,1,70,2|8,1:0|0:1,0:0:0:0:
83,328,90127,1,2,1:2:0:0:
137,265,90298,1,2,1:0:0:0:
137,265,90641,6,0,B|160:255|182:261|182:261|183:257|183:257|209:268|250:250,1,105,2|2,1:0|1:0,0:0:0:0:
367,187,91155,2,0,L|361:256,1,70,2|8,1:0|0:1,0:0:0:0:
397,331,91498,1,2,1:2:0:0:
484,336,91670,1,2,1:0:0:0:
484,336,92013,6,0,B|485:315|485:315|481:300|481:300|488:294|488:294|479:264|491:224,1,105,2|0,1:0|0:0,0:0:0:0:
438,96,92527,2,0,B|418:127|423:167|423:167|417:142|400:118,1,105,2|2,1:0|1:0,0:0:0:0:
308,31,93041,1,10,0:0:0:0:
308,31,93384,6,0,B|264:21|233:43|233:43|233:39|233:39|194:62|149:50|169:45|138:36|108:53,1,210,4|0,1:0|0:0,0:0:0:0:
53,126,94070,2,0,B|43:170|65:201|65:201|61:201|61:201|84:240|72:285|67:265|58:296|75:326,1,210,8|0,0:0|0:0,0:0:0:0:
165,330,94755,6,0,P|199:321|234:322,1,70,2|0,1:3|0:0,0:0:0:0:
252,324,95012,1,0,0:0:0:0:
268,330,95098,2,0,P|301:338|336:337,1,70,0|0,0:0|0:0,0:0:0:0:
421,368,95441,2,0,P|444:343|458:232,1,140,8|0,0:0|0:0,0:0:0:0:
461,242,96127,6,0,B|429:225|384:249|384:249|300:246|304:158,1,210,0|0,1:0|0:0,0:0:0:0:
356,93,96813,2,0,B|346:62|309:47|254:55|275:75|216:107|157:67,1,210,8|0,0:0|0:0,0:0:0:0:
58,16,97498,6,0,L|62:116,1,70,2|0,1:3|0:0,0:0:0:0:
13,163,97841,1,0,0:0:0:0:
13,163,98013,1,0,0:0:0:0:
112,209,98184,2,0,L|208:197,1,70,8|2,0:0|1:2,0:0:0:0:
267,231,98527,2,0,L|363:243,1,70,8|2,0:0|1:2,0:0:0:0:
351,247,98784,1,2,1:2:0:0:
365,257,98870,6,0,L|381:347,1,70,2|0,1:2|1:0,0:0:0:0:
279,346,99213,2,0,L|263:256,1,70,8|0,0:0|1:0,0:0:0:0:
225,95,99727,5,0,1:0:0:0:
161,164,99898,2,0,B|148:178|148:178|131:178,3,35,8|0|0|0,0:0|0:0|3:0|3:0,0:0:0:0:
116,181,100241,6,0,B|130:159|161:152|161:152|151:222|231:250|229:245,1,154.000004699707,6|8,1:0|0:1,0:0:0:0:
300,110,100755,2,0,L|226:175,1,77.0000023498536,2|0,0:0|0:0,0:0:0:0:
392,136,101098,1,0,0:0:0:0:
392,136,101269,1,8,0:1:0:0:
169,55,101612,6,0,P|71:78|57:70,1,115.50000352478,2|0,1:0|0:0,0:0:0:0:
35,42,101955,2,0,L|22:183,1,115.50000352478,8|0,0:1|1:0,0:0:0:0:
16,193,102298,1,0,0:0:0:0:
215,303,102641,6,0,P|245:280|254:220,1,77.0000023498536,8|2,0:1|0:1,0:0:0:0:
131,256,102984,2,0,B|124:347|124:347|180:394,1,154.000004699707,2|8,1:0|0:1,0:0:0:0:
288,354,103498,1,0,0:0:0:0:
402,374,103669,2,0,P|423:316|423:270,2,77.0000023498536,0|2|8,0:0|1:2|0:1,0:0:0:0:
343,258,104183,1,0,3:2:0:0:
343,258,104269,1,8,3:1:0:0:
343,258,104355,6,0,L|354:121,1,115.50000352478,2|0,1:0|0:0,0:0:0:0:
354,105,104698,1,8,0:1:0:0:
249,53,104869,2,0,P|177:29|139:92,1,154.000004699707,2|2,1:0|1:2,0:0:0:0:
147,112,105298,1,0,1:0:0:0:
147,112,105383,1,10,0:1:0:0:
230,177,105555,6,0,L|227:258,1,77.0000023498536,2|2,1:0|1:0,0:0:0:0:
158,320,105898,1,0,0:0:0:0:
65,281,106069,2,0,B|39:229|39:229|108:216,1,115.50000352478,8|0,0:1|0:0,0:0:0:0:
128,216,106412,1,0,0:0:0:0:
325,295,106755,6,0,L|425:261,1,77.0000023498536,8|2,0:1|3:1,0:0:0:0:
464,191,107098,2,0,P|448:140|378:154,1,115.50000352478,2|0,1:0|0:0,0:0:0:0:
371,163,107441,2,0,L|281:149,1,77.0000023498536,8|2,0:1|3:1,0:0:0:0:
180,134,107784,2,0,L|157:49,2,77.0000023498536,2|0|10,1:2|0:0|0:1,0:0:0:0:
119,216,108298,1,2,0:1:0:0:
23,163,108469,6,0,B|32:113|32:113|114:155|162:136,1,154.000004699707,2|8,1:0|0:1,0:0:0:0:
259,103,108983,1,2,0:1:0:0:
259,103,109069,1,0,0:0:0:0:
259,103,109155,2,0,P|291:186|279:211,1,115.50000352478,0|2,0:0|0:0,0:0:0:0:
247,230,109498,2,0,L|152:225,1,77.0000023498536,8|2,0:1|0:1,0:0:0:0:
91,309,109841,6,0,B|62:315|56:307|32:298|32:298|35:255|41:236|12:182,1,154.000004699707,2|8,1:0|0:1,0:0:0:0:
101,123,110355,2,0,B|139:75|160:67|220:163,1,154.000004699707,2|8,1:0|0:1,0:0:0:0:
306,97,110869,2,0,P|345:104|404:91,1,77.0000023498536,2|8,1:2|0:1,0:0:0:0:
477,206,111212,6,0,B|334:214,1,115.50000352478,6|0,1:0|0:0,0:0:0:0:
320,223,111555,2,0,P|310:279|324:320,1,77.0000023498536,8|2,0:1|0:1,0:0:0:0:
226,353,111898,2,0,L|162:286,1,77.0000023498536,2|0,0:0|0:0,0:0:0:0:
225,217,112241,1,8,0:1:0:0:
83,83,112584,6,0,P|35:120|97:198,1,154.000004699707,2|8,1:0|0:1,0:0:0:0:
189,186,113098,1,2,3:1:0:0:
189,186,113184,1,2,0:0:0:0:
189,186,113269,2,0,L|270:186,1,77.0000023498536,0|2,3:0|1:2,0:0:0:0:
371,142,113612,2,0,P|379:105|351:48,1,77.0000023498536,8|2,0:1|0:0,0:0:0:0:
472,164,113955,6,0,B|484:219|484:219|371:251,1,154.000004699707,2|8,1:0|0:1,0:0:0:0:
299,205,114469,1,0,0:0:0:0:
246,292,114641,2,0,B|193:263|193:263|183:364,1,154.000004699707,0|8,0:0|0:1,0:0:0:0:
320,342,115155,1,2,3:2:0:0:
320,342,115241,1,8,3:1:0:0:
320,342,115326,6,0,B|340:283|340:283|370:277|408:287|413:348,1,154.000004699707,2|8,1:0|0:1,0:0:0:0:
460,224,115841,2,0,B|420:178|420:178|368:189|368:189|391:149,1,154.000004699707,2|0,1:0|1:0,0:0:0:0:
275,129,116355,2,0,B|291:177|291:177|256:186,1,77.0000023498536,10|2,0:1|3:1,0:0:0:0:
191,98,116698,5,2,1:0:0:0:
191,98,116869,1,2,0:0:0:0:
124,156,117041,2,0,B|62:168|68:203|116:259,1,115.50000352478,8|0,0:1|0:0,0:0:0:0:
124,263,117384,2,0,L|220:252,1,77.0000023498536,0|0,0:0|0:0,0:0:0:0:
292,292,117727,1,8,0:1:0:0:
380,145,118069,6,0,B|444:117|451:156|435:251,1,154.000004699707,2|8,1:0|0:1,0:0:0:0:
361,326,118583,1,2,3:1:0:0:
361,326,118669,1,8,3:1:0:0:
361,326,118755,2,0,L|278:307,1,77.0000023498536,0|0,1:0|0:0,0:0:0:0:
205,360,119098,1,8,0:1:0:0:
59,212,119441,6,0,B|82:120|82:120|129:172,1,154.000004699707,2|8,1:0|0:1,0:0:0:0:
198,233,119955,2,0,P|245:263|319:194,1,154.000004699707,2|2,1:0|1:2,0:0:0:0:
326,183,120384,1,0,1:0:0:0:
326,183,120469,1,8,0:1:0:0:
273,95,120641,1,0,1:0:0:0:
358,32,120812,6,0,B|421:56|421:56|438:51|438:51|462:83|441:131|441:131|455:213|455:213|430:202|402:195,1,308.000009399414,2|8,1:0|0:1,0:0:0:0:
96,64,122184,5,4,1:0:0:0:
107,203,127669,6,0,L|96:64,2,140,4|0|8,1:0|1:0|0:1,0:0:0:0:
111,207,128698,2,0,P|146:200|186:199,1,70,0|2,1:0|3:2,0:0:0:0:
192,211,128955,1,2,3:2:0:0:
204,222,129041,6,0,L|351:213,2,140,2|0|8,1:2|1:0|0:1,0:0:0:0:
208,226,130069,2,0,P|213:273|204:300,1,70,2|2,1:2|3:2,0:0:0:0:
200,310,130326,1,2,3:2:0:0:
189,323,130412,2,0,L|108:324,1,70,2|0,1:2|1:0,0:0:0:0:
54,270,130755,2,0,P|49:223|58:196,1,70,0|0,1:0|1:0,0:0:0:0:
122,110,131098,5,8,0:1:0:0:
122,110,131269,1,0,1:0:0:0:
197,146,131441,2,0,L|281:137,1,70,2|2,1:2|1:2,0:0:0:0:
332,86,131783,2,0,L|333:45,3,35,2|2|2|2,1:2|1:2|1:2|1:2,0:0:0:0:
365,24,132126,2,0,P|378:21|409:29,3,35,0|0|0|0,3:0|3:0|3:0|3:0,0:0:0:0:
430,51,132469,6,0,B|415:112|435:157|464:129|462:216|419:248|419:248|423:220|417:194|394:173,1,280,8|4,0:1|1:0,0:0:0:0:
316,137,133326,2,0,L|304:85,2,35,2|2|2,0:0|0:0|0:1,0:0:0:0:
275,226,133669,1,0,0:0:0:0:
191,173,133841,2,0,B|179:161|171:153|167:149|163:145|159:141|155:137|151:133|148:130|144:126|140:122|136:118|132:114|128:110|124:106|120:102|117:99|113:95|109:91|105:87|101:83|97:79|93:75|85:67|81:63|77:59|73:55|69:51|65:47|62:44|58:40|20:29|-25:37,1,70,8|2,0:1|0:0,0:0:0:0:
69,247,134183,2,0,P|107:258|155:250,1,70,2|0,0:1|0:0,0:0:0:0:
191,173,134527,6,0,B|192:146|216:136|216:136|205:112|205:112|229:87|219:30,1,140,2|0,1:0|0:0,0:0:0:0:
134,2,135041,1,2,0:0:0:0:
51,54,135212,2,0,P|59:132|59:132,1,70,8|2,0:1|0:0,0:0:0:0:
56,141,135469,1,2,0:0:0:0:
56,158,135555,2,0,P|48:236|48:236,1,70,2|0,0:0|0:0,0:0:0:0:
15,335,135898,6,0,B|35:327|42:313|42:313|47:328|67:337,1,70,0|0,1:0|0:0,0:0:0:0:
81,344,136155,1,0,0:0:0:0:
98,346,136241,2,0,L|176:335,1,70,0|0,0:0|0:0,0:0:0:0:
249,305,136583,2,0,B|272:303|272:303|293:312|293:312|342:315,1,70,8|2,0:1|0:0,0:0:0:0:
409,366,136926,1,2,0:1:0:0:
409,366,137269,6,0,B|412:348|404:334|404:334|409:333|409:333|420:302|402:272|402:272|405:219|456:119,1,140,2|2,1:0|0:1,0:0:0:0:
408,234,137955,2,0,P|457:240|491:218,1,70,10|0,0:1|0:0,0:0:0:0:
364,148,138298,2,0,P|330:138|297:146,1,70,2|0,0:0|0:0,0:0:0:0:
205,210,138641,6,0,L|195:118,1,70,0|0,1:0|0:0,0:0:0:0:
195,123,138898,1,0,0:0:0:0:
192,105,138983,2,0,P|129:88|110:96,1,70,2|0,0:1|0:0,0:0:0:0:
37,57,139326,2,0,P|46:95|47:149,1,70,8|2,0:1|0:0,0:0:0:0:
128,171,139669,2,0,P|122:207|119:272,1,70,2|0,0:1|0:0,0:0:0:0:
62,346,140012,6,0,L|136:336,1,70,2|2,1:0|0:0,0:0:0:0:
227,358,140355,2,0,L|301:368,1,70,2|2,0:1|0:0,0:0:0:0:
312,359,140612,1,0,0:0:0:0:
328,352,140698,2,0,L|340:261,2,70,10|2|2,0:1|0:0|0:0,0:0:0:0:
160,253,141384,6,0,L|148:98,1,140,0|2,1:0|0:1,0:0:0:0:
183,21,141898,1,2,0:0:0:0:
248,93,142069,2,0,P|279:98|334:81,1,70,8|0,0:1|0:0,0:0:0:0:
183,21,142412,2,0,P|152:16|97:33,1,70,2|2,0:1|0:0,0:0:0:0:
31,121,142755,6,0,L|21:237,2,105,0|0|2,1:0|1:0|3:2,0:0:0:0:
110,52,143441,1,8,0:1:0:0:
172,202,143698,1,2,1:2:0:0:
271,72,143955,1,2,3:2:0:0:
185,110,144127,6,0,B|162:186|211:239|236:208|259:279|242:327|221:357|141:356|112:322|108:240|174:201,1,420,0|0,1:0|0:0,0:0:0:0:
176,206,145498,6,0,P|215:154|307:165,1,140,4|2,1:0|0:3,0:0:0:0:
126,281,146184,2,0,B|86:237|86:237|91:138,1,140,8|2,0:0|0:3,0:0:0:0:
285,150,146869,2,0,B|333:174|331:215|239:256,1,140,2|0,1:2|0:0,0:0:0:0:
225,79,147555,2,0,B|304:49|318:77|378:68,1,140,8|2,0:0|0:0,0:0:0:0:
446,116,148069,1,0,0:0:0:0:
446,116,148241,6,0,B|475:195|475:195|418:228,1,140,0|2,1:0|0:3,0:0:0:0:
252,206,148927,2,0,B|169:196|169:196|145:259,1,140,8|2,0:0|0:3,0:0:0:0:
329,272,149612,2,0,P|352:219|316:132,1,140,0|0,1:0|0:0,0:0:0:0:
248,83,150126,1,0,0:0:0:0:
174,148,150298,2,0,B|112:171|112:171|109:85,1,140,8|2,0:0|0:0,0:0:0:0:
263,230,150984,6,0,B|283:313|283:313|222:375,1,140,0|2,1:0|0:3,0:0:0:0:
71,299,151669,2,0,B|14:244|80:220|145:245,1,140,8|2,0:0|0:3,0:0:0:0:
288,141,152355,2,0,B|222:70|222:70|199:126|227:129,1,140,0|0,1:0|0:0,0:0:0:0:
239,220,152869,2,0,P|294:220|386:198,1,140,0|0,0:0|0:0,0:0:0:0:
395,108,153384,1,2,0:0:0:0:
179,96,153726,6,0,B|135:159|158:188|220:222,1,140,0|2,1:0|0:3,0:0:0:0:
388,180,154412,2,0,B|341:144|336:199|250:142,1,140,8|2,0:0|0:3,0:0:0:0:
310,72,154926,1,2,0:0:0:0:
420,86,155098,2,0,L|494:77,2,70,0|2|2,1:0|0:0|0:0,0:0:0:0:
293,205,155784,2,0,L|219:196,2,70,8|2|2,0:0|0:0|0:0,0:0:0:0:
396,261,156469,6,0,B|412:309|412:309|335:316|302:298,1,140,2|2,1:2|0:0,0:0:0:0:
227,275,156983,1,2,0:0:0:0:
227,275,157155,2,0,P|128:325|47:223,1,245,10|0,0:0|0:0,0:0:0:0:
35,202,157841,6,0,B|23:182|23:182|46:176|46:176|30:162|30:162|36:150|60:141|60:141|91:162|91:162|157:159|157:159|200:215|200:215|296:150|315:231|240:263|233:232,1,420,0|8,3:0|0:0,0:0:0:0:
416,336,159212,6,0,P|453:266|416:194,1,140,12|10,0:0|0:0,0:0:0:0:
370,150,159726,1,0,0:0:0:0:
370,150,159898,2,0,B|291:133|309:169|226:155,1,140,8|10,0:0|0:0,0:0:0:0:
164,107,160412,1,2,0:0:0:0:
164,107,160584,6,0,P|154:44|236:56,1,140,10|10,0:0|0:0,0:0:0:0:
145,196,161269,2,0,B|58:219|58:219|0:191,1,140,10|10,0:0|0:0,0:0:0:0:
63,131,161783,1,2,0:0:0:0:
17,54,161955,6,0,P|77:89|155:66,1,140,8|10,0:0|0:0,0:0:0:0:
219,24,162469,1,2,0:0:0:0:
276,92,162641,2,0,L|354:83,1,70,8|2,0:0|0:0,0:0:0:0:
251,182,162984,2,0,L|174:171,1,70,10|0,0:0|0:0,0:0:0:0:
320,251,163326,6,0,P|385:281|464:257,2,140,8|10|10,0:0|0:0|0:0,0:0:0:0:
302,230,164355,5,10,0:0:0:0:
351,158,164526,1,2,0:0:0:0:
296,75,164698,2,0,P|228:83|204:91,1,70,4|2,1:0|0:0,0:0:0:0:
138,56,165041,2,0,P|129:124|131:146,1,70,0|2,1:0|0:0,0:0:0:0:
54,180,165384,2,0,P|96:220|195:239,1,140,0|0,1:0|1:0,0:0:0:0:
261,203,165898,1,2,0:0:0:0:
339,264,166069,6,0,L|417:251,1,70,0|2,1:0|1:2,0:0:0:0:
266,336,166412,2,0,L|195:318,1,70,2|0,1:2|1:0,0:0:0:0:
137,229,166755,1,2,1:2:0:0:
137,229,166926,1,0,1:0:0:0:
49,288,167098,2,0,P|36:336|46:374,1,70,0|0,1:0|1:0,0:0:0:0:
77,191,167441,6,0,B|34:132|34:132|-19:210,2,140,0|0|0,1:0|1:0|1:0,0:0:0:0:
162,131,168298,1,0,1:0:0:0:
254,206,168469,1,0,1:0:0:0:
254,206,168555,1,0,1:0:0:0:
254,206,168641,1,0,1:0:0:0:
254,206,168726,1,0,1:0:0:0:
254,206,168812,5,4,1:2:0:0:
340,160,169841,6,0,L|339:136,6,17.5,0|0|0|0|0|0|0,0:0|0:0|0:0|0:0|0:0|0:0|0:0,0:0:0:0:
351,127,170184,6,0,B|391:118|416:139|416:139|444:163|466:143|472:116|434:95,1,154.000004699707,4|8,1:0|0:1,0:0:0:0:
364,30,170698,1,0,0:0:0:0:
272,69,170869,2,0,B|234:79|202:63|181:39|189:25|189:25|207:45|189:76,1,154.000004699707,0|8,1:0|0:1,0:0:0:0:
114,122,171383,1,2,0:0:0:0:
0,72,171555,6,0,L|13:157,1,77.0000023498536,2|0,1:2|0:0,0:0:0:0:
114,122,171898,2,0,L|102:198,1,77.0000023498536,8|0,0:1|0:0,0:0:0:0:
19,260,172241,1,2,1:2:0:0:
19,260,172584,2,0,L|26:341,1,77.0000023498536,8|2,0:1|0:0,0:0:0:0:
174,285,172926,6,0,B|161:272|148:268|113:276|110:321,1,77.0000023498536,0|0,1:0|0:0,0:0:0:0:
236,355,173269,1,8,0:1:0:0:
236,355,173441,1,2,0:0:0:0:
310,287,173612,2,0,B|316:274|312:259|312:259|317:252|317:252|310:234|318:199,1,77.0000023498536,0|2,1:0|0:0,0:0:0:0:
416,216,173955,2,0,B|426:235|424:254|424:254|431:259|431:259|431:275|440:286,1,77.0000023498536,8|2,0:1|0:0,0:0:0:0:
506,362,174298,5,0,1:0:0:0:
479,140,174641,1,8,0:1:0:0:
310,287,174984,2,0,B|267:296|241:276|258:252|233:288|216:251|227:276|199:289|157:272,1,154.000004699707,2|8,1:2|0:1,0:0:0:0:
76,219,175498,1,2,1:2:0:0:
144,139,175669,6,0,B|160:117|160:117|148:92|155:57,1,77.0000023498536,4|2,1:0|0:0,0:0:0:0:
252,105,176012,2,0,B|257:128|245:153|245:153|261:175,1,77.0000023498536,8|0,0:1|0:0,0:0:0:0:
348,220,176355,1,2,1:2:0:0:
348,220,176698,2,0,L|445:218,1,77.0000023498536,8|0,0:1|0:0,0:0:0:0:
512,105,177041,6,0,P|502:148|500:194,1,77.0000023498536,0|2,1:0|0:0,0:0:0:0:
413,105,177384,2,0,P|407:66|397:29,1,77.0000023498536,8|0,0:1|0:0,0:0:0:0:
302,5,177726,1,2,1:2:0:0:
302,5,178069,1,8,0:1:0:0:
264,73,178241,1,2,0:0:0:0:
161,30,178412,6,0,B|131:19|107:19|107:19|92:32|74:46|74:46|37:33|-2:49,1,154.000004699707,0|8,1:0|0:1,0:0:0:0:
2,133,178926,1,2,0:0:0:0:
90,161,179098,2,0,B|103:163|120:157|120:157|127:160|127:160|142:157|173:160,1,77.0000023498536,2|0,1:2|3:0,0:0:0:0:
182,169,179355,1,0,3:0:0:0:
192,184,179441,2,0,B|196:200|194:213|194:213|199:221|199:221|192:231|188:284,1,77.0000023498536,8|2,0:1|0:0,0:0:0:0:
261,337,179784,6,0,B|271:331|284:332|284:332|297:327|297:327|322:333|370:324,1,77.0000023498536,0|0,1:0|0:0,0:0:0:0:
352,338,180041,1,0,3:0:0:0:
370,345,180126,2,0,B|389:351|395:352|395:352|409:349|409:349|419:361|444:365,1,77.0000023498536,8|0,0:1|3:0,0:0:0:0:
497,282,180469,2,0,L|503:242,4,38.5000011749268,2|0|0|0|8,3:2|0:0|0:0|0:0|0:0,0:0:0:0:
457,69,181155,6,0,B|437:59|409:63|430:89|404:110|383:83|404:110|380:107|359:81|340:68|287:80,1,154.000004699707,4|8,1:0|0:1,0:0:0:0:
233,129,181669,1,2,0:0:0:0:
160,64,181841,2,0,B|96:64|128:32|96:64|96:32|96:64|64:32|96:64|64:32|32:32|0:64,1,154.000004699707,0|8,1:0|0:1,0:0:0:0:
0,159,182355,1,2,0:0:0:0:
15,169,182441,1,0,0:0:0:0:
30,180,182526,6,0,B|45:232|40:281|40:281|62:296|96:286,1,154.000004699707,0|8,1:0|0:1,0:0:0:0:
181,244,183041,1,2,0:0:0:0:
269,197,183212,2,0,B|308:174|291:236|339:182|322:244|291:236|308:174|339:182|322:245|416:217,1,154.000004699707,2|8,1:2|0:1,0:0:0:0:
402,221,183898,6,0,B|419:245|422:274|403:290|403:258|422:274|403:290|422:274|402:290|419:346|453:347|483:296,1,154.000004699707,0|8,1:0|0:1,0:0:0:0:
504,217,184412,1,2,0:0:0:0:
471,122,184583,2,0,B|445:111|408:127|408:127|374:130|360:102,1,115.50000352478,2|2,1:2|0:0,0:0:0:0:
347,79,184926,2,0,P|309:55|255:59,1,77.0000023498536,8|2,0:1|0:0,0:0:0:0:
176,90,185269,5,0,1:0:0:0:
242,287,185612,1,8,0:1:0:0:
38,245,185955,1,2,1:2:0:0:
176,90,186298,1,8,0:1:0:0:
237,158,186469,1,2,3:2:0:0:
320,118,186641,6,0,B|359:101|401:97|401:97,1,77.0000023498536,0|2,1:0|0:0,0:0:0:0:
438,211,186983,2,0,B|399:194|356:190|356:190,1,77.0000023498536,8|2,0:1|0:0,0:0:0:0:
330,308,187327,2,0,B|369:291|411:287|411:287,1,77.0000023498536,0|2,1:0|0:0,0:0:0:0:
491,319,187669,1,8,0:1:0:0:
491,319,187841,1,2,0:0:0:0:
497,211,188012,6,0,B|499:179|483:177|482:193|498:195|499:179|483:177|499:179|527:152|503:84,1,115.50000352478,0|0,1:0|0:0,0:0:0:0:
479,79,188355,2,0,L|386:65,1,77.0000023498536,8|2,0:1|0:0,0:0:0:0:
312,19,188698,1,0,1:0:0:0:
312,19,189041,1,8,0:1:0:0:
267,96,189212,1,2,0:0:0:0:
176,39,189384,6,0,B|146:27|122:36|107:61|95:34|110:8|122:36|107:61|95:34|107:61|122:36|96:34|66:16|28:31,1,154.000004699707,0|0,1:0|1:0,0:0:0:0:
13,128,189898,1,0,0:0:0:0:
105,164,190069,2,0,P|140:154|214:142,1,77.0000023498536,0|2,1:0|0:0,0:0:0:0:
195,156,190326,1,0,0:0:0:0:
208,170,190412,2,0,P|208:210|205:256,1,77.0000023498536,0|0,1:0|0:0,0:0:0:0:
131,325,190755,6,0,L|76:325,3,38.5000011749268,0|0|0|0,1:0|0:0|1:0|0:0,0:0:0:0:
42,304,191098,2,0,L|34:248,3,38.5000011749268,0|0|0|0,1:0|0:0|1:0|0:0,0:0:0:0:
62,219,191441,6,0,B|62:218|103:154|103:154|152:214,1,154.000004699707,2|8,3:2|0:0,0:0:0:0:
152,214,192127,6,0,B|215:153|215:181|272:261,1,140,6|8,1:0|0:1,0:0:0:0:
358,276,192641,1,2,0:1:0:0:
358,276,192812,1,2,1:0:0:0:
445,230,192983,1,2,0:0:0:0:
478,139,193155,2,0,B|447:82|446:81|386:133,1,105,8|0,0:1|0:0,0:0:0:0:
374,144,193498,6,0,P|257:144|224:136,1,140,2|8,1:0|0:1,0:0:0:0:
157,80,194012,1,0,0:0:0:0:
157,80,194098,1,0,0:0:0:0:
157,80,194184,2,0,B|108:126|108:126|131:200,1,140,0|10,1:0|0:0,0:0:0:0:
296,287,194869,6,0,P|349:278|382:184,1,154.000004699707,4|8,1:0|0:1,0:0:0:0:
298,199,195383,2,0,L|185:204,1,77.0000023498536,2|0,0:0|0:0,0:0:0:0:
136,180,195726,1,2,0:0:0:0:
64,229,195898,2,0,L|71:279,2,38.5000011749268,8|2|2,0:1|0:0|0:0,0:0:0:0:
13,136,196241,5,2,1:2:0:0:
99,97,196412,2,0,L|110:52,2,38.5000011749268,0|2|8,0:0|0:0|0:1,0:0:0:0:
193,121,196755,1,2,0:0:0:0:
193,121,196841,6,0,P|267:81|307:80,1,115.50000352478,2|2,0:0|0:0,0:0:0:0:
395,123,197269,1,8,0:1:0:0:
395,123,197355,1,0,0:0:0:0:
395,123,197441,2,0,L|415:177,1,38.5000011749268,2|0,0:0|0:0,0:0:0:0:
390,199,197612,5,2,1:2:0:0:
272,196,197783,1,0,0:0:0:0:
272,196,197869,2,0,P|203:225|163:214,1,115.50000352478,2|2,0:0|0:0,0:0:0:0:
92,154,198298,1,2,1:2:0:0:
22,233,198469,1,2,0:0:0:0:
22,233,198555,6,0,B|41:296|41:296|113:292,1,115.50000352478,0|2,0:0|0:0,0:0:0:0:
190,339,198984,5,0,1:0:0:0:
285,232,199241,1,2,0:0:0:0:
285,232,199326,2,0,L|310:310,1,77.0000023498536,8|0,0:1|0:0,0:0:0:0:
220,124,199841,5,2,0:0:0:0:
156,179,200012,1,8,3:1:0:0:
75,152,200183,1,2,3:2:0:0:
75,152,200269,1,0,0:0:0:0:
75,152,200355,6,0,P|78:94|160:78,1,154.000004699707,4|8,1:0|0:1,0:0:0:0:
232,30,200869,2,0,P|288:58|359:24,1,115.50000352478,0|0,0:0|0:0,0:0:0:0:
361,27,201212,1,2,0:0:0:0:
455,84,201383,2,0,L|495:65,2,38.5000011749268,8|2|2,0:1|0:0|0:0,0:0:0:0:
435,181,201726,6,0,P|427:241|428:270,2,77.0000023498536,2|0|8,1:2|0:0|0:1,0:0:0:0:
341,140,202241,1,0,0:0:0:0:
341,140,202327,6,0,B|292:192|292:192|219:170,1,115.50000352478,0|2,0:0|0:0,0:0:0:0:
141,137,202755,1,8,0:1:0:0:
141,137,202841,1,2,0:0:0:0:
141,137,202926,2,0,L|135:186,1,38.5000011749268,2|0,0:0|0:0,0:0:0:0:
97,206,203098,6,0,P|93:262|90:309,1,77.0000023498536,0|0,1:0|0:0,0:0:0:0:
84,325,203355,2,0,P|176:286|206:292,1,115.50000352478,0|0,0:0|0:0,0:0:0:0:
292,350,203783,2,0,P|351:339|381:321,1,77.0000023498536,0|0,1:0|0:0,0:0:0:0:
391,300,204041,1,0,0:0:0:0:
391,300,204126,2,0,L|396:232,2,51.3333348999024,8|2|2,0:1|0:0|0:0,0:0:0:0:
482,255,204469,6,0,P|470:173|454:110,1,115.50000352478,2|0,1:2|0:0,0:0:0:0:
446,108,204812,2,0,P|382:125|344:125,1,77.0000023498536,0|2,1:0|3:2,0:0:0:0:
240,101,205155,2,0,P|281:47|318:122,1,154.000004699707,8|2,0:1|3:2,0:0:0:0:
279,190,205669,1,2,0:0:0:0:
279,190,205755,1,2,0:0:0:0:
279,190,205841,6,0,P|215:220|126:197,1,154.000004699707,4|8,1:0|0:1,0:0:0:0:
28,238,206355,2,0,L|13:316,1,77.0000023498536,2|0,0:0|0:0,0:0:0:0:
115,363,206698,1,0,0:0:0:0:
115,363,206784,1,0,0:0:0:0:
115,363,206869,2,0,B|197:321|197:321|219:340,1,115.50000352478,8|2,0:1|0:0,0:0:0:0:
238,358,207212,6,0,P|338:355|342:357,1,77.0000023498536,2|0,1:2|0:0,0:0:0:0:
384,283,207555,2,0,P|441:281|468:263,1,77.0000023498536,8|2,0:1|0:0,0:0:0:0:
476,240,207812,6,0,P|448:122|448:122,1,115.50000352478,2|0,0:0|0:0,0:0:0:0:
321,108,208241,1,8,0:1:0:0:
321,108,208326,1,2,0:0:0:0:
321,108,208412,2,0,L|312:159,1,38.5000011749268,2|2,0:0|0:0,0:0:0:0:
279,175,208583,6,0,P|201:189|168:182,1,77.0000023498536,2|0,1:2|0:0,0:0:0:0:
164,174,208841,2,0,B|141:135|141:135|163:42,1,115.50000352478,0|2,0:0|0:0,0:0:0:0:
72,8,209269,1,0,1:0:0:0:
10,99,209441,1,0,0:0:0:0:
10,99,209526,6,0,B|40:137|40:137|17:212,1,115.50000352478,2|2,0:0|0:0,0:0:0:0:
79,291,209955,2,0,P|139:305|198:287,1,115.50000352478,2|2,1:2|0:0,0:0:0:0:
221,273,210298,2,0,L|313:288,1,77.0000023498536,8|2,0:1|0:0,0:0:0:0:
383,228,210641,2,0,L|475:218,1,77.0000023498536,0|2,0:0|0:0,0:0:0:0:
323,159,210983,1,8,0:1:0:0:
323,159,211155,1,2,3:2:0:0:
237,218,211327,6,0,P|173:238|102:192,1,154.000004699707,6|8,1:2|0:1,0:0:0:0:
181,75,211841,2,0,L|179:175,2,77.0000023498536,0|2|2,0:0|1:2|0:0,0:0:0:0:
274,33,212355,1,8,0:1:0:0:
274,33,212441,1,2,0:0:0:0:
274,33,212527,2,0,L|332:41,1,38.5000011749268,2|2,0:0|0:0,0:0:0:0:
353,50,212698,6,0,B|391:93|391:93|358:147|370:195,1,154.000004699707,2|8,1:2|0:1,0:0:0:0:
361,291,213212,1,0,0:0:0:0:
361,291,213298,2,0,B|291:274|291:274|253:306,1,115.50000352478,0|2,0:0|0:0,0:0:0:0:
174,346,213726,1,8,0:1:0:0:
174,346,213812,1,2,0:0:0:0:
174,346,213898,2,0,L|102:346,1,38.5000011749268,2|2,0:0|0:0,0:0:0:0:
95,318,214069,6,0,L|82:273,3,38.5000011749268,2|0|0|2,1:2|0:0|0:0|3:2,0:0:0:0:
111,245,214412,2,0,L|124:200,3,38.5000011749268,8|0|2|0,1:0|3:0|3:2|3:0,0:0:0:0:
169,188,214755,6,0,B|227:220|227:220|299:183,2,115.50000352478,0|0|0,1:0|1:0|3:0,0:0:0:0:
362,105,215441,6,0,L|380:206,1,77.0000023498536,4|0,1:2|0:0,0:0:0:0:
418,199,215698,2,0,L|409:291,1,77.0000023498536,4|0,1:2|0:0,0:0:0:0:
403,325,215955,2,0,L|315:300,1,77.0000023498536,4|0,1:2|0:0,0:0:0:0:
304,329,216212,1,4,1:2:0:0:
304,329,216298,1,0,0:0:0:0:
205,275,216469,6,0,B|192:239|192:239|205:176|205:176|189:125,1,154.000004699707,12|4,0:0|1:0,0:0:0:0:
134,54,216983,2,0,L|138:4,2,35,2|2|10,0:1|0:0|0:0,0:0:0:0:
99,138,217326,1,2,0:1:0:0:
190,127,217498,2,0,B|237:110|237:110|274:123|274:123|345:107,1,140,0|8,1:0|0:0,0:0:0:0:
409,142,218012,1,2,0:1:0:0:
487,85,218184,6,0,B|471:117|450:130|450:130|459:151|459:151|445:182|457:240,1,140,0|8,1:2|0:0,0:0:0:0:
493,292,218698,1,2,0:1:0:0:
420,347,218869,2,0,B|392:345|376:336|376:336|350:352|350:352|322:329|262:327,1,140,0|8,1:0|0:0,0:0:0:0:
291,329,219555,6,0,B|292:298|282:283|282:283|289:268|289:268|269:234|282:183,1,140,2|10,1:2|0:0,0:0:0:0:
309,112,220069,1,2,0:1:0:0:
244,47,220241,2,0,L|158:35,1,70,0|0,1:0|0:0,0:0:0:0:
100,90,220584,1,8,0:0:0:0:
42,19,220755,1,2,0:1:0:0:
0,115,220926,6,0,B|3:134|2:154|2:154|23:169|23:169|9:205|34:271,1,140,0|10,1:0|0:0,0:0:0:0:
122,297,221441,2,0,L|134:223,1,70,2|0,0:1|1:0,0:0:0:0:
209,183,221783,1,2,0:1:0:0:
293,224,221955,1,8,0:0:0:0:
293,224,222298,6,0,B|322:223|341:247|325:249|360:261|413:270|447:225,1,140,0|10,1:0|0:0,0:0:0:0:
484,156,222812,2,0,L|388:138,1,70,2|0,0:1|1:0,0:0:0:0:
354,74,223155,1,0,0:0:0:0:
275,117,223326,1,8,0:0:0:0:
275,117,223669,6,0,B|271:153|280:174|280:174|275:175|275:175|294:207|288:260,1,140,0|10,1:0|0:0,0:0:0:0:
250,332,224183,1,2,0:1:0:0:
171,283,224355,2,0,P|138:270|104:275,1,70,0|2,1:0|0:1,0:0:0:0:
250,332,224698,2,0,P|282:344|316:339,1,70,8|2,0:0|0:1,0:0:0:0:
385,280,225041,5,0,1:0:0:0:
385,280,225384,2,0,L|388:193,1,70,10|2,0:0|0:1,0:0:0:0:
443,138,225727,2,0,B|414:144|388:164|388:164|357:143|296:128,1,140,0|8,1:0|0:0,0:0:0:0:
233,173,226241,1,2,0:1:0:0:
167,109,226412,6,0,B|158:89|128:78|82:106|88:156,1,105,0|0,1:0|1:0,0:0:0:0:
71,284,226927,2,0,L|150:270,1,70,0|8,1:0|0:0,0:0:0:0:
244,349,227269,5,0,3:0:0:0:
296,274,227441,2,0,B|302:258|301:220|287:251|316:227|323:211|316:227|323:211|308:204|292:197|285:213|301:220|316:227|323:211|308:204|301:220|285:213|292:197|306:166|322:173|308:204|322:173|313:150,1,140,2|4,3:1|1:0,0:0:0:0:
