osu file format v14

[General]
AudioFilename: audio.mp3
AudioLeadIn: 0
PreviewTime: 44613
Countdown: 0
SampleSet: Soft
StackLeniency: 0.9
Mode: 0
LetterboxInBreaks: 0
WidescreenStoryboard: 1

[Editor]
DistanceSpacing: 1.5
BeatDivisor: 4
GridSize: 4
TimelineZoom: 2.000006

[Metadata]
Title:Aa Kenran no Yume ga Gotoku (Epsilon Remix)
TitleUnicode:嗚呼 絢爛の泡沫が如く (Epsilon Remix)
Artist:Uinyasu, Occhoko Bunny
ArtistUnicode:ういにゃす・おっちょこバニー
Creator:GIDZ
Version:Little's Advanced
Source:千の刃濤、桃花染の皇姫
Tags:Dirty Farmer Regou hellgou Flask little CloudSplash16 Matha -_Matha_- Petal xlolicore xLolicore- Elsa Valentine My Angel Watame Naotoshi Lasse Flask Dailycare Morinaga Sing Nao Tomori Amamiya Yuko Skystar opening eroge visual novel sen no hatou tsukisome no kouki senmomo august soft OP Japanese Gal game electronic jpop
BeatmapID:1629678
BeatmapSetID:749096

[Difficulty]
HPDrainRate:4.5
CircleSize:3.2
OverallDifficulty:5
ApproachRate:6.5
SliderMultiplier:1.2
SliderTickRate:1

[Events]
//Background and Video events
0,0,"little bg.jpg",0,0
//Break Periods
2,76927,81437
2,122384,126619
//Storyboard Layer 0 (Background)
//Storyboard Layer 1 (Fail)
//Storyboard Layer 2 (Pass)
//Storyboard Layer 3 (Foreground)
//Storyboard Layer 4 (Overlay)
//Storyboard Sound Samples

[TimingPoints]
813,342.857142857143,4,2,1,80,1,0
22070,-83.3333333333333,4,2,1,70,0,0
22413,-83.3333333333333,4,2,1,90,0,0
22670,-83.3333333333333,4,2,1,5,0,0
22755,-100,4,2,1,80,0,0
27555,-100,4,2,1,60,0,0
27813,-100,4,2,1,70,0,0
28241,-100,4,2,1,80,0,0
33727,-100,4,2,1,90,0,0
38013,-100,4,2,1,5,0,0
38098,-100,4,2,1,90,0,0
38270,-100,4,2,1,5,0,0
38355,-100,4,2,1,90,0,0
38527,-100,4,2,1,5,0,0
38613,-100,4,2,1,90,0,0
38784,-100,4,2,1,5,0,0
38870,-100,4,2,1,90,0,0
39127,-100,4,2,1,5,0,0
39213,-100,4,2,1,80,0,0
43413,-100,4,2,1,5,0,0
43498,-100,4,2,1,80,0,0
43584,-100,4,2,1,5,0,0
43670,-100,4,2,1,80,0,0
43755,-100,4,2,1,5,0,0
43841,-100,4,2,1,80,0,0
43927,-100,4,2,1,5,0,0
44013,-100,4,2,1,80,0,0
44698,-100,4,2,1,100,0,1
54984,-100,4,2,1,80,0,1
55327,-100,4,2,1,90,0,1
55584,-100,4,2,1,5,0,1
55670,-100,4,2,1,100,0,1
65955,-100,4,2,1,80,0,1
66298,-100,4,2,1,90,0,1
66641,-100,4,2,1,90,0,0
75213,-100,4,2,1,80,0,0
75555,-100,4,2,1,70,0,0
76155,-100,4,2,1,5,0,0
76241,-100,4,2,1,80,0,0
76755,-100,4,2,1,40,0,0
76927,342.857142857143,4,2,1,60,1,0
82412,-133.333333333333,4,2,1,60,0,0
82413,-133.333333333333,4,2,1,70,0,0
85155,-133.333333333333,4,2,1,80,0,0
86527,-100,4,2,1,80,0,0
87384,-100,4,2,1,70,0,0
87898,-100,4,2,1,90,0,0
92184,-100,4,2,1,5,0,0
92269,-100,4,2,1,90,0,0
92441,-100,4,2,1,5,0,0
92527,-100,4,2,1,90,0,0
92698,-100,4,2,1,5,0,0
92784,-100,4,2,1,90,0,0
92955,-100,4,2,1,5,0,0
93041,-100,4,2,1,90,0,0
93298,-100,4,2,1,5,0,0
93384,-100,4,2,1,80,0,0
99898,-100,4,2,1,90,0,0
100241,-100,4,2,1,100,0,1
110869,-100,4,2,1,90,0,1
111212,-100,4,2,1,100,0,1
121498,-100,4,2,1,70,0,1
122012,-100,4,2,1,5,0,1
122184,-100,4,2,1,60,0,0
123555,-100,4,2,1,40,0,0
123727,-100,4,2,1,60,0,0
127669,-133.333333333333,4,2,1,80,0,0
132469,-133.333333333333,4,2,1,60,0,0
132898,-133.333333333333,4,2,1,5,0,0
132984,-133.333333333333,4,2,1,80,0,0
133069,-133.333333333333,4,2,1,5,0,0
133155,-133.333333333333,4,2,1,70,0,0
144212,-133.333333333333,4,2,1,50,0,0
145498,-133.333333333333,4,2,1,60,0,0
157841,-133.333333333333,4,2,1,70,0,0
158527,-133.333333333333,4,2,1,60,0,0
158869,-133.333333333333,4,2,1,80,0,0
164698,-114.285714285714,4,2,1,80,0,0
168812,-114.285714285714,4,2,1,70,0,0
169498,-114.285714285714,4,2,1,60,0,0
169841,-114.285714285714,4,2,1,90,0,0
170184,-100,4,2,1,100,0,1
180469,-100,4,2,1,80,0,1
180812,-100,4,2,1,70,0,1
181069,-100,4,2,1,5,0,1
181155,-100,4,2,1,100,0,1
191441,-100,4,2,1,80,0,1
191784,-100,4,2,1,90,0,1
192127,-100,4,2,1,80,0,0
194869,-100,4,2,1,90,0,1
215441,-100,4,2,1,80,0,1
215612,-100,4,2,1,5,0,1
215698,-100,4,2,1,80,0,1
215869,-100,4,2,1,5,0,1
215955,-100,4,2,1,80,0,1
216127,-100,4,2,1,5,0,1
216212,-100,4,2,1,80,0,1
216469,-100,4,2,1,60,0,1
216812,-100,4,2,1,90,0,0
227784,-100,4,2,1,80,0,0
238755,-100,4,2,1,50,0,0
240812,-100,4,2,1,5,0,0

[Colours]
Combo1 : 51,51,255
Combo2 : 255,17,17

[HitObjects]
148,76,812,6,0,L|92:97,1,60,0|0,1:2|1:2,0:0:0:0:
37,123,1155,2,0,L|84:159,1,60,0|0,0:0|0:0,0:0:0:0:
135,194,1498,2,0,L|143:133,1,60,0|0,1:0|0:0,0:0:0:0:
92,97,1841,6,0,L|69:275,2,180,0|0|0,1:2|0:0|1:2,0:0:0:0:
204,56,3213,1,0,1:0:0:0:
316,100,3555,6,0,P|345:105|374:100,2,60,0|0|0,1:0|0:0|1:0,0:0:0:0:
203,55,4241,2,0,P|273:104|273:191,1,180,0|0,1:2|0:0,0:0:0:0:
228,232,4927,5,0,1:0:0:0:
108,216,5270,1,0,1:0:0:0:
228,232,5613,2,0,B|368:220|368:220|337:245,1,180,0|0,1:2|0:0,0:0:0:0:
300,292,6298,6,0,P|289:328|291:357,1,60,0|0,1:2|0:0,0:0:0:0:
300,292,6641,2,0,P|274:265|247:252,1,60,0|0,1:2|0:0,0:0:0:0:
300,292,6984,2,0,P|328:284|353:267,1,60,0|0,1:0|0:0,0:0:0:0:
391,219,7327,6,0,P|369:135|424:68,2,180,0|0|0,1:2|0:0|1:2,0:0:0:0:
496,276,8698,1,0,1:0:0:0:
392,336,9041,6,0,L|328:328,1,60,0|0,1:0|0:0,0:0:0:0:
276,348,9384,2,0,L|212:340,1,60,0|0,1:0|0:0,0:0:0:0:
176,296,9727,2,0,L|354:273,1,180,0|0,1:2|0:0,0:0:0:0:
415,265,10413,5,2,1:3:0:0:
318,192,10755,1,2,1:3:0:0:
426,145,11098,1,0,1:0:0:0:
426,145,11441,2,0,L|430:115,3,30,0|0|0|0,3:2|1:0|3:2|1:0,0:0:0:0:
440,56,11784,6,0,P|384:73|327:57,1,120,4|8,1:0|0:0,0:0:0:0:
273,28,12298,1,2,0:1:0:0:
160,72,12641,1,2,0:0:0:0:
160,72,12813,2,0,L|148:196,1,120,8|0,0:0|1:0,0:0:0:0:
104,232,13327,6,0,P|76:243|46:245,1,60,2|8,0:1|0:0,0:0:0:0:
108,348,13841,2,0,P|164:331|221:348,1,120,2|10,1:2|0:0,0:0:0:0:
280,356,14355,2,0,P|307:344|337:342,1,60,0|0,0:0|1:0,0:0:0:0:
396,356,14698,6,0,P|423:367|453:369,2,60,2|8|2,0:1|0:0|0:1,0:0:0:0:
379,298,15213,2,0,L|390:178,1,120,0|8,1:0|0:0,0:0:0:0:
396,120,15727,1,2,0:0:0:0:
396,120,15898,5,0,1:0:0:0:
284,160,16241,1,8,0:0:0:0:
168,128,16584,2,0,L|110:112,2,60,2|0|10,1:2|0:0|0:0,0:0:0:0:
284,160,17270,6,0,L|272:279,1,120,4|0,1:0|1:0,0:0:0:0:
232,324,17784,2,0,P|175:341|118:324,1,120,2|2,0:1|0:0,0:0:0:0:
68,292,18298,1,0,1:0:0:0:
140,196,18641,6,0,L|228:214,2,90,0|0|2,1:0|0:0|0:1,0:0:0:0:
93,159,19327,2,0,P|122:152|147:137,1,60,0|2,1:0|0:0,0:0:0:0:
208,128,19670,2,0,P|223:102|231:73,1,60,0|2,1:0|0:0,0:0:0:0:
267,24,20013,5,0,1:0:0:0:
292,80,20184,1,0,1:0:0:0:
317,136,20355,1,0,1:0:0:0:
342,192,20527,1,0,1:0:0:0:
402,198,20698,6,0,L|431:201,7,30,0|0|0|0|0|0|0|0,1:0|1:0|1:0|1:0|3:0|1:0|1:0|1:0,0:0:0:0:
368,248,21384,2,0,L|457:257,2,90,0|0|0,1:0|3:0|3:0,0:0:0:0:
334,299,22070,2,0,L|473:310,1,143.999995605469,0|8,1:0|1:0,0:0:0:0:
334,299,22755,6,0,P|290:303|252:327,1,90,4|0,1:0|0:0,0:0:0:0:
208,336,23098,2,0,L|199:276,1,60,0|2,0:0|0:2,0:0:0:0:
268,216,23441,2,0,L|275:126,1,90,0|0,1:0|0:0,0:0:0:0:
240,95,23784,2,0,P|213:110|184:113,1,60,0|2,1:0|0:0,0:0:0:0:
51,192,24127,6,0,L|141:200,1,90,0|0,1:0|0:0,0:0:0:0:
181,220,24470,2,0,P|195:246|199:276,1,60,0|2,1:0|0:0,0:0:0:0:
275,354,24813,2,0,L|288:296,1,60,0|2,1:0|0:0,0:0:0:0:
363,217,25155,2,0,L|376:276,1,60,0|2,1:0|0:0,0:0:0:0:
460,348,25498,6,0,L|476:228,1,120,0|0,1:0|1:0,0:0:0:0:
496,72,26184,1,0,1:0:0:0:
352,132,26527,1,0,1:0:0:0:
352,132,26870,6,0,P|308:144|264:137,1,90,0|0,1:0|0:0,0:0:0:0:
224,116,27213,1,0,1:0:0:0:
284,284,27555,1,0,1:0:0:0:
284,284,28241,6,0,L|194:273,1,90,0|0,1:0|0:0,0:0:0:0:
160,244,28584,2,0,L|76:256,1,60,8|0,0:0|0:0,0:0:0:0:
31,192,28927,2,0,P|70:169|90:130,1,90,0|0,1:0|0:0,0:0:0:0:
124,100,29270,2,0,P|135:127|159:145,1,60,8|0,0:0|0:0,0:0:0:0:
244,180,29613,6,0,L|303:174,1,60,0|0,1:0|0:0,0:0:0:0:
388,204,29955,2,0,L|447:198,1,60,8|0,0:0|0:0,0:0:0:0:
488,300,30298,2,0,L|428:294,1,60,0|0,1:0|0:0,0:0:0:0:
344,324,30641,2,0,L|284:318,1,60,8|0,0:0|1:0,0:0:0:0:
195,339,30984,6,0,P|160:313|116:309,1,90,0|0,1:0|0:0,0:0:0:0:
72,320,31327,1,8,0:0:0:0:
72,320,31670,2,0,P|88:260|70:192,1,120,0|8,1:0|1:2,0:0:0:0:
0,81,32355,5,0,1:0:0:0:
104,103,32527,1,0,1:0:0:0:
104,103,32613,1,0,1:0:0:0:
104,103,32698,2,0,L|172:91,1,60,2|0,1:2|0:0,0:0:0:0:
252,108,33041,2,0,L|134:130,1,120,8|2,0:0|0:3,0:0:0:0:
28,276,33727,6,0,P|73:312|132:309,1,120,2|2,1:3|1:0,0:0:0:0:
220,336,34241,1,2,0:0:0:0:
220,336,34413,2,0,B|264:324|264:324|356:336,1,120,8|2,0:1|0:0,0:0:0:0:
444,188,35098,6,0,L|344:196,2,90,2|2|2,1:0|1:0|1:0,0:0:0:0:
468,100,35784,2,0,P|424:100|360:40,1,120,8|2,0:1|0:1,0:0:0:0:
192,104,36470,6,0,B|156:96|156:96|103:103,2,90,2|2|2,1:0|1:0|1:0,0:0:0:0:
223,188,37155,2,0,P|182:229|124:234,1,120,8|2,0:1|1:2,0:0:0:0:
0,364,37841,6,0,L|89:353,1,90,2|2,1:0|1:0,0:0:0:0:
224,372,38355,2,0,L|313:361,1,90,2|2,1:0|1:0,0:0:0:0:
448,380,38870,1,10,0:0:0:0:
447,380,39213,6,0,P|487:302|452:223,1,180,2|0,1:0|0:0,0:0:0:0:
452,223,39898,2,0,B|364:259|364:187|276:223,1,180,10|0,0:0|0:0,0:0:0:0:
277,222,40584,5,2,1:3:0:0:
116,304,40927,1,0,0:0:0:0:
34,142,41270,1,8,0:0:0:0:
196,60,41613,1,0,0:0:0:0:
277,222,41955,6,0,B|261:282|281:342|281:342|314:294,1,180,0|0,1:0|0:0,0:0:0:0:
314,294,42641,2,0,B|402:270|402:270|487:293,1,180,10|2,0:0|0:0,0:0:0:0:
487,293,43327,6,0,L|478:234,1,60,2|0,1:2|1:0,0:0:0:0:
404,184,43670,2,0,L|412:124,1,60,0|0,1:0|1:0,0:0:0:0:
492,80,44013,2,0,L|487:50,4,30,0|0|0|0|8,3:0|3:0|3:0|3:0|0:0,0:0:0:0:
316,112,44698,6,0,B|268:132|268:132|240:116|203:112,1,120,4|8,1:0|0:1,0:0:0:0:
112,268,45384,2,0,B|160:248|160:248|188:264|224:267,1,120,0|8,1:0|0:1,0:0:0:0:
316,256,45898,1,2,0:0:0:0:
316,256,46070,6,0,L|327:314,1,60,0|2,1:0|0:0,0:0:0:0:
416,316,46413,2,0,L|404:257,1,60,8|0,0:1|0:0,0:0:0:0:
432,172,46755,1,2,1:2:0:0:
260,112,47098,2,0,P|235:95|217:71,1,60,8|0,0:1|0:0,0:0:0:0:
128,68,47441,6,0,L|112:187,1,120,0|8,1:0|0:1,0:0:0:0:
7,336,48127,2,0,P|36:326|66:324,1,60,0|2,1:0|0:0,0:0:0:0:
156,340,48470,2,0,P|184:349|214:351,1,60,8|2,0:1|0:0,0:0:0:0:
304,332,48813,5,0,1:0:0:0:
192,192,49155,1,8,0:1:0:0:
369,165,49498,1,2,1:2:0:0:
369,165,49841,2,0,L|380:107,1,60,8|0,1:0|1:0,0:0:0:0:
312,44,50184,6,0,L|254:55,1,60,0|0,1:0|0:0,0:0:0:0:
176,104,50527,2,0,L|118:93,1,60,8|2,0:1|0:0,0:0:0:0:
28,76,50870,1,0,1:0:0:0:
28,76,51213,2,0,L|39:134,1,60,8|2,0:1|0:0,0:0:0:0:
56,223,51555,6,0,P|52:253|40:281,1,60,0|0,1:0|0:0,0:0:0:0:
132,312,51898,2,0,P|114:336|90:353,1,60,8|2,0:1|0:0,0:0:0:0:
224,339,52241,2,0,P|279:319|338:330,1,120,0|8,1:0|0:1,0:0:0:0:
420,372,52755,1,2,0:0:0:0:
420,372,52927,6,0,P|372:309|444:279,1,180,0|2,1:0|0:0,0:0:0:0:
500,208,53613,2,0,L|512:149,1,60,0|2,1:0|0:0,0:0:0:0:
416,160,53955,2,0,L|427:101,1,60,8|2,0:1|0:0,0:0:0:0:
332,112,54298,5,0,1:0:0:0:
332,112,54641,2,0,L|343:53,1,60,8|0,0:1|0:0,0:0:0:0:
256,28,54984,2,0,P|205:58|146:57,1,120,2|8,3:2|0:0,0:0:0:0:
36,200,55670,6,0,B|71:189|71:189|153:202,1,120,4|8,1:2|0:1,0:0:0:0:
296,312,56355,2,0,B|331:322|331:322|413:309,1,120,0|8,1:0|0:1,0:0:0:0:
484,252,56870,1,2,0:0:0:0:
483,252,57041,6,0,P|485:222|478:193,1,60,0|0,1:0|0:0,0:0:0:0:
392,168,57384,2,0,P|366:151|338:143,1,60,8|2,0:1|0:0,0:0:0:0:
248,160,57727,1,2,1:2:0:0:
108,272,58070,2,0,L|120:340,1,60,8|2,0:1|0:0,0:0:0:0:
204,360,58413,6,0,P|256:348|336:352,1,120,0|8,1:2|0:1,0:0:0:0:
464,240,59098,2,0,L|380:224,1,60,0|0,1:0|0:0,0:0:0:0:
356,152,59441,2,0,L|414:140,1,60,8|2,0:1|0:0,0:0:0:0:
504,124,59784,5,0,1:0:0:0:
332,68,60127,1,8,0:1:0:0:
197,188,60470,1,2,1:2:0:0:
197,188,60813,2,0,L|138:176,1,60,8|0,0:1|0:0,0:0:0:0:
55,216,61155,6,0,P|58:245|68:273,1,60,0|0,1:0|0:0,0:0:0:0:
132,336,61498,2,0,P|159:348|188:354,1,60,8|2,0:1|0:0,0:0:0:0:
274,330,61841,1,0,1:0:0:0:
274,330,62184,2,0,P|298:313|317:290,1,60,8|2,0:1|0:0,0:0:0:0:
339,204,62527,6,0,L|332:144,1,60,0|0,1:0|0:0,0:0:0:0:
248,108,62870,2,0,L|241:168,1,60,8|2,0:1|0:0,0:0:0:0:
156,200,63213,2,0,L|140:72,1,120,0|8,1:0|0:1,0:0:0:0:
52,84,63727,1,2,0:0:0:0:
52,84,63898,6,0,P|4:153|57:218,1,180,0|2,1:0|0:0,0:0:0:0:
120,284,64584,2,0,P|144:300|163:323,1,60,0|2,1:0|0:0,0:0:0:0:
248,292,64927,2,0,P|253:321|250:351,1,60,2|2,1:2|0:0,0:0:0:0:
344,300,65270,6,0,P|338:270|341:240,1,60,0|0,1:0|1:0,0:0:0:0:
259,203,65613,2,0,P|275:178|298:159,1,60,0|0,1:0|1:0,0:0:0:0:
384,128,65955,2,0,L|504:136,1,120,2|8,3:2|0:0,0:0:0:0:
503,136,66641,6,0,B|472:213|472:213|504:217|504:217|472:301,1,180,4|2,3:0|0:0,0:0:0:0:
400,320,67327,2,0,P|370:315|341:321,1,60,0|2,0:0|0:1,0:0:0:0:
252,340,67670,2,0,P|222:344|193:338,1,60,8|0,0:1|0:0,0:0:0:0:
112,296,68013,6,0,P|88:232|104:196,1,90,0|2,1:0|0:0,0:0:0:0:
112,172,68355,2,0,L|95:114,1,60,8|2,0:1|0:0,0:0:0:0:
188,116,68698,2,0,L|230:73,1,60,0|2,0:0|0:1,0:0:0:0:
273,154,69041,2,0,L|331:168,1,60,8|0,0:1|0:0,0:0:0:0:
420,188,69384,6,0,L|472:104,2,90,0|2|2,1:0|0:0|0:0,0:0:0:0:
407,276,70070,2,0,P|425:300|450:317,1,60,0|2,1:0|0:1,0:0:0:0:
340,336,70413,2,0,P|310:339|283:351,1,60,8|0,0:1|0:0,0:0:0:0:
192,360,70755,6,0,L|102:348,1,90,0|2,1:0|3:2,0:0:0:0:
56,344,71098,1,8,0:1:0:0:
12,264,71270,2,0,P|60:231|117:246,1,120,2|2,0:1|0:0,0:0:0:0:
204,272,71784,2,0,L|217:213,1,60,8|2,0:1|0:1,0:0:0:0:
296,168,72127,6,0,L|288:76,2,90,6|6|6,1:0|1:0|1:0,0:0:0:0:
460,240,72984,5,8,0:1:0:0:
460,240,73155,2,0,L|452:332,2,90,6|6|6,1:0|1:0|1:0,0:0:0:0:
292,304,74013,5,8,0:1:0:0:
292,304,74184,2,0,L|200:312,2,90,2|2|2,1:0|1:0|1:0,0:0:0:0:
148,192,75041,5,0,1:0:0:0:
148,192,75213,2,0,L|135:133,1,60,2|2,3:2|3:2,0:0:0:0:
208,80,75555,2,0,P|306:138|406:82,1,240,0|8,1:0|0:0,0:0:0:0:
459,304,82412,6,0,P|378:333|302:290,1,180.000006866455,4|8,1:0|0:0,0:0:0:0:
252,164,83441,1,2,0:0:0:0:
387,143,83784,6,0,B|447:132|447:132|388:236,1,180.000006866455,0|8,1:0|0:0,0:0:0:0:
320,352,84812,1,2,0:0:0:0:
200,288,85155,6,0,P|167:280|133:281,1,67.5000025749207,0|0,1:0|0:0,0:0:0:0:
112,256,85498,2,0,P|79:265|51:283,1,67.5000025749207,0|2,1:0|0:0,0:0:0:0:
19,272,85841,2,0,L|27:182,1,90.0000034332277,8|0,0:0|1:0,0:0:0:0:
44,48,86527,5,0,1:0:0:0:
132,108,86698,1,0,1:0:0:0:
132,108,86784,1,0,0:0:0:0:
132,108,86869,2,0,L|228:100,1,90,0|0,1:0|3:0,0:0:0:0:
268,96,87212,1,8,0:0:0:0:
267,96,87898,6,0,P|228:139|228:198,1,120,6|2,1:3|1:0,0:0:0:0:
312,232,88412,1,0,1:0:0:0:
312,232,88584,2,0,P|351:188|351:129,1,120,8|2,0:1|1:0,0:0:0:0:
192,44,89269,6,0,L|100:52,2,90,2|2|2,1:0|1:0|1:0,0:0:0:0:
267,96,89955,2,0,P|228:139|228:198,1,120,8|2,0:1|1:0,0:0:0:0:
360,324,90641,6,0,L|452:316,2,90,2|2|2,1:0|1:0|1:0,0:0:0:0:
272,344,91327,2,0,P|224:308|166:313,1,120,8|2,0:1|1:0,0:0:0:0:
12,220,92012,6,0,L|104:212,1,90,2|2,1:0|1:0,0:0:0:0:
188,108,92527,2,0,L|277:115,1,90,2|2,1:0|1:0,0:0:0:0:
412,128,93041,1,10,0:0:0:0:
411,128,93384,6,0,P|375:206|418:282,1,180,4|0,1:0|0:0,0:0:0:0:
418,282,94069,2,0,B|332:252|332:252|248:276,1,180,8|0,0:0|0:0,0:0:0:0:
247,276,94755,5,2,1:3:0:0:
72,236,95098,1,0,0:0:0:0:
112,60,95441,1,8,0:0:0:0:
288,100,95784,1,0,0:0:0:0:
288,100,96127,6,0,B|348:128|408:84|408:84|397:135,1,180,0|0,1:0|0:0,0:0:0:0:
397,135,96812,2,0,B|448:124|448:124|404:184|432:244,1,180,8|0,0:0|0:0,0:0:0:0:
432,244,97498,6,0,P|402:247|374:259,1,60,2|0,1:3|0:0,0:0:0:0:
300,308,97841,2,0,P|270:304|242:292,1,60,0|0,0:0|0:0,0:0:0:0:
188,220,98184,2,0,L|192:156,1,60,8|2,0:0|1:2,0:0:0:0:
196,72,98527,1,8,0:0:0:0:
288,124,98698,1,2,1:2:0:0:
288,124,98784,1,2,1:2:0:0:
288,124,98869,6,0,P|317:127|347:124,1,60,2|0,1:2|1:0,0:0:0:0:
452,120,99212,2,0,P|433:143|421:171,1,60,8|0,0:0|1:0,0:0:0:0:
374,265,99555,2,0,P|362:237|345:213,1,60,0|0,0:0|1:0,0:0:0:0:
292,300,99898,2,0,P|274:324|263:351,1,60,8|0,0:0|3:0,0:0:0:0:
140,372,100241,6,0,B|132:328|132:328|144:296|144:296|126:196,1,180,6|2,1:0|0:0,0:0:0:0:
79,119,100927,2,0,P|150:169|229:134,1,180,0|2,0:0|3:1,0:0:0:0:
312,96,101612,6,0,L|371:88,1,60,2|0,1:0|0:0,0:0:0:0:
435,187,101955,2,0,L|376:180,1,60,8|2,0:1|3:1,0:0:0:0:
300,228,102298,2,0,L|313:347,1,120,0|8,0:0|0:1,0:0:0:0:
132,347,102984,6,0,L|145:227,1,120,2|8,1:0|0:1,0:0:0:0:
128,140,103498,1,0,0:0:0:0:
128,140,103669,2,0,P|105:120|77:109,1,60,0|2,0:0|1:2,0:0:0:0:
216,168,104012,2,0,P|245:164|272:151,1,60,8|0,0:1|3:2,0:0:0:0:
352,108,104355,6,0,B|396:96|396:96|468:110,1,120,2|8,1:0|0:1,0:0:0:0:
504,288,105041,2,0,B|444:312|444:312|330:293,1,180,2|2,0:0|1:0,0:0:0:0:
240,280,105727,6,0,P|219:302|206:328,1,60,2|0,1:0|0:0,0:0:0:0:
120,352,106069,2,0,P|110:323|108:293,1,60,8|2,0:1|0:1,0:0:0:0:
124,204,106412,1,0,0:0:0:0:
124,204,106755,2,0,L|64:196,1,60,8|2,0:1|3:1,0:0:0:0:
28,112,107098,6,0,L|87:104,1,60,2|0,1:0|0:0,0:0:0:0:
176,124,107441,2,0,L|235:116,1,60,8|2,0:1|3:1,0:0:0:0:
324,136,107784,1,2,1:2:0:0:
324,136,108127,2,0,L|383:128,1,60,10|2,0:1|0:1,0:0:0:0:
456,180,108469,6,0,P|407:250|322:242,1,180,2|2,1:0|0:1,0:0:0:0:
248,188,109155,1,0,0:0:0:0:
172,240,109327,1,2,1:2:0:0:
172,240,109412,1,2,0:0:0:0:
172,240,109498,2,0,L|164:312,1,60,8|2,0:1|0:1,0:0:0:0:
80,328,109841,6,0,L|64:204,1,120,2|8,1:0|0:1,0:0:0:0:
56,120,110355,1,2,1:0:0:0:
144,144,110527,2,0,L|208:132,1,60,0|8,0:0|0:1,0:0:0:0:
284,92,110869,2,0,L|348:104,1,60,2|8,1:2|0:1,0:0:0:0:
416,156,111212,6,0,B|448:212|412:268|412:268|351:279,1,180,6|2,1:0|0:1,0:0:0:0:
264,304,111898,2,0,B|208:288|208:288|148:312|89:288,1,180,2|0,0:0|0:0,0:0:0:0:
31,220,112584,6,0,P|46:193|69:174,1,60,2|0,1:0|0:0,0:0:0:0:
148,132,112927,2,0,P|176:123|206:126,1,60,8|2,0:1|3:1,0:0:0:0:
292,152,113269,1,0,3:0:0:0:
292,152,113612,2,0,L|300:88,1,60,8|2,0:1|0:0,0:0:0:0:
384,60,113955,6,0,P|413:110|407:169,1,120,2|8,1:0|0:1,0:0:0:0:
360,248,114469,1,0,0:0:0:0:
360,248,114641,2,0,L|428:264,1,60,0|2,0:0|1:2,0:0:0:0:
380,344,114984,2,0,L|321:330,1,60,8|2,0:1|3:2,0:0:0:0:
236,360,115327,6,0,B|196:368|196:368|140:356|140:356|100:364,2,120,2|8|0,1:0|0:1|0:0,0:0:0:0:
321,330,116184,2,0,L|380:344,2,60,0|10|2,1:0|0:1|3:1,0:0:0:0:
252,276,116698,6,0,P|236:250|230:220,1,60,2|2,1:0|0:0,0:0:0:0:
148,188,117041,2,0,P|162:162|185:142,1,60,8|2,0:1|0:1,0:0:0:0:
172,53,117384,2,0,P|201:52|230:62,1,60,0|0,0:0|0:0,0:0:0:0:
300,6,117727,2,0,P|315:31|321:61,1,60,8|0,0:1|0:0,0:0:0:0:
364,140,118069,6,0,L|423:134,1,60,2|2,1:0|0:0,0:0:0:0:
404,224,118412,2,0,L|409:283,1,60,8|2,0:1|3:1,0:0:0:0:
320,264,118755,2,0,L|260:269,1,60,0|0,1:0|0:0,0:0:0:0:
280,180,119098,2,0,L|274:120,1,60,8|2,0:1|0:0,0:0:0:0:
196,75,119441,6,0,P|115:107|42:60,1,180,2|2,1:0|1:0,0:0:0:0:
42,60,120127,2,0,P|36:89|21:114,1,60,0|2,0:0|1:2,0:0:0:0:
4,204,120469,2,0,P|9:233|24:258,1,60,8|0,0:1|1:0,0:0:0:0:
108,296,120812,6,0,B|148:296|180:280|180:280|204:292|223:291,2,120,2|0|8,1:0|0:0|0:1,0:0:0:0:
324,192,122184,5,4,1:0:0:0:
183,88,127669,6,0,P|111:133|119:218,2,180.000006866455,4|8|2,1:0|0:1|1:2,0:0:0:0:
312,132,129384,1,0,1:0:0:0:
312,132,129727,2,0,L|408:124,1,90.0000034332277,8|2,0:1|1:2,0:0:0:0:
256,192,130412,12,8,132469,0:1:0:0:
128,120,133155,6,0,B|112:260|112:260|140:232,1,180.000006866455,4|8,1:0|0:1,0:0:0:0:
260,192,134184,1,2,0:1:0:0:
368,256,134527,2,0,L|376:352,2,90.0000034332277,2|0|8,1:0|0:0|0:1,0:0:0:0:
412,136,135555,1,2,0:0:0:0:
324,44,135898,6,0,P|276:80|164:64,1,180.000006866455,0|8,1:0|0:1,0:0:0:0:
48,112,136927,1,2,0:1:0:0:
112,220,137269,2,0,P|120:264|115:308,1,90.0000034332277,2|2,1:0|0:1,0:0:0:0:
240,304,137955,2,0,P|231:259|236:215,1,90.0000034332277,10|2,0:1|0:0,0:0:0:0:
304,108,138641,6,0,B|440:92|440:92|408:128,1,180.000006866455,0|8,1:0|0:1,0:0:0:0:
332,224,139669,1,2,0:1:0:0:
392,336,140012,2,0,P|444:348|496:332,2,90.0000034332277,2|2|10,1:0|0:1|0:1,0:0:0:0:
268,308,141041,1,2,0:0:0:0:
144,324,141384,6,0,B|56:336|56:336|112:252,1,180.000006866455,0|8,1:0|0:1,0:0:0:0:
188,164,142412,1,2,0:1:0:0:
303,215,142755,2,0,P|388:199|417:118,2,180.000006866455,0|8|0,1:0|0:1|1:0,0:0:0:0:
303,215,145498,6,0,L|314:349,1,135.000005149841,4|2,1:0|0:0,0:0:0:0:
384,344,146184,2,0,L|372:209,1,135.000005149841,8|2,0:0|0:0,0:0:0:0:
334,153,146869,1,2,1:2:0:0:
209,205,147212,1,0,0:0:0:0:
226,71,147555,1,8,0:0:0:0:
101,123,147898,1,2,0:0:0:0:
208,204,148241,6,0,P|218:270|184:328,1,135.000005149841,0|2,1:0|0:0,0:0:0:0:
236,376,148927,2,0,P|288:335|354:335,1,135.000005149841,8|2,0:0|0:0,0:0:0:0:
420,356,149612,1,0,1:0:0:0:
352,240,149955,1,0,0:0:0:0:
486,239,150298,1,8,0:0:0:0:
418,123,150641,1,2,0:0:0:0:
284,140,150984,6,0,B|224:148|224:148|150:134,1,135.000005149841,0|2,1:0|0:0,0:0:0:0:
88,163,151669,2,0,P|61:224|80:288,1,135.000005149841,8|2,0:0|0:0,0:0:0:0:
136,328,152355,1,0,1:0:0:0:
252,260,152698,1,0,0:0:0:0:
368,328,153041,1,10,0:0:0:0:
484,260,153384,1,2,0:0:0:0:
460,128,153727,6,0,P|398:101|333:115,1,135.000005149841,0|2,1:0|0:0,0:0:0:0:
268,136,154412,2,0,P|206:162|141:148,1,135.000005149841,8|2,0:0|0:0,0:0:0:0:
84,112,155098,1,0,1:0:0:0:
24,232,155441,1,2,0:0:0:0:
97,343,155784,1,8,0:0:0:0:
229,335,156127,1,2,0:0:0:0:
288,216,156469,5,2,1:2:0:0:
155,224,156812,1,2,0:0:0:0:
215,105,157155,1,10,0:0:0:0:
215,105,157841,2,0,B|268:116|268:116|340:100|340:100|390:111,1,180.000006866455,0|0,3:0|3:0,0:0:0:0:
340,236,158869,1,8,0:0:0:0:
340,236,159212,6,0,L|332:328,1,90.0000034332277,12|10,0:0|0:0,0:0:0:0:
200,352,159898,2,0,L|207:262,1,90.0000034332277,8|10,0:0|0:0,0:0:0:0:
96,184,160584,2,0,L|6:191,1,90.0000034332277,10|10,0:0|0:0,0:0:0:0:
68,72,161269,2,0,L|157:79,1,90.0000034332277,10|10,0:0|0:0,0:0:0:0:
288,124,161955,6,0,P|331:115|367:89,1,90.0000034332277,8|10,0:0|0:0,0:0:0:0:
488,152,162641,2,0,P|481:196|455:232,1,90.0000034332277,8|10,0:0|0:0,0:0:0:0:
384,348,163327,2,0,P|347:322|303:315,1,90.0000034332277,8|10,0:0|0:0,0:0:0:0:
200,228,164012,2,0,P|163:253|119:260,1,90.0000034332277,10|10,0:0|0:0,0:0:0:0:
4,184,164698,6,0,L|56:177,1,52.500000500679,4|2,1:0|0:0,0:0:0:0:
124,136,165041,2,0,L|176:129,1,52.500000500679,0|2,1:0|0:0,0:0:0:0:
244,88,165384,2,0,L|296:81,1,52.500000500679,0|0,1:0|0:0,0:0:0:0:
360,128,165727,2,0,L|353:180,1,52.500000500679,0|2,1:0|0:0,0:0:0:0:
380,256,166069,6,0,P|404:265|430:268,1,52.500000500679,0|2,1:0|1:2,0:0:0:0:
420,348,166412,2,0,P|394:351|368:348,1,52.500000500679,2|0,1:2|1:0,0:0:0:0:
292,324,166755,2,0,P|266:320|240:324,1,52.500000500679,2|0,1:2|1:0,0:0:0:0:
160,316,167098,2,0,P|149:292|145:266,1,52.500000500679,0|0,1:0|1:0,0:0:0:0:
156,188,167441,5,0,1:0:0:0:
256,192,167527,12,4,168812,1:2:0:0:
48,128,170184,6,0,B|108:116|108:116|165:127,1,120,4|8,1:0|0:1,0:0:0:0:
284,264,170869,2,0,B|344:276|344:276|401:264,1,120,0|8,1:0|0:1,0:0:0:0:
472,208,171384,1,2,0:0:0:0:
472,208,171555,6,0,P|477:178|471:149,1,60,2|0,1:2|0:0,0:0:0:0:
420,76,171898,2,0,P|397:56|368:46,1,60,8|0,0:1|0:0,0:0:0:0:
280,55,172241,1,2,1:2:0:0:
116,132,172584,2,0,L|44:124,1,60,8|2,0:1|0:0,0:0:0:0:
4,200,172927,6,0,P|54:230|75:285,1,120,0|8,1:0|0:1,0:0:0:0:
244,352,173612,2,0,L|303:344,1,60,0|2,1:0|0:0,0:0:0:0:
392,356,173955,2,0,L|399:296,1,60,8|2,0:1|0:0,0:0:0:0:
448,220,174298,5,0,1:0:0:0:
268,232,174641,1,8,0:1:0:0:
347,70,174984,1,2,1:2:0:0:
347,70,175327,2,0,P|318:80|289:80,1,60,8|2,0:1|1:2,0:0:0:0:
200,68,175669,6,0,L|186:126,1,60,4|2,1:0|0:0,0:0:0:0:
100,148,176012,2,0,L|113:206,1,60,8|0,0:1|0:0,0:0:0:0:
200,228,176355,1,2,1:2:0:0:
200,228,176698,2,0,L|186:286,1,60,8|0,0:1|0:0,0:0:0:0:
264,332,177041,6,0,P|292:322|322:319,1,60,0|2,1:0|0:0,0:0:0:0:
422,252,177384,2,0,P|392:249|364:240,1,60,8|0,0:1|0:0,0:0:0:0:
296,179,177727,2,0,P|287:120|287:60,1,120,2|8,1:2|0:1,0:0:0:0:
372,28,178241,1,2,0:0:0:0:
372,28,178412,6,0,P|440:72|401:144,1,180,0|2,1:0|0:0,0:0:0:0:
401,144,179098,2,0,L|461:150,1,60,2|0,1:2|3:0,0:0:0:0:
368,229,179441,2,0,L|428:236,1,60,8|2,0:1|0:0,0:0:0:0:
334,314,179784,5,0,1:0:0:0:
334,314,180127,2,0,L|393:320,1,60,8|0,0:1|3:0,0:0:0:0:
368,229,180469,2,0,L|248:216,1,120,2|8,3:2|0:0,0:0:0:0:
71,252,181155,6,0,P|52:307|69:364,1,120,4|8,1:0|0:1,0:0:0:0:
152,204,181841,2,0,P|171:148|154:91,1,120,0|8,1:0|0:1,0:0:0:0:
224,36,182355,1,2,0:0:0:0:
224,36,182527,6,0,P|252:43|282:42,1,60,0|2,1:0|0:0,0:0:0:0:
348,104,182869,2,0,P|376:96|402:80,1,60,8|2,0:1|0:0,0:0:0:0:
489,100,183212,1,2,1:2:0:0:
489,100,183555,2,0,L|484:168,1,60,8|0,0:1|0:0,0:0:0:0:
420,220,183898,6,0,L|428:340,1,120,0|8,1:0|0:1,0:0:0:0:
248,368,184584,2,0,P|219:360|189:358,1,60,2|2,1:2|0:0,0:0:0:0:
128,292,184927,2,0,P|99:299|69:301,1,60,8|2,0:1|0:0,0:0:0:0:
4,240,185269,5,0,1:0:0:0:
144,128,185612,1,8,0:1:0:0:
310,193,185955,1,2,1:2:0:0:
309,193,186298,2,0,P|339:187|365:173,1,60,8|2,0:1|3:2,0:0:0:0:
456,176,186641,6,0,L|452:235,1,60,0|2,1:0|0:0,0:0:0:0:
472,324,186984,2,0,L|412:330,1,60,8|2,0:1|0:0,0:0:0:0:
329,365,187327,1,0,1:0:0:0:
329,365,187669,2,0,L|312:307,1,60,8|2,0:1|0:0,0:0:0:0:
240,252,188012,6,0,P|212:240|182:235,1,60,0|2,1:0|0:0,0:0:0:0:
82,172,188355,2,0,P|112:167|140:156,1,60,8|2,0:1|0:0,0:0:0:0:
208,96,188698,1,0,1:0:0:0:
208,96,189041,2,0,P|218:67|222:38,1,60,8|2,0:1|0:0,0:0:0:0:
308,16,189384,6,0,P|328:108|344:204,1,180,0|0,1:0|0:0,0:0:0:0:
272,247,190069,2,0,P|255:272|245:301,1,60,0|2,1:0|0:0,0:0:0:0:
156,296,190412,2,0,P|153:325|159:355,1,60,0|0,1:0|0:0,0:0:0:0:
72,252,190755,6,0,P|88:227|98:198,1,60,0|0,1:0|1:0,0:0:0:0:
188,203,191098,2,0,P|190:173|184:143,1,60,0|0,1:0|1:0,0:0:0:0:
124,76,191441,2,0,B|184:92|184:92|238:72,1,120,2|8,3:2|0:0,0:0:0:0:
416,112,192127,6,0,P|452:158|454:217,1,120,6|8,1:0|0:1,0:0:0:0:
404,292,192641,1,2,0:1:0:0:
404,292,192812,2,0,L|344:302,1,60,2|2,1:0|0:0,0:0:0:0:
264,264,193155,2,0,L|204:253,1,60,8|2,0:1|0:1,0:0:0:0:
116,276,193498,5,2,1:0:0:0:
256,160,193841,1,8,0:1:0:0:
85,96,194184,1,0,1:0:0:0:
256,160,194527,1,10,0:0:0:0:
256,160,194869,6,0,B|320:172|320:172|432:147,2,180,4|2|8,1:0|0:0|0:1,0:0:0:0:
80,195,196241,6,0,P|138:195|186:230,1,120,2|8,1:2|0:1,0:0:0:0:
256,288,196755,1,2,0:0:0:0:
256,288,196927,2,0,P|328:280|388:284,1,120,0|8,1:0|0:1,0:0:0:0:
496,148,197612,6,0,P|424:140|364:144,1,120,2|8,1:2|0:1,0:0:0:0:
292,112,198127,1,2,0:0:0:0:
292,112,198298,2,0,L|281:52,1,60,2|2,1:2|0:0,0:0:0:0:
192,64,198641,2,0,L|202:123,1,60,8|2,0:1|0:0,0:0:0:0:
148,196,198984,6,0,L|132:296,2,90,0|2|0,1:0|0:0|0:0,0:0:0:0:
300,292,199841,2,0,L|290:351,2,60,2|8|2,0:0|3:1|3:2,0:0:0:0:
380,248,200355,6,0,P|412:188|400:132,1,120,4|8,1:0|0:1,0:0:0:0:
332,84,200869,1,0,0:0:0:0:
332,84,201041,2,0,P|280:80|208:84,1,120,0|8,0:0|0:1,0:0:0:0:
56,176,201727,6,0,L|63:235,1,60,2|0,1:2|0:0,0:0:0:0:
144,272,202069,2,0,L|151:331,1,60,8|0,0:1|0:0,0:0:0:0:
236,360,202412,2,0,P|292:336|368:348,1,120,0|8,1:0|0:1,0:0:0:0:
436,364,202927,1,2,0:0:0:0:
436,364,203098,6,0,L|456:224,1,120,0|8,1:0|0:1,0:0:0:0:
436,156,203612,1,0,0:0:0:0:
436,156,203784,2,0,P|413:136|385:125,1,60,0|0,1:0|0:0,0:0:0:0:
340,48,204127,2,0,P|310:50|282:62,1,60,8|0,0:1|0:0,0:0:0:0:
203,108,204469,6,0,P|160:119|116:113,1,90,2|0,1:2|0:0,0:0:0:0:
76,92,204812,1,0,1:0:0:0:
4,148,204984,1,2,3:2:0:0:
4,148,205155,2,0,L|8:272,1,120,8|2,0:1|3:2,0:0:0:0:
172,344,205841,6,0,B|240:332|240:332|268:332|289:341,1,120,4|8,1:0|0:1,0:0:0:0:
440,240,206527,2,0,B|372:252|372:252|344:252|322:242,1,120,0|8,0:0|0:1,0:0:0:0:
244,200,207041,1,2,0:0:0:0:
244,200,207212,6,0,B|236:156|236:156|244:136|244:136|232:72,1,120,2|8,1:2|0:1,0:0:0:0:
56,56,207898,2,0,B|65:108|65:108|57:128|57:128|65:172,1,120,0|8,1:0|0:1,0:0:0:0:
80,260,208412,1,2,0:0:0:0:
80,260,208584,6,0,L|20:252,1,60,2|0,1:2|0:0,0:0:0:0:
32,340,208927,2,0,L|92:348,1,60,8|2,0:1|0:0,0:0:0:0:
164,296,209269,2,0,L|224:288,1,60,0|0,1:0|0:0,0:0:0:0:
296,340,209612,2,0,L|356:348,1,60,8|2,0:1|0:0,0:0:0:0:
432,300,209955,6,0,P|452:244|436:192,1,90,2|2,1:2|0:0,0:0:0:0:
432,172,210298,1,8,0:1:0:0:
355,124,210469,2,0,P|299:141|241:127,1,120,2|2,0:0|0:0,0:0:0:0:
160,88,210984,2,0,L|84:96,1,60,8|2,0:1|3:2,0:0:0:0:
23,140,211327,6,0,P|9:197|29:252,1,120,6|8,1:2|0:1,0:0:0:0:
196,316,212012,2,0,P|210:258|190:203,1,120,2|8,1:2|0:1,0:0:0:0:
241,127,212527,1,2,0:0:0:0:
241,127,212698,6,0,P|299:141|355:124,1,120,2|8,1:2|0:1,0:0:0:0:
464,268,213384,2,0,P|406:254|349:271,1,120,2|8,1:2|0:1,0:0:0:0:
276,324,213898,1,2,0:0:0:0:
275,324,214069,6,0,P|248:334|218:334,1,60,2|0,1:2|0:0,0:0:0:0:
132,360,214412,2,0,P|108:341|93:315,1,60,8|2,1:0|3:2,0:0:0:0:
28,253,214755,2,0,P|32:223|47:197,1,60,0|0,1:0|1:0,0:0:0:0:
68,109,215098,2,0,P|95:98|125:98,1,60,8|0,3:1|3:0,0:0:0:0:
208,136,215441,6,0,L|228:236,1,90,4|4,1:2|1:2,0:0:0:0:
348,280,215955,2,0,L|368:180,1,90,4|4,1:2|1:2,0:0:0:0:
488,136,216469,1,12,0:0:0:0:
487,136,216812,6,0,P|404:163|329:119,1,180,4|2,1:0|0:1,0:0:0:0:
292,72,217498,1,0,1:0:0:0:
172,80,217841,2,0,L|112:83,1,60,8|2,0:0|0:1,0:0:0:0:
88,140,218184,6,0,B|212:132|212:132|188:152|176:174,1,180,0|2,1:2|0:1,0:0:0:0:
152,228,218869,1,0,1:0:0:0:
240,308,219212,1,8,0:0:0:0:
356,284,219555,6,0,B|400:268|420:228|420:228|396:138,1,180,2|2,1:2|0:1,0:0:0:0:
376,84,220241,1,0,1:0:0:0:
264,124,220584,2,0,P|236:132|200:132,1,60,8|2,0:0|0:1,0:0:0:0:
148,116,220927,6,0,P|180:168|136:284,1,180,0|2,1:0|0:1,0:0:0:0:
100,312,221612,1,0,1:0:0:0:
4,240,221955,1,8,0:0:0:0:
72,140,222298,6,0,B|160:104|160:160|247:125,1,180,0|2,1:0|0:1,0:0:0:0:
300,96,222984,1,0,1:0:0:0:
412,140,223327,2,0,L|424:204,1,60,8|2,0:0|0:1,0:0:0:0:
415,260,223669,6,0,P|350:317|263:304,1,180,0|2,1:0|0:1,0:0:0:0:
216,268,224355,1,0,1:0:0:0:
96,280,224698,2,0,L|88:352,1,60,8|2,0:0|0:1,0:0:0:0:
28,348,225041,6,0,L|52:148,1,180,0|2,1:0|0:1,0:0:0:0:
60,108,225727,1,0,1:0:0:0:
164,52,226069,1,8,0:0:0:0:
276,92,226412,6,0,L|372:84,2,90,0|0|0,1:0|1:0|1:0,0:0:0:0:
264,152,227098,2,0,L|392:140,1,120,8|2,0:0|3:1,0:0:0:0:
404,260,227784,6,0,L|284:271,1,120,4|2,1:0|1:2,0:0:0:0:
196,352,228469,2,0,L|164:236,1,120,2|2,1:2|1:2,0:0:0:0:
69,163,229155,2,0,L|177:111,1,120,0|2,1:0|1:2,0:0:0:0:
232,10,229841,2,0,L|301:107,1,120,2|2,1:2|1:2,0:0:0:0:
410,143,230527,6,0,L|325:228,1,120,2|2,1:2|1:2,0:0:0:0:
309,341,231212,2,0,L|210:272,1,120,2|2,1:2|1:2,0:0:0:0:
96,236,231898,2,0,P|20:278|10:364,2,180,0|2|2,1:0|0:0|1:2,0:0:0:0:
210,272,233269,5,2,1:2:0:0:
298,191,233612,1,2,1:2:0:0:
271,74,233955,1,2,1:2:0:0:
156,38,234298,1,2,1:2:0:0:
67,119,234641,5,0,1:0:0:0:
181,155,234984,1,2,1:2:0:0:
271,74,235327,1,2,1:2:0:0:
385,110,235669,1,2,1:2:0:0:
360,228,236012,6,0,P|387:239|417:244,1,60,2|8,1:2|0:0,0:0:0:0:
308,300,236355,2,0,P|278:304|250:316,1,60,2|10,1:2|0:0,0:0:0:0:
192,248,236698,2,0,P|162:243|134:231,1,60,2|8,1:2|0:0,0:0:0:0:
34,168,237041,2,0,P|62:156|92:152,1,60,2|10,1:2|0:0,0:0:0:0:
184,147,237384,6,0,P|198:105|198:60,1,90,0|0,1:0|1:0,0:0:0:0:
332,52,237898,2,0,P|343:95|352:144,2,90,0|0|8,1:0|3:0|0:1,0:0:0:0:
272,224,238755,5,4,1:0:0:0:
