osu file format v14

[General]
AudioFilename: audio.mp3
AudioLeadIn: 0
PreviewTime: 44613
Countdown: 0
SampleSet: Normal
StackLeniency: 0.2
Mode: 0
LetterboxInBreaks: 0
WidescreenStoryboard: 1

[Editor]
Bookmarks: 152698,219555
DistanceSpacing: 0.6
BeatDivisor: 8
GridSize: 4
TimelineZoom: 2.4

[Metadata]
Title:Aa Kenran no Yume ga Gotoku (Epsilon Remix)
TitleUnicode:嗚呼 絢爛の泡沫が如く (Epsilon Remix)
Artist:Uinyasu, Occhoko Bunny
ArtistUnicode:ういにゃす・おっちょこバニー
Creator:GIDZ
Version:Extra
Source:千の刃濤、桃花染の皇姫
Tags:Dirty Farmer Regou hellgou Flask little CloudSplash16 Matha -_Matha_- Petal xlolicore xLolicore- Elsa Valentine My Angel Watame Naotoshi Lasse Flask Dailycare Morinaga Sing Nao Tomori Amamiya Yuko Skystar opening eroge visual novel sen no hatou tsukisome no kouki senmomo august soft OP Japanese Gal game electronic jpop
BeatmapID:1577898
BeatmapSetID:749096

[Difficulty]
HPDrainRate:6.9
CircleSize:4
OverallDifficulty:8.5
ApproachRate:9.3
SliderMultiplier:2.5
SliderTickRate:1

[Events]
//Background and Video events
0,0,"bg_main.jpg",0,0
//Break Periods
2,77127,81173
2,122384,127115
//Storyboard Layer 0 (Background)
//Storyboard Layer 1 (Fail)
//Storyboard Layer 2 (Pass)
//Storyboard Layer 3 (Foreground)
//Storyboard Layer 4 (Overlay)
//Storyboard Sound Samples

[TimingPoints]
813,342.857142857143,4,1,0,45,1,0
11098,-142.857142857143,4,1,1,45,0,0
11355,-142.857142857143,4,1,1,5,0,0
11441,-100,4,1,0,45,0,0
11784,-100,4,1,0,60,0,0
11955,-66.6666666666667,4,1,0,60,0,0
12041,-66.6666666666667,4,2,0,5,0,0
12127,-66.6666666666667,4,1,0,60,0,0
12298,-133.333333333333,4,1,0,60,0,0
12641,-100,4,1,0,60,0,0
13670,-133.333333333333,4,1,0,60,0,0
13927,-100,4,1,0,60,0,0
14698,-66.6666666666667,4,1,0,60,0,0
15041,-133.333333333333,4,1,0,60,0,0
15384,-100,4,1,0,60,0,0
16413,-133.333333333333,4,1,0,60,0,0
16670,-100,4,1,0,60,0,0
21384,-100,4,1,0,50,0,0
21641,-100,4,1,0,40,0,0
21898,-100,4,1,0,35,0,0
22413,-66.6666666666667,4,1,2,55,0,0
22755,-100,4,1,0,60,0,0
30641,-100,4,1,0,80,0,0
30984,-100,4,1,0,60,0,0
32355,-133.333333333333,4,1,0,60,0,0
33727,-100,4,1,1,60,0,0
34070,-66.6666666666667,4,1,1,60,0,0
34755,-100,4,1,1,60,0,0
35955,-66.6666666666667,4,1,1,60,0,0
36041,-66.6666666666667,4,1,1,5,0,0
36127,-66.6666666666667,4,1,1,60,0,0
36213,-66.6666666666667,4,1,1,5,0,0
36470,-100,4,1,1,60,0,0
38098,-83.3333333333333,4,1,1,60,0,0
38355,-71.4285714285714,4,1,1,60,0,0
38613,-62.5,4,1,1,60,0,0
38870,-50,4,1,2,60,0,0
39213,-100,4,1,0,60,0,0
43327,-100,4,1,1,80,0,0
44355,-50,4,1,2,60,0,0
44698,-100,4,1,0,60,0,1
49841,-83.3333333333333,4,1,0,60,0,1
50184,-100,4,1,0,60,0,1
55327,-66.6666666666667,4,1,2,80,0,1
55498,-66.6666666666667,4,2,0,20,0,1
55670,-100,4,1,0,60,0,1
58927,-100,4,1,0,40,0,1
59098,-100,4,1,0,60,0,1
59270,-100,4,1,0,40,0,1
59441,-100,4,1,0,60,0,1
59613,-100,4,1,0,40,0,1
59784,-100,4,1,0,60,0,1
60813,-83.3333333333333,4,1,0,60,0,1
61155,-100,4,1,0,60,0,1
65270,-100,4,1,0,80,0,1
66298,-66.6666666666667,4,1,2,80,0,1
66641,-100,4,1,1,60,0,0
68870,-83.3333333333333,4,1,1,60,0,0
69213,-100,4,1,1,60,0,0
70755,-100,4,1,0,60,0,0
71270,-66.6666666666667,4,1,0,60,0,0
72127,-100,4,1,0,60,0,0
72641,-142.857142857143,4,1,1,60,0,0
72984,-66.6666666666667,4,1,1,60,0,0
73155,-100,4,1,0,60,0,0
73670,-142.857142857143,4,1,1,60,0,0
74013,-66.6666666666667,4,1,1,60,0,0
74184,-100,4,1,0,60,0,0
74698,-66.6666666666667,4,1,0,60,0,0
75555,-142.857142857143,4,1,1,60,0,0
76241,-142.857142857143,4,1,2,60,0,0
76927,342.857142857143,4,1,0,60,1,0
82070,-100,4,1,0,60,0,0
82412,-100,4,1,1,40,0,0
82584,-100,4,1,0,40,0,0
83784,-100,4,1,1,40,0,0
83955,-100,4,1,0,40,0,0
85155,-100,4,1,1,40,0,0
85841,-100,4,1,0,50,0,0
86527,-100,4,1,1,50,0,0
86869,-100,4,1,0,50,0,0
87213,-66.6666666666667,4,1,2,50,0,0
87384,-66.6666666666667,4,1,0,60,0,0
87555,-100,4,1,0,60,0,0
87898,-100,4,1,1,60,0,0
88241,-66.6666666666667,4,1,1,60,0,0
88327,-66.6666666666667,4,1,1,5,0,0
88412,-66.6666666666667,4,1,1,60,0,0
88498,-66.6666666666667,4,1,1,5,0,0
88584,-100,4,1,1,60,0,0
90127,-66.6666666666667,4,1,1,60,0,0
90212,-66.6666666666667,4,1,1,5,0,0
90298,-66.6666666666667,4,1,1,60,0,0
90384,-66.6666666666667,4,1,1,5,0,0
90641,-100,4,1,1,60,0,0
92270,-83.3333333333333,4,1,1,60,0,0
92527,-71.4285714285714,4,1,1,60,0,0
92784,-62.5,4,1,1,60,0,0
93041,-50,4,1,2,60,0,0
93384,-100,4,1,0,60,0,0
98869,-100,4,1,1,60,0,0
99212,-100,4,1,0,60,0,0
99384,-100,4,1,1,60,0,0
99898,-50,4,1,2,60,0,0
100241,-100,4,2,0,70,0,1
100584,-100,4,2,1,70,0,1
100755,-100,4,2,0,70,0,1
101269,-100,4,2,1,70,0,1
101441,-100,4,2,0,70,0,1
101955,-100,4,2,1,70,0,1
102127,-100,4,2,1,70,0,1
102212,-100,4,2,1,70,0,1
102298,-100,4,2,1,70,0,1
102641,-100,4,2,1,70,0,1
102812,-100,4,2,1,70,0,1
103327,-100,4,2,1,70,0,1
103498,-100,4,2,1,70,0,1
103584,-100,4,2,0,70,0,1
103669,-100,4,2,1,70,0,1
104012,-100,4,2,1,70,0,1
104184,-100,4,2,1,70,0,1
104698,-100,4,2,1,70,0,1
105041,-100,4,2,1,70,0,1
105384,-100,4,2,1,70,0,1
105641,-100,4,2,0,5,0,1
105727,-100,4,2,0,70,0,1
106069,-100,4,2,1,70,0,1
106241,-100,4,2,0,70,0,1
106755,-100,4,2,1,70,0,1
107098,-100,4,2,0,70,0,1
107441,-100,4,2,1,70,0,1
107955,-100,4,2,0,70,0,1
108127,-100,4,2,1,70,0,1
108298,-100,4,2,0,70,0,1
108812,-100,4,2,1,70,0,1
109155,-100,4,2,0,70,0,1
109327,-100,4,2,1,70,0,1
109412,-100,4,2,0,70,0,1
109498,-100,4,2,1,70,0,1
109841,-100,4,2,0,70,0,1
110184,-100,4,2,1,70,0,1
110355,-100,4,2,0,70,0,1
110698,-100,4,2,1,70,0,1
110869,-100,4,2,0,70,0,1
111041,-100,4,2,1,70,0,1
111212,-100,4,2,0,70,0,1
111555,-100,4,2,1,70,0,1
111727,-100,4,2,0,70,0,1
112241,-100,4,2,1,70,0,1
112412,-100,4,2,0,70,0,1
112584,-100,4,2,1,70,0,1
112755,-100,4,2,0,70,0,1
112927,-100,4,2,1,70,0,1
113441,-100,4,2,0,70,0,1
113612,-100,4,2,1,70,0,1
113955,-100,4,2,0,70,0,1
114298,-100,4,2,1,70,0,1
114469,-100,4,2,0,70,0,1
114984,-100,4,2,1,70,0,1
115498,-100,4,2,1,70,0,1
116012,-100,4,2,1,70,0,1
116098,-100,4,2,0,70,0,1
116184,-100,4,2,1,70,0,1
116527,-100,4,2,0,70,0,1
116698,-100,4,2,0,70,0,1
117041,-100,4,2,1,70,0,1
117384,-100,4,2,0,70,0,1
117727,-100,4,2,1,70,0,1
118069,-100,4,2,0,70,0,1
118412,-100,4,2,1,70,0,1
118927,-100,4,2,0,70,0,1
119098,-100,4,2,1,70,0,1
119269,-100,4,2,0,70,0,1
119784,-100,4,2,1,70,0,1
119955,-100,4,2,0,70,0,1
120469,-100,4,2,1,70,0,1
121498,-133.333333333333,4,2,2,70,0,1
122184,-133.333333333333,4,1,0,80,0,0
127669,-166.666666666667,4,1,0,60,0,0
130412,-100,4,1,0,60,0,0
132469,-133.333333333333,4,1,2,60,0,0
133155,-100,4,1,0,60,0,0
134698,-83.3333333333333,4,1,0,60,0,0
135212,-100,4,1,0,60,0,0
136927,-83.3333333333333,4,1,0,60,0,0
137012,-83.3333333333333,4,2,0,5,0,0
137098,-83.3333333333333,4,1,0,60,0,0
137184,-83.3333333333333,4,2,0,5,0,0
137269,-100,4,1,0,60,0,0
138127,-83.3333333333333,4,1,0,60,0,0
138641,-100,4,1,0,60,0,0
140355,-83.3333333333333,4,1,0,60,0,0
141384,-100,4,1,0,60,0,0
142755,-100,4,1,0,75,0,0
144212,-100,4,2,0,40,0,0
145498,-166.666666666667,4,2,0,60,0,0
150984,-125,4,2,0,60,0,0
153727,-166.666666666667,4,2,0,60,0,0
157841,-166.666666666667,4,1,0,50,0,0
158869,-66.6666666666667,4,1,2,60,0,0
159041,-66.6666666666667,4,1,0,5,0,0
159212,-66.6666666666667,4,1,0,60,0,0
164698,-100,4,1,1,60,0,0
166069,-100,4,1,0,60,0,0
168812,-100,4,1,0,24,0,0
169498,-100,4,1,0,20,0,0
169584,-100,4,1,0,30,0,0
169669,-100,4,1,0,40,0,0
169755,-100,4,1,0,50,0,0
169841,-100,4,1,0,69,0,0
170184,-83.3333333333333,4,1,0,70,0,1
173955,-71.4285714285714,4,1,0,70,0,1
174298,-83.3333333333333,4,1,0,70,0,1
180812,-50,4,1,2,70,0,1
181155,-83.3333333333333,4,1,0,70,0,1
184412,-83.3333333333333,4,1,0,40,0,1
184584,-83.3333333333333,4,1,0,70,0,1
184755,-83.3333333333333,4,1,0,40,0,1
184927,-71.4285714285714,4,1,0,70,0,1
185012,-71.4285714285714,4,1,0,40,0,1
185269,-83.3333333333333,4,1,0,70,0,1
191784,-50,4,1,2,70,0,1
192127,-100,4,1,0,70,0,0
192469,-100,4,2,1,70,0,0
192812,-100,4,1,0,70,0,0
193155,-100,4,2,1,70,0,0
193327,-100,4,1,0,70,0,0
193841,-100,4,2,1,70,0,0
194184,-100,4,1,0,70,0,0
194527,-50,4,1,0,70,0,0
194869,-100,4,1,0,70,0,1
198555,-83.3333333333333,4,1,0,70,0,1
198812,-71.4285714285714,4,1,0,70,0,1
198984,-100,4,1,0,70,0,1
199498,-66.6666666666667,4,1,0,70,0,1
199669,-66.6666666666667,4,2,0,5,0,1
199841,-66.6666666666667,4,1,0,70,0,1
200355,-100,4,1,0,70,0,1
204127,-100,4,1,1,70,0,1
204469,-100,4,1,0,70,0,0
204984,-66.6666666666667,4,1,0,70,0,0
205069,-66.6666666666667,4,1,0,5,0,0
205155,-50,4,1,2,70,0,0
205841,-100,4,1,0,70,0,1
209527,-83.3333333333333,4,1,0,70,0,1
209784,-71.4285714285714,4,1,0,70,0,1
209955,-100,4,1,0,70,0,1
210469,-66.6666666666667,4,1,0,70,0,1
210641,-66.6666666666667,4,2,0,5,0,1
210812,-66.6666666666667,4,1,0,70,0,1
211327,-100,4,1,0,70,0,1
216469,-133.333333333333,4,1,1,70,0,1
216727,-133.333333333333,4,1,0,5,0,1
216812,-100,4,1,0,60,0,0
216984,-66.6666666666667,4,1,0,60,0,0
217327,-133.333333333333,4,1,0,60,0,0
218184,-133.333333333333,4,1,1,60,0,0
218527,-133.333333333333,4,1,0,60,0,0
219727,-66.6666666666667,4,1,0,60,0,0
220069,-133.333333333333,4,1,0,60,0,0
220927,-133.333333333333,4,1,1,60,0,0
221269,-133.333333333333,4,1,0,60,0,0
222469,-66.6666666666667,4,1,0,60,0,0
222812,-133.333333333333,4,1,0,60,0,0
223669,-133.333333333333,4,1,1,60,0,0
224012,-133.333333333333,4,1,0,60,0,0
225212,-66.6666666666667,4,1,0,60,0,0
225555,-133.333333333333,4,1,0,60,0,0
226412,-100,4,1,0,80,0,0
227698,-100,4,1,0,60,0,0
233269,-133.333333333333,4,1,0,60,0,0
238412,-133.333333333333,4,1,2,60,0,0
238755,-133.333333333333,4,1,1,50,0,0
241327,-133.333333333333,4,2,0,5,0,0

[Colours]
Combo1 : 252,242,131
Combo2 : 255,89,89
Combo3 : 252,120,213
Combo4 : 252,132,97

[HitObjects]
101,125,812,6,0,P|63:181|70:246,2,125,4|0|0,0:0|0:0|0:0,0:0:0:0:
257,122,1327,1,0,0:0:0:0:
162,206,1498,1,0,0:0:0:0:
187,80,1670,2,0,P|194:49|188:19,1,62.5,2|0,0:1|0:0,0:0:0:0:
65,236,1841,2,0,P|57:266|63:296,1,62.5,2|0,0:1|0:0,0:0:0:0:
167,362,2013,1,0,0:0:0:0:
346,300,2184,5,0,0:0:0:0:
129,268,2355,2,0,L|257:266,1,125,2|0,0:1|0:0,0:0:0:0:
163,187,2698,1,0,0:0:0:0:
378,152,2870,2,0,L|250:154,1,125,2|0,0:1|0:0,0:0:0:0:
354,228,3213,1,0,0:0:0:0:
271,38,3384,1,2,0:0:0:0:
267,57,3470,1,0,0:0:0:0:
268,76,3555,5,0,0:0:0:0:
447,212,3727,2,0,P|474:164|446:95,1,125,2|0,0:0|0:0,0:0:0:0:
354,228,4070,1,0,0:0:0:0:
163,187,4241,2,0,P|135:132|157:76,1,125,2|0,0:0|0:0,0:0:0:0:
248,224,4584,1,0,0:0:0:0:
166,357,4755,1,2,0:0:0:0:
184,364,4840,1,0,0:0:0:0:
204,365,4926,5,0,0:0:0:0:
414,300,5098,2,0,L|247:298,1,125,2|0,0:0|0:0,0:0:0:0:
147,271,5441,1,0,0:0:0:0:
388,217,5613,2,0,P|403:157|381:100,1,125,2|0,0:0|0:0,0:0:0:0:
295,216,5955,1,0,0:0:0:0:
193,84,6127,1,2,0:0:0:0:
189,65,6213,1,0,0:0:0:0:
195,47,6298,6,0,L|65:48,2,125,4|2|0,0:0|0:0|0:0,0:0:0:0:
315,46,6813,1,2,0:0:0:0:
199,190,6984,1,0,0:0:0:0:
78,362,7155,2,0,P|73:331|81:302,1,62.5,2|0,0:0|2:0,0:0:0:0:
269,165,7327,2,0,P|274:196|265:224,1,62.5,2|0,0:0|0:0,0:0:0:0:
145,337,7498,1,0,0:0:0:0:
199,190,7670,5,0,0:0:0:0:
341,343,7841,2,0,L|352:214,1,125,2|0,0:0|0:0,0:0:0:0:
432,359,8184,1,0,0:0:0:0:
453,147,8355,2,0,L|442:271,1,125,2|0,0:0|0:0,0:0:0:0:
356,132,8698,1,0,0:0:0:0:
259,301,8870,1,2,0:0:0:0:
239,300,8955,1,0,0:0:0:0:
221,293,9041,5,0,0:0:0:0:
256,77,9213,1,2,0:0:0:0:
291,293,9384,1,0,0:0:0:0:
256,77,9555,1,0,0:0:0:0:
149,269,9727,5,2,0:0:0:0:
377,148,9898,1,0,0:0:0:0:
130,113,10070,1,0,0:0:0:0:
291,293,10241,1,2,0:0:0:0:
171,45,10413,5,0,1:0:0:0:
206,102,10527,1,0,1:0:0:0:
185,165,10641,1,0,1:0:0:0:
117,211,10755,5,0,1:0:0:0:
91,273,10870,1,0,1:0:0:0:
121,332,10984,1,0,1:0:0:0:
196,362,11098,6,0,B|218:361|236:337|236:337|268:356|268:356|286:343|317:349,1,131.249995994568
351,336,11441,5,0,0:0:0:0:
376,308,11527,1,0,0:0:0:0:
390,273,11613,1,0,0:0:0:0:
386,236,11698,1,0,0:0:0:0:
370,201,11784,6,0,P|357:167|365:143,1,62.5,0|0,0:0|2:0,0:0:0:0:
438,172,11955,6,0,P|470:196|484:159,1,93.7500035762788,2|0,0:0|0:0,0:0:0:0:
427,84,12127,1,0,0:0:0:0:
256,38,12298,6,0,B|281:29|281:29|311:44|311:44|330:30|348:45,1,93.7500035762788,0|0,0:0|0:0,0:0:0:0:
427,84,12641,1,0,0:0:0:0:
264,112,12813,1,0,0:0:0:0:
386,236,12984,1,0,0:0:0:0:
351,251,13070,1,0,0:0:0:0:
313,250,13155,5,0,0:0:0:0:
105,182,13327,1,2,0:0:0:0:
209,334,13498,1,0,0:0:0:0:
210,165,13670,6,0,B|198:187|198:187|222:236|222:236|204:254,1,93.7500035762788,2|0,0:2|0:0,0:0:0:0:
191,277,13927,1,0,0:0:0:0:
156,291,14013,1,0,0:0:0:0:
118,287,14098,1,0,0:0:0:0:
86,266,14184,1,0,0:0:0:0:
283,186,14355,1,2,0:2:0:0:
320,180,14441,1,2,0:2:0:0:
354,195,14527,5,0,0:0:0:0:
294,331,14698,2,0,P|258:315|291:294,1,93.7500035762788,2|0,0:0|2:0,0:0:0:0:
382,313,14870,1,0,0:0:0:0:
459,160,15041,6,0,B|468:185|468:185|453:215|453:215|467:234|452:252,1,93.7500035762788,2|0,2:2|0:0,0:0:0:0:
382,313,15384,1,0,0:0:0:0:
378,126,15555,1,0,0:0:0:0:
229,215,15727,1,2,0:2:0:0:
256,220,15813,1,2,0:2:0:0:
283,215,15898,5,0,0:0:0:0:
117,104,16070,1,2,0:0:0:0:
151,319,16241,1,0,0:0:0:0:
321,288,16413,6,0,B|289:298|289:298|272:316|272:316|261:297|234:296,1,93.7500035762788,2|0,0:2|0:0,0:0:0:0:
214,273,16670,1,0,0:0:0:0:
187,246,16755,1,0,0:0:0:0:
149,240,16841,1,0,0:0:0:0:
105,254,16927,1,0,0:0:0:0:
393,320,17098,1,2,0:2:0:0:
402,283,17184,1,2,0:2:0:0:
389,247,17270,5,0,0:0:0:0:
254,63,17441,1,2,0:2:0:0:
243,296,17613,1,0,0:0:0:0:
479,139,17784,2,0,B|458:126|458:126|423:142|423:142|393:125|362:133,1,125,2|0,0:2|0:0,0:0:0:0:
333,154,18041,1,0,0:0:0:0:
333,154,18127,1,2,0:0:0:0:
430,341,18298,2,0,P|454:282|427:223,1,125,2|0,0:0|0:0,0:0:0:0:
219,141,18641,5,0,0:0:0:0:
237,345,18813,1,0,0:0:0:0:
200,350,18898,1,0,0:0:0:0:
162,345,18984,1,0,0:0:0:0:
102,146,19155,2,0,B|122:133|122:133|157:149|157:149|187:132|218:140,1,125,0|0,0:0|0:0,0:0:0:0:
254,151,19412,1,0,0:0:0:0:
254,151,19498,1,2,0:0:0:0:
162,345,19670,2,0,P|138:286|165:227,1,125,2|0,0:0|0:0,0:0:0:0:
372,284,20013,5,0,0:0:0:0:
228,286,20184,1,0,0:0:0:0:
353,162,20355,1,0,0:0:0:0:
297,357,20527,1,0,0:0:0:0:
303,94,20698,2,0,L|314:33,3,62.5,0|0|0|0,0:0|0:0|0:0|0:0,0:0:0:0:
264,39,21041,5,0,0:0:0:0:
214,43,21127,1,0,0:0:0:0:
163,46,21213,1,0,0:0:0:0:
113,49,21298,1,0,0:0:0:0:
63,53,21384,2,0,L|77:122,2,62.5
208,205,21641,2,0,L|213:142,2,62.5
46,231,21898,2,0,L|40:296,1,62.5
227,208,22070,2,0,L|232:145,1,62.5,2|2,2:0|2:0,0:0:0:0:
115,308,22241,1,2,2:0:0:0:
165,310,22327,1,2,2:0:0:0:
236,312,22413,6,0,P|193:244|174:320,1,187.500007152558,8|2,2:0|2:0,0:0:0:0:
314,334,22755,6,0,P|326:272|300:211,1,125,0|0,0:0|2:0,0:0:0:0:
214,140,23013,1,0,2:0:0:0:
222,171,23098,1,0,0:0:0:0:
406,239,23270,1,0,2:0:0:0:
266,91,23441,2,0,P|212:66|156:97,1,125,0|0,0:0|2:0,0:0:0:0:
72,214,23698,1,0,2:0:0:0:
108,224,23784,2,0,L|269:188,1,125,0|0,0:0|2:0,0:0:0:0:
460,182,24127,6,0,P|488:235|463:290,1,125,0|0,0:0|2:0,0:0:0:0:
348,310,24385,1,0,0:0:0:0:
356,274,24470,1,0,0:0:0:0:
388,81,24641,1,0,2:0:0:0:
411,354,24813,1,0,0:0:0:0:
276,279,24984,1,0,0:0:0:0:
420,237,25155,1,0,0:0:0:0:
229,196,25327,1,0,0:0:0:0:
342,117,25498,6,0,L|342:259,1,125,0|0,0:0|0:0,0:0:0:0:
252,362,25841,1,0,0:0:0:0:
229,196,26013,1,0,0:0:0:0:
65,328,26184,1,0,0:0:0:0:
145,163,26355,1,0,0:0:0:0:
170,135,26441,1,0,1:0:0:0:
182,99,26527,1,0,0:0:0:0:
174,62,26613,1,0,0:0:0:0:
153,30,26698,1,0,0:0:0:0:
41,105,26870,5,0,0:0:0:0:
270,99,27041,1,0,0:0:0:0:
270,99,27127,1,0,0:0:0:0:
270,99,27213,1,0,0:0:0:0:
157,246,27384,1,0,0:0:0:0:
386,247,27555,1,0,0:0:0:0:
288,316,27727,1,2,2:0:0:0:
263,288,27813,1,2,2:0:0:0:
251,252,27899,1,2,2:0:0:0:
259,215,27985,1,2,2:0:0:0:
280,183,28070,1,2,2:0:0:0:
314,168,28155,1,2,2:0:0:0:
384,150,28241,6,0,L|530:150,1,125,2|0,0:2|2:0,0:0:0:0:
460,45,28498,1,0,0:0:0:0:
422,46,28584,1,0,0:0:0:0:
479,261,28755,1,0,0:0:0:0:
322,66,28927,1,2,0:2:0:0:
377,267,29098,1,0,0:0:0:0:
422,46,29270,1,2,0:2:0:0:
315,206,29441,1,0,0:0:0:0:
303,241,29527,1,0,0:0:0:0:
309,277,29613,5,2,0:2:0:0:
509,150,29784,1,0,0:0:0:0:
207,62,29955,1,2,0:2:0:0:
315,206,30127,1,0,0:0:0:0:
422,46,30298,1,2,0:2:0:0:
175,190,30470,1,0,0:0:0:0:
370,270,30641,1,0,0:0:0:0:
399,246,30727,1,0,0:0:0:0:
408,209,30813,1,0,0:0:0:0:
394,174,30898,1,0,0:0:0:0:
371,143,30984,6,0,P|359:109|370:80,1,62.5,0|0,0:0|0:0,0:0:0:0:
471,281,31155,2,0,P|482:314|472:344,1,62.5,0|0,0:0|0:0,0:0:0:0:
315,206,31327,2,0,L|213:203,1,62.5,0|0,0:0|2:0,0:0:0:0:
175,298,31498,2,0,L|73:295,1,62.5,0|0,0:0|2:0,0:0:0:0:
42,183,31670,5,0,0:0:0:0:
38,146,31755,1,0,0:0:0:0:
32,108,31841,1,0,0:0:0:0:
27,70,31927,1,0,0:0:0:0:
79,25,32013,5,0,0:0:0:0:
147,29,32098,1,0,0:0:0:0:
215,31,32184,1,0,0:0:0:0:
283,32,32270,1,0,0:0:0:0:
348,55,32355,6,0,P|361:80|359:116,1,46.8750017881394,0|0,0:0|0:0,0:0:0:0:
329,199,32527,1,0,0:0:0:0:
329,199,32613,1,0,0:0:0:0:
329,199,32698,1,2,0:2:0:0:
289,101,32870,1,0,0:0:0:0:
419,167,33041,1,8,0:0:0:0:
354,297,33213,1,0,0:0:0:0:
223,235,33384,5,2,0:2:0:0:
176,251,33498,5,2,0:2:0:0:
153,295,33613,5,2,0:2:0:0:
108,358,33727,6,0,B|74:305|74:305|96:231,1,125,4|0,0:2|0:0,0:0:0:0:
91,245,34070,6,0,L|92:149,1,93.7500035762788,0|0,0:0|2:0,0:0:0:0:
420,149,34241,2,0,L|420:246,1,93.7500035762788,0|0,0:0|2:0,0:0:0:0:
372,361,34413,5,8,0:2:0:0:
419,71,34584,1,0,0:0:0:0:
326,244,34755,2,0,P|274:252|249:188,1,125,0|0,0:0|0:0,0:0:0:0:
246,194,35098,6,0,P|224:248|95:238,2,187.5,0|0|0,0:0|0:0|0:0,0:0:0:0:
164,192,35784,1,8,0:2:0:0:
164,192,35955,6,0,L|164:95,1,93.7500035762788,2|0,0:1|0:0,0:0:0:0:
347,285,36127,2,0,L|348:192,1,93.7500035762788,2|0,0:1|0:0,0:0:0:0:
294,124,36470,6,0,P|382:111|431:186,2,187.5,0|0|0,0:0|0:0|0:0,0:0:0:0:
348,192,37155,1,8,0:2:0:0:
165,302,37327,2,0,B|157:277|164:253|164:253|144:233|144:233|164:214|163:191,1,125,2|2,0:0|0:0,0:0:0:0:
163,191,37841,6,0,P|201:147|231:188,1,125,0|0,0:0|2:0,0:0:0:0:
238,304,38098,6,0,P|192:354|164:302,1,149.999995422363,0|0,0:0|2:0,0:0:0:0:
163,191,38355,6,0,P|194:128|232:193,1,174.999994659424,0|0,0:0|2:0,0:0:0:0:
238,304,38613,6,0,P|198:375|168:298,1,200,0|0,0:0|2:0,0:0:0:0:
199,171,38870,6,0,B|237:153|274:184|274:184|307:157|307:157|341:185|377:192|377:192|411:162|449:180,1,250,8|0,0:1|2:0,0:0:0:0:
113,121,39213,6,0,B|63:177|63:177|104:256,1,156.25
165,301,39555,1,2,0:0:0:0:
217,247,39670,1,2,2:0:0:0:
291,257,39784,1,2,2:0:0:0:
319,327,39898,6,0,B|384:369|384:369|453:309,1,156.25,8|0,0:2|0:0,0:0:0:0:
497,260,40241,1,2,0:0:0:0:
449,201,40355,1,2,2:0:0:0:
399,143,40470,1,2,2:0:0:0:
326,195,40584,6,0,L|196:194,1,125
76,164,40927,5,0,0:0:0:0:
248,77,41098,1,0,0:0:0:0:
206,297,41270,1,8,0:2:0:0:
130,68,41441,1,0,0:0:0:0:
326,195,41613,1,2,2:0:0:0:
57,297,41784,1,2,2:0:0:0:
337,292,41955,6,0,B|427:329|427:329|358:374,1,166.666666666667,0|0,0:0|0:0,0:0:0:0:
299,360,42298,1,2,0:0:0:0:
262,299,42413,1,2,2:0:0:0:
289,234,42527,1,2,2:0:0:0:
204,248,42641,6,0,B|181:284|181:284|199:336,1,83.3333333333333,8|0,0:2|0:0,0:0:0:0:
120,348,42813,2,0,L|57:348,3,62.5,0|0|0|0,0:0|0:0|0:0|2:0,0:0:0:0:
81,272,43155,1,0,0:0:0:0:
58,227,43241,1,0,2:0:0:0:
80,182,43327,5,0,0:0:0:0:
254,38,43498,1,0,0:0:0:0:
416,197,43670,1,0,0:0:0:0:
249,348,43841,1,0,0:0:0:0:
165,186,44013,5,0,0:2:0:0:
165,148,44098,1,0,0:2:0:0:
102,105,44184,1,0,0:2:0:0:
103,67,44270,1,0,0:2:0:0:
176,20,44355,6,0,P|262:13|433:97,1,250,8|0,0:1|0:1,0:1:0:0:
249,348,44698,6,0,P|189:360|135:326,1,125,4|0,0:2|2:0,0:0:0:0:
45,202,45041,1,8,0:0:0:0:
252,145,45213,1,0,0:0:0:0:
384,307,45384,2,0,P|421:254|412:186,1,125,0|0,0:0|0:0,0:0:0:0:
203,284,45727,1,8,0:0:0:0:
333,230,45898,1,0,0:0:0:0:
142,131,46070,5,0,0:0:0:0:
313,314,46241,1,0,0:0:0:0:
410,75,46413,1,8,0:0:0:0:
246,224,46584,1,0,0:0:0:0:
425,204,46755,1,0,0:0:0:0:
425,204,46841,1,0,0:0:0:0:
425,204,46927,1,4,0:2:0:0:
211,28,47098,1,8,0:0:0:0:
214,303,47270,1,4,0:2:0:0:
26,149,47441,6,0,P|82:121|149:134,1,125,4|0,0:2|0:0,0:0:0:0:
246,224,47784,1,8,0:0:0:0:
30,247,47955,1,0,1:0:0:0:
30,247,48041,1,0,1:0:0:0:
30,247,48127,1,0,1:0:0:0:
242,129,48298,1,0,0:0:0:0:
324,271,48470,1,8,0:0:0:0:
414,83,48641,1,0,0:0:0:0:
453,307,48813,5,2,0:0:0:0:
453,307,48898,1,0,0:0:0:0:
453,307,48984,2,0,P|418:314|387:306,1,62.5,0|0,0:0|0:0,0:0:0:0:
249,136,49155,1,10,0:0:0:0:
249,136,49241,1,0,0:0:0:0:
249,136,49327,2,0,P|284:129|315:137,1,62.5,0|0,0:0|0:0,0:0:0:0:
136,294,49498,1,2,0:0:0:0:
136,294,49583,1,0,0:0:0:0:
136,294,49669,2,0,P|101:301|70:293,1,62.5,2|0,0:2|0:2,0:0:0:0:
113,141,49841,6,0,L|138:47,1,74.9999977111817,8|2,0:0|2:2,0:0:0:0:
275,236,50013,2,0,L|250:330,1,74.9999977111817,0|0,0:0|2:0,0:0:0:0:
55,279,50184,5,2,0:2:0:0:
248,135,50355,1,2,0:1:0:0:
417,311,50527,1,8,0:0:0:0:
248,135,50698,1,2,0:2:0:0:
55,279,50870,2,0,P|34:221|52:158,1,125,2|4,0:1|0:2,0:0:0:0:
256,309,51213,1,8,0:0:0:0:
133,216,51384,1,4,0:2:0:0:
387,186,51555,5,2,0:2:0:0:
145,313,51727,1,2,0:0:0:0:
210,47,51898,1,10,0:0:0:0:
372,282,52070,1,2,0:2:0:0:
449,127,52241,2,0,P|395:102|324:128,1,125,2|0,0:0|0:0,0:0:0:0:
257,307,52584,1,8,0:0:0:0:
388,187,52755,1,4,0:2:0:0:
210,47,52927,6,0,L|210:171,1,125,4|0,0:2|0:0,0:0:0:0:
211,321,53270,1,10,0:0:0:0:
109,144,53441,1,2,0:2:0:0:
71,347,53613,1,2,0:2:0:0:
256,250,53784,1,2,0:2:0:0:
291,238,53870,1,2,0:2:0:0:
328,240,53955,1,10,0:0:0:0:
486,315,54127,1,2,0:2:0:0:
408,97,54298,5,2,0:2:0:0:
395,326,54470,1,2,0:2:0:0:
395,326,54555,1,2,0:2:0:0:
395,326,54641,1,10,0:0:0:0:
476,196,54813,1,2,0:2:0:0:
309,159,54984,6,0,L|314:113,1,31.25,0|0,0:0|0:0,0:0:0:0:
292,165,55070,2,0,L|277:121,1,31.25,0|0,0:0|0:0,0:0:0:0:
277,172,55155,2,0,L|244:138,1,31.25,0|0,0:0|0:0,0:0:0:0:
268,183,55241,2,0,L|224:166,1,31.25,0|0,0:0|0:0,0:0:0:0:
261,206,55327,6,0,P|264:283|327:238,1,187.500007152558,8|2,0:0|0:0,0:0:0:0:
168,132,55670,6,0,P|109:117|41:157,1,125,4|0,0:2|2:0,0:0:0:0:
53,355,56013,1,8,0:0:0:0:
120,238,56184,1,0,0:0:0:0:
226,347,56355,2,0,P|282:367|345:345,1,125,0|0,0:0|0:0,0:0:0:0:
477,191,56698,1,8,0:0:0:0:
285,264,56870,1,0,0:0:0:0:
318,36,57041,5,2,0:0:0:0:
423,285,57213,1,0,0:0:0:0:
223,135,57384,1,8,0:0:0:0:
441,109,57555,1,0,0:0:0:0:
294,274,57727,1,2,0:0:0:0:
294,274,57812,1,0,0:0:0:0:
294,274,57898,1,0,0:0:0:0:
228,45,58070,1,8,0:0:0:0:
333,138,58241,1,2,0:1:0:0:
108,195,58413,6,0,P|59:225|86:296,1,125,0|0,0:0|0:0,0:0:0:0:
249,362,58755,1,8,0:0:0:0:
204,199,58927,1,8,0:0:0:0:
204,199,59013,1,0,1:0:0:0:
204,199,59098,1,0,0:0:0:0:
126,373,59270,1,8,0:0:0:0:
285,264,59441,1,8,0:0:0:0:
146,102,59613,1,8,0:0:0:0:
334,47,59784,5,2,0:0:0:0:
334,47,59870,1,0,0:0:0:0:
334,47,59955,2,0,P|369:41|413:50,1,62.5,0|0,0:0|0:0,0:0:0:0:
376,175,60127,1,10,0:0:0:0:
376,175,60213,1,0,0:0:0:0:
376,175,60298,2,0,P|382:210|373:254,1,62.5,0|0,0:0|0:0,0:0:0:0:
267,147,60470,1,2,0:0:0:0:
267,147,60556,1,0,0:0:0:0:
267,147,60641,2,0,P|232:153|188:144,1,62.5,2|0,0:2|0:0,0:0:0:0:
101,107,60813,6,0,B|85:72|85:72|101:32,1,74.9999977111817,8|2,0:0|2:2,0:0:0:0:
253,233,60984,2,0,B|269:268|269:268|253:308,1,74.9999977111817,0|0,0:0|2:0,0:0:0:0:
45,248,61155,5,4,0:2:0:0:
215,64,61327,1,2,2:0:0:0:
386,244,61498,1,4,0:2:0:0:
215,64,61670,1,2,2:0:0:0:
45,248,61841,2,0,P|70:304|133:320,1,125,4|0,0:2|2:1,0:0:0:0:
290,217,62184,1,4,0:2:0:0:
119,246,62355,1,2,2:0:0:0:
278,365,62527,5,4,0:2:0:0:
172,126,62698,1,2,2:0:0:0:
126,322,62870,1,4,0:2:0:0:
336,121,63041,1,2,2:0:0:0:
61,195,63213,1,4,0:2:0:0:
255,287,63384,1,0,0:0:0:0:
292,292,63470,1,0,0:0:0:0:
327,279,63555,1,4,0:2:0:0:
488,136,63727,1,0,0:2:0:0:
404,350,63898,6,0,P|372:292|395:235,1,125,6|0,0:1|0:0,0:0:0:0:
488,136,64241,1,0,0:0:0:0:
456,296,64413,1,2,0:0:0:0:
456,296,64498,1,0,0:0:0:0:
456,296,64584,1,2,0:1:0:0:
407,59,64755,1,0,0:0:0:0:
282,219,64927,1,2,0:0:0:0:
164,28,65098,1,2,0:0:0:0:
72,142,65270,5,4,0:2:0:0:
51,173,65355,1,0,0:0:0:0:
47,210,65441,1,0,0:0:0:0:
59,245,65527,1,0,0:0:0:0:
111,266,65613,5,4,0:2:0:0:
158,236,65698,1,0,0:0:0:0:
213,227,65784,1,0,0:0:0:0:
267,243,65870,1,0,0:0:0:0:
315,270,65955,6,0,L|342:223,1,31.25,4|0,0:2|0:0,0:0:0:0:
326,285,66041,2,0,L|379:275,1,31.25,0|0,0:0|0:0,0:0:0:0:
328,310,66127,2,0,L|369:344,1,31.25,0|0,0:0|0:0,0:0:0:0:
311,323,66213,2,0,L|311:377,1,31.25,0|0,0:0|0:0,0:0:0:0:
279,320,66298,6,0,L|278:130,1,187.500007152558,8|0,0:0|0:0,0:0:0:0:
477,134,66641,6,0,P|420:152|351:121,1,125,4|0,3:0|0:0,0:0:0:0:
281,32,66984,1,8,0:0:0:0:
87,129,67155,2,0,P|144:147|213:116,1,125,0|0,0:0|3:0,0:0:0:0:
421,65,67498,1,2,0:0:0:0:
283,195,67670,2,0,L|283:320,1,125,8|2,0:0|0:0,0:0:0:0:
68,326,68013,6,0,L|69:124,2,187.5,2|0|0,0:0|0:0|0:0,0:0:0:0:
68,326,68698,1,2,0:0:0:0:
149,358,68870,6,0,L|243:351,1,74.9999977111817,2|0,0:1|2:0,0:0:0:0:
307,324,69041,2,0,L|381:318,1,74.9999977111817,10|0,0:0|0:0,0:0:0:0:
455,275,69213,6,0,B|474:242|474:242|497:255,1,62.5,0|0,0:0|2:0,0:0:0:0:
374,229,69384,2,0,B|372:118|372:118|319:173,2,187.5,2|0|0,0:0|2:0|0:0,0:0:0:0:
381,318,70070,1,2,0:0:0:0:
261,252,70241,2,0,B|239:233|239:233|242:202|242:202|224:173|224:173|236:138,1,125,2|8,0:1|0:0,0:0:0:0:
293,19,70584,1,2,0:1:0:0:
95,140,70755,6,0,L|126:273,1,125,2|0,2:2|2:0,2:0:0:0:
123,261,71013,6,0,L|94:139,1,125,2|0,2:2|2:0,2:0:0:0:
94,139,71270,6,0,L|143:345,1,187.500007152558,2|4,2:2|2:0,2:0:0:0:
137,321,71613,6,0,L|110:210,1,93.7500035762788,2|0,0:0|2:0,0:0:0:0:
114,229,71784,6,0,L|137:320,1,93.7500035762788,0|0,0:0|2:0,0:0:0:0:
137,320,71955,6,0,L|110:216,1,93.7500035762788,2|0,0:0|2:0,0:0:0:0:
180,164,72127,6,0,P|239:142|302:170,1,125,4|0,0:2|0:0,0:0:0:0:
309,185,72384,2,0,P|366:205|423:183,1,125,4|0,0:2|0:0,0:0:0:0:
438,170,72641,6,0,L|436:34,1,131.249995994568,0|0,0:0|0:0,0:0:0:0:
319,92,72984,6,0,P|349:115|353:77,1,93.7500035762788,8|0,0:0|2:0,0:0:0:0:
239,55,73155,6,0,P|181:34|124:56,1,125,4|0,0:2|0:0,0:0:0:0:
117,83,73413,2,0,P|139:140|118:197,1,125,4|0,0:2|0:0,0:0:0:0:
102,209,73670,6,0,L|102:362,1,131.249995994568,0|0,0:0|0:0,0:0:0:0:
226,320,74013,6,0,P|195:296|191:334,1,93.7500035762788,8|0,0:0|2:0,0:0:0:0:
321,324,74184,6,0,L|349:202,1,125,4|0,0:0|0:0,0:0:0:0:
349,202,74441,6,0,L|321:324,1,125,4|0,0:0|0:0,0:0:0:0:
321,323,74699,6,0,L|363:140,1,187.500007152558,4|0,0:0|0:0,0:0:0:0:
362,140,75042,6,0,L|342:233,1,93.7500035762788,0|0,0:0|2:0,0:0:0:0:
342,231,75213,6,0,L|362:135,1,93.7500035762788,0|0,0:0|0:0,0:0:0:0:
361,139,75384,6,0,L|343:232,1,93.7500035762788,0|0,0:0|0:0,0:0:0:0:
247,219,75555,6,0,B|186:210|147:189|147:189|141:144|169:104|226:110|243:168|195:202,1,262.499991989136
131,309,76241,1,8,0:0:0:0:
254,354,76927,5,4,0:0:0:0:
462,218,81727,6,0,L|466:156,3,62.5,0|0|0|0,0:0|0:0|0:0|0:0,0:0:0:0:
464,105,82070,1,0,0:0:0:0:
437,63,82155,1,0,0:0:0:0:
389,46,82241,1,0,0:0:0:0:
340,57,82327,1,0,0:0:0:0:
311,97,82413,2,0,P|257:127|192:106,1,125
121,31,82670,1,0,0:0:0:0:
147,6,82755,1,0,0:0:0:0:
156,205,82927,1,0,0:0:0:0:
248,50,83098,5,8,0:2:0:0:
48,136,83270,1,0,0:0:0:0:
154,329,83441,2,0,L|155:204,1,125,0|0,0:0|0:0,0:0:0:0:
299,340,83784,2,0,P|361:356|417:322,1,125,0|0,0:0|0:0,0:0:0:0:
450,218,84041,1,0,0:0:0:0:
430,187,84127,1,0,0:0:0:0:
253,195,84298,1,0,0:0:0:0:
351,282,84470,5,8,0:2:0:0:
399,65,84641,1,0,0:0:0:0:
478,287,84813,1,0,0:0:0:0:
302,117,84984,1,0,0:0:0:0:
199,295,85155,2,0,L|332:285,1,125,0|0,0:0|0:0,0:0:0:0:
495,157,85498,2,0,L|370:166,1,125,0|0,0:0|2:0,0:0:0:0:
199,295,85841,6,0,P|154:250|160:187,1,125,8|0,0:2|2:0,0:0:0:0:
254,59,86184,1,0,0:0:0:0:
228,224,86355,1,0,0:0:0:0:
144,52,86527,2,0,L|68:42,1,62.5,0|0,0:0|2:0,0:0:0:0:
308,173,86698,2,0,L|384:163,1,62.5,0|0,0:0|0:0,0:0:0:0:
89,146,86870,1,0,0:0:0:0:
84,184,86955,1,0,0:0:0:0:
84,221,87041,2,0,L|82:254,3,31.25
92,270,87213,6,0,P|172:291|104:330,1,187.500007152558,8|0,0:2|0:0,0:0:0:0:
172,183,87555,5,2,0:2:0:0:
231,223,87670,5,2,0:2:0:0:
249,291,87784,5,2,0:2:0:0:
228,358,87898,6,0,P|290:378|353:338,1,125,0|0,0:0|0:0,0:0:0:0:
341,353,88241,6,0,L|340:259,1,93.7500035762788,2|0,0:0|2:0,0:0:0:0:
489,142,88413,2,0,L|490:236,1,93.7500035762788,2|0,0:0|2:0,0:0:0:0:
488,344,88584,5,8,0:2:0:0:
410,92,88755,1,0,0:0:0:0:
295,185,88927,2,0,P|232:208|171:178,1,125,0|0,0:0|0:0,0:0:0:0:
58,204,89270,2,0,B|58:351|58:351|97:313,2,187.5,2|0|0,0:0|0:0|0:0,0:0:0:0:
113,121,89955,5,8,0:2:0:0:
113,121,90127,2,0,L|113:14,1,93.7500035762788,2|0,0:0|2:0,0:0:0:0:
194,278,90298,2,0,L|194:385,1,93.7500035762788,2|0,0:0|0:0,0:0:0:0:
306,247,90641,6,0,B|453:247|453:247|415:286,2,187.5,0|0|0,0:0|0:0|0:0,0:0:0:0:
357,321,91327,1,8,0:2:0:0:
440,127,91498,1,2,0:0:0:0:
257,27,91670,2,0,P|235:84|267:164,1,125,2|0,0:0|0:0,0:0:0:0:
150,306,92013,6,0,P|176:256|223:286,1,125,0|0,0:0|2:0,0:0:0:0:
150,306,92270,6,0,B|171:233|171:233|239:304,1,149.999995422363,0|0,0:0|2:0,0:0:0:0:
150,306,92527,6,0,B|129:277|129:277|226:249|226:249|222:302,1,174.999994659424,0|0,0:0|2:0,0:0:0:0:
150,306,92784,6,0,B|122:249|168:214|168:214|232:239|222:307,1,200,0|0,0:0|2:0,0:0:0:0:
151,142,93041,6,0,B|189:124|226:155|226:155|259:128|259:128|293:156|329:163|329:163|363:133|401:151,1,250,8|0,0:0|2:0,0:0:0:0:
393,351,93384,6,0,B|337:295|337:295|379:217,1,166.666666666667,0|0,0:0|0:0,0:0:0:0:
438,177,93727,1,2,0:0:0:0:
435,106,93841,1,2,2:0:0:0:
372,72,93955,1,2,2:0:0:0:
309,106,94070,6,0,B|253:162|253:162|175:120,1,166.666666666667,8|0,0:2|0:0,0:0:0:0:
122,75,94413,1,2,0:0:0:0:
68,120,94527,1,2,2:0:0:0:
118,170,94641,1,2,2:0:0:0:
68,221,94755,6,0,B|26:298|26:298|59:326,1,125,0|0,0:0|0:0,0:0:0:0:
255,348,95098,1,0,0:0:0:0:
118,284,95270,1,0,0:0:0:0:
327,230,95441,5,8,0:2:0:0:
165,359,95613,1,0,0:0:0:0:
175,120,95784,1,0,0:0:0:0:
249,269,95955,1,0,0:0:0:0:
330,95,96127,6,0,B|386:39|386:39|464:81,1,166.666666666667,0|0,0:0|0:0,0:0:0:0:
456,153,96470,1,2,0:0:0:0:
425,215,96584,1,2,2:0:0:0:
470,270,96698,1,2,2:0:0:0:
421,323,96813,6,0,B|343:281|343:281|287:337,1,166.666666666667,0|0,0:0|0:0,0:0:0:0:
221,363,97155,1,2,0:0:0:0:
164,320,97270,1,2,2:0:0:0:
222,281,97384,1,2,2:0:0:0:
187,219,97498,5,0,0:0:0:0:
84,340,97670,1,0,0:0:0:0:
84,141,97841,1,0,0:0:0:0:
221,363,98013,1,0,0:0:0:0:
319,154,98184,6,0,P|330:127|330:95,1,62.5,8|0,0:0|2:0,0:0:0:0:
298,20,98355,1,0,0:0:0:0:
374,226,98527,1,8,0:0:0:0:
253,114,98698,1,0,0:0:0:0:
253,114,98784,1,0,0:0:0:0:
253,114,98869,5,0,1:0:0:0:
462,71,99041,1,0,1:0:0:0:
255,227,99213,1,8,0:0:0:0:
50,71,99384,1,0,0:0:0:0:
255,227,99555,1,2,2:0:0:0:
462,71,99727,1,0,0:0:0:0:
255,227,99898,6,0,B|216:240|199:275|203:322|235:353|281:364|339:323|316:268|283:271|262:290,1,250,8|0,0:0|3:0,0:0:0:0:
148,320,100241,6,0,P|86:344|27:312,1,125,6|0,1:2|0:0,0:0:0:0:
22,171,100584,1,8,0:1:0:0:
90,261,100755,1,2,0:0:0:0:
146,127,100927,2,0,L|290:121,1,125,2|0,0:0|1:0,0:0:0:0:
423,116,101269,1,8,0:1:0:0:
300,212,101441,1,2,1:0:0:0:
343,31,101612,5,2,1:0:0:0:
402,243,101784,1,2,0:0:0:0:
270,121,101955,1,8,0:1:0:0:
491,164,102127,1,0,1:0:0:0:
491,164,102212,1,8,0:1:0:0:
491,164,102298,1,0,1:0:0:0:
300,212,102469,1,0,1:0:0:0:
477,328,102641,2,0,L|339:318,1,125,8|0,0:1|0:0,0:0:0:0:
200,298,102984,5,0,1:0:0:0:
349,146,103155,1,0,0:0:0:0:
352,318,103327,1,8,0:1:0:0:
204,182,103498,1,0,1:0:0:0:
204,182,103584,1,0,0:1:0:0:
204,182,103669,1,0,1:0:0:0:
387,233,103841,1,0,1:0:0:0:
200,298,104012,1,8,0:1:0:0:
276,35,104184,1,0,0:2:0:0:
72,101,104355,5,0,1:0:0:0:
72,139,104441,1,2,2:0:0:0:
73,176,104527,2,0,L|74:258,1,62.5,0|0,1:0|2:0,0:0:0:0:
141,351,104698,1,8,0:1:0:0:
203,181,104869,1,0,1:0:0:0:
287,345,105041,1,2,0:2:0:0:
339,169,105212,1,2,1:2:0:0:
339,131,105298,1,0,0:0:0:0:
338,94,105384,2,0,L|337:12,1,62.5,8|0,1:0|2:0,0:0:0:0:
490,196,105555,2,0,L|491:278,1,62.5,2|0,0:2|0:0,0:0:0:0:
405,349,105727,5,2,1:0:0:0:
489,122,105898,1,2,1:0:0:0:
295,245,106069,1,8,0:1:0:0:
490,258,106241,1,0,0:0:0:0:
266,127,106412,2,0,P|208:101|148:125,1,125,2|0,1:0|1:0,0:0:0:0:
45,231,106755,1,8,0:1:0:0:
206,177,106927,1,0,0:0:0:0:
119,354,107098,5,2,1:0:0:0:
67,138,107269,1,2,1:0:0:0:
240,295,107441,1,8,0:1:0:0:
35,328,107612,1,0,1:0:0:0:
35,328,107698,1,8,0:1:0:0:
35,328,107784,1,0,1:0:0:0:
206,177,107955,1,0,1:0:0:0:
204,365,108127,1,8,0:1:0:0:
45,231,108298,1,0,0:0:0:0:
333,313,108469,6,0,P|400:312|445:264,1,125,2|0,1:1|0:1,0:0:0:0:
459,119,108812,1,8,0:1:0:0:
368,232,108984,1,0,0:0:0:0:
317,59,109155,1,0,0:0:0:0:
252,237,109327,1,0,1:0:0:0:
218,252,109412,1,2,0:0:0:0:
181,245,109498,1,8,1:1:0:0:
39,137,109669,1,0,0:0:0:0:
206,177,109841,6,0,B|228:102|228:102|202:52,1,125,2|0,1:1|0:1,0:0:0:0:
92,47,110099,1,2,0:1:0:0:
102,84,110184,1,8,0:1:0:0:
303,155,110355,1,2,1:0:0:0:
86,244,110527,1,2,0:0:0:0:
298,341,110698,1,8,0:1:0:0:
86,244,110869,1,2,2:0:0:0:
298,341,111041,1,8,0:1:0:0:
37,310,111212,6,0,P|6:253|19:191,1,125,4|0,1:2|0:0,0:0:0:0:
115,138,111469,1,0,0:0:0:0:
152,150,111555,1,8,0:1:0:0:
127,334,111727,1,2,0:0:0:0:
273,224,111898,2,0,P|330:199|387:224,1,125,2|0,1:0|1:0,0:0:0:0:
479,351,112241,1,8,0:1:0:0:
331,274,112412,1,2,0:1:0:0:
474,132,112584,5,2,1:0:0:0:
384,356,112755,1,0,0:0:0:0:
329,103,112927,1,8,0:1:0:0:
486,267,113098,1,0,1:0:0:0:
486,267,113184,1,8,0:1:0:0:
486,267,113269,1,0,1:0:0:0:
307,350,113441,1,0,1:0:0:0:
182,189,113612,2,0,P|139:237|158:303,1,125,8|0,0:1|0:0,0:0:0:0:
307,350,113955,5,2,1:0:0:0:
212,255,114127,1,0,0:0:0:0:
410,287,114298,1,8,0:1:0:0:
211,359,114469,1,2,0:0:0:0:
313,178,114641,1,2,0:0:0:0:
385,355,114812,1,0,1:0:0:0:
422,363,114898,1,0,0:0:0:0:
456,345,114984,1,8,0:1:0:0:
308,274,115155,1,0,0:0:0:0:
488,120,115327,5,0,1:0:0:0:
452,110,115412,1,0,0:0:0:0:
415,102,115498,2,0,L|352:103,1,62.5,0|0,1:0|0:0,0:0:0:0:
225,106,115669,1,8,0:1:0:0:
376,230,115841,1,0,1:0:0:0:
239,361,116012,1,2,1:0:0:0:
227,326,116098,1,0,0:0:0:0:
215,290,116184,2,0,L|215:218,1,62.5,0|0,1:0|0:0,0:0:0:0:
225,106,116355,1,8,0:1:0:0:
376,230,116527,1,2,1:0:0:0:
105,165,116698,5,2,1:0:0:0:
284,33,116869,1,2,0:0:0:0:
308,274,117041,1,8,0:1:0:0:
124,66,117212,1,0,0:0:0:0:
390,155,117384,2,0,P|445:198|447:258,1,125,2|0,0:0|1:0,0:0:0:0:
339,368,117727,1,8,0:1:0:0:
376,230,117898,1,0,0:0:0:0:
201,306,118069,5,2,1:0:0:0:
429,339,118241,1,2,1:0:0:0:
296,189,118412,1,8,0:1:0:0:
259,367,118584,1,0,1:0:0:0:
259,367,118669,1,8,0:1:0:0:
259,367,118755,1,0,1:0:0:0:
449,249,118927,1,0,1:0:0:0:
183,203,119098,1,8,0:1:0:0:
339,368,119269,1,2,0:0:0:0:
483,134,119441,6,0,L|349:133,1,125,2|0,1:0|0:0,0:0:0:0:
182,130,119784,1,8,0:1:0:0:
357,36,119955,1,2,1:2:0:0:
296,189,120127,1,2,0:1:0:0:
180,24,120298,1,2,1:0:0:0:
180,24,120384,1,0,1:0:0:0:
180,24,120469,1,10,0:1:0:0:
84,215,120641,1,0,1:0:0:0:
221,311,120812,6,0,L|241:279,1,31.25,2|0,1:0|0:0,0:0:0:0:
252,325,120898,2,0,L|266:290,1,31.25,0|0,0:0|0:0,0:0:0:0:
284,333,120984,2,0,L|285:295,1,31.25,2|0,0:1|0:0,0:0:0:0:
307,338,121069,2,0,L|301:300,1,31.25,0|0,0:0|0:0,0:0:0:0:
334,335,121155,2,0,L|322:299,1,31.25,2|0,0:1|0:1,0:0:0:0:
358,330,121241,2,0,L|340:296,1,31.25,0|0,0:1|0:1,0:0:0:0:
379,324,121327,2,0,L|355:294,1,31.25,2|0,0:1|0:1,0:0:0:0:
399,312,121412,2,0,L|370:286,1,31.25,0|0,0:1|0:0,0:0:0:0:
412,288,121498,6,0,B|429:229|392:192|392:192|425:146|425:146|387:105|410:27,1,281.250010728836,10|0,0:1|0:0,0:0:0:0:
408,31,122184,5,4,1:2:0:0:
349,133,127669,5,4,0:2:0:0:
447,106,127841,1,2,2:0:0:0:
349,133,128012,1,0,0:0:0:0:
447,106,128184,1,2,0:2:0:0:
396,203,128355,2,0,L|397:286,1,74.9999977111817,8|2,0:0|2:0,0:0:0:0:
303,247,128698,2,0,L|304:330,1,74.9999977111817,8|0,0:2|0:0,0:0:0:0:
307,347,128955,1,0,0:0:0:0:
307,346,129041,5,0,0:0:0:0:
206,368,129212,1,2,2:2:0:0:
307,346,129384,1,0,0:0:0:0:
206,368,129555,1,2,0:2:0:0:
226,263,129727,2,0,L|225:188,1,74.9999977111817,8|2,0:0|2:0,0:0:0:0:
136,233,130069,1,8,0:2:0:0:
135,195,130154,1,0,0:0:0:0:
135,158,130240,1,0,0:0:0:0:
134,120,130327,1,0,0:0:0:0:
130,46,130412,5,8,0:2:0:0:
314,46,130584,1,0,0:0:0:0:
136,233,130755,1,8,0:2:0:0:
317,233,130927,1,0,0:0:0:0:
130,46,131098,5,8,0:0:0:0:
317,233,131269,1,0,0:0:0:0:
136,233,131441,1,8,0:2:0:0:
314,46,131612,1,0,0:0:0:0:
247,278,131784,5,0,0:0:0:0:
269,310,131869,1,0,0:0:0:0:
304,321,131955,1,0,0:0:0:0:
342,315,132041,1,0,0:0:0:0:
374,295,132127,6,0,L|405:323,1,31.25,0|0,0:0|0:0,0:0:0:0:
378,280,132212,2,0,L|413:302,1,31.25,0|0,0:0|0:0,0:0:0:0:
385,259,132298,2,0,L|423:274,1,31.25,0|0,0:0|0:0,0:0:0:0:
386,239,132384,2,0,L|427:240,1,31.25,0|0,0:0|0:0,0:0:0:0:
376,221,132469,6,0,P|342:119|438:183,1,281.250010728836,8|0,0:0|0:1,0:0:0:0:
277,244,133155,6,0,L|197:243,1,62.5,0|0,1:0|0:0,0:0:0:0:
44,206,133327,2,0,L|106:206,1,62.5,0|0,0:0|0:0,0:0:0:0:
181,97,133498,2,0,P|192:125|191:156,1,62.5,0|0,0:0|0:0,0:0:0:0:
139,343,133669,2,0,P|127:314|128:283,1,62.5,0|0,0:0|2:0,0:0:0:0:
191,156,133841,1,8,0:2:0:0:
224,355,134012,1,0,0:0:0:0:
261,362,134098,1,0,0:0:0:0:
297,353,134184,1,0,0:0:0:0:
417,240,134355,1,0,0:0:0:0:
258,288,134527,6,0,L|257:225,1,62.5,4|0,0:0|2:0,0:0:0:0:
343,85,134698,6,0,B|348:105|348:105|340:126|340:126|348:144|348:144|340:169,1,74.9999977111817,2|0,0:0|2:0,0:0:0:0:
418,310,134869,2,0,B|413:290|413:290|421:269|421:269|413:251|413:251|421:226,1,74.9999977111817,2|0,0:0|2:0,0:0:0:0:
343,85,135041,2,0,B|348:105|348:105|340:126|340:126|348:144|348:144|340:169,1,74.9999977111817,2|0,0:0|2:0,0:0:0:0:
343,311,135212,1,8,0:2:0:0:
252,152,135384,1,0,0:0:0:0:
215,158,135469,1,0,0:0:0:0:
194,190,135555,1,0,0:0:0:0:
135,44,135727,1,0,1:0:0:0:
102,62,135812,1,0,1:0:0:0:
92,99,135898,6,0,L|93:180,1,62.5,4|0,0:0|0:0,0:0:0:0:
105,265,136069,2,0,L|105:332,1,62.5,0|0,0:0|0:0,0:0:0:0:
194,190,136241,2,0,L|275:189,1,62.5,0|0,0:0|0:0,0:0:0:0:
360,201,136412,2,0,L|424:200,1,62.5,0|0,0:0|2:0,0:0:0:0:
272,309,136584,1,10,0:2:0:0:
333,126,136755,1,0,0:0:0:0:
346,90,136841,1,0,0:0:0:0:
354,51,136927,6,0,B|336:53|336:53|314:43|314:43|299:58|299:58|276:62,1,74.9999977111817,2|0,0:0|0:0,0:0:0:0:
92,99,137098,2,0,B|110:101|110:101|132:91|132:91|147:106|147:106|170:110,1,74.9999977111817,2|0,0:2|0:0,0:0:0:0:
272,184,137269,6,0,L|272:322,1,125,2|0,0:0|0:0,0:0:0:0:
473,310,137527,1,0,0:0:0:0:
478,273,137612,2,0,B|452:247|452:247|397:241|397:241|363:261,1,125,2|0,0:0|0:0,0:0:0:0:
345,363,137869,1,0,0:0:0:0:
381,372,137955,1,8,0:2:0:0:
193,326,138127,6,0,L|117:325,1,74.9999977111817,2|0,0:0|2:0,0:0:0:0:
44,183,138298,2,0,L|120:184,1,74.9999977111817,2|0,0:0|0:0,0:0:0:0:
193,326,138469,2,0,L|117:325,1,74.9999977111817,2|0,0:0|2:0,0:0:0:0:
44,183,138641,6,0,P|30:121|65:70,1,125,4|0,0:0|0:0,0:0:0:0:
175,84,138898,1,0,0:0:0:0:
161,118,138984,1,0,0:0:0:0:
231,221,139155,1,0,0:0:0:0:
245,187,139241,1,0,1:0:0:0:
262,154,139327,2,0,L|289:95,1,62.5,8|0,0:2|0:0,0:0:0:0:
417,237,139498,2,0,L|390:296,1,62.5,0|0,0:0|0:0,0:0:0:0:
387,99,139669,2,0,P|421:101|446:126,1,62.5,0|0,0:0|0:0,0:0:0:0:
292,287,139841,2,0,P|257:284|233:260,1,62.5,0|0,0:0|0:0,0:0:0:0:
161,118,140012,5,2,0:0:0:0:
290,219,140184,1,0,0:0:0:0:
91,300,140355,2,0,L|88:375,1,74.9999977111817,2|0,0:0|2:0,0:0:0:0:
161,118,140527,2,0,L|164:44,1,74.9999977111817,2|0,0:0|2:0,0:0:0:0:
29,241,140698,1,8,0:2:0:0:
262,154,140869,1,0,0:0:0:0:
298,145,140955,1,0,1:0:0:0:
333,158,141041,1,2,1:0:0:0:
436,328,141212,1,2,0:0:0:0:
224,343,141384,6,0,P|184:293|188:223,1,125,0|0,0:0|0:0,0:0:0:0:
397,210,141727,1,0,0:0:0:0:
265,263,141898,1,0,0:0:0:0:
361,81,142069,1,8,0:2:0:0:
356,297,142241,1,0,0:0:0:0:
235,86,142412,1,0,0:0:0:0:
456,128,142584,1,0,0:0:0:0:
183,234,142755,6,0,B|98:278|98:278|19:223,2,187.5,0|0|0,0:0|0:0|0:0,0:0:0:0:
329,150,143441,2,0,B|414:106|414:106|493:161,2,187.5,8|0|0,0:2|0:0|0:0,0:0:0:0:
370,321,144127,1,0,0:0:0:0:
256,192,144212,12,0,145327,0:0:0:0:
104,38,145498,6,0,L|103:207,1,149.999995422363,4|2,1:2|0:0,0:0:0:0:
103,273,146012,1,2,0:0:0:0:
316,225,146184,2,0,B|269:192|269:192|170:224,1,149.999995422363,8|2,0:0|0:0,0:0:0:0:
103,273,146698,1,2,0:0:0:0:
239,349,146869,5,0,1:0:0:0:
261,344,147041,1,0,0:0:0:0:
378,310,147212,5,2,0:0:0:0:
356,305,147384,1,2,0:0:0:0:
269,192,147555,5,8,0:0:0:0:
264,170,147727,1,2,0:0:0:0:
430,148,147898,5,2,0:0:0:0:
435,126,148070,1,0,0:0:0:0:
171,33,148241,6,0,L|333:26,1,149.999995422363,0|2,1:0|0:0,0:0:0:0:
405,23,148755,1,2,0:0:0:0:
360,232,148927,2,0,B|327:185|327:185|359:86,1,149.999995422363,8|2,0:0|0:0,0:0:0:0:
405,23,149441,1,2,0:0:0:0:
481,172,149612,5,0,1:0:0:0:
486,194,149784,1,2,0:0:0:0:
418,292,149955,5,2,0:0:0:0:
413,314,150127,1,2,0:0:0:0:
283,274,150298,5,8,0:0:0:0:
261,269,150470,1,0,0:0:0:0:
161,343,150641,5,2,0:0:0:0:
139,348,150813,1,0,0:0:0:0:
113,190,150984,6,0,B|76:139|76:139|37:216|37:216|72:270,1,200,4|2,1:2|0:0,0:0:0:0:
139,348,151498,1,2,0:0:0:0:
190,251,151669,2,0,B|216:195|216:195|180:124|180:124|201:69,1,200,8|2,0:0|0:0,0:0:0:0:
296,133,152184,1,2,0:0:0:0:
142,26,152355,5,0,1:0:0:0:
119,20,152527,1,0,0:0:0:0:
327,33,152698,5,2,0:0:0:0:
349,28,152870,1,2,0:0:0:0:
464,155,153041,5,8,0:0:0:0:
459,177,153213,1,2,0:0:0:0:
292,271,153384,5,2,0:0:0:0:
287,249,153556,1,0,0:0:0:0:
410,362,153727,6,0,L|231:356,1,149.999995422363,0|2,1:0|0:0,0:0:0:0:
174,352,154241,1,2,0:0:0:0:
223,149,154412,2,0,B|256:196|256:196|227:293,1,149.999995422363,8|2,0:0|0:0,0:0:0:0:
174,352,154927,1,2,0:0:0:0:
101,213,155098,5,0,1:0:0:0:
174,352,155269,1,0,0:0:0:0:
277,140,155441,1,2,0:0:0:0:
350,279,155612,1,2,0:0:0:0:
68,184,155784,5,8,0:0:0:0:
125,363,155955,1,0,0:0:0:0:
291,134,156127,1,2,0:0:0:0:
348,313,156298,1,2,0:0:0:0:
50,147,156469,5,0,1:0:0:0:
78,355,156640,1,0,0:0:0:0:
306,135,156812,1,2,0:0:0:0:
334,343,156983,1,2,0:0:0:0:
108,97,157155,6,0,P|139:32|197:128,1,224.999993133545,8|0,0:0|0:0,0:0:0:0:
92,218,157841,2,0,L|61:218,4,18.7499994277954,0|0|0|0|0,0:0|0:0|0:0|0:0|0:0,0:0:0:0:
118,221,158098,1,0,0:0:0:0:
118,221,158184,1,0,0:0:0:0:
172,354,158355,1,0,0:0:0:0:
233,218,158527,1,0,0:0:0:0:
359,352,158869,6,0,L|171:354,1,187.500007152558,8|0,0:0|0:0,0:0:0:0:
430,298,159212,5,2,0:2:0:0:
430,298,159555,1,2,0:2:0:0:
372,201,159898,1,2,0:2:0:0:
372,201,160241,1,2,0:2:0:0:
452,117,160584,1,2,0:2:0:0:
452,117,160927,1,2,0:2:0:0:
371,32,161269,1,2,0:2:0:0:
371,32,161612,1,2,0:2:0:0:
141,32,161955,5,2,0:2:0:0:
141,32,162298,1,2,0:2:0:0:
60,117,162640,1,2,0:2:0:0:
60,117,162983,1,2,0:2:0:0:
140,201,163326,1,2,0:2:0:0:
140,201,163669,1,2,0:2:0:0:
82,298,164012,1,2,0:2:0:0:
82,298,164355,1,2,0:2:0:0:
430,298,164698,6,8,P|449:233|430:173,1,125,8|0,0:2|0:0,0:0:0:0:
82,86,165041,2,0,P|63:151|82:211,1,125,8|0,0:2|0:0,0:0:0:0:
361,45,165384,2,0,P|296:26|236:45,1,125,8|0,0:2|0:0,0:0:0:0:
169,338,165727,2,0,P|234:357|294:338,1,125,8|0,0:2|0:2,0:0:0:0:
426,100,166069,5,0,0:0:0:0:
232,259,166241,1,0,0:0:0:0:
150,29,166412,1,0,0:0:0:0:
361,329,166584,1,0,0:0:0:0:
299,116,166755,5,0,0:0:0:0:
169,338,166927,1,0,0:0:0:0:
82,86,167098,1,0,0:0:0:0:
433,179,167269,1,0,0:0:0:0:
100,293,167441,5,2,0:0:0:0:
55,249,167527,1,0,0:0:0:0:
77,191,167612,1,0,0:0:0:0:
138,178,167698,1,0,0:0:0:0:
194,151,167784,1,0,0:0:0:0:
198,89,167869,1,0,0:0:0:0:
155,43,167955,1,2,0:0:0:0:
96,65,168041,1,0,0:0:0:0:
41,118,168127,6,0,L|6:98,1,31.25,2|0,0:0|0:0,0:0:0:0:
31,137,168212,2,0,L|-7:126,1,31.25
31,157,168298,2,0,L|-8:156,1,31.25,2|0,0:0|0:0,0:0:0:0:
34,179,168384,2,0,L|-5:185,1,31.25,0|0,0:0|0:0,0:0:0:0:
42,196,168469,2,0,L|4:209,1,31.25,0|0,0:0|0:0,0:0:0:0:
52,217,168555,2,0,L|17:236,1,31.25,0|0,0:0|0:0,0:0:0:0:
65,229,168641,2,0,L|34:254,1,31.25,2|0,0:0|0:0,0:0:0:0:
79,234,168727,2,0,L|53:264,1,31.25,0|0,0:0|0:0,0:0:0:0:
95,239,168812,5,4,1:2:0:0:
252,330,169498,2,0,L|320:325,3,62.5,0|0|0|0,0:0|0:0|0:0|0:0,0:0:0:0:
351,322,169841,2,0,L|392:319,1,31.25,0|0,0:0|0:0,0:0:0:0:
350,292,169927,2,0,L|389:281,1,31.25,0|0,0:0|0:0,0:0:0:0:
348,259,170012,2,0,L|382:235,1,31.25,0|0,0:0|0:0,0:0:0:0:
335,225,170098,2,0,L|359:191,1,31.25,0|0,0:0|0:0,0:0:0:0:
302,218,170184,6,0,P|247:179|244:94,1,149.999995422363,4|0,0:2|0:0,0:0:0:0:
423,21,170527,1,8,0:0:0:0:
323,131,170698,1,0,0:0:0:0:
117,44,170869,2,0,L|128:202,1,149.999995422363,0|0,0:0|0:0,0:0:0:0:
140,340,171212,1,8,0:0:0:0:
222,253,171384,1,0,0:0:0:0:
46,133,171555,5,0,0:0:0:0:
357,270,171727,1,0,0:0:0:0:
83,271,171898,1,8,0:0:0:0:
298,57,172069,1,0,0:0:0:0:
288,338,172241,1,0,1:0:0:0:
288,338,172327,1,0,2:0:0:0:
288,338,172412,1,4,0:2:0:0:
397,143,172584,1,8,0:0:0:0:
222,253,172755,1,4,0:2:0:0:
46,133,172927,6,0,P|102:87|180:103,1,149.999995422363,4|0,0:2|2:0,0:0:0:0:
295,179,173269,1,8,0:0:0:0:
133,174,173441,1,0,0:0:0:0:
133,174,173527,1,0,0:0:0:0:
133,174,173612,1,0,0:0:0:0:
298,57,173784,1,0,0:0:0:0:
136,262,173955,6,0,P|124:309|135:355,1,87.499997329712,8|0,0:0|2:0,0:0:0:0:
368,105,174127,2,0,P|380:58|369:12,1,87.499997329712,0|0,0:0|2:0,0:0:0:0:
206,27,174298,5,2,0:0:0:0:
206,27,174384,1,0,0:0:0:0:
206,27,174469,2,0,L|121:27,1,74.9999977111817,0|0,0:0|2:0,0:0:0:0:
330,186,174641,1,10,0:0:0:0:
330,186,174727,1,0,0:0:0:0:
330,186,174812,2,0,L|415:186,1,74.9999977111817,0|0,0:0|2:0,0:0:0:0:
199,316,174984,1,2,0:0:0:0:
199,316,175070,1,0,0:0:0:0:
199,316,175155,2,0,L|114:316,1,74.9999977111817,0|0,0:0|2:0,0:0:0:0:
35,195,175327,1,8,0:0:0:0:
276,311,175498,1,0,0:0:0:0:
160,98,175669,5,2,0:2:0:0:
45,313,175841,1,2,0:0:0:0:
330,186,176012,1,8,0:0:0:0:
62,114,176184,1,2,0:2:0:0:
276,311,176355,2,0,P|352:325|412:279,1,149.999995422363,2|4,0:0|0:2,0:0:0:0:
474,92,176698,1,8,0:0:0:0:
330,186,176869,1,4,0:2:0:0:
189,20,177041,5,2,0:2:0:0:
200,214,177212,1,2,0:0:0:0:
350,41,177384,1,10,0:0:0:0:
62,114,177555,1,2,0:2:0:0:
267,284,177727,2,0,P|296:219|268:145,1,149.999995422363,2|0,0:0|0:0,0:0:0:0:
97,32,178069,1,8,0:0:0:0:
201,214,178241,1,4,0:2:0:0:
288,14,178412,5,4,0:2:0:0:
116,191,178584,1,0,0:0:0:0:
371,159,178755,1,8,0:2:0:0:
160,123,178927,1,2,0:2:0:0:
117,112,179012,1,0,0:0:0:0:
74,126,179098,1,2,0:2:0:0:
141,340,179269,1,2,0:2:0:0:
141,340,179355,1,2,0:2:0:0:
141,340,179441,1,10,0:2:0:0:
272,148,179612,1,2,0:2:0:0:
479,294,179784,6,0,P|420:327|344:307,1,149.999995422363,2|2,0:2|0:2,0:0:0:0:
381,175,180041,1,2,0:2:0:0:
372,132,180127,1,10,0:2:0:0:
267,284,180298,1,2,0:2:0:0:
120,149,180469,2,0,L|150:115,1,37.4999988555909,2|0,0:2|0:0,0:0:0:0:
97,136,180555,2,0,L|132:107,1,37.4999988555909,2|0,0:2|0:0,0:0:0:0:
75,113,180641,2,0,L|117:98,1,37.4999988555909,0|0,0:0|0:0,0:0:0:0:
62,85,180727,2,0,L|106:78,1,37.4999988555909,0|0,0:0|0:0,0:0:0:0:
63,55,180812,6,0,P|189:29|315:51,1,250,8|0,0:0|0:0,0:0:0:0:
212,359,181155,6,0,P|136:371|81:328,1,149.999995422363,4|0,0:2|0:0,0:0:0:0:
9,151,181498,1,8,0:0:0:0:
155,290,181669,1,0,0:0:0:0:
299,153,181841,2,0,L|454:148,1,149.999995422363,0|0,0:0|0:0,0:0:0:0:
415,269,182184,1,8,0:0:0:0:
310,51,182355,1,0,0:0:0:0:
268,305,182527,5,0,0:0:0:0:
406,62,182698,1,0,0:0:0:0:
178,165,182869,1,8,0:0:0:0:
487,222,183041,1,0,0:0:0:0:
233,101,183212,1,2,0:0:0:0:
191,83,183297,1,0,0:0:0:0:
148,89,183383,1,0,0:0:0:0:
46,297,183555,1,8,0:0:0:0:
178,165,183727,1,2,0:1:0:0:
338,353,183898,6,0,P|368:289|350:207,1,149.999995422363,0|0,0:0|0:0,0:0:0:0:
233,101,184241,1,8,0:0:0:0:
240,276,184412,1,8,0:0:0:0:
240,276,184498,1,0,1:0:0:0:
240,276,184584,1,0,0:0:0:0:
336,62,184755,1,8,0:0:0:0:
139,186,184927,6,0,L|32:186,1,87.499997329712,8|0,0:0|2:0,0:0:0:0:
366,139,185098,2,0,L|473:139,1,87.499997329712,8|0,0:0|2:0,0:0:0:0:
129,338,185269,5,2,0:0:0:0:
129,338,185355,1,0,0:0:0:0:
129,338,185441,2,0,P|116:291|125:256,1,74.9999977111817,0|0,0:0|2:0,0:0:0:0:
428,228,185612,1,10,0:0:0:0:
428,228,185698,1,0,0:0:0:0:
428,228,185784,2,0,P|441:275|432:310,1,74.9999977111817,0|0,0:0|2:0,0:0:0:0:
167,100,185955,1,2,0:0:0:0:
167,100,186041,1,0,0:0:0:0:
167,100,186127,2,0,P|154:53|163:18,1,74.9999977111817,0|0,0:0|2:0,0:0:0:0:
358,276,186298,1,8,0:0:0:0:
232,53,186469,1,0,0:0:0:0:
187,293,186641,5,4,0:2:0:0:
343,47,186812,1,2,2:0:0:0:
86,115,186984,1,12,0:2:0:0:
335,205,187155,1,2,2:0:0:0:
110,353,187327,2,0,L|267:347,1,149.999995422363,4|2,0:2|2:1,0:0:0:0:
433,333,187669,1,8,0:0:0:0:
227,206,187841,1,2,2:0:0:0:
468,113,188012,5,4,0:2:0:0:
347,360,188184,1,2,2:0:0:0:
292,105,188355,1,12,0:2:0:0:
494,233,188527,1,2,2:0:0:0:
222,38,188698,2,0,P|195:111|223:175,1,149.999995422363,4|0,0:2|0:0,0:0:0:0:
364,280,189041,1,8,0:0:0:0:
405,31,189212,1,0,0:0:0:0:
231,300,189384,6,0,L|56:292,1,149.999995422363,6|0,0:0|0:0,0:0:0:0:
261,373,189727,1,8,0:0:0:0:
359,176,189898,1,2,0:0:0:0:
123,214,190069,1,2,0:0:0:0:
361,306,190241,1,0,0:0:0:0:
210,99,190412,1,10,0:0:0:0:
142,349,190584,1,2,0:0:0:0:
418,350,190755,5,0,0:0:0:0:
439,310,190841,1,0,0:0:0:0:
427,266,190927,1,0,0:0:0:0:
389,241,191012,1,0,0:0:0:0:
344,245,191098,1,0,0:0:0:0:
306,220,191183,1,0,0:0:0:0:
294,176,191269,1,0,0:0:0:0:
315,136,191355,1,0,0:0:0:0:
343,101,191441,6,0,L|386:101,1,37.4999988555909,0|0,0:0|0:0,0:0:0:0:
334,81,191527,2,0,L|376:73,1,37.4999988555909,0|0,0:0|0:0,0:0:0:0:
323,63,191612,2,0,L|360:41,1,37.4999988555909,0|0,0:0|0:0,0:0:0:0:
305,48,191698,2,0,L|332:15,1,37.4999988555909,0|0,0:1|0:0,0:0:0:0:
279,69,191784,6,0,P|198:124|218:28,1,250,8|0,0:0|2:1,0:0:0:0:
54,31,192127,6,0,P|38:90|68:156,1,125
136,322,192469,2,0,P|152:263|122:197,1,125,8|0,0:1|0:0,0:0:0:0:
54,268,192812,1,0,0:0:0:0:
54,268,192984,1,0,0:0:0:0:
181,133,193155,1,8,0:1:0:0:
181,133,193327,1,2,0:0:0:0:
264,279,193498,6,0,L|418:277,1,125,2|0,0:0|0:0,0:0:0:0:
481,75,193841,2,0,L|327:77,1,125,10|0,0:1|0:0,0:0:0:0:
264,279,194184,2,0,L|418:277,1,125,2|0,0:0|0:0,0:0:0:0:
483,45,194527,6,0,L|219:51,1,250,8|0,0:0|0:0,0:0:0:0:
456,318,194869,6,0,P|466:288|461:247,1,62.5,2|0,0:0|0:0,0:0:0:0:
409,174,195041,1,0,0:0:0:0:
409,174,195127,2,0,P|379:164|338:169,1,62.5,2|0,0:0|0:0,0:0:0:0:
251,193,195298,1,0,0:0:0:0:
251,193,195384,2,0,P|219:194|181:178,1,62.5,2|0,0:0|0:0,0:0:0:0:
110,249,195555,2,0,P|99:278|101:309,1,62.5,0|2,0:0|0:0,0:0:0:0:
233,122,195727,2,0,P|243:92|241:61,1,62.5,2|0,0:0|2:0,0:0:0:0:
69,41,195898,1,2,0:2:0:0:
51,74,195984,1,2,0:2:0:0:
54,98,196069,1,2,0:2:0:0:
62,108,196155,1,2,0:2:0:0:
68,113,196241,6,0,L|70:184,1,62.5,2|0,0:0|0:0,0:0:0:0:
108,276,196412,1,0,0:0:0:0:
108,276,196498,2,0,L|110:347,1,62.5,2|0,0:0|0:0,0:0:0:0:
231,280,196669,1,0,0:0:0:0:
231,280,196755,2,0,L|302:278,1,62.5,2|0,0:0|0:0,0:0:0:0:
395,304,196927,2,0,L|466:302,1,62.5,0|0,0:0|0:0,0:0:0:0:
252,357,197098,2,0,L|189:358,1,62.5,2|0,0:0|2:0,0:0:0:0:
402,193,197269,1,2,0:2:0:0:
413,158,197355,1,2,0:2:0:0:
410,134,197440,1,2,0:2:0:0:
402,124,197526,1,2,0:2:0:0:
397,119,197612,6,0,P|385:86|391:57,1,62.5,2|0,0:0|0:0,0:0:0:0:
301,15,197784,1,0,0:0:0:0:
301,15,197869,2,0,P|268:27|239:21,1,62.5,2|0,0:0|0:0,0:0:0:0:
156,81,198041,1,0,0:0:0:0:
156,81,198126,2,0,P|168:114|162:143,1,62.5,2|0,0:0|0:0,0:0:0:0:
239,213,198298,1,2,0:0:0:0:
410,331,198469,5,0,0:0:0:0:
330,340,198555,2,0,L|256:346,1,74.9999977111817,2|0,0:0|0:0,0:0:0:0:
60,229,198727,5,0,0:0:0:0:
151,220,198812,2,0,L|250:211,1,87.499997329712,2|0,0:0|0:0,0:0:0:0:
391,249,198984,6,0,L|363:127,1,125,2|0,0:0|0:0,0:0:0:0:
363,127,199241,6,0,L|391:249,1,125,2|0,0:0|0:0,0:0:0:0:
391,248,199499,6,0,L|349:65,1,187.500007152558,2|0,0:0|0:0,0:0:0:0:
350,65,199842,6,0,L|370:158,1,93.7500035762788,2|0,0:1|2:1,0:0:0:0:
370,156,200013,6,0,L|350:60,1,93.7500035762788,2|0,0:0|2:0,0:0:0:0:
351,64,200184,6,0,L|369:157,1,93.7500035762788,2|0,0:0|2:0,0:0:0:0:
391,248,200355,6,0,P|355:244|320:252,1,62.5,2|0,0:0|0:0,0:0:0:0:
239,298,200527,1,0,0:0:0:0:
239,298,200612,2,0,P|203:302|168:294,1,62.5,2|0,0:0|0:0,0:0:0:0:
78,305,200784,1,0,0:0:0:0:
78,305,200869,2,0,P|62:277|55:247,1,62.5,2|2,0:0|0:0,0:0:0:0:
8,154,201041,2,0,P|17:124|35:98,1,62.5,0|0,0:0|0:0,0:0:0:0:
233,171,201212,2,0,P|223:200|205:226,1,62.5,2|0,0:0|2:0,0:0:0:0:
128,46,201384,1,2,0:2:0:0:
163,35,201470,1,2,0:2:0:0:
187,38,201555,1,2,0:2:0:0:
197,46,201641,1,2,0:2:0:0:
202,51,201727,6,0,L|264:51,1,62.5,2|0,0:0|0:0,0:0:0:0:
356,100,201898,1,0,0:0:0:0:
356,100,201984,2,0,L|418:100,1,62.5,2|0,0:0|0:0,0:0:0:0:
388,203,202155,1,0,0:0:0:0:
388,203,202241,2,0,L|388:265,1,62.5,2|0,0:0|0:0,0:0:0:0:
288,236,202412,2,0,L|226:236,1,62.5,0|0,0:0|0:0,0:0:0:0:
414,345,202584,2,0,L|476:345,1,62.5,2|0,0:0|2:0,0:0:0:0:
256,343,202755,1,2,0:2:0:0:
218,343,202841,1,2,0:2:0:0:
193,344,202926,1,2,0:2:0:0:
180,345,203012,1,2,0:2:0:0:
173,343,203098,6,0,P|164:314|175:284,1,62.5,2|0,0:0|0:0,0:0:0:0:
223,196,203269,1,4,0:2:0:0:
223,196,203355,2,0,P|233:167|224:137,1,62.5,2|0,0:0|0:0,0:0:0:0:
315,82,203527,1,0,0:0:0:0:
315,82,203613,2,0,P|343:92|373:83,1,62.5,2|0,0:0|0:0,0:0:0:0:
464,136,203784,2,0,L|460:231,1,83.3333333333333,2|0,0:0|0:0,0:0:0:0:
451,326,203955,1,0,0:0:0:0:
256,353,204127,5,0,0:0:0:0:
173,343,204241,5,0,0:0:0:0:
91,331,204355,5,0,0:0:0:0:
12,313,204469,6,0,L|40:191,1,125,2|2,0:0|2:0,0:0:0:0:
40,191,204726,6,0,L|12:313,1,125,2|2,2:2|2:2,0:0:0:0:
12,312,204984,6,0,L|37:207,1,93.7500035762788,2|0,2:2|0:0,0:0:0:0:
67,113,205155,6,0,P|136:188|34:176,1,250,8|0,0:0|0:0,0:0:0:0:
218,34,205498,1,2,2:0:0:0:
256,245,205669,1,2,2:0:0:0:
368,97,205841,6,0,L|453:91,1,62.5,2|0,0:0|0:0,0:0:0:0:
321,174,206012,1,0,0:0:0:0:
321,174,206098,2,0,P|295:158|282:130,1,62.5,2|0,0:0|0:0,0:0:0:0:
417,189,206269,1,0,0:0:0:0:
417,189,206355,2,0,P|410:218|388:240,1,62.5,2|2,0:0|0:0,0:0:0:0:
287,263,206527,2,0,L|203:260,1,62.5,0|0,0:0|0:0,0:0:0:0:
77,180,206698,2,0,L|161:177,1,62.5,2|0,0:0|2:0,0:0:0:0:
134,336,206869,1,2,0:2:0:0:
127,300,206955,1,2,0:2:0:0:
133,276,207040,1,2,0:2:0:0:
142,267,207126,1,2,0:2:0:0:
147,262,207212,6,0,P|158:231|154:200,1,62.5,2|0,0:0|0:0,0:0:0:0:
85,131,207384,1,0,0:0:0:0:
85,131,207469,2,0,P|74:100|78:69,1,62.5,2|0,0:0|0:0,0:0:0:0:
178,45,207641,1,0,0:0:0:0:
178,45,207727,2,0,L|265:44,1,62.5,2|0,0:0|0:0,0:0:0:0:
337,83,207898,2,0,L|424:82,1,62.5,0|0,0:0|0:0,0:0:0:0:
464,214,208069,2,0,P|475:185|468:155,1,62.5,2|0,0:0|0:0,0:0:0:0:
308,164,208241,1,2,0:2:0:0:
301,200,208327,1,2,0:2:0:0:
307,224,208412,1,2,0:2:0:0:
316,233,208498,1,2,0:2:0:0:
321,238,208584,6,0,P|332:269|328:300,1,62.5,2|0,0:0|0:0,0:0:0:0:
206,333,208755,1,0,0:0:0:0:
206,333,208841,2,0,P|195:302|199:271,1,62.5,2|0,0:0|0:0,0:0:0:0:
229,174,209012,2,0,P|232:143|221:114,1,62.5,0|2,0:0|0:0,0:0:0:0:
139,34,209269,1,2,0:0:0:0:
41,203,209441,5,0,0:0:0:0:
120,197,209527,2,0,L|221:192,1,74.9999977111817,2|0,0:0|0:0,0:0:0:0:
355,292,209698,5,0,0:0:0:0:
262,297,209784,2,0,L|159:303,1,87.499997329712,2|0,0:0|0:0,0:0:0:0:
52,327,209955,6,0,L|40:202,1,125,2|0,0:0|0:0,0:0:0:0:
40,202,210212,6,0,L|51:326,1,125,2|0,0:0|0:0,0:0:0:0:
51,326,210470,6,0,L|34:138,1,187.500007152558,2|0,0:0|0:0,0:0:0:0:
34,139,210813,6,0,L|43:233,1,93.7500035762788,2|0,0:0|2:0,0:0:0:0:
43,232,210984,6,0,L|32:134,1,93.7500035762788,2|0,0:0|2:0,0:0:0:0:
32,138,211155,6,0,L|43:232,1,93.7500035762788,2|0,0:0|2:0,0:0:0:0:
136,234,211327,6,0,P|199:234|240:187,1,125,4|0,0:0|0:0,0:0:0:0:
253,34,211669,1,0,0:0:0:0:
168,164,211841,1,0,0:0:0:0:
363,124,212012,1,0,0:0:0:0:
138,60,212184,1,2,0:0:0:0:
324,209,212355,1,2,0:2:0:0:
332,246,212441,1,2,0:2:0:0:
329,271,212527,1,2,0:2:0:0:
324,283,212612,1,2,0:2:0:0:
320,290,212698,6,0,P|281:336|219:333,1,125,4|0,0:0|0:0,0:0:0:0:
95,241,213041,1,0,0:0:0:0:
249,262,213212,1,0,0:0:0:0:
54,352,213384,1,0,0:0:0:0:
168,164,213555,1,2,0:0:0:0:
320,290,213727,1,2,0:2:0:0:
357,298,213813,1,2,0:2:0:0:
382,295,213899,1,2,0:2:0:0:
394,290,213984,1,2,0:2:0:0:
420,264,214069,5,2,0:0:0:0:
426,226,214155,1,0,0:0:0:0:
408,192,214241,1,0,0:0:0:0:
371,184,214327,1,2,0:0:0:0:
335,193,214412,1,0,0:0:0:0:
307,167,214498,1,0,0:0:0:0:
303,129,214584,1,2,0:0:0:0:
323,98,214669,1,0,0:0:0:0:
353,76,214755,6,0,L|350:34,1,31.25,2|0,0:0|0:0,0:0:0:0:
381,73,214841,2,0,L|385:31,1,31.25,0|0,0:0|0:0,0:0:0:0:
408,75,214927,2,0,L|426:37,1,31.25,0|0,0:0|0:0,0:0:0:0:
428,87,215012,2,0,L|458:57,1,31.25,2|0,0:0|0:0,0:0:0:0:
448,106,215098,2,0,L|482:82,1,31.25,0|0,0:0|0:0,0:0:0:0:
462,128,215184,2,0,L|500:110,1,31.25,0|0,0:0|0:0,0:0:0:0:
470,150,215269,2,0,L|510:139,1,31.25,2|0,0:0|0:0,0:0:0:0:
470,172,215355,2,0,L|512:169,1,31.25,0|0,0:0|0:0,0:0:0:0:
466,193,215441,6,0,P|426:232|358:217,1,125,4|0,0:2|0:0,0:0:0:0:
339,190,215698,2,0,P|280:177|235:217,1,125,4|0,0:2|0:0,0:0:0:0:
224,252,215955,2,0,P|184:291|116:276,1,125,4|0,0:2|0:0,0:0:0:0:
111,243,216212,2,0,P|107:182|56:150,1,125,2|2,0:2|0:2,0:0:0:0:
42,119,216469,6,0,P|78:60|150:68,1,140.625005364418,8|0,0:2|0:0,0:0:0:0:
254,160,216812,5,0,0:0:0:0:
453,127,216984,2,0,P|428:90|402:124,1,93.7500035762788,2|0,0:0|0:0,0:0:0:0:
416,203,217155,1,8,0:2:0:0:
258,245,217327,6,0,B|248:231|248:231|254:204|254:204|244:181|244:181|253:159,1,93.7500035762788,2|0,0:0|0:0,0:0:0:0:
287,73,217669,1,0,0:0:0:0:
333,184,217841,1,8,0:2:0:0:
363,26,218012,1,0,0:0:0:0:
416,203,218184,5,0,0:0:0:0:
435,223,218269,1,0,0:0:0:0:
443,249,218355,1,0,0:0:0:0:
439,277,218441,1,0,0:0:0:0:
424,301,218527,1,8,0:2:0:0:
258,245,218698,6,0,B|248:258|248:258|254:285|254:285|244:308|244:308|253:330,1,93.7500035762788,0|0,0:0|0:0,0:0:0:0:
424,301,219041,1,0,0:0:0:0:
333,184,219212,1,8,0:2:0:0:
327,359,219384,1,2,0:2:0:0:
235,168,219555,5,0,0:0:0:0:
93,283,219727,2,0,P|118:320|143:285,1,93.7500035762788,2|0,0:0|0:0,0:0:0:0:
120,206,219898,1,8,0:2:0:0:
230,82,220069,6,0,B|239:95|239:95|233:122|233:122|243:145|243:145|234:167,1,93.7500035762788,2|0,0:0|0:0,0:0:0:0:
222,281,220412,1,0,0:0:0:0:
159,124,220584,1,8,0:2:0:0:
300,236,220755,1,0,0:0:0:0:
349,88,220927,5,2,0:0:0:0:
369,69,221012,1,0,0:0:0:0:
395,61,221098,1,0,0:0:0:0:
423,65,221184,1,0,0:0:0:0:
447,80,221270,1,8,0:0:0:0:
401,249,221441,2,0,B|391:226|391:226|401:203|401:203|395:176|395:176|405:163,1,93.7500035762788,2|0,0:2|0:0,0:0:0:0:
502,216,221784,1,2,0:2:0:0:
413,340,221955,1,10,0:2:0:0:
300,236,222127,1,0,0:0:0:0:
160,354,222298,5,2,0:2:0:0:
300,236,222469,2,0,P|275:199|249:233,1,93.7500035762788,2|2,0:0|0:2,0:0:0:0:
265,313,222641,1,8,0:2:0:0:
128,268,222812,6,0,B|118:245|118:245|128:222|128:222|122:195|122:195|132:182,1,93.7500035762788,2|0,0:0|0:0,0:0:0:0:
168,103,223155,1,2,0:2:0:0:
48,212,223327,1,10,0:2:0:0:
73,36,223498,1,0,0:0:0:0:
210,171,223669,5,0,0:0:0:0:
234,182,223754,1,0,0:0:0:0:
262,182,223840,1,0,0:2:0:0:
287,170,223926,1,0,0:2:0:0:
305,148,224012,1,8,0:2:0:0:
372,254,224184,2,0,B|381:267|381:267|375:294|375:294|385:317|385:317|376:339,1,93.7500035762788,2|0,0:2|0:0,0:0:0:0:
252,362,224527,1,2,0:2:0:0:
299,242,224698,1,10,0:2:0:0:
446,368,224869,1,0,0:0:0:0:
480,181,225041,5,0,0:0:0:0:
353,82,225212,2,0,P|316:101|342:133,1,93.7500035762788,2|2,0:0|2:2,0:0:0:0:
429,121,225384,1,8,0:2:0:0:
387,225,225555,6,0,B|372:232|372:232|346:224|346:224|322:232|322:232|301:220,1,93.7500035762788,2|0,0:0|0:0,0:0:0:0:
223,165,225898,1,2,0:2:0:0:
272,298,226069,1,10,0:2:0:0:
342,133,226241,1,0,0:0:0:0:
136,27,226412,6,0,P|86:54|109:123,1,125,0|0,0:0|0:0,0:0:0:0:
118,144,226669,2,0,P|128:201|77:230,1,125
37,228,226927,2,0,P|22:255|31:286,1,62.5,0|0,0:0|0:0,0:0:0:0:
131,357,227098,1,8,0:0:0:0:
254,192,227269,1,2,0:2:0:0:
254,192,227441,1,2,0:2:0:0:
456,339,227784,5,2,0:2:0:0:
360,341,228127,1,2,0:2:0:0:
454,237,228469,5,2,0:2:0:0:
358,239,228812,1,2,0:2:0:0:
453,137,229155,5,2,0:2:0:0:
357,139,229498,1,2,0:2:0:0:
451,35,229840,5,2,0:2:0:0:
355,37,230183,1,2,0:2:0:0:
56,45,230527,5,2,0:2:0:0:
152,43,230870,1,2,0:2:0:0:
58,147,231212,5,2,0:2:0:0:
154,145,231555,1,2,0:2:0:0:
59,247,231898,5,2,0:2:0:0:
155,245,232241,1,2,0:2:0:0:
61,349,232583,5,2,0:2:0:0:
157,347,232926,1,2,0:2:0:0:
352,108,233269,6,0,P|363:152|342:193,1,93.7500035762788,2|2,0:2|0:2,0:0:0:0:
160,276,233612,2,0,P|148:231|169:190,1,93.7500035762788,2|2,0:2|0:2,0:0:0:0:
340,289,233955,2,0,P|295:300|254:279,1,93.7500035762788,2|2,0:2|0:2,0:0:0:0:
172,95,234298,2,0,P|216:83|257:104,1,93.7500035762788,2|2,0:2|0:2,0:0:0:0:
169,190,234641,6,0,P|124:201|83:180,1,93.7500035762788,2|2,0:2|0:2,0:0:0:0:
342,194,234984,2,0,P|387:182|428:203,1,93.7500035762788,2|2,0:2|0:2,0:0:0:0:
243,364,235327,2,0,P|264:323|254:279,1,93.7500035762788,2|2,0:2|0:2,0:0:0:0:
266,19,235669,2,0,P|245:60|257:104,1,93.7500035762788,2|2,0:2|0:2,0:0:0:0:
145,323,236012,5,0,0:0:0:0:
367,320,236184,1,2,0:2:0:0:
132,129,236355,1,0,0:0:0:0:
354,126,236527,1,2,0:2:0:0:
145,323,236698,5,0,0:0:0:0:
132,129,236870,1,2,0:2:0:0:
367,320,237041,1,0,0:0:0:0:
354,126,237213,1,2,0:2:0:0:
60,189,237384,6,0,P|41:166|38:135,1,46.8750017881394,2|0,0:0|0:0,0:0:0:0:
132,129,237555,1,0,0:0:0:0:
132,129,237641,2,0,L|131:49,1,46.8750017881394,2|0,0:0|0:0,0:0:0:0:
226,111,237812,1,0,0:0:0:0:
226,111,237898,2,0,L|281:53,1,46.8750017881394,2|0,0:0|0:0,0:0:0:0:
301,167,238069,1,0,0:0:0:0:
301,195,238155,1,2,0:0:0:0:
302,223,238241,1,0,0:0:0:0:
302,251,238327,1,0,0:0:0:0:
301,278,238412,1,10,0:0:0:0:
301,278,238755,5,4,0:0:0:0:
256,192,238841,12,0,241327,0:0:0:0:
