osu file format v14

[General]
AudioFilename: audio.mp3
AudioLeadIn: 0
PreviewTime: 44613
Countdown: 0
SampleSet: Normal
StackLeniency: 0.7
Mode: 0
LetterboxInBreaks: 0
WidescreenStoryboard: 1

[Editor]
DistanceSpacing: 1.2
BeatDivisor: 4
GridSize: 4
TimelineZoom: 1.8

[Metadata]
Title:Aa Kenran no Yume ga Gotoku (Epsilon Remix)
TitleUnicode:嗚呼 絢爛の泡沫が如く (Epsilon Remix)
Artist:Uinyasu, Occhoko Bunny
ArtistUnicode:ういにゃす・おっちょこバニー
Creator:GIDZ
Version:Easy
Source:千の刃濤、桃花染の皇姫
Tags:Dirty Farmer Regou hellgou Flask little CloudSplash16 Matha -_Matha_- Petal xlolicore xLolicore- Elsa Valentine My Angel Watame Naotoshi Lasse Flask Dailycare Morinaga Sing Nao Tomori Amamiya Yuko Skystar opening eroge visual novel sen no hatou tsukisome no kouki senmomo august soft OP Japanese Gal game electronic jpop
BeatmapID:1592196
BeatmapSetID:749096

[Difficulty]
HPDrainRate:3
CircleSize:3
OverallDifficulty:3
ApproachRate:3
SliderMultiplier:0.699999999999999
SliderTickRate:1

[Events]
//Background and Video events
0,0,"bg_main.jpg",0,0
//Break Periods
2,76927,80852
2,122383,126229
2,159069,163138
//Storyboard Layer 0 (Background)
//Storyboard Layer 1 (Fail)
//Storyboard Layer 2 (Pass)
//Storyboard Layer 3 (Foreground)
//Storyboard Layer 4 (Overlay)
//Storyboard Sound Samples

[TimingPoints]
813,342.857142857143,4,1,0,45,1,0
44698,-100,4,1,0,60,0,1
55327,-100,4,1,0,80,0,1
55498,-100,4,2,0,20,0,1
55670,-100,4,1,0,60,0,1
58841,-100,4,1,0,40,0,1
59098,-100,4,1,0,60,0,1
59184,-100,4,1,0,40,0,1
59441,-100,4,1,0,60,0,1
59527,-100,4,1,0,40,0,1
59784,-100,4,1,0,60,0,1
65270,-100,4,1,0,80,0,1
66641,-100,4,1,1,60,0,0
70755,-100,4,1,0,60,0,0
72984,-100,4,1,1,60,0,0
73155,-100,4,1,0,60,0,0
74013,-100,4,1,1,60,0,0
74184,-100,4,1,0,60,0,0
76927,342.857142857143,4,1,0,60,1,0
100241,-100,4,2,0,69,0,1
100584,-100,4,2,1,69,0,1
100669,-100,4,2,0,69,0,1
101269,-100,4,2,1,69,0,1
101355,-100,4,2,0,69,0,1
101955,-100,4,2,1,69,0,1
102127,-100,4,2,0,69,0,1
102212,-100,4,2,1,69,0,1
102298,-100,4,2,0,69,0,1
102641,-100,4,2,1,69,0,1
102812,-100,4,2,0,69,0,1
103327,-100,4,2,1,69,0,1
103412,-100,4,2,0,69,0,1
104012,-100,4,2,1,69,0,1
104098,-100,4,2,0,69,0,1
104269,-100,4,2,1,69,0,1
104355,-100,4,2,0,69,0,1
104698,-100,4,2,1,69,0,1
105041,-100,4,2,0,69,0,1
105641,-100,4,2,0,5,0,1
105727,-100,4,2,0,69,0,1
106069,-100,4,2,1,69,0,1
106155,-100,4,2,0,69,0,1
106755,-100,4,2,1,69,0,1
107098,-100,4,2,0,69,0,1
107441,-100,4,2,1,69,0,1
107955,-100,4,2,0,69,0,1
108041,-100,4,2,0,5,0,1
108127,-100,4,2,1,69,0,1
108298,-100,4,2,0,69,0,1
108812,-100,4,2,1,69,0,1
109155,-100,4,2,0,69,0,1
109498,-100,4,2,1,69,0,1
109755,-100,4,2,0,69,0,1
110184,-100,4,2,1,69,0,1
110355,-100,4,2,0,69,0,1
110698,-100,4,2,1,69,0,1
110869,-100,4,2,0,69,0,1
111041,-100,4,2,1,69,0,1
111212,-100,4,2,0,69,0,1
111555,-100,4,2,1,69,0,1
111598,-100,4,2,0,5,0,1
111727,-100,4,2,0,69,0,1
112241,-100,4,2,1,69,0,1
112412,-100,4,2,0,69,0,1
112669,-100,4,2,0,5,0,1
112755,-100,4,2,0,69,0,1
112927,-100,4,2,1,69,0,1
113441,-100,4,2,0,69,0,1
113612,-100,4,2,1,69,0,1
113955,-100,4,2,0,69,0,1
114298,-100,4,2,1,69,0,1
114469,-100,4,2,0,69,0,1
114984,-100,4,2,1,69,0,1
115498,-100,4,2,0,69,0,1
115669,-100,4,2,1,69,0,1
116012,-100,4,2,0,69,0,1
116355,-100,4,2,1,69,0,1
116527,-100,4,2,0,69,0,1
116612,-100,4,2,0,5,0,1
116698,-100,4,2,0,69,0,1
117041,-100,4,2,1,69,0,1
117384,-100,4,2,0,69,0,1
117727,-100,4,2,1,69,0,1
118069,-100,4,2,0,69,0,1
118412,-100,4,2,1,69,0,1
118927,-100,4,2,0,69,0,1
119098,-100,4,2,1,69,0,1
119269,-100,4,2,0,69,0,1
119784,-100,4,2,1,69,0,1
119955,-100,4,2,0,69,0,1
120469,-100,4,2,1,69,0,1
120555,-100,4,2,0,69,0,1
122184,-100,4,1,0,80,0,0
126984,-100,4,2,0,45,0,0
127669,-100,4,1,0,60,0,0
132812,-100,4,2,0,60,0,0
132898,-100,4,2,0,5,0,0
132984,-100,4,2,0,60,0,0
133069,-100,4,2,0,5,0,0
133155,-100,4,1,0,60,0,0
137012,-100,4,2,0,5,0,0
137098,-100,4,1,0,60,0,0
137184,-100,4,2,0,5,0,0
137269,-100,4,1,0,60,0,0
142755,-100,4,1,0,75,0,0
144212,-100,4,2,0,40,0,0
145498,-100,4,2,0,60,0,0
157841,-100,4,1,0,50,0,0
158869,-100,4,1,0,60,0,0
159041,-100,4,1,0,5,0,0
159212,-100,4,1,0,60,0,0
164698,-100,4,1,0,60,0,0
168812,-100,4,1,0,24,0,0
169327,-100,4,2,0,5,0,0
169498,-100,4,1,0,20,0,0
169584,-100,4,1,0,30,0,0
169669,-100,4,1,0,40,0,0
169755,-100,4,1,0,50,0,0
169841,-100,4,1,0,69,0,0
170184,-100,4,1,0,69,0,1
184327,-100,4,1,0,40,0,1
184584,-100,4,1,0,69,0,1
184669,-100,4,1,0,40,0,1
184927,-100,4,1,0,69,0,1
185012,-100,4,1,0,40,0,1
185269,-100,4,1,0,69,0,1
192127,-100,4,1,0,69,0,0
192469,-100,4,2,1,69,0,0
192812,-100,4,1,0,69,0,0
193155,-100,4,2,1,69,0,0
193327,-100,4,1,0,69,0,0
193841,-100,4,2,1,69,0,0
194184,-100,4,1,0,69,0,0
194869,-100,4,1,0,69,0,1
199669,-100,4,2,0,69,0,1
199841,-100,4,1,0,69,0,1
204469,-100,4,1,0,69,0,0
205841,-100,4,1,0,69,0,1
210641,-100,4,2,0,69,0,1
210812,-100,4,1,0,69,0,1
216812,-100,4,1,0,60,0,0
226412,-100,4,1,0,80,0,0
227784,-100,4,1,0,60,0,0

[Colours]
Combo1 : 252,242,131
Combo2 : 255,89,89
Combo3 : 252,120,213
Combo4 : 252,132,97

[HitObjects]
77,110,812,6,0,P|139:83|213:105,1,140,0|0,1:2|1:2,0:0:0:0:
270,155,1841,1,0,1:2:0:0:
206,210,2184,2,0,P|139:227|76:200,2,140,0|0|0,1:0|1:2|1:0,0:0:0:0:
270,155,3898,1,0,1:0:0:0:
311,82,4241,6,0,P|373:55|447:77,1,140,0|0,1:2|1:0,0:0:0:0:
483,144,5270,1,0,1:0:0:0:
444,218,5613,2,0,P|380:245|314:227,1,140,0|0,1:2|1:2,0:0:0:0:
270,155,6641,1,0,1:2:0:0:
226,226,6984,2,0,P|210:259|216:297,1,69.9999999999999,0|0,1:0|1:2,0:0:0:0:
275,347,7670,6,0,B|209:309|210:376|139:333,2,140,0|0|0,1:0|1:2|1:0,0:0:0:0:
358,344,9384,1,0,1:0:0:0:
434,308,9727,2,0,P|445:241|443:165,1,140,0|2,1:2|1:3,0:0:0:0:
401,96,10755,1,2,1:3:0:0:
343,157,11098,6,0,B|312:170|312:170|278:156|278:156|246:167|246:167|208:149,1,140,0|4,1:0|1:0,0:0:0:0:
160,87,12127,1,8,0:0:0:0:
120,160,12470,2,0,P|106:197|121:234,1,69.9999999999999,0|8,0:0|0:0,0:0:0:0:
185,268,13155,6,0,P|253:252|328:282,2,140,0|2|0,1:0|1:2|1:0,0:0:0:0:
110,307,14870,1,8,0:0:0:0:
36,265,15213,2,0,P|20:204|37:120,1,140,0|0,1:0|1:0,0:0:0:0:
87,65,16241,1,8,0:0:0:0:
161,103,16584,2,0,P|229:116|296:99,1,140,2|4,1:2|1:0,0:0:0:0:
367,53,17613,6,0,P|379:96|371:136,1,69.9999999999999,0|0,1:0|0:0,0:0:0:0:
316,179,18298,2,0,P|314:213|325:246,1,69.9999999999999,0|0,1:0|1:0,0:0:0:0:
377,312,18984,1,0,1:0:0:0:
300,346,19327,2,0,P|263:352|221:343,1,69.9999999999999,0|0,1:0|1:0,0:0:0:0:
151,318,20013,6,0,P|114:318|76:340,2,69.9999999999999,0|0|0,1:0|1:0|1:0,0:0:0:0:
211,259,21041,1,0,3:0:0:0:
162,190,21384,2,0,P|124:103|214:66,1,210,0|8,1:0|1:0,0:0:0:0:
290,89,22755,6,0,B|336:113|377:75|377:75|434:96,1,140,4|0,1:0|1:0,0:0:0:0:
477,151,23784,1,0,1:0:0:0:
420,213,24127,2,0,P|403:244|408:283,1,69.9999999999999,0|0,1:0|1:0,0:0:0:0:
353,343,24813,2,0,L|277:341,1,69.9999999999999,0|0,1:0|1:0,0:0:0:0:
218,287,25498,6,0,L|214:206,2,69.9999999999999,0|0|0,1:0|1:0|1:0,0:0:0:0:
135,305,26527,1,0,1:0:0:0:
52,288,26870,2,0,L|48:207,2,69.9999999999999,0|0|0,1:0|1:0|1:0,0:0:0:0:
218,287,28241,6,0,B|266:283|297:306|297:306|347:268,1,140,0|0,1:0|1:0,0:0:0:0:
405,215,29270,1,8,0:0:0:0:
479,176,29613,2,0,P|496:138|487:103,1,69.9999999999999,0|8,1:0|0:0,0:0:0:0:
433,50,30298,2,0,P|398:53|368:37,1,69.9999999999999,0|8,1:0|0:0,0:0:0:0:
285,22,30984,6,0,L|208:28,2,69.9999999999999,0|8|0,1:0|0:0|1:0,0:0:0:0:
308,103,32013,1,8,1:2:0:0:
353,173,32355,2,0,P|356:239|281:248,1,140,0|8,1:0|0:0,0:0:0:0:
216,225,33384,1,2,0:3:0:0:
224,141,33727,6,0,B|189:132|189:132|143:155|143:155|91:138,1,140,2|8,1:3|0:1,0:0:0:0:
36,201,34755,1,2,0:0:0:0:
110,240,35098,2,0,B|119:275|119:275|96:321|96:321|113:373,1,140,2|8,1:0|0:1,0:0:0:0:
187,332,36127,1,2,0:1:0:0:
258,288,36470,6,0,B|310:285|340:325|340:325|391:299,1,140,2|8,1:0|0:1,0:0:0:0:
429,235,37498,1,2,1:2:0:0:
433,151,37841,6,0,L|438:87,2,52.4999999999999,2|2|2,1:0|1:0|1:0,0:0:0:0:
268,108,38870,1,10,0:0:0:0:
202,160,39213,6,0,P|142:187|92:142,1,140,2|10,1:0|0:0,0:0:0:0:
80,310,40584,2,0,P|129:265|189:292,1,140,2|8,1:3|0:0,0:0:0:0:
248,232,41613,1,0,0:0:0:0:
295,301,41955,6,0,P|355:328|405:283,1,140,2|10,1:0|0:0,0:0:0:0:
417,200,42984,1,2,0:3:0:0:
375,127,43327,2,0,L|385:44,2,69.9999999999999,2|0|0,1:2|1:0|3:0,0:0:0:0:
299,90,44355,1,8,0:0:0:0:
236,33,44698,6,0,L|154:25,1,69.9999999999999,4|8,1:0|0:1,0:0:0:0:
95,72,45384,2,0,P|71:100|71:142,1,69.9999999999999,0|8,1:0|0:1,0:0:0:0:
73,216,46070,2,0,P|69:250|46:275,2,69.9999999999999,0|8|2,1:0|0:1|1:2,0:0:0:0:
145,173,47098,1,8,0:1:0:0:
213,221,47441,6,0,L|289:227,1,69.9999999999999,0|8,1:0|0:1,0:0:0:0:
337,290,48127,2,0,P|360:264|363:230,1,69.9999999999999,0|8,1:0|0:1,0:0:0:0:
339,149,48813,2,0,P|342:114|366:86,2,69.9999999999999,0|8|2,1:0|0:1|1:2,0:0:0:0:
422,145,49841,1,8,1:0:0:0:
480,204,50184,6,0,L|485:285,1,69.9999999999999,0|8,1:0|0:1,0:0:0:0:
419,327,50870,1,0,1:0:0:0:
336,345,51213,1,8,0:1:0:0:
270,293,51555,6,0,L|265:223,1,69.9999999999999,0|8,1:0|0:1,0:0:0:0:
189,187,52241,1,0,1:0:0:0:
105,176,52584,1,8,0:1:0:0:
82,95,52927,6,0,P|124:42|200:59,1,140,0|0,1:0|1:0,0:0:0:0:
255,102,53955,1,8,0:1:0:0:
337,118,54298,2,0,L|414:110,2,69.9999999999999,0|8|2,1:0|0:1|3:2,0:0:0:0:
358,199,55327,1,8,0:0:0:0:
335,280,55670,6,0,L|404:284,1,69.9999999999999,4|8,1:2|0:1,0:0:0:0:
478,244,56355,2,0,P|495:208|486:169,1,69.9999999999999,0|8,1:0|0:1,0:0:0:0:
456,102,57041,2,0,P|452:67|469:37,2,69.9999999999999,0|8|2,1:0|0:1|1:2,0:0:0:0:
409,172,58070,1,8,0:1:0:0:
340,123,58413,6,0,L|257:121,1,69.9999999999999,0|8,1:2|0:1,0:0:0:0:
189,98,59098,2,0,L|106:96,1,69.9999999999999,0|8,1:0|0:1,0:0:0:0:
39,68,59784,2,0,P|43:32|65:3,2,69.9999999999999,0|8|2,1:0|0:1|1:2,0:0:0:0:
52,151,60813,1,8,0:1:0:0:
90,225,61155,6,0,L|89:304,1,69.9999999999999,0|8,1:0|0:1,0:0:0:0:
152,350,61841,1,0,1:0:0:0:
235,339,62184,1,8,0:1:0:0:
290,275,62527,2,0,L|291:196,1,69.9999999999999,0|8,1:0|0:1,0:0:0:0:
345,140,63213,1,0,1:0:0:0:
428,147,63555,1,8,0:1:0:0:
475,77,63898,6,0,P|436:22|368:27,1,140,0|0,1:0|1:0,0:0:0:0:
296,69,64927,1,2,1:2:0:0:
224,25,65270,2,0,L|141:20,2,69.9999999999999,0|0|2,1:0|1:0|3:2,0:0:0:0:
194,103,66298,1,8,0:0:0:0:
109,103,66641,6,0,P|54:137|80:196,1,140,4|0,3:0|0:0,0:0:0:0:
146,247,67670,1,8,0:1:0:0:
176,325,68013,2,0,P|210:380|269:354,1,140,0|0,1:0|0:0,0:0:0:0:
317,286,69041,1,8,0:1:0:0:
395,256,69384,2,0,P|450:222|424:163,1,140,0|0,1:0|1:0,0:0:0:0:
362,106,70413,1,8,0:1:0:0:
292,59,70755,6,0,P|257:50|221:62,1,69.9999999999999,0|8,1:0|0:1,0:0:0:0:
146,88,71441,2,0,P|112:97|79:88,1,69.9999999999999,0|8,0:0|0:1,0:0:0:0:
55,169,72127,6,0,L|62:230,2,52.4999999999999,6|6|6,1:0|1:0|1:0,0:0:0:0:
165,229,73155,2,0,L|172:290,2,52.4999999999999,6|6|6,1:0|1:0|1:0,0:0:0:0:
261,148,74184,2,0,L|255:95,2,52.4999999999999,2|2|2,1:0|1:0|1:0,0:0:0:0:
256,192,75041,12,8,76241,0:0:0:0:
439,305,82412,6,0,P|371:328|300:315,1,140,4|8,1:0|0:0,0:0:0:0:
254,249,83441,1,2,0:0:0:0:
205,317,83784,2,0,P|136:327|71:304,1,140,0|8,1:0|0:0,0:0:0:0:
37,227,84812,1,2,0:0:0:0:
61,146,85155,6,0,L|49:70,2,69.9999999999999,0|0|8,1:0|1:0|0:0,0:0:0:0:
141,121,86184,1,0,1:0:0:0:
220,94,86527,2,0,L|368:98,1,140,0|8,1:0|0:0,0:0:0:0:
443,102,87555,1,2,0:3:0:0:
478,178,87898,6,0,B|514:245|453:244|485:314,2,140,6|8|2,1:3|0:1|1:0,0:0:0:0:
400,210,89612,2,0,P|368:220|319:208,1,69.9999999999999,0|8,0:0|0:1,0:0:0:0:
253,185,90298,1,2,1:0:0:0:
216,109,90641,6,0,P|158:76|88:95,1,140,2|8,1:0|0:1,0:0:0:0:
48,166,91669,1,2,1:0:0:0:
107,225,92012,2,0,P|116:249|104:282,2,52.4999999999999,2|2|2,1:0|1:0|1:0,0:0:0:0:
41,332,93041,5,10,0:0:0:0:
121,354,93384,2,0,L|275:347,1,140,4|8,1:0|0:0,0:0:0:0:
343,333,94412,1,2,0:3:0:0:
302,259,94755,2,0,P|266:201|293:128,1,140,2|8,1:3|0:0,0:0:0:0:
345,77,95784,1,0,0:0:0:0:
266,47,96127,6,0,B|225:57|201:35|201:35|164:51|133:36,1,140,0|8,1:0|0:0,0:0:0:0:
48,44,97155,1,2,0:3:0:0:
93,114,97498,2,0,P|103:152|91:189,1,69.9999999999999,2|0,1:3|0:0,0:0:0:0:
46,249,98184,2,0,P|36:287|48:324,1,69.9999999999999,8|8,0:0|0:0,0:0:0:0:
121,285,98869,6,0,B|162:300|189:264|189:264|233:285|233:285|266:252|324:262,1,210,2|8,1:2|0:0,0:0:0:0:
380,306,100241,6,0,P|392:274|386:234,1,69.9999999999999,6|8,1:0|0:1,0:0:0:0:
327,179,100927,2,0,P|315:147|321:107,1,69.9999999999999,0|8,0:0|0:1,0:0:0:0:
383,58,101612,2,0,L|462:64,2,69.9999999999999,2|8|0,1:0|0:1|0:0,0:0:0:0:
303,29,102641,1,8,0:1:0:0:
220,43,102984,6,0,P|191:57|176:93,1,69.9999999999999,2|8,1:0|0:1,0:0:0:0:
205,169,103669,2,0,P|217:207|211:241,1,69.9999999999999,0|8,0:0|0:1,0:0:0:0:
220,320,104355,2,0,L|300:327,2,69.9999999999999,2|8|2,1:0|0:1|0:0,0:0:0:0:
146,361,105384,1,10,0:1:0:0:
80,308,105727,6,0,P|37:255|43:186,1,140,2|0,1:0|0:0,0:0:0:0:
112,140,106755,1,8,0:1:0:0:
180,187,107098,2,0,B|215:202|246:182|246:182|283:200|323:184,1,140,2|2,1:0|1:2,0:0:0:0:
398,187,108127,1,10,0:1:0:0:
462,133,108469,6,0,P|468:98|459:65,1,69.9999999999999,2|8,1:0|0:1,0:0:0:0:
393,12,109155,2,0,P|358:5|325:14,1,69.9999999999999,0|8,0:0|0:1,0:0:0:0:
255,62,109841,2,0,P|193:90|131:51,1,140,2|0,1:0|0:0,0:0:0:0:
54,82,110869,1,2,1:2:0:0:
96,154,111212,6,0,P|110:181|102:222,1,69.9999999999999,6|8,1:0|0:1,0:0:0:0:
32,263,111898,1,2,0:0:0:0:
48,346,112241,1,8,0:1:0:0:
132,344,112584,2,0,P|199:324|276:340,1,140,2|0,1:0|3:0,0:0:0:0:
350,343,113612,1,8,0:1:0:0:
429,316,113955,6,0,P|421:279|433:244,1,69.9999999999999,2|8,1:0|0:1,0:0:0:0:
493,194,114641,2,0,P|502:160|493:126,1,69.9999999999999,0|8,0:0|0:1,0:0:0:0:
427,74,115327,2,0,L|431:2,2,69.9999999999999,2|8|0,1:0|0:1|0:0,0:0:0:0:
398,153,116355,1,10,0:1:0:0:
326,109,116698,6,0,P|261:88|192:111,1,140,2|0,1:0|0:0,0:0:0:0:
119,146,117727,1,8,0:1:0:0:
134,228,118069,6,0,P|199:248|265:227,1,140,2|0,1:0|1:0,0:0:0:0:
342,193,119098,1,8,0:1:0:0:
417,230,119441,6,0,P|431:270|431:304,1,69.9999999999999,2|8,1:0|0:1,0:0:0:0:
357,337,120127,2,0,L|274:335,1,69.9999999999999,2|8,0:0|0:1,0:0:0:0:
200,370,120812,6,0,P|206:258|282:345,1,280,2|4,1:0|1:0,0:0:0:0:
72,249,127669,6,0,P|50:184|73:109,1,140,4|8,1:0|0:1,0:0:0:0:
131,61,128698,1,0,1:0:0:0:
200,107,129041,2,0,P|235:116|268:106,1,69.9999999999999,2|0,1:2|1:0,0:0:0:0:
341,67,129727,2,0,P|374:57|407:66,1,69.9999999999999,8|2,0:1|1:2,0:0:0:0:
376,144,130412,6,0,B|330:247|416:246|365:349,1,210,2|2,1:2|1:2,0:0:0:0:
285,322,131784,2,0,P|226:289|151:322,1,140,2|8,1:2|0:1,0:0:0:0:
35,199,133155,6,0,P|63:136|41:63,1,140,4|8,1:0|0:1,0:0:0:0:
122,34,134184,1,2,0:1:0:0:
200,64,134527,2,0,B|233:75|233:75|267:62,1,69.9999999999999,2|0,1:0|0:0,0:0:0:0:
345,34,135212,2,0,B|377:21|377:21|410:32,1,69.9999999999999,8|2,0:1|0:0,0:0:0:0:
445,109,135898,6,0,P|421:170|351:170,1,140,0|8,1:0|0:1,0:0:0:0:
272,152,136927,1,2,0:1:0:0:
190,171,137269,2,0,P|167:236|189:314,1,140,2|10,1:0|0:1,0:0:0:0:
251,352,138298,1,2,0:0:0:0:
328,319,138641,6,0,L|479:319,1,140,0|8,1:0|0:1,0:0:0:0:
441,239,139669,1,2,0:1:0:0:
488,169,140012,2,0,P|505:103|471:42,1,140,2|10,1:0|0:1,0:0:0:0:
390,63,141041,1,2,0:0:0:0:
317,105,141384,6,0,P|286:118|249:107,1,69.9999999999999,0|2,1:0|0:1,0:0:0:0:
178,68,142069,2,0,P|144:59|112:72,1,69.9999999999999,8|2,0:1|0:1,0:0:0:0:
49,127,142755,2,0,L|64:275,2,140,0|8|0,1:0|0:1|1:0,0:0:0:0:
302,347,145498,6,0,P|365:324|364:252,1,140,4|8,1:0|0:0,0:0:0:0:
309,199,146527,1,2,0:3:0:0:
369,140,146869,2,0,P|364:73|302:51,1,140,2|8,1:2|0:0,0:0:0:0:
221,75,147898,1,2,0:0:0:0:
138,60,148241,6,0,P|113:125|131:197,1,140,0|8,1:0|0:0,0:0:0:0:
167,265,149269,1,2,0:3:0:0:
247,239,149612,2,0,P|314:219|393:237,1,140,0|8,1:0|0:0,0:0:0:0:
446,285,150641,1,2,0:0:0:0:
393,350,150984,6,0,P|326:370|247:352,1,140,0|8,1:0|0:0,0:0:0:0:
188,311,152012,1,2,0:3:0:0:
126,253,152355,2,0,P|106:186|124:107,1,140,0|10,1:0|0:0,0:0:0:0:
183,64,153384,1,2,0:0:0:0:
248,116,153727,6,0,B|313:140|313:140|388:110,2,140,0|8|0,1:0|0:0|1:0,0:0:0:0:
183,64,155441,2,0,P|215:39|258:36,1,69.9999999999999,2|8,0:0|0:0,0:0:0:0:
327,42,156127,2,0,P|360:34|387:12,1,69.9999999999999,2|2,0:0|1:2,0:0:0:0:
461,52,156812,1,2,0:0:0:0:
477,134,157155,6,0,L|465:289,1,140,10|0,0:0|3:0,0:0:0:0:
405,332,158184,1,0,1:0:0:0:
347,270,158527,2,0,P|324:251|311:281,1,69.9999999999999,0|8,3:0|0:0,0:0:0:0:
80,297,164698,6,0,P|63:265|63:219,1,69.9999999999999,4|0,1:0|1:0,0:0:0:0:
127,181,165384,2,0,P|143:150|146:115,1,69.9999999999999,0|0,1:0|1:0,0:0:0:0:
118,36,166069,2,0,L|196:34,1,69.9999999999999,0|2,1:0|1:2,0:0:0:0:
268,59,166755,2,0,L|346:57,1,69.9999999999999,2|0,1:2|1:0,0:0:0:0:
256,192,167441,12,4,168812,1:2:0:0:
426,129,170184,6,0,B|411:162|411:162|424:200,1,69.9999999999999,4|8,1:0|0:1,0:0:0:0:
450,273,170869,2,0,B|465:306|465:306|452:344,1,69.9999999999999,0|8,1:0|0:1,0:0:0:0:
372,357,171555,2,0,B|340:367|340:367|307:352,2,69.9999999999999,2|8|2,1:2|0:1|1:2,0:0:0:0:
344,277,172584,1,8,0:1:0:0:
331,193,172927,6,0,L|330:121,1,69.9999999999999,0|8,1:0|0:1,0:0:0:0:
246,135,173612,2,0,B|213:150|213:150|175:137,1,69.9999999999999,0|8,1:0|0:1,0:0:0:0:
102,109,174298,2,0,B|91:77|91:77|106:44,2,69.9999999999999,0|8|2,1:0|0:1|1:2,0:0:0:0:
110,192,175327,1,8,0:1:0:0:
75,268,175669,6,0,B|109:280|109:280|149:271,1,69.9999999999999,4|8,1:0|0:1,0:0:0:0:
224,254,176355,1,2,1:2:0:0:
252,333,176698,1,8,0:1:0:0:
314,276,177041,6,0,B|332:242|332:242|321:206,1,69.9999999999999,0|8,1:0|0:1,0:0:0:0:
249,170,177727,1,2,1:2:0:0:
169,144,178069,1,8,0:1:0:0:
232,88,178412,6,0,L|315:84,1,69.9999999999999,0|8,1:0|0:1,0:0:0:0:
366,138,179098,2,0,L|449:134,1,69.9999999999999,2|8,1:2|0:1,0:0:0:0:
507,89,179784,2,0,P|480:28|406:27,1,140,0|2,1:0|3:2,0:0:0:0:
335,53,180812,1,8,0:0:0:0:
253,33,181155,6,0,B|220:21|220:21|185:31,1,69.9999999999999,4|8,1:0|0:1,0:0:0:0:
110,67,181841,2,0,B|76:76|76:76|43:64,1,69.9999999999999,0|8,1:0|0:1,0:0:0:0:
21,145,182527,2,0,B|22:218,2,69.9999999999999,0|8|2,1:0|0:1|1:2,0:0:0:0:
104,155,183555,1,8,0:1:0:0:
179,117,183898,6,0,B|211:105|211:105|247:116,1,69.9999999999999,0|8,1:0|0:1,0:0:0:0:
319,154,184584,2,0,B|353:164|353:164|385:152,1,69.9999999999999,2|8,1:2|0:1,0:0:0:0:
438,87,185269,2,0,B|427:52|427:52|439:20,2,69.9999999999999,0|8|2,1:0|0:1|1:2,0:0:0:0:
468,165,186298,1,8,0:1:0:0:
505,240,186641,6,0,B|472:252|472:252|432:240,1,69.9999999999999,0|8,1:0|0:1,0:0:0:0:
354,243,187327,1,0,1:0:0:0:
397,314,187669,1,8,0:1:0:0:
312,314,188012,6,0,B|280:292|280:292|275:247,1,69.9999999999999,0|8,1:0|0:1,0:0:0:0:
294,178,188698,1,0,1:0:0:0:
365,133,189041,1,8,0:1:0:0:
289,95,189384,6,0,L|217:91,1,69.9999999999999,0|0,1:0|1:0,0:0:0:0:
149,138,190069,2,0,L|77:134,1,69.9999999999999,0|0,1:0|1:0,0:0:0:0:
28,201,190755,2,0,P|43:279|153:264,1,210,0|8,1:0|0:0,0:0:0:0:
208,203,192127,6,0,P|248:193|284:199,1,69.9999999999999,6|8,1:0|0:1,0:0:0:0:
334,257,192812,2,0,P|368:260|402:250,1,69.9999999999999,2|8,1:0|0:1,0:0:0:0:
455,184,193498,2,0,L|453:104,2,69.9999999999999,2|8|0,1:0|0:1|1:0,0:0:0:0:
488,263,194527,1,10,0:0:0:0:
402,249,194869,6,0,P|313:190|332:93,1,210,4|8,1:0|0:1,0:0:0:0:
269,36,196241,2,0,B|202:67|139:14|139:14|70:43,1,210,2|8,1:2|0:1,0:0:0:0:
60,124,197612,2,0,P|107:171|87:243,1,140,2|2,1:2|1:2,0:0:0:0:
40,303,198641,1,8,0:1:0:0:
121,325,198984,6,0,L|203:322,1,69.9999999999999,0|8,1:0|0:1,0:0:0:0:
274,328,199669,2,0,L|356:325,1,69.9999999999999,0|8,0:0|3:1,0:0:0:0:
417,285,200355,6,0,B|376:242|376:242|431:168|364:168|401:93,1,210,4|8,1:0|0:1,0:0:0:0:
328,52,201727,2,0,P|234:27|118:57,1,210,2|8,1:2|0:1,0:0:0:0:
140,135,203098,2,0,P|166:202|155:274,1,140,0|0,1:0|1:0,0:0:0:0:
125,346,204127,1,8,0:1:0:0:
64,287,204469,6,0,B|33:278|33:278|-4:294,2,69.9999999999999,2|0|8,1:2|1:0|0:1,0:0:0:0:
81,204,205498,1,2,3:2:0:0:
63,121,205841,6,0,B|127:40|127:40|241:77,1,210,4|8,1:0|0:1,0:0:0:0:
272,144,207212,2,0,B|373:176|373:176|437:95,1,210,2|8,1:2|0:1,0:0:0:0:
494,157,208584,2,0,L|494:299,1,140,2|0,1:2|1:0,0:0:0:0:
441,362,209612,1,8,0:1:0:0:
364,327,209955,6,0,L|281:325,1,69.9999999999999,2|8,1:2|0:1,0:0:0:0:
211,310,210641,2,0,L|128:308,1,69.9999999999999,0|8,0:0|0:1,0:0:0:0:
111,229,211327,6,0,P|186:168|125:99,1,210,6|8,1:2|0:1,0:0:0:0:
161,22,212698,2,0,B|228:42|228:42|294:17|294:17|370:35,1,210,2|8,1:2|0:1,0:0:0:0:
256,192,214069,12,4,215441,1:2:0:0:
265,330,216812,6,0,P|229:342|186:333,1,69.9999999999999,4|10,1:0|0:0,0:0:0:0:
125,294,217498,2,0,P|90:290|57:302,1,69.9999999999999,0|8,1:0|0:0,0:0:0:0:
29,222,218184,2,0,L|33:140,1,69.9999999999999,0|8,1:2|0:0,0:0:0:0:
105,109,218869,2,0,L|109:27,1,69.9999999999999,0|8,1:0|0:0,0:0:0:0:
192,45,219555,6,0,P|230:52|266:44,1,69.9999999999999,2|10,1:2|0:0,0:0:0:0:
342,64,220241,2,0,P|376:58|410:65,2,69.9999999999999,0|8|0,1:0|0:0|1:0,0:0:0:0:
315,143,221269,1,10,0:0:0:0:
343,222,221612,2,0,L|341:300,1,69.9999999999999,0|8,1:0|0:0,0:0:0:0:
282,352,222298,6,0,P|248:337|210:343,1,69.9999999999999,0|10,1:0|0:0,0:0:0:0:
154,283,222984,2,0,P|139:251|142:217,2,69.9999999999999,0|8|0,1:0|0:0|1:0,0:0:0:0:
99,347,224012,1,10,0:0:0:0:
45,282,224355,2,0,L|40:210,1,69.9999999999999,0|8,1:0|0:0,0:0:0:0:
16,131,225041,6,0,P|24:99|54:75,1,69.9999999999999,0|10,1:0|0:0,0:0:0:0:
121,29,225727,2,0,P|153:37|177:67,1,69.9999999999999,0|8,1:0|0:0,0:0:0:0:
156,146,226412,2,0,B|189:152|224:132|224:132|257:151|294:146,1,140,0|8,1:0|0:0,0:0:0:0:
374,143,227441,1,2,3:1:0:0:
333,216,227784,5,4,1:0:0:0:
