osu file format v14

[General]
AudioFilename: audio.mp3
AudioLeadIn: 0
PreviewTime: 44613
Countdown: 0
SampleSet: Soft
StackLeniency: 0.5
Mode: 0
LetterboxInBreaks: 0
WidescreenStoryboard: 1

[Editor]
Bookmarks: 33555
DistanceSpacing: 0.8
BeatDivisor: 8
GridSize: 4
TimelineZoom: 2.899999

[Metadata]
Title:Aa Kenran no Yume ga Gotoku (Epsilon Remix)
TitleUnicode:嗚呼 絢爛の泡沫が如く (Epsilon Remix)
Artist:Uinyasu, Occhoko Bunny
ArtistUnicode:ういにゃす・おっちょこバニー
Creator:GIDZ
Version:Dailycare's Insane
Source:千の刃濤、桃花染の皇姫
Tags:Dirty Farmer Regou hellgou Flask little CloudSplash16 Matha -_Matha_- Petal xlolicore xLolicore- Elsa Valentine My Angel Watame Naotoshi Lasse Flask Dailycare Morinaga Sing Nao Tomori Amamiya Yuko Skystar opening eroge visual novel sen no hatou tsukisome no kouki senmomo august soft OP Japanese Gal game electronic jpop
BeatmapID:1596086
BeatmapSetID:749096

[Difficulty]
HPDrainRate:6
CircleSize:3.6
OverallDifficulty:8
ApproachRate:9
SliderMultiplier:1.8
SliderTickRate:1

[Events]
//Background and Video events
0,0,"bg_main.jpg",0,0
//Break Periods
2,77127,81812
2,122384,127069
//Storyboard Layer 0 (Background)
//Storyboard Layer 1 (Fail)
//Storyboard Layer 2 (Pass)
//Storyboard Layer 3 (Foreground)
//Storyboard Layer 4 (Overlay)
//Storyboard Sound Samples

[TimingPoints]
813,342.857142857143,4,2,1,80,1,0
11098,-83.3333333333333,4,2,1,80,0,0
11784,-92.5925925925926,4,2,1,90,0,0
21384,-92.5925925925926,4,2,1,70,0,0
22413,-92.5925925925926,4,2,1,90,0,0
22670,-92.5925925925926,4,2,1,5,0,0
22755,-100,4,2,1,80,0,0
27555,-100,4,2,1,60,0,0
27813,-100,4,2,1,70,0,0
28241,-92.5925925925926,4,2,1,80,0,0
33727,-92.5925925925926,4,2,1,90,0,0
38013,-92.5925925925926,4,2,1,5,0,0
38098,-92.5925925925926,4,2,1,90,0,0
38270,-92.5925925925926,4,2,1,5,0,0
38355,-92.5925925925926,4,2,1,90,0,0
38527,-92.5925925925926,4,2,1,5,0,0
38613,-92.5925925925926,4,2,1,90,0,0
38784,-92.5925925925926,4,2,1,5,0,0
38870,-92.5925925925926,4,2,1,90,0,0
39127,-92.5925925925926,4,2,1,5,0,0
39213,-133.333333333333,4,2,1,80,0,0
43413,-133.333333333333,4,2,1,5,0,0
43498,-133.333333333333,4,2,1,80,0,0
43584,-133.333333333333,4,2,1,5,0,0
43670,-133.333333333333,4,2,1,80,0,0
43755,-133.333333333333,4,2,1,5,0,0
43841,-133.333333333333,4,2,1,80,0,0
43927,-133.333333333333,4,2,1,5,0,0
44013,-100,4,2,1,80,0,0
44698,-92.5925925925926,4,2,1,100,0,1
54984,-92.5925925925926,4,2,1,80,0,1
55327,-92.5925925925926,4,2,1,90,0,1
55584,-92.5925925925926,4,2,1,5,0,1
55670,-92.5925925925926,4,2,1,100,0,1
65955,-92.5925925925926,4,2,1,80,0,1
66298,-92.5925925925926,4,2,1,90,0,1
66641,-92.5925925925926,4,2,1,90,0,0
72127,-83.3333333333333,4,2,1,90,0,0
75213,-83.3333333333333,4,2,1,80,0,0
75555,-200,4,2,1,70,0,0
76155,-200,4,2,1,5,0,0
76241,-200,4,2,1,80,0,0
76755,-200,4,2,1,40,0,0
76927,342.857142857143,4,2,1,60,1,0
82412,-100,4,2,1,60,0,0
82413,-100,4,2,1,70,0,0
85155,-100,4,2,1,80,0,0
87212,-92.5925925925926,4,2,1,80,0,0
87384,-92.5925925925926,4,2,1,70,0,0
87898,-92.5925925925926,4,2,1,90,0,0
92184,-92.5925925925926,4,2,1,5,0,0
92269,-92.5925925925926,4,2,1,90,0,0
92441,-92.5925925925926,4,2,1,5,0,0
92527,-92.5925925925926,4,2,1,90,0,0
92698,-92.5925925925926,4,2,1,5,0,0
92784,-92.5925925925926,4,2,1,90,0,0
92955,-92.5925925925926,4,2,1,5,0,0
93041,-92.5925925925926,4,2,1,90,0,0
93298,-92.5925925925926,4,2,1,5,0,0
93384,-133.333333333333,4,2,1,80,0,0
99555,-100,4,2,1,80,0,0
99898,-100,4,2,1,90,0,0
100241,-100,4,2,1,100,0,0
110869,-100,4,2,1,90,0,0
111212,-100,4,2,1,100,0,0
120812,-133.333333333333,4,2,1,100,0,0
121498,-133.333333333333,4,2,1,70,0,0
122012,-133.333333333333,4,2,1,5,0,0
122184,-133.333333333333,4,2,1,60,0,0
123555,-133.333333333333,4,2,1,40,0,0
123727,-133.333333333333,4,2,1,60,0,0
127669,-133.333333333333,4,2,1,80,0,0
132469,-133.333333333333,4,2,1,60,0,0
132898,-133.333333333333,4,2,1,5,0,0
132984,-100,4,2,1,80,0,0
133069,-100,4,2,1,5,0,0
133155,-111.111111111111,4,2,1,70,0,0
142755,-100,4,2,1,70,0,0
144212,-100,4,2,1,50,0,0
145498,-133.333333333333,4,2,1,60,0,0
157841,-133.333333333333,4,2,1,70,0,0
158527,-133.333333333333,4,2,1,60,0,0
158869,-133.333333333333,4,2,1,80,0,0
159212,-100,4,2,1,80,0,0
168812,-100,4,2,1,70,0,0
169498,-100,4,2,1,60,0,0
169841,-100,4,2,1,90,0,0
170184,-92.5925925925926,4,2,1,100,0,1
180469,-92.5925925925926,4,2,1,80,0,1
180812,-92.5925925925926,4,2,1,70,0,1
181069,-92.5925925925926,4,2,1,5,0,1
181155,-92.5925925925926,4,2,1,100,0,1
191441,-92.5925925925926,4,2,1,80,0,1
191784,-92.5925925925926,4,2,1,90,0,1
192127,-92.5925925925926,4,2,1,80,0,0
194869,-92.5925925925926,4,2,1,90,0,0
204469,-133.333333333333,4,2,1,90,0,0
205841,-92.5925925925926,4,2,1,90,0,0
215441,-92.5925925925926,4,2,1,80,0,0
215612,-92.5925925925926,4,2,1,5,0,0
215698,-92.5925925925926,4,2,1,80,0,0
215869,-92.5925925925926,4,2,1,5,0,0
215955,-92.5925925925926,4,2,1,80,0,0
216127,-92.5925925925926,4,2,1,5,0,0
216212,-92.5925925925926,4,2,1,80,0,0
216469,-92.5925925925926,4,2,1,60,0,0
216812,-92.5925925925926,4,2,1,90,0,0
227441,-100,4,2,1,90,0,0
227784,-100,4,2,1,80,0,0
238755,-100,4,2,1,50,0,0
240812,-100,4,2,1,5,0,0

[Colours]
Combo1 : 252,242,131
Combo2 : 255,89,89
Combo3 : 252,120,213
Combo4 : 252,132,97

[HitObjects]
463,278,812,6,0,P|452:234|448:189,1,90,0|0,1:2|0:0,0:0:0:0:
338,58,1155,1,0,1:2:0:0:
473,109,1327,2,0,B|370:92|422:156|300:141,1,180,0|0,0:0|0:0,0:0:0:0:
70,89,1841,2,0,P|116:84|168:103,1,90,0|0,1:2|0:0,0:0:0:0:
284,228,2184,5,0,1:0:0:0:
202,261,2355,2,0,P|210:211|213:143,1,90,0|0,0:0|1:0,0:0:0:0:
212,171,2870,2,0,P|142:150|40:196,1,180,0|0,1:2|1:0,0:0:0:0:
111,358,3384,5,0,0:0:0:0:
111,358,3470,1,0,0:0:0:0:
111,358,3555,2,0,P|162:348|206:344,1,90,0|0,1:0|0:0,0:0:0:0:
432,212,3898,2,0,P|366:229|298:180,1,135,0|0,1:0|0:0,0:0:0:0:
301,191,4241,2,0,P|310:243|312:303,1,90,0|0,1:2|0:0,0:0:0:0:
483,362,4584,2,0,P|486:317|494:272,1,90,0|0,1:0|0:0,0:0:0:0:
494,272,4841,1,0,0:0:0:0:
494,272,4927,5,0,1:0:0:0:
378,145,5098,1,0,0:0:0:0:
312,280,5270,2,0,P|364:267|422:258,1,90,0|0,1:0|0:0,0:0:0:0:
453,42,5613,1,0,1:2:0:0:
276,127,5784,1,0,0:0:0:0:
492,185,5955,2,0,P|440:172|382:163,1,90,0|0,1:0|0:0,0:0:0:0:
389,158,6213,1,0,0:0:0:0:
378,145,6298,6,0,P|362:100|393:36,1,90,0|0,1:2|0:0,0:0:0:0:
195,102,6641,1,0,1:2:0:0:
316,202,6813,2,0,P|248:187|134:173,1,180,0|0,0:0|0:0,0:0:0:0:
115,333,7327,2,0,P|169:321|224:313,1,90,0|0,1:2|0:0,0:0:0:0:
316,202,7670,5,0,1:0:0:0:
272,130,7841,2,0,L|261:33,1,90,0|0,0:0|1:0,0:0:0:0:
261,40,8355,2,0,P|202:55|93:4,1,180,0|0,1:2|1:0,0:0:0:0:
28,167,8870,5,2,0:0:0:0:
28,167,8955,1,2,0:0:0:0:
28,167,9041,2,0,P|35:109|31:46,1,90,0|0,1:0|0:0,0:0:0:0:
97,282,9384,2,0,P|28:300|-29:320,1,90,0|0,1:0|0:0,0:0:0:0:
148,173,9727,2,0,P|205:160|317:232,1,180,0|0,1:2|1:0,0:0:0:0:
423,304,10241,1,2,0:0:0:0:
423,304,10327,1,2,0:0:0:0:
423,304,10413,6,0,L|435:228,2,60,2|2|2,1:3|0:3|0:3,0:0:0:0:
417,166,10755,2,0,L|429:90,2,60,2|2|2,1:3|0:3|0:3,0:0:0:0:
484,50,11098,6,0,B|443:71|443:71|334:26,1,161.999995056153,0|0,1:0|0:0,0:0:0:0:
260,3,11441,6,0,P|257:28|275:78,3,53.9999983520508,0|0|0|0,3:2|1:0|3:2|1:0,0:0:0:0:
244,131,11784,5,4,1:0:0:0:
187,52,11955,1,2,0:1:0:0:
338,121,12127,1,8,0:0:0:0:
202,218,12298,2,0,P|130:216|6:310,1,194.400004746094,2|2,0:1|0:0,0:0:0:0:
263,290,12813,2,0,P|291:244|287:185,1,97.2000023730469,8|2,0:0|0:0,0:0:0:0:
292,201,13070,1,2,0:0:0:0:
292,201,13155,5,0,1:0:0:0:
112,59,13327,2,0,P|84:105|88:164,1,97.2000023730469,2|8,0:1|0:0,0:0:0:0:
130,221,13670,1,2,0:1:0:0:
91,300,13841,1,2,1:2:0:0:
91,300,13927,1,2,0:0:0:0:
91,300,14013,2,0,L|27:314,1,48.6000011865235,2|2,0:0|0:0,0:0:0:0:
0,367,14184,2,0,P|49:372|110:385,1,97.2000023730469,10|0,0:0|0:0,0:0:0:0:
117,381,14441,1,0,0:0:0:0:
136,375,14527,5,0,1:0:0:0:
225,206,14698,2,0,P|175:211|115:224,2,97.2000023730469,2|8|2,0:1|0:0|0:1,0:0:0:0:
397,290,15213,5,0,1:0:0:0:
289,130,15384,1,2,0:0:0:0:
326,219,15555,1,8,0:0:0:0:
370,68,15727,5,2,0:0:0:0:
370,68,15813,1,2,0:0:0:0:
370,68,15898,1,0,1:0:0:0:
404,160,16070,1,2,0:1:0:0:
289,130,16241,2,0,L|271:20,1,97.2000023730469,8|2,0:0|0:1,0:0:0:0:
448,1,16584,1,2,1:2:0:0:
462,18,16670,1,2,0:0:0:0:
470,38,16755,1,0,0:0:0:0:
475,57,16841,1,0,0:0:0:0:
475,77,16927,1,10,0:0:0:0:
404,160,17098,5,2,0:0:0:0:
404,160,17184,1,0,0:0:0:0:
404,160,17270,1,4,1:0:0:0:
259,238,17441,1,0,0:0:0:0:
289,130,17613,1,0,1:0:0:0:
374,270,17784,2,0,P|435:288|531:214,1,194.400004746094,2|2,0:1|0:0,0:0:0:0:
259,238,18298,2,0,P|210:237|145:198,1,97.2000023730469,0|2,1:0|0:0,0:0:0:0:
166,217,18555,1,0,0:0:0:0:
166,217,18641,5,0,1:0:0:0:
236,40,18813,2,0,P|285:41|350:80,1,97.2000023730469,2|0,0:1|1:0,0:0:0:0:
405,145,19155,1,2,0:1:0:0:
428,18,19327,1,0,1:0:0:0:
428,18,19413,1,0,0:0:0:0:
428,18,19498,2,0,L|404:70,1,48.6000011865235,2|0,0:0|0:0,0:0:0:0:
325,137,19670,2,0,P|276:138|211:177,1,97.2000023730469,0|2,1:0|0:0,0:0:0:0:
121,340,20013,5,0,1:0:0:0:
320,252,20184,1,0,1:0:0:0:
192,252,20355,5,0,1:0:0:0:
391,340,20527,1,0,1:0:0:0:
256,384,20698,5,0,1:0:0:0:
256,377,20784,1,0,1:0:0:0:
256,371,20870,1,0,1:0:0:0:
256,365,20955,1,0,1:0:0:0:
256,359,21041,1,0,3:0:0:0:
256,353,21127,1,0,1:0:0:0:
256,347,21213,2,0,L|256:283,1,48.6000011865235,0|0,1:0|1:0,0:0:0:0:
217,161,21384,6,0,P|197:154|155:147,2,48.6000011865235,0|0|0,1:0|1:0|3:0,0:0:0:0:
295,161,21641,2,0,P|315:154|357:147,2,48.6000011865235,0|0|0,3:0|3:0|3:0,0:0:0:0:
256,224,21898,1,0,3:0:0:0:
195,77,22070,6,0,P|184:54|195:9,1,48.6000011865235,0|0,1:0|1:0,0:0:0:0:
317,77,22241,2,0,P|328:54|317:9,1,48.6000011865235,0|0,1:0|1:0,0:0:0:0:
256,40,22413,5,8,1:0:0:0:
29,233,22755,6,0,P|19:187|18:145,1,90,4|0,1:0|0:0,0:0:0:0:
95,286,23098,1,0,0:0:0:0:
21,313,23270,1,2,0:2:0:0:
105,205,23441,6,0,L|201:219,1,90,0|0,1:0|0:0,0:0:0:0:
210,236,23698,1,0,0:0:0:0:
225,252,23784,2,0,P|270:252|332:227,1,90,0|2,1:0|0:0,0:0:0:0:
216,43,24127,6,0,P|200:88|217:158,1,90,0|0,1:0|0:0,0:0:0:0:
203,129,24384,1,0,0:0:0:0:
203,129,24470,1,0,1:0:0:0:
312,238,24641,1,2,0:0:0:0:
340,91,24813,1,0,1:0:0:0:
287,156,24984,6,0,L|379:172,2,90,2|0|2,0:0|1:0|0:0,0:0:0:0:
263,360,25498,6,0,P|314:317|446:335,1,180,0|0,1:0|1:0,0:0:0:0:
508,299,26013,1,2,0:0:0:0:
461,150,26184,2,0,P|448:188|450:243,1,90,0|2,1:0|0:0,0:0:0:0:
274,267,26527,2,0,P|318:257|371:254,1,90,0|2,1:0|0:0,0:0:0:0:
461,150,26870,5,0,1:0:0:0:
393,89,27041,1,2,0:0:0:0:
393,89,27127,1,0,0:0:0:0:
393,89,27213,1,0,1:0:0:0:
506,28,27384,1,2,0:0:0:0:
371,171,27555,1,0,1:0:0:0:
371,171,28241,6,0,P|312:159|241:151,1,97.2000023730469,0|0,1:0|0:0,0:0:0:0:
122,193,28584,1,8,0:0:0:0:
222,69,28755,1,0,0:0:0:0:
40,52,28927,6,0,P|94:76|157:118,1,97.2000023730469,0|0,1:0|0:0,0:0:0:0:
126,95,29184,1,0,0:0:0:0:
126,95,29270,1,8,0:0:0:0:
218,230,29441,1,0,0:0:0:0:
222,69,29613,5,0,1:0:0:0:
122,193,29784,1,0,0:0:0:0:
122,193,29870,1,0,0:0:0:0:
122,193,29955,2,0,L|113:313,1,97.2000023730469,8|0,0:0|0:0,0:0:0:0:
287,374,30298,2,0,L|296:254,1,97.2000023730469,0|0,1:0|0:0,0:0:0:0:
438,184,30641,1,8,0:0:0:0:
438,184,30727,1,0,3:0:0:0:
438,184,30813,1,0,1:0:0:0:
438,184,30898,1,0,3:0:0:0:
438,184,30984,6,0,L|309:211,1,97.2000023730469,0|0,1:0|0:0,0:0:0:0:
207,162,31327,2,0,P|208:101|234:51,1,97.2000023730469,8|0,0:0|0:0,0:0:0:0:
383,107,31670,1,0,1:0:0:0:
294,277,31841,1,0,1:0:0:0:
207,162,32013,1,8,1:2:0:0:
207,162,32098,1,0,1:0:0:0:
207,162,32184,1,0,1:0:0:0:
207,162,32270,1,0,1:0:0:0:
207,162,32355,5,0,1:0:0:0:
294,195,32527,2,0,L|346:204,2,48.6000011865235,0|0|2,1:0|1:0|1:2,0:0:0:0:
162,243,32870,1,0,0:0:0:0:
51,56,33041,2,0,P|66:112|70:167,1,97.2000023730469,8|0,0:0|0:0,0:0:0:0:
23,280,33384,2,0,P|10:315|16:350,2,64.8000015820313,2|2|2,0:3|0:3|0:3,0:0:0:0:
84,229,33727,6,0,B|160:246|160:246|181:286|181:286|287:313,1,194.400004746094,2|2,1:3|1:0,0:0:0:0:
344,188,34241,1,2,0:0:0:0:
344,188,34413,2,0,L|236:210,1,97.2000023730469,8|2,0:1|0:1,0:0:0:0:
328,357,34755,2,0,L|423:337,1,97.2000023730469,2|0,0:0|0:0,0:0:0:0:
512,141,35098,6,0,P|461:100|370:126,2,145.80000355957,2|2|2,1:0|1:0|1:0,0:0:0:0:
425,245,35784,1,8,0:1:0:0:
385,111,35955,1,2,0:1:0:0:
256,147,36127,2,0,P|204:139|130:128,1,97.2000023730469,2|0,0:1|0:0,0:0:0:0:
299,273,36470,6,0,P|228:281|132:297,2,145.80000355957,2|2|2,1:0|1:0|1:0,0:0:0:0:
383,179,37155,1,8,0:1:0:0:
209,104,37327,1,2,0:1:0:0:
288,174,37498,2,0,P|299:125|299:54,1,97.2000023730469,2|0,1:2|0:0,0:0:0:0:
147,25,37841,5,2,1:0:0:0:
61,90,38098,5,2,1:0:0:0:
32,192,38355,5,2,1:0:0:0:
61,294,38613,5,2,1:0:0:0:
147,359,38870,5,10,0:0:0:0:
147,359,39213,6,0,P|155:267|169:140,1,202.500007724762,2|0,1:0|0:0,0:0:0:0:
365,25,39898,2,0,P|356:116|343:244,1,202.500007724762,10|0,0:0|0:0,0:0:0:0:
256,192,40584,5,2,1:3:0:0:
260,42,40841,1,2,0:0:0:0:
260,42,40927,2,0,P|272:91|272:135,1,67.5000025749208,0|0,0:0|0:0,0:0:0:0:
192,128,41270,1,8,0:0:0:0:
117,86,41441,2,0,L|30:75,2,67.5000025749208,0|0|0,0:0|0:0|0:0,0:0:0:0:
119,171,41955,6,0,P|96:220|167:341,1,202.500007724762,0|0,1:0|0:0,0:0:0:0:
393,213,42641,2,0,P|416:164|345:43,1,202.500007724762,10|2,0:0|0:0,0:0:0:0:
192,128,43327,5,2,1:2:0:0:
320,256,43498,1,0,1:0:0:0:
124,217,43670,5,0,1:0:0:0:
388,167,43841,1,0,1:0:0:0:
250,226,44013,5,0,3:0:0:0:
251,221,44098,1,0,3:0:0:0:
252,215,44184,1,0,3:0:0:0:
253,209,44270,1,0,3:0:0:0:
254,202,44355,6,0,L|266:134,3,45,8|0|0|0,0:0|0:0|0:0|0:0,0:0:0:0:
315,104,44698,6,0,P|253:120|136:27,1,194.400004746094,4|8,1:0|0:1,0:0:0:0:
345,17,45213,1,2,0:0:0:0:
404,83,45384,2,0,L|521:95,1,97.2000023730469,0|0,1:0|0:0,0:0:0:0:
457,287,45727,2,0,L|340:275,1,97.2000023730469,8|2,0:1|0:0,0:0:0:0:
176,352,46070,5,0,1:0:0:0:
292,207,46241,1,2,0:0:0:0:
265,305,46413,1,8,0:1:0:0:
224,132,46584,1,2,0:0:0:0:
389,187,46755,2,0,P|441:175|512:152,1,97.2000023730469,2|0,1:2|0:0,0:0:0:0:
321,112,47098,5,8,0:1:0:0:
197,231,47270,1,2,0:0:0:0:
131,18,47441,1,0,1:0:0:0:
131,18,47784,6,0,P|140:81|142:139,1,97.2000023730469,8|2,0:1|0:0,0:0:0:0:
102,200,48127,1,0,1:0:0:0:
131,300,48298,1,2,0:0:0:0:
131,300,48384,1,2,0:0:0:0:
131,300,48470,1,8,0:1:0:0:
266,214,48641,1,2,0:0:0:0:
141,114,48813,6,0,P|94:118|27:134,1,97.2000023730469,0|0,1:0|0:0,0:0:0:0:
224,294,49155,2,0,P|271:298|338:314,1,97.2000023730469,8|0,0:1|0:0,0:0:0:0:
259,43,49498,2,0,P|231:80|252:160,1,97.2000023730469,2|0,1:2|0:0,0:0:0:0:
416,337,49841,1,8,1:0:0:0:
266,214,50013,1,0,1:0:0:0:
385,134,50184,5,0,1:0:0:0:
319,308,50355,1,2,0:0:0:0:
191,153,50527,2,0,P|174:218|182:281,1,97.2000023730469,8|2,0:1|0:0,0:0:0:0:
278,113,50870,2,0,P|214:126|100:25,1,194.400004746094,0|8,1:0|0:1,0:0:0:0:
28,17,51384,1,2,0:0:0:0:
8,179,51555,5,0,1:0:0:0:
111,58,51727,1,2,0:0:0:0:
188,166,51898,2,0,P|133:152|62:139,1,97.2000023730469,8|2,0:1|0:0,0:0:0:0:
250,247,52241,2,0,P|296:207|409:228,1,145.80000355957,0|2,1:0|0:0,0:0:0:0:
400,225,52584,1,8,0:1:0:0:
506,156,52755,1,2,0:0:0:0:
419,24,52927,6,0,P|410:62|407:140,1,97.2000023730469,0|0,1:0|0:0,0:0:0:0:
509,252,53270,1,8,0:1:0:0:
338,299,53441,1,2,0:0:0:0:
440,323,53613,5,0,1:0:0:0:
298,211,53784,1,2,0:0:0:0:
298,211,53870,1,2,0:0:0:0:
298,211,53955,1,8,0:1:0:0:
239,284,54127,1,2,0:0:0:0:
389,218,54298,6,0,P|396:169|385:102,1,97.2000023730469,0|2,1:0|0:0,0:0:0:0:
378,100,54555,1,2,0:0:0:0:
361,86,54641,2,0,L|237:66,1,97.2000023730469,8|0,0:1|0:0,0:0:0:0:
151,260,54984,1,2,3:2:0:0:
129,266,55070,1,2,3:2:0:0:
105,266,55155,1,2,3:2:0:0:
82,259,55241,1,2,3:2:0:0:
64,248,55327,6,0,L|53:172,1,48.6000011865235,8|0,0:0|0:0,0:0:0:0:
126,97,55498,2,0,L|119:145,1,48.6000011865235,2|0,0:0|0:0,0:0:0:0:
87,21,55670,6,0,B|155:13|155:13|191:45|191:45|289:35,1,194.400004746094,4|8,1:2|0:1,0:0:0:0:
40,98,56184,1,2,0:0:0:0:
119,145,56355,2,0,P|135:195|138:257,1,97.2000023730469,0|0,1:0|0:0,0:0:0:0:
295,332,56698,2,0,P|299:283|314:237,1,97.2000023730469,8|2,0:1|0:0,0:0:0:0:
207,116,57041,5,0,1:0:0:0:
314,237,57213,1,2,0:0:0:0:
240,296,57384,1,8,0:1:0:0:
295,144,57555,1,2,0:0:0:0:
402,257,57727,2,0,L|511:272,1,97.2000023730469,2|2,1:2|0:0,0:0:0:0:
335,327,58070,5,8,0:1:0:0:
229,210,58241,1,2,0:0:0:0:
7,326,58413,6,0,P|72:340|163:256,1,194.400004746094,0|8,1:2|0:1,0:0:0:0:
151,168,58927,1,2,0:0:0:0:
316,222,59098,2,0,L|389:235,2,64.8000015820313,0|0|2,1:0|0:0|0:0,0:0:0:0:
438,283,59441,2,0,B|459:249|459:249|440:163,1,97.2000023730469,8|2,0:1|0:0,0:0:0:0:
324,20,59784,6,0,L|464:43,1,97.2000023730469,0|0,1:0|0:0,0:0:0:0:
240,235,60127,2,0,L|144:250,1,97.2000023730469,8|0,0:1|0:0,0:0:0:0:
12,86,60470,2,0,P|-10:45|1:0,1,97.2000023730469,2|0,1:2|0:0,0:0:0:0:
144,250,60813,1,8,0:1:0:0:
207,55,60984,1,0,0:0:0:0:
290,230,61155,5,0,1:0:0:0:
95,153,61327,1,2,0:0:0:0:
207,55,61498,2,0,P|200:91|192:183,1,97.2000023730469,8|2,0:1|0:0,0:0:0:0:
257,319,61841,2,0,P|331:263|437:292,1,194.400004746094,0|8,1:0|0:1,0:0:0:0:
504,241,62355,1,2,0:0:0:0:
402,127,62527,5,0,1:0:0:0:
424,281,62698,1,2,0:0:0:0:
259,188,62870,2,0,P|308:188|354:205,1,97.2000023730469,8|2,0:1|0:0,0:0:0:0:
512,96,63213,2,0,P|457:107|383:46,1,145.80000355957,0|0,1:0|0:0,0:0:0:0:
379,34,63555,1,8,0:1:0:0:
276,81,63727,1,2,0:0:0:0:
170,13,63898,6,0,L|40:-5,1,97.2000023730469,0|2,1:0|0:0,0:0:0:0:
138,205,64241,1,2,1:2:0:0:
138,205,64413,2,0,L|268:187,1,97.2000023730469,2|0,0:0|1:0,0:0:0:0:
92,101,64755,1,2,0:0:0:0:
19,175,64927,1,2,1:2:0:0:
41,274,65098,1,2,0:0:0:0:
133,313,65270,6,0,L|203:321,3,48.6000011865235,0|0|0|0,1:0|0:0|1:0|0:0,0:0:0:0:
245,364,65613,2,0,L|306:356,3,48.6000011865235,0|0|0|0,1:0|0:0|1:0|0:0,0:0:0:0:
366,338,65955,6,0,L|405:344,6,24.3000005932617,2|0|2|0|2|0|2,3:2|0:0|3:2|0:0|3:2|0:0|3:2,0:0:0:0:
461,360,66298,5,8,0:0:0:0:
461,360,66641,6,0,B|408:303|451:225|451:225|485:302,1,194.400004746094,4|8,3:0|0:1,0:0:0:0:
355,253,67155,2,0,B|361:206|384:176|384:176|327:138|341:67,1,194.400004746094,2|2,0:0|0:1,0:0:0:0:
338,81,67670,2,0,L|464:64,1,97.2000023730469,8|0,0:1|0:0,0:0:0:0:
502,129,68013,5,0,1:0:0:0:
338,81,68270,1,2,0:0:0:0:
338,81,68355,1,8,0:1:0:0:
382,245,68527,1,2,0:0:0:0:
416,151,68870,6,0,L|342:163,1,48.6000011865235,2|0,0:1|0:0,0:0:0:0:
309,214,69041,1,8,0:1:0:0:
254,78,69213,2,0,L|180:66,1,48.6000011865235,2|0,0:0|0:0,0:0:0:0:
147,15,69384,6,0,P|79:47|87:139,1,145.80000355957,0|2,1:0|0:0,0:0:0:0:
80,125,69727,1,8,0:1:0:0:
60,215,69898,2,0,B|30:213|9:185|9:185|28:238|36:315,1,194.400004746094,2|2,0:0|0:1,0:0:0:0:
36,315,70413,2,0,L|152:294,1,97.2000023730469,8|0,0:1|0:0,0:0:0:0:
208,244,70755,5,0,1:0:0:0:
361,270,71013,1,2,3:2:0:0:
512,294,71270,1,2,0:1:0:0:
208,244,71613,5,2,0:0:0:0:
361,270,71784,1,8,0:1:0:0:
512,294,71955,1,2,0:1:0:0:
456,106,72127,6,0,B|415:145|415:145|442:250,2,161.999995056153,6|6|6,1:0|1:0|1:0,0:0:0:0:
456,106,72984,6,0,L|369:93,1,53.9999983520508,8|0,0:1|1:0,0:0:0:0:
251,40,73155,6,0,P|202:21|124:110,2,161.999995056153,6|6|6,1:0|1:0|1:0,0:0:0:0:
251,40,74013,6,0,L|283:121,1,53.9999983520508,8|0,0:1|0:0,0:0:0:0:
289,259,74184,6,0,P|338:240|416:329,2,161.999995056153,2|2|2,1:0|1:0|1:0,0:0:0:0:
289,259,75041,6,0,L|343:190,1,53.9999983520508,0|0,1:0|0:0,0:0:0:0:
456,106,75213,2,0,L|369:93,1,53.9999983520508,2|2,3:2|0:0,0:0:0:0:
251,40,75384,2,0,L|283:121,1,53.9999983520508,2|2,3:2|0:0,0:0:0:0:
335,143,75555,6,0,P|264:133|196:127,1,135,0|0,1:0|0:0,0:0:0:0:
114,154,76241,5,8,0:0:0:0:
398,230,76927,5,4,1:0:0:0:
398,230,82412,6,0,P|407:154|419:91,1,135,4|0,1:0|0:0,0:0:0:0:
423,77,82755,2,0,L|313:98,1,90,0|2,0:0|0:0,0:0:0:0:
284,161,83098,1,8,0:0:0:0:
398,230,83269,1,2,0:0:0:0:
336,292,83441,2,0,P|294:315|240:339,1,90,2|2,0:0|0:0,0:0:0:0:
420,315,83784,5,0,1:0:0:0:
171,234,84041,1,0,0:0:0:0:
171,234,84127,2,0,L|271:246,1,90,0|2,0:0|0:0,0:0:0:0:
123,316,84469,1,8,0:0:0:0:
105,164,84641,1,2,0:0:0:0:
61,250,84812,1,2,0:0:0:0:
201,136,84984,1,2,0:0:0:0:
48,69,85155,6,0,P|105:77|209:-4,2,180,0|0|8,1:0|1:0|0:0,0:0:0:0:
48,69,86184,2,0,P|43:110|41:161,1,90,0|2,1:0|0:0,0:0:0:0:
152,276,86527,5,0,1:0:0:0:
205,123,86698,1,0,1:0:0:0:
258,227,86869,1,0,1:0:0:0:
258,227,86955,1,0,1:0:0:0:
258,227,87041,2,0,L|297:232,2,22.5,0|0|0,3:0|0:0|3:0,0:0:0:0:
342,280,87212,6,0,P|390:280|448:261,1,97.2000023730469,8|0,0:0|0:0,0:0:0:0:
320,70,87555,2,0,P|274:58|231:59,2,64.8000015820313,2|2|2,0:3|0:3|0:3,0:0:0:0:
390,44,87898,6,0,P|329:96|362:206,1,194.400004746094,6|2,1:3|1:0,0:0:0:0:
472,104,88412,1,0,1:0:0:0:
472,104,88584,2,0,P|488:48|482:-7,1,97.2000023730469,8|2,0:1|1:2,0:0:0:0:
256,57,88927,2,0,P|240:113|246:168,1,97.2000023730469,2|0,1:0|0:0,0:0:0:0:
377,279,89269,6,0,P|457:270|519:343,2,145.80000355957,2|2|2,1:0|1:0|1:0,0:0:0:0:
262,347,89955,1,8,0:1:0:0:
241,151,90127,1,2,1:2:0:0:
283,253,90298,2,0,L|178:238,1,97.2000023730469,2|0,1:0|0:0,0:0:0:0:
25,167,90641,6,0,P|-4:223|45:316,2,145.80000355957,2|2|2,1:0|1:0|1:0,0:0:0:0:
158,121,91327,1,8,0:1:0:0:
77,233,91498,1,2,1:2:0:0:
75,96,91669,2,0,L|60:0,1,97.2000023730469,2|0,1:0|0:0,0:0:0:0:
163,209,92012,5,2,1:0:0:0:
253,258,92269,5,2,1:0:0:0:
360,254,92527,5,2,1:0:0:0:
447,197,92784,5,2,1:0:0:0:
486,104,93041,5,10,0:0:0:0:
486,104,93384,6,0,P|428:143|292:105,1,202.500007724762,4|0,1:0|0:0,0:0:0:0:
26,280,94069,2,0,P|84:241|220:279,1,202.500007724762,8|0,0:0|0:0,0:0:0:0:
256,192,94755,5,2,1:3:0:0:
231,48,95012,1,2,0:0:0:0:
231,48,95098,2,0,P|220:91|224:121,1,67.5000025749208,2|0,0:0|0:0,0:0:0:0:
303,91,95441,1,8,0:0:0:0:
374,134,95612,2,0,P|385:91|381:61,2,67.5000025749208,2|0|0,0:0|0:0|0:0,0:0:0:0:
301,177,96127,6,0,P|360:167|453:288,1,202.500007724762,0|0,1:0|0:0,0:0:0:0:
211,207,96812,2,0,P|152:217|59:96,1,202.500007724762,8|0,0:0|0:0,0:0:0:0:
303,91,97498,5,2,1:3:0:0:
294,239,97669,1,0,0:0:0:0:
211,207,97841,1,0,0:0:0:0:
352,172,98012,1,0,0:0:0:0:
215,118,98184,5,8,0:0:0:0:
294,239,98355,1,2,1:2:0:0:
436,206,98527,1,8,0:0:0:0:
350,321,98698,5,2,1:2:0:0:
350,321,98784,1,2,1:2:0:0:
350,321,98869,1,2,1:2:0:0:
294,239,99041,1,0,1:0:0:0:
352,172,99212,1,8,0:0:0:0:
436,206,99384,1,0,1:0:0:0:
431,288,99555,5,0,0:0:0:0:
256,248,99727,1,0,1:0:0:0:
81,208,99898,1,8,0:0:0:0:
81,208,99984,1,0,0:0:0:0:
81,208,100069,2,0,L|47:200,2,22.5,0|0|0,3:0|0:0|3:0,0:0:0:0:
0,161,100241,6,0,B|48:103|20:38|20:38|36:58|70:62,1,180,6|8,1:0|0:1,0:0:0:0:
300,56,100755,2,0,P|255:18|142:31,1,180,2|0,0:0|0:0,0:0:0:0:
287,143,101269,1,8,0:1:0:0:
374,117,101441,5,2,3:1:0:0:
374,117,101527,1,0,0:0:0:0:
374,117,101612,2,0,P|420:119|480:140,1,90,2|0,1:0|0:0,0:0:0:0:
209,180,101955,2,0,P|175:211|142:265,1,90,8|2,0:1|3:1,0:0:0:0:
143,266,102212,2,0,P|130:194|107:104,1,135,0|2,1:0|1:2,0:0:0:0:
191,95,102641,1,8,0:1:0:0:
286,228,102812,1,2,0:1:0:0:
447,151,102984,6,0,P|369:112|286:142,1,180,2|8,1:0|0:1,0:0:0:0:
341,294,103498,2,0,P|367:244|358:187,1,90,0|0,0:0|0:0,0:0:0:0:
210,263,103841,1,2,1:2:0:0:
210,263,103927,1,2,0:0:0:0:
210,263,104012,2,0,P|184:313|193:370,1,90,8|0,0:1|3:2,0:0:0:0:
164,357,104269,1,8,3:1:0:0:
144,364,104355,6,0,P|100:356|31:348,1,90,2|0,1:0|0:0,0:0:0:0:
30,166,104698,1,8,0:1:0:0:
210,263,104869,1,2,1:0:0:0:
83,277,105041,6,0,L|95:212,1,45,2|0,0:0|0:0,0:0:0:0:
159,183,105212,2,0,L|147:118,1,45,2|0,1:2|1:0,0:0:0:0:
118,50,105384,2,0,P|165:61|239:69,1,90,10|2,0:1|1:0,0:0:0:0:
312,184,105727,5,2,1:0:0:0:
425,16,105898,1,0,0:0:0:0:
285,99,106069,2,0,P|332:88|406:80,1,90,8|2,0:1|0:1,0:0:0:0:
509,295,106412,2,0,P|467:255|328:289,1,180,0|8,0:0|0:1,0:0:0:0:
308,356,106927,1,2,3:1:0:0:
189,191,107098,5,2,1:0:0:0:
352,263,107269,1,0,0:0:0:0:
254,273,107441,1,8,0:1:0:0:
227,104,107612,1,2,3:1:0:0:
227,104,107698,1,0,0:0:0:0:
227,104,107784,1,2,1:2:0:0:
289,185,107955,1,0,0:0:0:0:
161,290,108127,2,0,P|118:307|40:325,1,90,10|2,0:1|0:1,0:0:0:0:
352,263,108469,6,0,P|408:254|536:320,1,180,2|8,1:0|0:1,0:0:0:0:
314,349,108984,1,2,0:1:0:0:
254,273,109155,2,0,P|254:221|267:152,1,90,0|2,0:0|1:2,0:0:0:0:
269,162,109412,1,2,0:0:0:0:
286,147,109498,2,0,P|241:143|192:122,1,90,8|2,0:1|0:1,0:0:0:0:
7,176,109841,6,0,P|135:192|165:247,1,180,2|8,1:0|0:1,0:0:0:0:
232,38,110355,2,0,P|183:40|115:75,1,90,2|0,1:0|0:0,0:0:0:0:
331,97,110698,1,8,0:1:0:0:
331,97,110869,2,0,P|376:115|428:171,1,90,2|8,1:2|0:1,0:0:0:0:
424,304,111212,6,0,P|370:292|293:359,1,135,6|0,1:0|0:0,0:0:0:0:
299,352,111555,1,8,0:1:0:0:
488,368,111727,2,0,P|513:311|501:247,1,90,2|2,0:1|0:0,0:0:0:0:
407,141,112069,1,0,0:0:0:0:
407,141,112241,2,0,P|382:198|394:262,1,90,8|0,0:1|0:0,0:0:0:0:
469,55,112584,6,0,L|370:40,1,90,2|0,1:0|0:0,0:0:0:0:
165,217,112927,2,0,L|264:202,1,90,8|2,0:1|3:1,0:0:0:0:
274,215,113184,2,0,P|298:159|276:54,1,135,2|2,0:0|1:2,0:0:0:0:
223,17,113612,1,8,0:1:0:0:
73,175,113784,1,2,0:0:0:0:
202,112,113955,6,0,P|125:97|12:88,1,180,2|8,1:0|0:1,0:0:0:0:
253,203,114469,2,0,P|305:191|364:185,1,90,0|0,0:0|0:0,0:0:0:0:
191,277,114812,1,2,1:2:0:0:
191,277,114898,1,2,0:0:0:0:
191,277,114984,2,0,P|139:265|80:259,1,90,8|2,0:1|3:2,0:0:0:0:
79,260,115241,1,8,3:1:0:0:
56,251,115327,6,0,P|49:311|45:377,1,90,2|0,1:0|1:0,0:0:0:0:
216,358,115669,1,8,0:1:0:0:
167,179,115841,1,2,1:0:0:0:
46,340,116012,6,0,L|117:323,1,45,0|0,0:0|0:0,0:0:0:0:
150,264,116184,2,0,L|193:274,1,45,0|0,1:0|0:0,0:0:0:0:
216,358,116355,2,0,P|266:369|343:365,1,90,10|2,0:1|3:1,0:0:0:0:
463,312,116698,5,2,1:0:0:0:
321,235,116869,1,2,0:0:0:0:
432,131,117041,2,0,P|425:170|419:220,1,90,8|2,0:1|0:1,0:0:0:0:
219,101,117384,2,0,P|267:52|392:70,1,180,0|8,0:0|0:1,0:0:0:0:
512,191,117898,1,0,0:0:0:0:
341,141,118069,5,2,1:0:0:0:
467,36,118241,1,2,0:0:0:0:
408,220,118412,1,8,0:1:0:0:
372,55,118584,1,2,3:1:0:0:
372,55,118669,1,8,3:1:0:0:
372,55,118755,1,0,1:0:0:0:
436,126,118927,1,0,0:0:0:0:
315,232,119098,2,0,L|208:258,1,90,8|2,0:1|0:0,0:0:0:0:
132,101,119441,6,0,P|181:149|315:122,1,180,2|8,1:0|0:1,0:0:0:0:
125,204,119955,2,0,B|101:197|83:169|83:169|123:235|97:330,1,180,2|2,1:0|1:2,0:0:0:0:
100,309,120384,1,0,1:0:0:0:
90,328,120469,1,8,0:1:0:0:
192,261,120641,1,0,1:0:0:0:
296,320,120812,6,0,B|364:309|411:344|411:344|405:294|451:265,1,202.500007724762,2|0,1:0|0:0,0:0:0:0:
512,231,121498,2,0,L|372:217,1,135.000005149842,8|0,0:1|0:0,0:0:0:0:
135,167,122184,5,4,1:0:0:0:
135,167,127669,5,4,1:0:0:0:
145,91,128012,1,0,1:0:0:0:
156,16,128355,1,8,0:1:0:0:
218,61,128698,5,0,1:0:0:0:
86,44,128869,1,2,3:2:0:0:
86,44,128955,1,2,3:2:0:0:
86,44,129041,1,2,1:2:0:0:
135,167,129212,2,0,L|123:256,2,67.5000025749208,2|0|2,0:0|1:0|0:0,0:0:0:0:
145,91,129727,5,8,0:1:0:0:
375,183,130069,1,2,1:2:0:0:
373,174,130155,1,2,3:2:0:0:
372,166,130241,1,2,3:2:0:0:
371,157,130327,1,2,3:2:0:0:
370,149,130412,5,2,1:2:0:0:
320,290,130584,1,0,1:0:0:0:
450,220,130755,1,0,1:0:0:0:
320,290,130927,1,0,1:0:0:0:
292,205,131098,5,8,0:1:0:0:
408,302,131269,1,0,1:0:0:0:
179,363,131441,1,2,1:2:0:0:
320,290,131612,1,2,1:2:0:0:
215,94,131784,5,2,1:2:0:0:
206,112,131869,1,2,1:2:0:0:
200,133,131955,1,2,1:2:0:0:
198,155,132041,1,2,1:2:0:0:
200,176,132127,2,0,L|204:206,6,16.8750006437302,0|0|0|0|0|0|0,3:0|3:0|3:0|3:0|3:0|3:0|3:0,0:0:0:0:
236,268,132469,5,8,0:1:0:0:
236,268,132984,2,0,L|317:254,1,45,2|0,0:0|0:0,0:0:0:0:
168,221,133155,6,0,P|133:206|83:210,1,80.9999975280763,4|2,1:0|0:0,0:0:0:0:
77,212,133412,1,2,0:0:0:0:
65,220,133498,1,2,0:1:0:0:
117,106,133669,2,0,L|46:95,1,40.4999987640381,0|0,0:0|0:0,0:0:0:0:
85,22,133841,1,8,0:1:0:0:
66,20,133927,1,2,0:0:0:0:
48,24,134012,1,2,0:0:0:0:
32,33,134098,1,2,0:0:0:0:
18,47,134184,1,2,0:1:0:0:
197,140,134355,5,0,0:0:0:0:
262,84,134527,2,0,L|272:-10,1,80.9999975280763,2|2,1:0|0:0,0:0:0:0:
305,158,134869,1,0,0:0:0:0:
366,101,135041,1,2,0:0:0:0:
409,174,135212,1,8,0:1:0:0:
474,123,135384,1,2,0:0:0:0:
474,123,135469,1,2,0:0:0:0:
474,123,135555,1,2,0:0:0:0:
512,197,135727,2,0,L|521:254,1,40.4999987640381,0|0,0:0|0:0,0:0:0:0:
415,355,135898,6,0,P|410:307|443:259,1,80.9999975280763,0|0,1:0|0:0,0:0:0:0:
433,270,136155,1,0,0:0:0:0:
445,266,136241,1,0,0:0:0:0:
305,158,136412,2,0,L|315:220,1,40.4999987640381,0|0,0:0|0:0,0:0:0:0:
342,269,136584,1,8,0:1:0:0:
323,276,136669,1,2,0:0:0:0:
302,276,136755,1,2,0:0:0:0:
281,271,136841,1,2,0:0:0:0:
264,261,136927,1,2,0:1:0:0:
114,49,137269,6,0,B|71:54|40:23|40:23|37:67|-23:102,2,161.999995056153,2|2|10,1:0|0:1|0:1,0:0:0:0:
163,122,138127,1,0,0:0:0:0:
78,133,138298,1,2,0:0:0:0:
119,208,138469,1,0,0:0:0:0:
56,310,138641,6,0,P|102:294|170:289,1,80.9999975280763,0|0,1:0|0:0,0:0:0:0:
148,290,138898,1,0,0:0:0:0:
160,294,138984,1,2,0:1:0:0:
256,189,139155,2,0,L|195:179,1,40.4999987640381,0|2,0:0|0:0,0:0:0:0:
163,122,139327,1,8,0:1:0:0:
181,110,139412,1,0,0:0:0:0:
200,105,139498,1,2,0:0:0:0:
220,104,139584,1,2,0:0:0:0:
240,110,139669,1,2,0:1:0:0:
334,218,139841,5,0,0:0:0:0:
398,163,140012,1,2,1:0:0:0:
418,253,140184,1,2,0:0:0:0:
418,253,140269,1,0,0:0:0:0:
418,253,140355,1,2,0:1:0:0:
484,195,140527,1,2,0:0:0:0:
484,195,140612,1,0,0:0:0:0:
484,195,140698,2,0,P|487:144|471:96,1,80.9999975280763,10|2,0:1|0:0,0:0:0:0:
418,253,141041,1,2,0:0:0:0:
482,309,141212,1,0,0:0:0:0:
427,368,141384,6,0,L|317:388,1,80.9999975280763,0|2,1:0|0:0,0:0:0:0:
200,319,141727,2,0,L|310:339,1,80.9999975280763,2|2,0:1|0:0,0:0:0:0:
324,195,142069,2,0,P|340:247|326:294,1,80.9999975280763,8|0,0:1|0:0,0:0:0:0:
262,137,142412,2,0,P|259:96|274:59,1,80.9999975280763,2|2,0:1|0:0,0:0:0:0:
349,18,142755,6,0,L|514:38,2,135,0|0|2,1:0|1:0|3:2,0:0:0:0:
172,72,143441,2,0,L|7:92,2,135,8|2|2,0:1|1:2|3:2,0:0:0:0:
256,192,144127,5,0,1:0:0:0:
256,192,144212,12,0,145155,0:0:0:0:
366,95,145498,6,0,B|216:63|216:63|241:84|242:130,1,202.500007724762,4|2,1:0|0:0,0:0:0:0:
146,289,146184,2,0,B|296:321|296:321|271:300|270:254,1,202.500007724762,8|2,0:0|0:0,0:0:0:0:
256,192,146869,5,2,1:2:0:0:
133,83,147127,1,2,0:0:0:0:
133,83,147212,2,0,L|143:163,1,67.5000025749208,2|0,0:0|0:0,0:0:0:0:
95,221,147555,1,8,0:0:0:0:
146,289,147727,2,0,P|106:305|68:301,2,67.5000025749208,2|2|0,0:0|0:0|0:0,0:0:0:0:
228,305,148241,6,0,P|290:267|422:280,1,202.500007724762,0|2,1:0|0:0,0:0:0:0:
284,79,148927,2,0,P|222:117|90:104,1,202.500007724762,8|2,0:0|0:0,0:0:0:0:
256,192,149612,5,0,1:0:0:0:
447,135,149869,1,2,0:0:0:0:
447,135,149955,2,0,P|459:100|450:48,1,67.5000025749208,2|0,0:0|0:0,0:0:0:0:
371,85,150298,2,0,P|363:44|340:14,2,67.5000025749208,8|2|2,0:0|0:0|0:0,0:0:0:0:
371,85,150984,6,0,B|371:154|349:231|349:231|373:202|408:191,1,202.500007724762,0|2,1:0|0:0,0:0:0:0:
141,299,151669,2,0,B|141:230|163:153|163:153|139:182|104:193,1,202.500007724762,8|2,0:0|0:0,0:0:0:0:
256,192,152355,5,0,1:0:0:0:
414,255,152527,1,2,0:0:0:0:
414,255,152612,1,2,0:0:0:0:
414,255,152698,2,0,L|391:336,1,67.5000025749208,0|0,0:0|0:0,0:0:0:0:
319,363,153041,2,0,B|298:328|298:328|327:229,1,135.000005149842,10|2,0:0|0:0,0:0:0:0:
324,237,153727,6,0,P|364:187|327:48,1,202.500007724762,0|2,1:0|0:0,0:0:0:0:
188,147,154412,2,0,P|148:197|185:336,1,202.500007724762,8|2,0:0|0:0,0:0:0:0:
256,192,155098,5,0,1:0:0:0:
131,111,155269,1,2,0:0:0:0:
225,48,155441,2,0,P|219:78|214:117,1,67.5000025749208,2|0,0:0|0:0,0:0:0:0:
91,203,155784,5,8,0:0:0:0:
57,39,155955,1,2,0:0:0:0:
131,111,156127,2,0,L|50:124,1,67.5000025749208,2|2,0:0|0:0,0:0:0:0:
47,284,156469,5,2,1:2:0:0:
179,192,156641,1,0,0:0:0:0:
275,278,156812,2,0,L|356:291,1,67.5000025749208,2|2,0:0|0:0,0:0:0:0:
502,205,157155,6,0,B|479:179|409:142|321:188|371:256|432:239|433:181,1,202.500007724762,10|0,0:0|0:0,0:0:0:0:
445,104,157841,6,0,L|450:78,2,16.8750006437302,0|0|0,3:0|3:0|3:0,0:0:0:0:
480,52,158012,2,0,L|472:-2,2,33.7500012874604,0|0|0,3:0|3:0|1:0,0:0:0:0:
359,114,158355,5,0,1:0:0:0:
256,20,158527,1,0,3:0:0:0:
256,364,158869,5,8,0:0:0:0:
256,364,159212,6,0,P|209:321|85:355,1,180,12|10,0:0|0:0,0:0:0:0:
53,260,159727,1,0,0:0:0:0:
101,337,159898,2,0,B|147:289|147:289|117:172,1,180,8|10,0:0|0:0,0:0:0:0:
41,82,160412,5,2,0:0:0:0:
41,82,160584,2,0,L|26:184,1,90,10|0,0:0|0:0,0:0:0:0:
177,111,160927,2,0,L|190:21,1,90,10|0,0:0|0:0,0:0:0:0:
190,21,161269,2,0,P|259:51|352:4,1,180,10|10,0:0|0:0,0:0:0:0:
437,22,161784,1,2,0:0:0:0:
391,179,161955,1,8,0:0:0:0:
391,179,162298,6,0,P|379:123|388:69,1,90,10|2,0:0|0:0,0:0:0:0:
478,213,162641,1,8,0:0:0:0:
405,267,162812,2,0,L|386:322,2,45,2|2|10,0:0|0:0|0:0,0:0:0:0:
464,128,163155,1,0,0:0:0:0:
391,179,163327,6,0,L|279:194,1,90,8|0,0:0|0:0,0:0:0:0:
242,69,163669,2,0,L|458:41,1,180,10|10,0:0|0:0,0:0:0:0:
420,45,164355,5,10,0:0:0:0:
391,179,164527,1,2,0:0:0:0:
311,70,164698,6,0,L|208:46,1,90,4|2,1:0|0:0,0:0:0:0:
230,187,165041,2,0,L|166:102,1,90,0|2,1:0|0:0,0:0:0:0:
92,224,165384,2,0,L|97:118,1,90,0|0,1:0|0:0,0:0:0:0:
116,32,165727,5,0,1:0:0:0:
116,32,165898,1,2,0:0:0:0:
223,49,166069,5,0,1:0:0:0:
92,224,166241,1,2,1:2:0:0:
230,187,166412,1,2,1:2:0:0:
98,133,166584,1,0,1:0:0:0:
196,329,166755,2,0,L|316:312,1,90,2|0,1:2|1:0,0:0:0:0:
396,352,167098,5,0,1:0:0:0:
396,352,167269,1,0,1:0:0:0:
363,234,167441,5,0,1:0:0:0:
363,225,167527,1,0,1:0:0:0:
364,217,167612,1,0,1:0:0:0:
366,208,167698,1,0,1:0:0:0:
367,200,167784,1,0,1:0:0:0:
368,191,167869,1,0,1:0:0:0:
369,183,167955,1,0,1:0:0:0:
371,175,168041,1,0,1:0:0:0:
372,166,168127,1,0,1:0:0:0:
372,158,168212,1,0,1:0:0:0:
374,149,168298,1,0,1:0:0:0:
375,141,168384,1,0,1:0:0:0:
377,133,168469,1,0,1:0:0:0:
377,124,168555,1,0,1:0:0:0:
379,116,168641,1,0,1:0:0:0:
380,107,168727,1,0,1:0:0:0:
382,99,168812,1,4,1:2:0:0:
382,99,170184,6,0,P|311:114|196:42,1,194.400004746094,4|8,1:0|0:1,0:0:0:0:
140,245,170698,1,0,0:0:0:0:
93,176,170869,2,0,P|46:159|-15:174,1,97.2000023730469,0|0,1:0|0:0,0:0:0:0:
166,324,171212,2,0,P|212:307|274:322,1,97.2000023730469,8|2,0:1|0:0,0:0:0:0:
451,384,171555,5,2,1:2:0:0:
335,248,171727,1,0,0:0:0:0:
355,351,171898,1,8,0:1:0:0:
413,181,172069,1,2,0:0:0:0:
239,217,172241,2,0,P|194:212|134:203,1,97.2000023730469,2|2,1:2|0:0,0:0:0:0:
314,145,172584,5,8,0:1:0:0:
499,226,172755,1,2,0:0:0:0:
385,5,172927,1,0,1:0:0:0:
385,5,173269,6,0,P|394:48|399:112,1,97.2000023730469,8|2,0:1|0:0,0:0:0:0:
392,199,173612,1,0,1:0:0:0:
314,145,173784,1,2,0:0:0:0:
314,145,173869,1,2,0:0:0:0:
314,145,173955,1,8,0:1:0:0:
482,58,174127,1,2,0:0:0:0:
473,252,174298,6,0,L|453:373,1,97.2000023730469,0|2,1:0|0:0,0:0:0:0:
314,145,174641,2,0,B|356:116|356:116|437:138,1,97.2000023730469,8|2,0:1|0:0,0:0:0:0:
251,358,174984,2,0,P|208:349|113:337,1,97.2000023730469,2|0,1:2|0:0,0:0:0:0:
382,294,175327,1,8,0:1:0:0:
230,137,175498,1,2,1:2:0:0:
284,251,175669,5,4,1:0:0:0:
392,35,175841,1,2,0:0:0:0:
470,211,176012,2,0,P|421:198|353:187,1,97.2000023730469,8|0,0:1|0:0,0:0:0:0:
242,23,176355,2,0,P|291:75|404:39,1,194.400004746094,2|8,1:2|0:1,0:0:0:0:
482,97,176869,1,0,0:0:0:0:
375,190,177041,5,0,1:0:0:0:
399,45,177212,1,2,0:0:0:0:
482,175,177384,2,0,L|499:284,1,97.2000023730469,8|0,0:1|0:0,0:0:0:0:
338,314,177727,2,0,B|345:293|361:277|361:277|227:309,1,145.80000355957,2|0,1:2|0:0,0:0:0:0:
240,285,178069,1,8,0:1:0:0:
431,347,178241,1,2,0:0:0:0:
299,106,178412,6,0,P|291:153|284:229,1,97.2000023730469,0|0,1:0|0:0,0:0:0:0:
164,302,178755,1,8,0:1:0:0:
138,123,178927,1,2,0:0:0:0:
197,204,179098,5,2,1:2:0:0:
24,269,179269,1,0,3:0:0:0:
24,269,179355,1,0,3:0:0:0:
24,269,179441,1,8,0:1:0:0:
100,211,179612,1,2,0:0:0:0:
139,350,179784,6,0,L|259:364,1,97.2000023730469,0|0,1:0|0:0,0:0:0:0:
253,351,180041,1,0,3:0:0:0:
271,341,180127,2,0,B|286:304|286:304|263:222,1,97.2000023730469,8|0,0:1|3:0,0:0:0:0:
341,88,180469,1,2,3:2:0:0:
339,111,180555,1,0,0:0:0:0:
337,134,180641,1,0,0:0:0:0:
335,157,180727,1,0,0:0:0:0:
333,180,180812,6,0,L|393:190,1,48.6000011865235,10|0,0:0|0:0,0:0:0:0:
257,130,180984,2,0,L|197:140,1,48.6000011865235,2|0,0:0|0:0,0:0:0:0:
158,212,181155,6,0,B|115:160|115:160|149:26,1,194.400004746094,4|8,1:0|0:1,0:0:0:0:
253,237,181669,1,2,0:0:0:0:
182,305,181841,2,0,L|50:334,1,97.2000023730469,0|0,1:0|0:0,0:0:0:0:
31,118,182184,1,8,0:1:0:0:
158,212,182355,1,2,0:0:0:0:
229,145,182527,5,0,1:0:0:0:
272,334,182698,1,2,0:0:0:0:
378,166,182869,1,8,0:1:0:0:
363,303,183041,1,2,0:0:0:0:
501,231,183212,2,0,P|472:270|451:314,1,97.2000023730469,2|2,1:2|0:0,0:0:0:0:
325,63,183555,5,8,0:1:0:0:
372,221,183727,1,0,0:0:0:0:
507,111,183898,6,0,P|447:118|316:154,1,194.400004746094,0|8,1:0|0:1,0:0:0:0:
249,218,184412,1,2,0:0:0:0:
170,61,184584,2,0,L|93:44,2,64.8000015820313,0|0|2,1:2|0:0|0:0,0:0:0:0:
57,108,184927,2,0,L|40:12,1,97.2000023730469,8|2,0:1|0:0,0:0:0:0:
256,215,185269,6,0,P|270:260|233:310,1,97.2000023730469,0|2,1:0|0:0,0:0:0:0:
24,173,185612,2,0,L|163:144,1,97.2000023730469,8|2,0:1|0:0,0:0:0:0:
331,35,185955,2,0,B|293:6|293:6|224:23,1,97.2000023730469,2|0,1:2|0:0,0:0:0:0:
346,236,186298,1,8,0:1:0:0:
422,66,186469,1,2,3:2:0:0:
275,101,186641,5,0,1:0:0:0:
455,181,186812,1,2,0:0:0:0:
346,236,186984,2,0,L|366:136,1,97.2000023730469,8|2,0:1|0:0,0:0:0:0:
473,350,187327,2,0,B|440:341|423:307|423:307|288:344,1,194.400004746094,0|8,1:0|0:1,0:0:0:0:
215,235,187841,1,2,0:0:0:0:
346,236,188012,5,0,1:0:0:0:
114,320,188184,1,2,0:0:0:0:
195,139,188355,2,0,L|214:234,1,97.2000023730469,8|2,0:1|0:0,0:0:0:0:
135,43,188698,2,0,B|114:9|114:9|262:40,1,145.80000355957,0|2,1:0|0:0,0:0:0:0:
240,21,189041,1,8,0:1:0:0:
95,159,189212,1,2,0:0:0:0:
290,157,189384,6,0,L|170:134,1,97.2000023730469,0|2,1:0|0:0,0:0:0:0:
417,216,189727,1,0,1:0:0:0:
417,216,189898,2,0,L|537:193,1,97.2000023730469,0|0,0:0|1:0,0:0:0:0:
319,256,190241,1,2,0:0:0:0:
290,157,190412,1,0,1:0:0:0:
385,118,190584,1,0,0:0:0:0:
342,27,190755,6,0,L|272:35,3,48.6000011865235,0|0|0|0,1:0|0:0|1:0|0:0,0:0:0:0:
230,78,191098,2,0,L|169:70,3,48.6000011865235,0|0|0|0,1:0|0:0|1:0|0:0,0:0:0:0:
109,52,191441,6,0,L|70:58,6,24.3000005932617,2|0|2|0|2|0|2,3:2|0:0|3:2|0:0|3:2|0:0|3:2,0:0:0:0:
14,74,191784,5,8,0:0:0:0:
14,74,192127,6,0,B|35:53|44:30|44:30|88:147,1,145.80000355957,6|0,1:0|0:0,0:0:0:0:
154,214,192469,2,0,B|110:230|110:230|56:187,1,97.2000023730469,8|2,0:1|0:1,0:0:0:0:
234,175,192812,2,0,P|266:146|336:176,1,97.2000023730469,2|2,1:0|0:0,0:0:0:0:
326,163,193069,1,2,0:0:0:0:
332,175,193155,1,8,0:1:0:0:
411,294,193327,2,0,L|421:231,1,48.6000011865235,2|0,0:1|0:0,0:0:0:0:
439,168,193498,6,0,B|469:149|481:126|481:126|505:302,1,194.400004746094,2|8,1:0|0:1,0:0:0:0:
73,216,194184,2,0,B|43:235|31:258|31:258|7:82,1,194.400004746094,0|10,1:0|0:0,0:0:0:0:
12,124,194869,6,0,L|150:142,1,97.2000023730469,4|0,1:0|0:0,0:0:0:0:
251,254,195212,1,8,0:1:0:0:
88,228,195384,2,0,B|171:211|171:211|189:177|189:177|283:159,1,194.400004746094,2|2,0:0|0:0,0:0:0:0:
376,129,195898,1,8,0:1:0:0:
376,129,195984,1,2,0:0:0:0:
376,129,196069,1,2,0:0:0:0:
348,229,196241,5,2,1:2:0:0:
291,80,196412,2,0,L|296:26,2,48.6000011865235,0|2|8,0:0|0:0|0:1,0:0:0:0:
473,176,196755,1,2,0:0:0:0:
473,176,196841,2,0,L|322:158,1,145.80000355957,2|2,0:0|0:0,0:0:0:0:
142,245,197269,1,8,0:1:0:0:
150,243,197355,1,0,0:0:0:0:
158,242,197441,1,2,0:0:0:0:
166,241,197527,1,0,0:0:0:0:
174,240,197612,5,2,1:2:0:0:
252,294,197784,2,0,L|335:305,2,48.6000011865235,0|2|8,0:0|0:0|0:1,0:0:0:0:
108,327,198127,5,2,0:0:0:0:
257,205,198298,1,2,1:2:0:0:
178,104,198469,1,2,0:0:0:0:
178,104,198555,2,0,L|186:157,1,48.6000011865235,2|8,0:0|0:1,0:0:0:0:
98,134,198727,1,2,0:0:0:0:
98,134,198812,2,0,L|90:81,1,48.6000011865235,2|0,0:0|0:0,0:0:0:0:
145,18,198984,6,0,L|324:34,2,145.80000355957,0|2|0,1:0|0:0|0:0,0:0:0:0:
145,18,199841,6,0,L|157:89,1,48.6000011865235,2|0,0:0|0:0,0:0:0:0:
290,30,200012,2,0,L|302:101,1,48.6000011865235,8|0,3:1|0:0,0:0:0:0:
435,42,200184,2,0,L|447:113,1,48.6000011865235,2|0,3:2|0:0,0:0:0:0:
499,146,200355,6,0,L|361:164,1,97.2000023730469,4|0,1:0|0:0,0:0:0:0:
260,276,200698,1,8,0:1:0:0:
423,250,200869,2,0,B|340:233|340:233|322:199|322:199|228:181,1,194.400004746094,0|2,0:0|0:0,0:0:0:0:
135,151,201384,1,8,0:1:0:0:
135,151,201469,1,2,0:0:0:0:
135,151,201555,1,2,0:0:0:0:
163,251,201727,5,2,1:2:0:0:
220,102,201898,2,0,L|215:48,2,48.6000011865235,0|2|8,0:0|0:0|0:1,0:0:0:0:
38,198,202241,1,2,0:0:0:0:
38,198,202327,2,0,L|189:180,1,145.80000355957,2|2,0:0|0:0,0:0:0:0:
369,267,202755,1,8,0:1:0:0:
361,265,202841,1,2,0:0:0:0:
353,264,202927,1,2,0:0:0:0:
345,263,203012,1,0,0:0:0:0:
337,262,203098,5,0,1:0:0:0:
259,316,203269,2,0,L|176:327,2,48.6000011865235,2|0|8,0:0|0:0|0:1,0:0:0:0:
403,349,203612,5,0,0:0:0:0:
254,227,203784,1,0,1:0:0:0:
419,136,204041,1,2,0:0:0:0:
419,136,204127,2,0,L|431:66,2,64.8000015820313,8|2|2,0:1|0:0|0:0,0:0:0:0:
358,29,204469,5,2,1:2:0:0:
105,245,204812,2,0,L|90:162,1,67.5000025749208,0|2,1:0|3:2,0:0:0:0:
343,339,205155,5,8,0:1:0:0:
169,339,205498,1,2,3:2:0:0:
407,245,205841,6,0,L|426:144,1,97.2000023730469,4|0,1:0|0:0,0:0:0:0:
335,0,206184,1,8,0:1:0:0:
476,72,206355,2,0,B|418:55|418:55|361:92|361:92|261:68,1,194.400004746094,2|0,0:0|0:0,0:0:0:0:
199,115,206869,1,8,0:1:0:0:
199,115,206955,1,2,0:0:0:0:
199,115,207041,1,2,0:0:0:0:
139,18,207212,5,2,1:2:0:0:
284,163,207384,2,0,L|349:151,2,48.6000011865235,0|2|8,0:0|0:0|0:1,0:0:0:0:
57,192,207727,1,2,0:0:0:0:
57,192,207812,2,0,L|224:208,1,145.80000355957,2|0,0:0|0:0,0:0:0:0:
360,268,208241,1,8,0:1:0:0:
352,269,208326,1,2,0:0:0:0:
344,270,208412,1,2,0:0:0:0:
336,271,208498,1,2,0:0:0:0:
328,273,208584,5,2,1:2:0:0:
236,299,208755,2,0,L|224:356,2,48.6000011865235,0|0|8,0:0|0:0|0:1,0:0:0:0:
284,163,209098,5,2,0:0:0:0:
124,99,209269,1,0,1:0:0:0:
218,48,209441,1,2,0:0:0:0:
218,48,209527,2,0,L|207:130,1,48.6000011865235,0|8,0:0|0:1,0:0:0:0:
284,163,209698,1,2,0:0:0:0:
284,163,209784,2,0,L|295:81,1,48.6000011865235,2|0,0:0|0:0,0:0:0:0:
377,92,209955,6,0,L|356:256,2,145.80000355957,2|2|2,1:2|0:0|0:0,0:0:0:0:
377,92,210812,6,0,L|302:102,1,48.6000011865235,2|0,0:0|0:0,0:0:0:0:
358,236,210984,2,0,L|294:195,1,48.6000011865235,8|0,0:1|0:0,0:0:0:0:
250,334,211156,2,0,L|227:261,1,48.6000011865235,2|0,3:2|0:0,0:0:0:0:
105,245,211327,6,0,L|86:144,1,97.2000023730469,6|0,1:2|0:0,0:0:0:0:
177,0,211670,1,8,0:1:0:0:
36,72,211841,2,0,B|94:55|94:55|151:92|151:92|251:68,1,194.400004746094,0|2,0:0|0:0,0:0:0:0:
313,115,212355,1,8,0:1:0:0:
313,115,212441,1,2,0:0:0:0:
313,115,212527,1,2,0:0:0:0:
373,18,212698,5,2,1:2:0:0:
228,163,212870,2,0,L|163:151,2,48.6000011865235,0|0|8,0:0|0:0|0:1,0:0:0:0:
455,192,213213,1,2,0:0:0:0:
455,192,213298,2,0,L|288:208,1,145.80000355957,2|2,0:0|0:0,0:0:0:0:
152,268,213727,1,8,0:1:0:0:
160,269,213812,1,2,0:0:0:0:
168,270,213898,1,2,0:0:0:0:
176,271,213984,1,2,0:0:0:0:
184,273,214070,5,2,1:2:0:0:
276,299,214241,2,0,L|288:356,2,48.6000011865235,0|2|8,0:0|3:2|1:0,0:0:0:0:
348,181,214584,2,0,L|336:238,1,48.6000011865235,2|0,3:2|3:0,0:0:0:0:
402,288,214755,5,0,1:0:0:0:
430,280,214841,1,0,1:0:0:0:
454,265,214927,1,0,1:0:0:0:
476,246,215012,1,0,1:0:0:0:
494,222,215098,2,0,L|502:183,5,32.4000007910156,8|0|0|0|0|0,3:1|0:0|0:0|3:0|0:0|0:0,0:0:0:0:
494,116,215441,5,4,1:2:0:0:
385,175,215698,5,4,1:2:0:0:
256,192,215955,5,4,1:2:0:0:
127,175,216212,5,4,1:2:0:0:
18,116,216469,5,12,0:0:0:0:
18,116,216812,6,0,P|27:164|31:241,1,97.2000023730469,4|2,1:0|0:1,0:0:0:0:
30,231,217069,1,2,0:0:0:0:
26,247,217155,1,10,0:0:0:0:
38,346,217327,1,2,0:1:0:0:
119,287,217498,2,0,P|159:277|243:269,1,97.2000023730469,0|0,1:0|0:0,0:0:0:0:
294,321,217841,1,8,0:0:0:0:
220,181,218012,1,2,0:1:0:0:
351,213,218184,5,0,1:2:0:0:
351,213,218269,1,0,0:0:0:0:
351,213,218355,2,0,L|272:229,2,48.6000011865235,2|2|8,0:0|0:0|0:0,0:0:0:0:
220,181,218698,1,2,0:1:0:0:
403,131,218869,2,0,P|350:118|282:123,1,97.2000023730469,0|2,1:0|0:1,0:0:0:0:
132,27,219212,2,0,P|180:51|229:98,1,97.2000023730469,8|0,0:0|0:0,0:0:0:0:
213,78,219469,1,0,0:0:0:0:
213,78,219555,5,2,1:2:0:0:
135,253,219727,1,2,0:1:0:0:
220,181,219898,2,0,L|115:159,1,97.2000023730469,10|2,0:0|0:1,0:0:0:0:
224,309,220241,2,0,P|275:272|422:309,1,194.400004746094,0|8,1:0|0:0,0:0:0:0:
496,259,220755,1,2,0:1:0:0:
443,95,220927,6,0,P|432:140|429:209,1,97.2000023730469,0|2,1:0|0:1,0:0:0:0:
404,2,221269,1,10,0:0:0:0:
344,81,221441,2,0,P|288:96|176:16,1,194.400004746094,2|2,0:1|0:1,0:0:0:0:
18,132,221955,2,0,P|67:116|145:105,1,97.2000023730469,8|2,0:0|0:1,0:0:0:0:
306,214,222298,6,0,P|256:198|179:187,1,97.2000023730469,0|2,1:0|0:0,0:0:0:0:
195,186,222555,1,2,0:0:0:0:
177,186,222641,1,10,0:0:0:0:
111,108,222812,1,2,0:1:0:0:
227,0,222984,2,0,P|224:44|207:90,1,97.2000023730469,0|0,1:0|0:0,0:0:0:0:
88,197,223327,1,8,0:0:0:0:
41,35,223498,1,2,0:1:0:0:
111,108,223669,5,0,1:0:0:0:
111,108,223755,1,0,0:0:0:0:
111,108,223841,2,0,L|53:118,2,48.6000011865235,2|2|10,0:1|0:0|0:0,0:0:0:0:
212,190,224184,1,2,0:1:0:0:
332,154,224355,2,0,P|388:152|464:171,1,97.2000023730469,0|2,1:0|0:1,0:0:0:0:
395,285,224698,2,0,P|339:287|263:268,1,97.2000023730469,8|2,0:0|0:1,0:0:0:0:
298,280,224955,1,2,0:0:0:0:
298,280,225041,5,0,1:0:0:0:
129,339,225212,1,2,0:1:0:0:
199,232,225384,2,0,P|209:280|215:350,1,97.2000023730469,10|2,0:0|0:1,0:0:0:0:
103,203,225727,2,0,P|176:139|273:165,1,194.400004746094,0|8,1:0|0:0,0:0:0:0:
354,101,226241,1,2,0:1:0:0:
282,31,226412,6,0,B|245:68|245:68|268:171,2,145.80000355957,0|0|0,1:0|1:0|1:0,0:0:0:0:
161,110,227098,1,8,0:0:0:0:
354,101,227269,1,0,3:0:0:0:
161,110,227441,2,0,P|101:126|36:85,1,135,2|0,3:1|0:0,0:0:0:0:
49,106,227784,6,0,P|60:150|64:195,1,90,4|0,1:0|0:0,0:0:0:0:
174,326,228127,1,2,1:2:0:0:
39,275,228299,2,0,B|142:292|90:228|212:243,1,180,2|0,0:0|0:0,0:0:0:0:
442,295,228813,2,0,P|396:300|344:281,1,90,2|2,1:2|0:0,0:0:0:0:
209,242,229156,5,0,1:0:0:0:
310,123,229327,2,0,P|306:167|299:212,1,90,2|2,0:0|1:2,0:0:0:0:
265,323,229669,1,2,0:0:0:0:
209,242,229842,2,0,P|151:202|30:227,1,180,2|2,1:2|1:2,0:0:0:0:
299,212,230356,5,0,0:0:0:0:
354,287,230527,2,0,P|398:282|442:273,1,90,2|0,1:2|0:0,0:0:0:0:
461,137,230869,2,0,P|416:141|372:150,1,90,2|2,1:2|0:0,0:0:0:0:
139,61,231212,2,0,P|198:48|286:128,1,180,2|2,1:2|1:2,0:0:0:0:
212,238,231727,1,2,0:0:0:0:
139,61,231898,5,0,1:0:0:0:
163,164,232069,1,2,0:0:0:0:
69,130,232241,2,0,P|23:137|-20:149,1,90,2|2,1:2|0:0,0:0:0:0:
91,222,232584,1,0,0:0:0:0:
227,95,232755,1,0,0:0:0:0:
256,190,232927,2,0,P|302:197|345:209,1,90,2|0,1:2|0:0,0:0:0:0:
188,260,233269,5,2,1:2:0:0:
188,260,233612,2,0,P|142:267|99:279,1,90,2|2,1:2|0:0,0:0:0:0:
34,177,233955,2,0,P|67:224|8:352,1,180,2|2,1:2|1:2,0:0:0:0:
143,172,234469,2,0,P|147:123|156:69,1,90,2|0,0:0|1:0,0:0:0:0:
329,46,234812,6,0,P|375:38|418:84,2,90,2|2|2,0:0|1:2|0:0,0:0:0:0:
109,12,235327,2,0,P|175:2|243:108,1,180,2|2,1:2|1:2,0:0:0:0:
244,80,236012,5,2,1:2:0:0:
143,172,236184,1,8,0:0:0:0:
226,260,236355,2,0,P|237:209|237:154,1,90,2|10,1:2|0:0,0:0:0:0:
62,115,236698,1,2,1:2:0:0:
141,267,236869,1,8,0:0:0:0:
238,171,237041,2,0,L|370:148,1,90,2|10,1:2|0:0,0:0:0:0:
494,202,237384,5,0,1:0:0:0:
396,300,237641,5,0,1:0:0:0:
256,336,237898,5,0,1:0:0:0:
116,300,238155,5,0,3:0:0:0:
116,300,238241,2,0,L|104:364,1,45,8|0,0:0|3:0,0:0:0:0:
18,202,238412,5,8,0:1:0:0:
256,88,238755,5,4,1:0:0:0:
