osu file format v14

[General]
AudioFilename: audio.mp3
AudioLeadIn: 0
PreviewTime: 170108
Countdown: 0
SampleSet: Soft
StackLeniency: 0.7
Mode: 2
LetterboxInBreaks: 0
WidescreenStoryboard: 1

[Editor]
DistanceSpacing: 0.5
BeatDivisor: 4
GridSize: 8
TimelineZoom: 3.599999

[Metadata]
Title:Aa Kenran no Yume ga Gotoku (Epsilon Remix)
TitleUnicode:嗚呼 絢爛の泡沫が如く (Epsilon Remix)
Artist:Uinyasu, Occhoko Bunny
ArtistUnicode:ういにゃす・おっちょこバニー
Creator:-Luminate
Version:Rain
Source:千の刃濤、桃花染の皇姫
Tags:opening eroge visual novel sen no hatou tsukisome no kouki senmomo august soft Japanese Electronic Nagata Yui 永田ゆい 白鷺雪兎 Yuki Shirasagi 千桃 UiNA video game 小高光太郎 Kotaro Odaka ラムシーニ Ramsini
BeatmapID:2534547
BeatmapSetID:1044161

[Difficulty]
HPDrainRate:5
CircleSize:3.8
OverallDifficulty:9.2
ApproachRate:9.2
SliderMultiplier:2.5
SliderTickRate:2

[Events]
//Background and Video events
0,0,"dfsdv.jpg",0,0
//Break Periods
//Storyboard Layer 0 (Background)
//Storyboard Layer 1 (Fail)
//Storyboard Layer 2 (Pass)
//Storyboard Layer 3 (Foreground)
//Storyboard Layer 4 (Overlay)
//Storyboard Sound Samples

[TimingPoints]
826,342.857142857143,4,2,1,80,1,0
11797,-100,4,2,2,90,0,0
21397,-100,4,2,2,70,0,0
22768,-100,4,2,1,80,0,0
27740,-100,4,2,1,60,0,0
27997,-100,4,2,1,70,0,0
28254,-100,4,2,2,85,0,0
33740,-100,4,2,1,80,0,0
38883,-100,4,2,2,90,0,0
39226,-100,4,2,2,75,0,0
39911,-100,4,2,1,75,0,0
40254,-100,4,2,2,75,0,0
40597,-100,4,2,1,75,0,0
41968,-100,4,2,2,75,0,0
42654,-100,4,2,1,75,0,0
42997,-100,4,2,2,75,0,0
43340,-100,4,2,2,87,0,0
44711,-100,4,2,1,100,0,1
50197,-100,4,2,1,100,0,1
55340,-100,4,2,2,100,0,0
55683,-100,4,2,2,100,0,1
55768,-100,4,2,1,100,0,1
61168,-100,4,2,1,100,0,1
66311,-100,4,2,2,100,0,1
66654,-100,4,2,1,85,0,0
72140,-100,4,2,1,95,0,0
76254,-100,4,2,2,95,0,0
76940,342.857142857143,4,2,3,40,1,0
82425,-100,4,2,1,75,0,0
87225,-100,4,2,2,80,0,0
87911,-100,4,2,1,80,0,0
93054,-100,4,2,2,80,0,0
93397,-100,4,2,2,80,0,0
94082,-100,4,2,1,80,0,0
94425,-100,4,2,2,80,0,0
94768,-100,4,2,1,80,0,0
96482,-100,4,2,2,80,0,0
96825,-100,4,2,1,80,0,0
97168,-100,4,2,2,80,0,0
97511,-100,4,2,1,80,0,0
99911,-100,4,2,2,80,0,0
100168,-100,4,2,1,80,0,0
100254,-100,4,2,1,100,0,1
121511,-100,4,2,2,100,0,1
122197,-100,4,2,1,70,0,0
122368,-100,4,2,3,40,0,0
127682,-100,4,2,1,75,0,0
132482,-100,4,2,2,75,0,0
133168,-100,4,2,1,85,0,0
144311,-100,4,2,1,50,0,0
145511,-100,4,2,1,80,0,0
150997,-100,4,2,1,85,0,0
157854,-100,4,2,1,70,0,0
158882,-100,4,2,2,85,0,0
166082,-100,4,2,2,88,0,0
169854,-100,4,2,1,70,0,0
170197,-100,4,2,1,100,0,1
180825,-100,4,2,2,100,0,0
181168,-100,4,2,1,100,0,1
185968,-100,4,2,1,100,0,1
192140,-100,4,2,1,90,0,0
194540,-100,4,2,2,100,0,0
194882,-100,4,2,1,100,0,1
204482,-100,4,2,1,100,0,0
205168,-100,4,2,2,100,0,0
205340,-100,4,2,1,100,0,0
205854,-100,4,2,1,100,0,1
216825,-100,4,2,2,85,0,0
227797,-100,4,2,2,70,0,0

[Colours]
Combo1 : 245,201,97
Combo2 : 255,102,179
Combo3 : 198,15,148
Combo4 : 21,204,219

[HitObjects]
120,304,825,6,0,L|112:144,1,125,12|0,0:0|0:0,0:0:0:0:
256,176,1168,1,8,0:0:0:0:
112,176,1340,2,0,L|104:32,1,125,2|8,0:0|0:0,0:0:0:0:
248,48,1683,1,0,0:0:0:0:
104,40,1854,2,0,L|272:40,1,125,10|0,0:0|0:0,0:0:0:0:
384,40,2197,5,8,0:0:0:0:
240,128,2368,2,0,L|136:48,2,125,2|8|0,0:0|0:0|0:0,0:0:0:0:
104,320,2883,2,0,L|96:160,1,125,10|0,0:0|0:0,0:0:0:0:
248,176,3226,1,8,0:0:0:0:
96,120,3397,2,0,L|184:120,1,62.5,0|0,3:0|3:0,0:0:0:0:
248,120,3568,5,8,0:0:0:0:
104,296,3740,2,0,L|96:144,1,125,2|8,0:0|0:0,0:0:0:0:
248,160,4083,1,0,0:0:0:0:
416,104,4254,2,0,L|232:104,1,125,10|0,0:0|0:0,0:0:0:0:
416,216,4597,1,8,0:0:0:0:
288,336,4768,2,0,L|280:248,1,62.5,0|0,3:0|3:0,0:0:0:0:
352,256,4940,6,0,L|504:256,2,125,8|2|8,0:0|0:0|0:0,0:0:0:0:
480,128,5454,1,0,0:0:0:0:
336,128,5626,2,0,L|200:128,1,125,10|0,0:0|0:0,0:0:0:0:
368,200,5968,2,0,L|376:352,1,125,8|0,0:0|3:0,0:0:0:0:
304,328,6226,1,0,3:0:0:0:
80,336,6311,6,0,P|8:256|136:200,1,250,14|8,0:0|0:0,0:0:0:0:
240,160,6826,2,0,L|104:160,1,125,2|8,0:0|0:0,0:0:0:0:
280,240,7168,1,0,0:0:0:0:
120,312,7340,2,0,L|112:160,1,125,10|0,0:0|0:0,0:0:0:0:
280,176,7683,5,8,0:0:0:0:
424,112,7854,2,0,L|288:112,2,125,2|8|0,0:0|0:0|0:0,0:0:0:0:
296,256,8368,2,0,L|144:256,1,125,10|0,0:0|0:0,0:0:0:0:
296,144,8711,1,8,0:0:0:0:
160,160,8883,2,0,L|152:56,1,62.5,0|0,3:0|3:0,0:0:0:0:
224,80,9054,5,8,0:0:0:0:
96,264,9226,2,0,L|88:128,1,125,2|8,0:0|0:0,0:0:0:0:
232,136,9568,1,0,0:0:0:0:
96,96,9740,2,0,L|232:96,1,125,10|0,0:0|0:0,0:0:0:0:
360,96,10083,1,8,0:0:0:0:
224,272,10254,2,0,L|216:168,1,62.5,0|0,3:0|3:0,0:0:0:0:
384,200,10426,6,0,L|480:200,2,83.3333333333333,0|0|0,3:0|3:0|3:0,0:0:0:0:
184,200,10768,2,0,L|80:200,2,83.3333333333333,0|0|0,3:0|3:0|3:0,0:0:0:0:
384,192,11111,1,10,0:0:0:0:
224,328,11454,2,0,L|216:240,1,62.5,8|8,3:0|3:0,0:0:0:0:
376,336,11626,2,0,L|384:240,1,62.5,8|8,3:0|3:0,0:0:0:0:
216,224,11797,5,14,0:0:0:0:
64,184,11968,1,0,0:0:0:0:
216,128,12140,1,8,0:1:0:0:
64,64,12311,1,2,0:0:0:0:
95,64,12353,1,0,0:0:0:0:
126,64,12396,1,0,0:0:0:0:
157,64,12439,1,0,0:0:0:0:
189,64,12482,1,8,0:0:0:0:
72,152,12654,1,0,0:0:0:0:
208,152,12826,2,0,L|344:152,1,125,8|0,0:1|0:0,0:0:0:0:
264,192,13083,1,0,0:0:0:0:
72,224,13168,5,8,0:0:0:0:
208,336,13340,2,0,L|216:168,1,125,2|8,0:0|0:1,0:0:0:0:
72,200,13683,2,0,L|32:200,2,31.25,0|0|0,0:0|0:0|0:0,0:0:0:0:
136,200,13854,1,10,0:0:0:0:
189,171,13939,1,0,0:0:0:0:
207,112,14025,1,0,0:0:0:0:
179,58,14111,1,0,0:0:0:0:
121,39,14196,1,8,0:1:0:0:
256,32,14368,2,0,L|184:32,1,62.5,0|0,0:0|0:0,0:0:0:0:
120,32,14540,5,8,0:0:0:0:
392,112,14711,1,2,0:0:0:0:
240,192,14883,1,8,0:1:0:0:
384,288,15054,1,0,0:0:0:0:
406,266,15096,1,0,0:0:0:0:
415,237,15139,1,0,0:0:0:0:
409,207,15182,1,0,0:0:0:0:
389,183,15225,1,10,0:0:0:0:
240,208,15397,2,0,L|232:56,1,125,0|8,0:0|0:1,0:0:0:0:
384,72,15740,2,0,L|304:72,1,62.5,0|0,0:0|0:0,0:0:0:0:
240,72,15911,6,0,L|88:72,1,125,8|2,0:0|0:0,0:0:0:0:
264,160,16254,1,8,0:1:0:0:
120,296,16426,1,0,0:0:0:0:
151,296,16468,1,0,0:0:0:0:
182,296,16511,1,0,0:0:0:0:
256,296,16597,1,10,0:0:0:0:
317,295,16682,1,0,0:0:0:0:
369,262,16768,1,0,0:0:0:0:
397,207,16854,1,0,0:0:0:0:
392,145,16939,1,8,0:1:0:0:
240,144,17111,2,0,L|160:144,1,62.5,0|0,0:0|0:0,0:0:0:0:
336,32,17283,6,0,L|480:32,1,125,14|0,0:0|0:0,0:0:0:0:
336,120,17626,1,8,0:1:0:0:
464,160,17797,2,0,L|496:160,2,31.25,2|0|0,0:0|0:0|0:0,0:0:0:0:
392,160,17968,1,8,0:0:0:0:
216,208,18140,1,0,0:0:0:0:
392,328,18311,2,0,L|400:192,1,125,8|0,0:1|0:0,0:0:0:0:
112,296,18654,6,0,L|104:152,1,125,8|0,0:0|0:0,0:0:0:0:
272,232,18997,2,0,L|280:80,1,125,8|2,0:1|0:0,0:0:0:0:
104,160,19340,1,8,0:0:0:0:
56,123,19425,1,0,0:0:0:0:
62,63,19511,1,0,0:0:0:0:
115,36,19597,1,0,0:0:0:0:
280,32,19683,2,0,L|424:32,1,125,8|0,0:1|0:0,0:0:0:0:
168,256,20026,6,0,L|16:256,1,125,8|8,0:0|0:0,0:0:0:0:
192,160,20368,2,0,L|328:160,1,125,8|8,0:0|0:0,0:0:0:0:
176,336,20711,2,0,L|168:256,1,62.5,8|8,0:0|0:0,0:0:0:0:
248,272,20883,2,0,L|256:192,1,62.5,8|8,0:0|0:0,0:0:0:0:
104,192,21054,1,8,0:0:0:0:
53,159,21139,1,8,0:0:0:0:
55,99,21225,1,8,0:0:0:0:
108,70,21311,1,8,0:0:0:0:
312,72,21397,6,0,L|384:112,2,62.5,10|0|0,0:0|0:0|0:0,0:0:0:0:
240,72,21654,2,0,L|168:120,2,62.5,0|0|0,0:0|0:0|0:0,0:0:0:0:
408,152,21911,2,0,L|424:240,1,62.5,0|0,0:0|0:0,0:0:0:0:
240,336,22083,1,0,0:0:0:0:
192,298,22168,1,0,0:0:0:0:
196,238,22254,1,0,0:0:0:0:
248,207,22340,1,0,0:0:0:0:
449,206,22426,2,0,P|481:158|441:110,1,125,4|0,0:1|0:0,0:0:0:0:
200,112,22768,6,0,L|56:112,1,125,8|0,0:0|0:0,0:0:0:0:
144,96,23026,1,0,0:0:0:0:
208,88,23111,1,10,0:0:0:0:
72,184,23283,1,0,0:0:0:0:
208,296,23454,2,0,P|232:232|200:176,1,125,8|0,0:0|0:0,0:0:0:0:
144,168,23711,1,0,0:0:0:0:
72,160,23797,1,10,0:0:0:0:
208,96,23968,1,0,0:0:0:0:
368,48,24140,5,8,0:0:0:0:
256,224,24311,1,0,0:0:0:0:
208,224,24397,1,0,0:0:0:0:
288,224,24483,2,0,L|304:144,2,62.5,10|0|0,0:0|0:0|0:0,0:0:0:0:
136,232,24826,1,8,0:0:0:0:
264,288,24997,1,0,0:0:0:0:
136,360,25168,2,0,L|112:280,2,62.5,10|0|0,0:0|0:0|0:0,0:0:0:0:
336,360,25511,5,8,0:0:0:0:
112,360,25854,2,0,L|48:360,2,62.5,10|0|0,0:0|0:0|0:0,0:0:0:0:
264,360,26197,2,0,L|408:360,1,125,8|0,0:0|0:0,0:0:0:0:
440,336,26454,1,0,0:0:0:0:
464,272,26539,1,10,0:0:0:0:
440,216,26625,1,0,0:0:0:0:
392,192,26711,1,0,0:0:0:0:
160,200,26883,5,8,0:0:0:0:
296,192,27054,2,0,L|312:120,2,62.5,0|0|8,0:0|0:0|0:0,0:0:0:0:
160,256,27397,1,0,0:0:0:0:
296,280,27568,1,8,0:0:0:0:
440,280,27740,1,2,0:0:0:0:
473,227,27825,1,2,0:0:0:0:
479,166,27911,1,2,0:0:0:0:
458,108,27997,1,2,0:0:0:0:
413,65,28082,1,2,0:0:0:0:
354,47,28168,1,0,0:0:0:0:
160,48,28254,6,0,L|8:48,1,125,10|0,0:0|0:0,0:0:0:0:
104,40,28511,1,0,0:0:0:0:
168,32,28597,1,8,0:1:0:0:
32,120,28768,1,0,0:0:0:0:
168,256,28940,2,0,L|176:120,1,125,10|0,0:0|0:0,0:0:0:0:
32,120,29283,2,0,L|168:120,1,125,8|0,0:1|0:0,0:0:0:0:
456,248,29626,6,0,L|320:248,1,125,10|0,0:0|0:0,0:0:0:0:
288,216,29883,1,0,0:0:0:0:
328,184,29968,1,8,0:1:0:0:
472,152,30140,1,0,0:0:0:0:
328,128,30311,2,0,L|200:128,1,125,10|0,0:0|0:0,0:0:0:0:
384,344,30654,1,8,0:1:0:0:
435,314,30739,1,8,0:0:0:0:
433,254,30825,1,8,0:0:0:0:
379,229,30911,1,8,0:0:0:0:
168,232,30997,6,0,L|24:232,1,125,10|0,0:0|0:0,0:0:0:0:
192,112,31340,2,0,L|48:112,1,125,10|0,0:1|0:0,0:0:0:0:
224,288,31683,1,8,0:0:0:0:
64,312,31854,1,8,0:0:0:0:
224,352,32026,1,8,0:0:0:0:
280,320,32111,1,8,0:0:0:0:
280,256,32197,1,8,0:0:0:0:
224,232,32283,1,8,0:0:0:0:
40,232,32368,5,8,0:0:0:0:
176,224,32540,2,0,L|200:144,2,62.5,0|0|0,3:1|3:1|3:1,0:0:0:0:
40,232,32883,1,2,0:0:0:0:
272,320,33054,2,0,L|280:184,1,125,8|0,0:1|0:0,0:0:0:0:
96,200,33397,1,2,3:0:0:0:
24,144,33511,1,2,3:0:0:0:
96,88,33626,1,2,3:0:0:0:
320,88,33740,6,0,L|488:88,1,125,12|0,0:0|0:0,0:0:0:0:
280,192,34083,1,8,0:0:0:0:
440,248,34254,1,8,0:0:0:0:
160,288,34426,1,8,0:1:0:0:
160,288,34597,1,0,0:0:0:0:
296,288,34768,2,0,L|440:288,1,125,2|0,0:0|0:0,0:0:0:0:
160,232,35111,5,8,0:0:0:0:
336,168,35368,1,8,0:0:0:0:
160,112,35626,1,8,0:0:0:0:
424,328,35797,1,8,0:1:0:0:
424,328,35968,1,0,0:0:0:0:
288,328,36140,2,0,L|120:328,1,125,2|0,0:0|0:0,0:0:0:0:
424,232,36483,5,8,0:0:0:0:
248,168,36740,1,8,0:0:0:0:
424,112,36998,1,8,0:0:0:0:
152,320,37168,1,8,0:1:0:0:
152,320,37340,1,0,0:0:0:0:
296,320,37511,2,0,L|456:320,1,125,0|0,0:0|0:0,0:0:0:0:
152,240,37854,5,0,0:0:0:0:
352,208,38111,1,8,0:0:0:0:
32,128,38368,1,8,0:0:0:0:
360,80,38626,1,8,0:0:0:0:
40,296,38883,2,0,L|32:152,1,125,4|0,0:1|0:0,0:0:0:0:
360,128,39226,6,0,P|432:184|344:296,1,250,4|2,0:0|0:3,0:0:0:0:
232,296,39740,1,0,0:0:0:0:
400,336,39911,2,0,L|120:336,1,250,8|2,0:1|0:3,0:0:0:0:
288,304,40426,1,0,0:0:0:0:
48,272,40597,6,0,L|40:128,1,125,8|0,0:0|0:0,0:0:0:0:
184,176,40940,2,0,L|192:48,1,125,0|0,0:0|0:0,0:0:0:0:
40,48,41283,1,8,0:1:0:0:
168,32,41454,1,0,0:0:0:0:
288,16,41626,1,2,0:0:0:0:
128,16,41797,1,0,0:0:0:0:
416,320,41968,6,0,P|488:272|400:176,1,250,8|2,0:0|0:3,0:0:0:0:
264,176,42483,1,0,0:0:0:0:
80,176,42654,2,0,P|0:96|112:32,1,250,8|2,0:1|0:3,0:0:0:0:
216,24,43168,1,0,0:0:0:0:
464,272,43340,5,8,0:0:0:0:
328,208,43511,1,8,0:0:0:0:
464,160,43683,1,8,0:0:0:0:
328,120,43854,1,8,0:0:0:0:
80,264,44026,1,8,0:0:0:0:
35,223,44111,1,8,0:0:0:0:
42,163,44197,1,8,0:0:0:0:
95,134,44283,1,8,0:0:0:0:
272,336,44368,2,0,L|280:256,1,62.5,4|2,0:1|0:0,0:0:0:0:
200,256,44540,2,0,L|192:184,1,62.5,2|2,0:0|0:0,0:0:0:0:
368,168,44711,6,0,L|504:168,1,125,14|0,0:0|0:0,0:0:0:0:
224,64,45054,2,0,L|40:64,1,125,8|2,0:1|0:0,0:0:0:0:
376,296,45397,2,0,L|536:296,2,125,8|2|8,0:0|0:0|0:1,0:0:0:0:
248,296,45911,1,2,0:0:0:0:
16,216,46083,6,0,L|144:216,1,125,0|2,0:0|0:0,0:0:0:0:
296,216,46426,2,0,L|456:216,1,125,8|2,0:1|0:0,0:0:0:0:
280,112,46768,2,0,L|192:112,2,62.5,8|0|2,0:0|0:0|0:0,0:0:0:0:
152,336,47111,1,8,0:1:0:0:
100,305,47196,1,0,0:0:0:0:
100,245,47282,1,2,0:0:0:0:
152,215,47368,1,0,0:0:0:0:
336,208,47454,6,0,L|496:208,1,125,8|0,0:0|0:0,0:0:0:0:
312,104,47797,1,8,0:1:0:0:
456,72,47968,1,2,0:0:0:0:
200,312,48140,2,0,L|192:136,1,125,8|2,0:0|0:0,0:0:0:0:
272,168,48397,1,2,0:0:0:0:
352,152,48483,1,8,0:1:0:0:
192,80,48654,1,2,0:0:0:0:
456,328,48826,6,0,L|464:184,1,125,8|0,0:0|0:0,0:0:0:0:
304,200,49168,2,0,L|136:200,1,125,8|0,0:1|0:0,0:0:0:0:
464,48,49511,2,0,L|304:48,1,125,10|0,0:0|0:0,0:0:0:0:
72,48,49854,1,8,0:1:0:0:
336,128,50026,1,8,0:0:0:0:
72,288,50197,5,10,0:0:0:0:
224,240,50368,1,2,0:0:0:0:
72,200,50540,2,0,L|64:32,1,125,8|2,0:1|0:0,0:0:0:0:
336,64,50883,1,8,0:0:0:0:
128,288,51226,2,0,L|120:112,1,125,8|0,0:1|0:0,0:0:0:0:
400,192,51568,5,10,0:0:0:0:
256,136,51740,1,2,0:0:0:0:
393,316,51911,2,0,L|401:164,1,125,8|2,0:1|0:0,0:0:0:0:
112,200,52254,1,8,0:0:0:0:
256,200,52426,1,0,0:0:0:0:
328,192,52511,2,0,L|320:104,1,62.5,2|8,0:0|0:1,0:0:0:0:
256,128,52683,1,0,0:0:0:0:
112,200,52768,1,2,0:0:0:0:
240,344,52940,6,0,P|368:288|392:152,1,250,10|8,0:0|0:1,0:0:0:0:
232,184,53454,2,0,L|88:184,1,125,0|8,0:0|0:0,0:0:0:0:
352,88,53797,2,0,L|432:88,2,62.5,0|0|8,3:0|3:0|3:1,0:0:0:0:
208,88,54140,1,2,3:2:0:0:
472,224,54311,5,8,3:2:0:0:
320,176,54483,1,0,0:0:0:0:
384,168,54568,1,2,0:0:0:0:
448,160,54654,1,8,0:1:0:0:
288,80,54826,1,8,0:0:0:0:
56,280,54997,1,8,0:0:0:0:
11,238,55082,1,0,3:0:0:0:
5,208,55125,1,0,3:0:0:0:
13,177,55168,1,0,3:0:0:0:
32,153,55211,1,0,3:0:0:0:
59,138,55254,1,0,3:0:0:0:
336,128,55340,2,0,L|504:128,1,125,4|0,0:1|0:0,0:0:0:0:
208,328,55683,6,0,L|48:328,1,125,14|0,0:0|0:0,0:0:0:0:
240,232,56026,1,8,0:1:0:0:
80,192,56197,1,2,0:0:0:0:
368,288,56368,2,0,P|448:232|336:152,1,250,8|8,0:0|0:1,0:0:0:0:
232,136,56883,1,2,0:0:0:0:
416,344,57054,6,0,L|424:176,1,125,8|2,0:0|0:0,0:0:0:0:
136,232,57397,2,0,L|120:64,1,125,8|2,0:1|0:0,0:0:0:0:
424,96,57740,2,0,L|488:96,2,62.5,8|2|2,0:0|0:0|0:0,0:0:0:0:
136,320,58083,1,8,0:1:0:0:
95,275,58168,1,2,0:0:0:0:
108,217,58254,1,2,0:0:0:0:
164,194,58340,1,0,0:0:0:0:
368,192,58426,6,0,L|192:192,1,125,10|2,0:0|0:0,0:0:0:0:
176,192,58683,1,2,0:0:0:0:
112,192,58768,1,8,0:1:0:0:
240,272,58940,1,0,0:0:0:0:
80,336,59111,2,0,L|72:176,1,125,10|2,0:0|0:0,0:0:0:0:
160,208,59368,1,0,0:0:0:0:
248,208,59454,2,0,L|256:72,1,125,8|0,0:1|0:0,0:0:0:0:
64,64,59797,6,0,L|208:64,1,125,10|0,0:0|0:0,0:0:0:0:
344,144,60140,2,0,L|208:144,1,125,8|0,0:1|0:0,0:0:0:0:
472,296,60483,2,0,L|328:296,1,125,10|0,0:0|0:0,0:0:0:0:
72,240,60826,1,8,0:1:0:0:
344,184,60997,1,8,0:0:0:0:
72,184,61168,6,0,L|64:56,1,125,8|2,0:0|0:0,0:0:0:0:
200,48,61511,1,8,0:1:0:0:
64,40,61683,1,2,0:0:0:0:
360,64,61854,1,8,0:0:0:0:
200,168,62197,1,8,0:1:0:0:
336,168,62368,1,8,0:0:0:0:
56,240,62540,5,10,0:0:0:0:
200,232,62711,1,2,0:0:0:0:
56,176,62883,1,8,0:1:0:0:
200,168,63054,1,2,0:0:0:0:
440,160,63226,2,0,P|456:80|424:24,1,125,8|0,0:0|0:0,0:0:0:0:
296,304,63568,2,0,L|304:216,1,62.5,8|0,3:1|3:0,0:0:0:0:
384,240,63740,2,0,L|392:168,1,62.5,0|0,3:0|3:0,0:0:0:0:
176,144,63911,6,0,L|16:144,1,125,10|0,0:0|0:0,0:0:0:0:
128,128,64168,1,0,0:0:0:0:
200,112,64254,1,8,3:1:0:0:
48,56,64426,1,0,3:0:0:0:
312,224,64597,2,0,L|496:224,1,125,10|0,0:0|3:0,0:0:0:0:
360,200,64854,1,0,3:0:0:0:
280,192,64940,2,0,L|136:192,1,125,8|8,3:1|3:2,0:0:0:0:
456,336,65283,6,0,L|464:256,1,62.5,8|8,0:0|0:0,0:0:0:0:
296,248,65454,2,0,L|224:216,1,62.5,8|8,0:0|0:0,0:0:0:0:
296,248,65626,2,0,L|376:208,1,62.5,8|8,0:0|0:0,0:0:0:0:
160,168,65797,2,0,L|152:64,1,62.5,8|8,0:0|0:0,0:0:0:0:
352,152,65968,1,8,0:0:0:0:
380,137,66010,1,8,0:0:0:0:
397,111,66053,1,8,0:0:0:0:
400,81,66096,1,8,0:0:0:0:
387,52,66139,1,8,0:0:0:0:
362,34,66182,1,8,0:0:0:0:
332,29,66225,1,8,0:0:0:0:
144,32,66311,2,0,P|88:88|152:152,1,187.5,4|0,0:1|0:0,0:0:0:0:
408,304,66654,6,0,L|416:160,1,125,12|0,0:0|0:0,0:0:0:0:
264,176,66997,1,8,0:1:0:0:
144,120,67168,2,0,L|272:120,1,125,2|0,0:0|0:0,0:0:0:0:
416,168,67511,1,2,0:0:0:0:
272,256,67683,2,0,L|120:256,1,125,8|0,0:1|0:0,0:0:0:0:
408,328,68026,5,8,0:0:0:0:
208,256,68283,2,0,L|288:256,1,62.5,2|8,0:0|0:1,0:0:0:0:
440,232,68540,2,0,L|304:232,1,125,2|8,0:0|0:0,0:0:0:0:
168,192,68883,1,0,0:0:0:0:
320,168,69054,2,0,L|328:24,1,125,8|0,0:1|0:0,0:0:0:0:
72,280,69397,5,10,0:0:0:0:
256,192,69654,2,0,L|168:192,1,62.5,2|8,0:0|0:1,0:0:0:0:
40,192,69911,2,0,L|176:192,1,125,2|8,0:0|0:0,0:0:0:0:
312,192,70254,1,2,0:0:0:0:
168,120,70426,2,0,L|160:264,1,125,8|0,0:1|0:0,0:0:0:0:
448,320,70768,6,0,L|376:320,1,62.5,8|0,0:0|0:0,0:0:0:0:
224,272,71026,2,0,L|296:272,1,62.5,2|8,0:0|0:1,0:0:0:0:
448,256,71283,1,2,0:0:0:0:
288,216,71454,1,8,0:0:0:0:
40,176,71626,1,2,0:0:0:0:
184,120,71797,1,8,0:1:0:0:
40,80,71968,1,8,0:0:0:0:
288,304,72140,6,0,L|432:304,1,125,6|0,0:0|0:0,0:0:0:0:
248,224,72397,2,0,P|232:144|256:96,1,125,10|0,0:0|0:0,0:0:0:0:
408,168,72654,2,0,P|464:120|384:48,1,187.5,10|0,0:0|0:0,0:0:0:0:
216,48,72997,1,8,0:1:0:0:
360,248,73168,6,0,P|392:184|336:128,1,125,14|0,0:0|0:0,0:0:0:0:
216,216,73426,2,0,P|184:144|248:96,1,125,10|0,0:0|0:0,0:0:0:0:
360,192,73683,2,0,P|416:144|344:64,1,187.5,10|0,0:0|0:0,0:0:0:0:
144,64,74026,1,8,0:1:0:0:
280,280,74197,6,0,L|288:192,1,62.5,12|10,0:0|0:0,0:0:0:0:
136,192,74454,2,0,L|128:120,1,62.5,8|10,0:0|0:0,0:0:0:0:
296,128,74711,2,0,L|368:128,1,62.5,8|10,0:0|0:0,0:0:0:0:
152,224,75054,5,10,0:0:0:0:
416,328,75226,2,0,L|432:280,2,31.25,8|8|8,0:0|0:0|0:0,0:0:0:0:
240,328,75397,2,0,L|184:328,2,31.25,8|8|8,0:0|0:0|0:0,0:0:0:0:
416,304,75568,2,0,P|408:48|288:56,1,437.5,10|0,0:0|0:0,0:0:0:0:
48,64,76254,5,4,0:1:0:0:
400,304,76940,6,0,L|408:224,1,62.5,4|0,0:0|0:0,0:0:0:0:
288,248,77197,2,0,L|280:176,1,62.5,0|0,0:0|0:0,0:0:0:0:
408,176,77454,1,0,0:0:0:0:
280,168,77625,2,0,P|224:96|304:64,1,187.5,0|0,0:0|0:0,0:0:0:0:
360,64,77968,2,0,L|216:64,1,125,0|0,0:0|0:0,0:0:0:0:
408,152,78311,5,0,0:0:0:0:
240,264,78568,1,0,0:0:0:0:
176,256,78654,2,0,L|168:112,1,125,0|0,0:0|0:0,0:0:0:0:
352,128,78997,2,0,L|384:200,2,62.5,0|0|0,0:0|0:0|0:0,0:0:0:0:
168,128,79340,2,0,L|136:200,2,62.5,0|0|0,0:0|0:0|0:0,0:0:0:0:
352,128,79682,5,0,0:0:0:0:
168,288,80025,2,0,L|160:208,1,62.5,0|0,0:0|0:0,0:0:0:0:
224,216,80197,1,0,0:0:0:0:
352,160,80368,2,0,L|216:160,1,125,0|0,0:0|0:0,0:0:0:0:
96,160,80711,2,0,L|72:80,2,62.5,0|0|0,0:0|0:0|0:0,0:0:0:0:
240,240,81054,5,0,0:0:0:0:
384,232,81225,1,0,0:0:0:0:
392,176,81311,1,0,0:0:0:0:
400,112,81397,1,0,0:0:0:0:
288,104,81568,1,0,0:0:0:0:
448,264,81740,1,0,0:0:0:0:
288,304,81911,1,0,0:0:0:0:
240,288,81996,1,0,0:0:0:0:
200,248,82082,1,0,0:0:0:0:
192,192,82168,1,0,0:0:0:0:
352,160,82254,2,0,L|280:160,1,62.5,0|0,0:0|0:0,0:0:0:0:
88,96,82425,6,0,L|232:96,1,125,4|0,0:0|0:0,0:0:0:0:
288,96,82682,1,0,0:0:0:0:
213,96,82768,2,0,L|208:224,1,125,2|0,0:0|0:0,0:0:0:0:
480,144,83111,1,8,0:1:0:0:
352,112,83282,1,0,0:0:0:0:
224,72,83454,1,2,0:0:0:0:
352,48,83625,1,0,0:0:0:0:
112,232,83797,5,8,0:0:0:0:
272,272,84054,1,0,0:0:0:0:
336,224,84140,2,0,L|192:224,1,125,2|0,0:0|0:0,0:0:0:0:
456,336,84482,2,0,L|464:208,1,125,8|0,0:1|0:0,0:0:0:0:
288,208,84825,2,0,L|280:80,1,125,0|2,0:0|0:0,0:0:0:0:
464,80,85168,5,0,0:0:0:0:
176,144,85511,1,8,0:0:0:0:
464,216,85854,1,8,0:1:0:0:
256,256,86197,1,8,0:0:0:0:
464,328,86540,5,8,0:0:0:0:
320,296,86711,1,8,0:0:0:0:
464,256,86882,2,0,L|400:256,1,62.5,8|8,0:0|0:0,0:0:0:0:
168,256,87054,2,0,L|112:256,2,31.25,8|8|8,0:0|0:0|0:0,0:0:0:0:
360,256,87225,2,0,L|368:112,1,125,8|0,0:1|0:0,0:0:0:0:
192,176,87568,1,2,0:3:0:0:
112,120,87682,1,2,0:3:0:0:
192,72,87797,1,2,0:3:0:0:
416,64,87911,6,0,L|256:64,1,125,14|0,0:0|0:0,0:0:0:0:
136,64,88254,1,8,0:0:0:0:
296,160,88425,1,8,0:0:0:0:
56,320,88597,2,0,L|64:176,1,125,8|0,0:1|0:0,0:0:0:0:
224,184,88940,2,0,L|384:184,1,125,10|0,0:0|0:0,0:0:0:0:
64,312,89282,5,8,0:0:0:0:
256,256,89540,1,10,0:0:0:0:
64,208,89797,1,8,0:0:0:0:
352,328,89968,2,0,L|480:328,2,125,8|8|8,0:1|0:0|0:0,0:0:0:0:
80,264,90654,5,8,0:0:0:0:
288,232,90911,1,8,0:0:0:0:
472,200,91168,1,8,0:0:0:0:
208,176,91340,2,0,L|48:176,2,125,8|8|10,0:1|0:0|0:0,0:0:0:0:
472,272,92025,5,10,0:0:0:0:
288,216,92282,1,8,0:0:0:0:
472,144,92540,1,8,0:0:0:0:
136,96,92797,1,8,0:0:0:0:
464,344,93054,2,0,L|472:208,1,125,4|0,0:1|0:0,0:0:0:0:
152,128,93397,6,0,P|80:184|168:296,1,250,12|2,0:0|0:3,0:0:0:0:
280,296,93911,1,0,0:0:0:0:
128,336,94082,2,0,L|408:336,1,250,8|2,0:1|0:3,0:0:0:0:
240,304,94597,1,0,0:0:0:0:
480,272,94768,6,0,L|472:128,1,125,8|0,0:0|0:0,0:0:0:0:
328,176,95111,2,0,L|320:48,1,125,0|0,0:0|0:0,0:0:0:0:
176,48,95454,1,8,0:1:0:0:
320,48,95625,1,0,0:0:0:0:
176,144,95797,1,0,0:0:0:0:
328,152,95968,1,2,0:0:0:0:
96,320,96139,6,0,P|24:272|112:176,1,250,8|2,0:0|0:3,0:0:0:0:
248,176,96654,1,0,0:0:0:0:
432,176,96825,2,0,P|512:96|400:32,1,250,8|2,0:1|0:3,0:0:0:0:
296,24,97339,1,0,0:0:0:0:
48,272,97511,5,8,0:0:0:0:
184,208,97682,1,0,0:0:0:0:
48,160,97854,1,2,0:0:0:0:
184,120,98025,1,0,0:0:0:0:
440,72,98197,1,8,0:1:0:0:
304,128,98368,1,8,0:0:0:0:
448,176,98540,1,8,0:1:0:0:
280,272,98711,5,8,0:0:0:0:
224,264,98797,1,8,0:0:0:0:
160,256,98882,1,8,0:0:0:0:
304,192,99054,1,8,0:0:0:0:
160,176,99225,2,0,L|152:40,1,125,8|8,0:1|0:0,0:0:0:0:
296,40,99568,1,2,0:0:0:0:
152,24,99740,1,8,0:0:0:0:
416,296,99911,2,0,P|464:224|392:160,1,187.5,4|8,0:1|3:0,0:0:0:0:
176,152,100254,6,0,L|24:152,1,125,14|0,0:0|0:0,0:0:0:0:
304,304,100597,2,0,L|456:304,1,125,8|0,0:1|0:0,0:0:0:0:
176,232,100940,2,0,L|32:232,2,125,10|8|8,0:0|0:0|0:1,0:0:0:0:
320,232,101454,1,2,0:0:0:0:
48,312,101625,6,0,L|32:264,4,31.25,12|8|8|8|2,0:0|0:0|0:0|0:0|0:0,0:0:0:0:
320,320,101968,1,8,0:1:0:0:
160,264,102140,1,8,0:0:0:0:
224,240,102225,1,8,0:1:0:0:
288,216,102311,1,8,0:0:0:0:
160,136,102482,1,8,0:0:0:0:
328,128,102654,2,0,L|472:128,1,125,8|0,0:1|0:0,0:0:0:0:
168,336,102997,6,0,L|160:192,1,125,14|0,0:0|0:0,0:0:0:0:
304,240,103340,2,0,L|296:88,1,125,8|0,0:1|0:0,0:0:0:0:
456,336,103682,2,0,L|448:192,1,125,8|0,0:0|0:0,0:0:0:0:
304,184,104025,2,0,L|440:184,1,125,8|8,0:1|0:0,0:0:0:0:
360,184,104282,1,8,0:1:0:0:
176,184,104368,5,8,0:0:0:0:
304,288,104540,2,0,L|352:288,2,31.25,10|8|8,0:0|0:0|0:0,0:0:0:0:
136,288,104711,1,8,0:1:0:0:
40,224,104882,1,10,0:0:0:0:
71,224,104924,1,8,0:0:0:0:
102,224,104967,1,8,0:0:0:0:
304,224,105054,2,0,L|448:224,1,125,8|8,0:0|0:0,0:0:0:0:
360,208,105311,1,8,0:0:0:0:
192,112,105397,2,0,L|48:112,1,125,8|8,0:1|0:0,0:0:0:0:
360,208,105740,5,12,0:0:0:0:
64,320,105911,1,2,0:0:0:0:
216,320,106082,2,0,L|224:168,1,125,8|2,0:1|0:0,0:0:0:0:
64,176,106425,2,0,L|56:40,1,125,8|8,0:0|0:0,0:0:0:0:
320,56,106768,1,8,0:1:0:0:
192,48,106940,1,0,0:0:0:0:
440,344,107111,5,12,0:0:0:0:
459,319,107153,1,8,0:0:0:0:
464,289,107196,1,8,0:0:0:0:
452,260,107239,1,8,0:0:0:0:
428,241,107282,1,2,0:0:0:0:
168,232,107454,2,0,L|24:232,1,125,8|8,0:1|0:0,0:0:0:0:
104,208,107711,1,8,0:1:0:0:
168,192,107797,1,8,0:0:0:0:
40,128,107968,1,8,0:0:0:0:
296,128,108140,2,0,L|448:128,1,125,8|2,0:1|0:0,0:0:0:0:
168,48,108482,6,0,L|448:48,1,250,14|8,0:0|0:1,0:0:0:0:
264,120,108997,1,2,0:0:0:0:
416,224,109168,1,0,0:0:0:0:
264,312,109340,2,0,L|200:312,2,62.5,2|2|8,0:0|0:0|0:1,0:0:0:0:
416,344,109682,1,8,0:0:0:0:
112,344,109854,5,10,0:0:0:0:
90,321,109896,1,8,0:0:0:0:
80,292,109939,1,8,0:0:0:0:
82,261,109982,1,8,0:0:0:0:
97,234,110025,1,2,0:0:0:0:
408,216,110197,1,8,0:1:0:0:
264,216,110368,2,0,L|208:216,2,31.25,8|8|8,0:0|0:0|0:0,0:0:0:0:
336,216,110540,2,0,L|480:216,1,125,10|8,0:0|0:1,0:0:0:0:
200,104,110882,1,8,0:0:0:0:
456,40,111054,1,8,0:1:0:0:
200,32,111225,6,0,L|48:32,1,125,6|0,0:0|0:0,0:0:0:0:
144,64,111482,1,2,0:0:0:0:
208,88,111568,1,8,0:1:0:0:
72,168,111740,1,8,0:0:0:0:
352,248,111911,2,0,L|496:248,2,125,10|8|8,0:0|0:0|0:1,0:0:0:0:
208,248,112425,1,2,0:0:0:0:
480,192,112597,6,0,L|488:144,4,31.25,12|8|8|8|2,0:0|0:0|0:0|0:0|0:0,0:0:0:0:
200,336,112940,2,0,L|64:336,1,125,8|0,0:1|0:0,0:0:0:0:
144,320,113197,1,8,0:1:0:0:
208,312,113282,1,8,0:0:0:0:
352,272,113454,1,8,0:0:0:0:
208,240,113625,2,0,L|72:240,1,125,8|0,0:1|0:1,0:0:0:0:
368,208,113968,6,0,P|440:128|336:40,1,250,12|8,0:0|0:1,0:0:0:0:
224,96,114482,1,8,0:0:0:0:
360,168,114654,1,2,0:0:0:0:
432,232,114768,1,2,0:0:0:0:
360,280,114882,1,2,0:0:0:0:
168,288,114997,2,0,L|32:288,1,125,8|0,0:1|0:0,0:0:0:0:
120,272,115254,1,8,0:1:0:0:
360,248,115340,5,10,0:0:0:0:
216,224,115511,1,8,0:0:0:0:
184,200,115553,1,8,0:0:0:0:
176,168,115596,1,8,0:0:0:0:
184,136,115639,1,0,0:0:0:0:
216,112,115682,1,8,0:1:0:0:
448,224,115854,1,8,0:0:0:0:
480,200,115897,1,8,0:0:0:0:
488,168,115940,1,8,0:0:0:0:
480,136,115983,1,0,0:0:0:0:
448,112,116025,1,10,0:0:0:0:
160,96,116197,1,8,0:0:0:0:
304,56,116368,1,8,0:1:0:0:
160,32,116540,1,8,0:0:0:0:
448,344,116711,6,0,L|456:216,1,125,14|2,0:0|0:0,0:0:0:0:
280,232,117054,2,0,L|272:96,1,125,8|2,0:1|0:0,0:0:0:0:
456,64,117397,2,0,L|312:64,2,125,8|8|8,0:0|0:0|0:1,0:0:0:0:
328,120,117911,1,8,0:0:0:0:
88,304,118082,5,12,0:0:0:0:
68,279,118124,1,8,0:0:0:0:
62,249,118167,1,8,0:0:0:0:
68,219,118210,1,8,0:0:0:0:
87,194,118253,1,8,0:0:0:0:
160,184,118340,1,10,0:0:0:0:
368,184,118425,1,8,0:1:0:0:
240,152,118597,2,0,L|168:152,2,62.5,8|8|0,0:0|0:1|0:0,0:0:0:0:
392,120,118940,1,8,0:0:0:0:
240,296,119111,2,0,L|232:152,1,125,8|2,0:1|0:0,0:0:0:0:
504,80,119454,6,0,L|352:80,1,125,10|0,0:0|0:0,0:0:0:0:
208,80,119797,1,8,0:1:0:0:
384,176,119968,1,2,0:0:0:0:
72,320,120140,2,0,L|56:168,1,125,10|2,0:0|0:0,0:0:0:0:
136,184,120397,1,8,0:0:0:0:
208,168,120482,1,8,0:1:0:0:
56,128,120654,1,0,0:0:0:0:
376,296,120825,6,0,L|416:296,2,31.25,8|8|8,0:0|0:0|0:0,0:0:0:0:
208,288,120997,2,0,L|160:288,2,31.25,10|8|8,0:0|0:0|0:0,0:0:0:0:
376,288,121168,1,10,0:0:0:0:
405,279,121210,1,8,0:0:0:0:
427,257,121253,1,8,0:0:0:0:
435,227,121296,1,8,0:0:0:0:
427,197,121339,1,10,0:0:0:0:
405,175,121382,1,8,0:0:0:0:
376,167,121425,1,8,0:0:0:0:
144,312,121511,2,0,P|56:120|168:80,1,375,4|0,0:1|0:0,0:0:0:0:
416,336,122197,5,4,0:0:0:0:
456,256,122368,1,0,0:0:0:0:
464,160,122540,1,0,0:0:0:0:
432,64,122711,1,0,0:0:0:0:
344,16,122882,1,0,0:0:0:0:
192,200,123225,1,0,0:0:0:0:
336,232,123397,1,0,0:0:0:0:
192,344,123740,5,0,0:0:0:0:
288,296,123911,1,0,0:0:0:0:
192,264,124082,1,0,0:0:0:0:
352,224,124254,2,0,L|360:88,1,125,0|0,0:0|0:0,0:0:0:0:
200,192,124597,2,0,L|192:48,1,125,0|0,0:0|0:0,0:0:0:0:
40,336,124940,5,0,0:0:0:0:
144,296,125282,1,0,0:0:0:0:
144,296,125454,1,0,0:0:0:0:
40,288,125625,1,0,0:0:0:0:
200,352,125968,5,0,0:0:0:0:
272,288,126140,1,0,0:0:0:0:
296,184,126311,1,0,0:0:0:0:
264,80,126482,1,0,0:0:0:0:
160,48,126654,1,0,0:0:0:0:
264,24,126825,1,0,0:0:0:0:
160,264,126997,2,0,L|144:112,1,125,0|0,0:0|0:0,0:0:0:0:
328,304,127340,1,0,0:0:0:0:
384,264,127425,1,0,0:0:0:0:
384,200,127511,1,0,0:0:0:0:
328,176,127597,1,0,0:0:0:0:
168,168,127682,6,0,L|32:168,1,125,8|0,3:2|3:0,0:0:0:0:
184,48,128025,2,0,L|320:48,1,125,8|0,3:2|3:0,0:0:0:0:
40,104,128368,1,8,0:1:0:0:
240,216,128711,1,8,3:2:0:0:
112,320,128882,2,0,L|104:240,1,62.5,8|8,3:2|3:2,0:0:0:0:
312,248,129054,6,0,L|464:248,1,125,8|0,3:2|3:0,0:0:0:0:
288,144,129397,2,0,L|144:144,1,125,8|0,3:2|3:0,0:0:0:0:
416,56,129740,1,8,0:1:0:0:
216,312,130082,2,0,L|80:312,1,125,8|8,3:2|3:2,0:0:0:0:
168,296,130340,1,8,3:2:0:0:
360,296,130425,5,8,0:0:0:0:
480,248,130597,2,0,L|488:160,1,62.5,8|8,0:0|0:0,0:0:0:0:
408,176,130768,1,8,0:0:0:0:
248,176,130940,2,0,L|160:176,1,62.5,8|8,0:0|0:0,0:0:0:0:
368,88,131111,2,0,L|496:88,2,125,8|8|8,0:1|0:0|0:0,0:0:0:0:
184,88,131625,1,8,0:0:0:0:
336,168,131797,6,0,L|344:240,1,62.5,8|8,0:0|0:0,0:0:0:0:
264,232,131968,2,0,L|256:312,1,62.5,8|8,0:0|0:0,0:0:0:0:
456,344,132140,1,8,0:0:0:0:
479,323,132182,1,8,0:0:0:0:
493,296,132225,1,8,0:0:0:0:
495,265,132268,1,8,0:0:0:0:
484,236,132311,1,8,0:0:0:0:
463,213,132354,1,8,0:0:0:0:
434,201,132397,1,8,0:0:0:0:
208,336,132482,2,0,P|144:208|224:176,1,250,4|0,0:1|0:0,0:0:0:0:
360,176,132997,1,2,0:0:0:0:
80,280,133168,6,0,L|72:144,1,125,12|0,0:0|0:0,0:0:0:0:
152,152,133425,1,0,0:0:0:0:
224,120,133511,2,0,L|80:120,1,125,2|2,0:0|0:0,0:0:0:0:
168,88,133768,1,2,0:0:0:0:
392,88,133854,1,8,1:0:0:0:
280,216,134025,2,0,L|272:128,1,62.5,2|0,0:0|0:0,0:0:0:0:
472,176,134197,2,0,L|344:176,1,125,2|2,0:0|0:0,0:0:0:0:
112,304,134540,6,0,L|232:232,2,125,8|0|0,0:0|0:0|0:0,0:0:0:0:
272,344,135054,1,0,0:0:0:0:
32,248,135225,2,0,L|40:120,1,125,8|2,0:1|0:0,0:0:0:0:
120,120,135482,1,0,0:0:0:0:
320,80,135568,2,0,L|168:80,1,125,10|2,0:0|0:0,0:0:0:0:
472,296,135911,6,0,L|480:152,1,125,8|0,0:0|0:0,0:0:0:0:
328,216,136254,2,0,L|320:80,1,125,2|0,0:0|0:0,0:0:0:0:
392,88,136511,1,0,0:0:0:0:
320,64,136597,1,8,0:1:0:0:
200,320,136768,2,0,L|264:320,1,62.5,0|2,0:0|0:0,0:0:0:0:
408,272,136940,2,0,P|464:216|376:152,1,187.5,8|0,0:0|0:0,0:0:0:0:
128,152,137282,5,10,0:0:0:0:
272,112,137454,1,0,0:0:0:0:
208,96,137540,1,0,0:0:0:0:
144,80,137625,1,10,0:0:0:0:
328,256,137797,1,0,0:0:0:0:
264,240,137883,1,2,0:0:0:0:
200,224,137968,1,8,0:1:0:0:
328,168,138140,1,0,0:0:0:0:
80,128,138311,1,2,0:0:0:0:
328,72,138482,1,0,0:0:0:0:
184,304,138654,6,0,L|192:160,1,125,14|2,0:0|0:0,0:0:0:0:
336,176,138997,1,8,0:0:0:0:
192,136,139168,2,0,L|264:136,1,62.5,0|0,0:0|0:0,0:0:0:0:
464,104,139340,2,0,L|328:104,1,125,8|0,0:1|0:0,0:0:0:0:
272,64,139597,1,0,0:0:0:0:
336,64,139682,1,2,0:0:0:0:
200,192,139854,1,0,0:0:0:0:
456,288,140025,6,0,L|312:288,2,125,10|2|10,0:0|0:0|0:0,0:0:0:0:
304,352,140540,2,0,L|296:272,1,62.5,0|8,0:0|0:0,0:0:0:0:
456,280,140711,2,0,L|464:144,1,125,8|2,0:1|0:0,0:0:0:0:
216,144,141054,1,2,0:0:0:0:
352,104,141225,1,2,0:0:0:0:
80,352,141397,6,0,L|72:208,1,125,8|2,0:0|0:0,0:0:0:0:
240,248,141740,2,0,L|248:104,1,125,2|2,0:0|0:0,0:0:0:0:
72,104,142082,1,8,0:1:0:0:
208,48,142254,1,0,0:0:0:0:
72,32,142425,1,2,0:0:0:0:
368,176,142597,1,2,0:0:0:0:
72,320,142768,5,8,0:0:0:0:
280,240,143025,1,8,0:0:0:0:
72,184,143282,1,8,0:0:0:0:
424,320,143454,1,8,0:1:0:0:
256,240,143711,1,8,0:0:0:0:
424,184,143968,1,10,0:0:0:0:
144,184,144140,5,10,0:0:0:0:
256,192,144311,12,0,145340,0:0:0:0:
336,328,145511,6,0,P|344:208|288:192,1,187.5,4|0,0:0|0:0,0:0:0:0:
224,192,145854,2,0,L|240:48,1,125,2|0,0:0|0:0,0:0:0:0:
416,168,146197,2,0,P|392:88|288:56,1,187.5,8|0,0:1|0:0,0:0:0:0:
240,56,146540,2,0,L|376:24,1,125,2|0,0:0|0:0,0:0:0:0:
192,32,146882,5,8,0:0:0:0:
304,120,147055,1,0,0:0:0:0:
304,120,147140,1,0,0:0:0:0:
192,176,147311,1,0,0:0:0:0:
192,176,147397,1,0,0:0:0:0:
312,312,147568,1,8,0:1:0:0:
408,264,147740,1,2,0:0:0:0:
408,160,147911,1,8,0:0:0:0:
312,128,148082,1,0,0:0:0:0:
128,232,148254,6,0,P|88:160|176:104,1,187.5,10|0,0:0|0:0,0:0:0:0:
232,160,148597,2,0,L|240:24,1,125,2|0,0:0|0:0,0:0:0:0:
88,160,148940,2,0,P|112:80|216:48,1,187.5,8|0,0:1|0:0,0:0:0:0:
264,48,149283,2,0,L|128:16,1,125,2|0,0:0|0:0,0:0:0:0:
296,280,149625,5,8,0:0:0:0:
184,248,149797,1,0,0:0:0:0:
184,248,149882,1,0,0:0:0:0:
184,248,149968,1,2,0:0:0:0:
296,216,150140,1,0,0:0:0:0:
168,40,150311,2,0,L|312:40,1,125,8|0,0:1|0:0,0:0:0:0:
472,40,150654,1,2,0:0:0:0:
64,328,150997,6,0,P|24:264|112:192,1,187.5,12|0,0:0|0:0,0:0:0:0:
168,192,151340,2,0,L|136:64,1,125,2|0,0:0|0:0,0:0:0:0:
272,344,151682,2,0,P|320:304|248:224,1,187.5,8|0,0:1|0:0,0:0:0:0:
176,224,152025,2,0,L|192:96,1,125,2|0,0:0|0:0,0:0:0:0:
464,96,152368,5,8,0:0:0:0:
344,72,152540,1,0,0:0:0:0:
344,72,152625,1,0,0:0:0:0:
464,200,152797,2,0,L|400:200,1,62.5,0|0,0:0|0:0,0:0:0:0:
240,200,153054,1,8,0:1:0:0:
144,160,153225,1,2,0:0:0:0:
144,64,153397,1,8,0:0:0:0:
240,40,153568,1,0,0:0:0:0:
472,232,153740,6,0,P|424:136|336:120,1,187.5,10|0,0:0|0:0,0:0:0:0:
280,152,154082,2,0,L|296:16,1,125,2|0,0:0|0:0,0:0:0:0:
136,336,154425,2,0,P|80:248|152:216,1,187.5,8|0,0:1|0:0,0:0:0:0:
208,208,154768,2,0,L|88:152,1,125,2|0,0:0|0:0,0:0:0:0:
336,344,155111,6,0,L|344:208,1,125,8|0,0:0|0:0,0:0:0:0:
208,232,155454,2,0,L|200:96,1,125,0|2,0:0|0:0,0:0:0:0:
488,280,155797,2,0,L|352:264,1,125,8|0,0:1|0:0,0:0:0:0:
232,240,156140,2,0,L|384:224,1,125,0|2,0:0|0:0,0:0:0:0:
104,304,156482,5,8,0:0:0:0:
0,240,156653,1,0,0:0:0:0:
102,178,156824,1,2,0:0:0:0:
272,128,156997,1,2,0:0:0:0:
96,344,157168,2,0,P|16:256|176:104,1,375,8|0,0:1|0:0,0:0:0:0:
432,352,157854,5,8,0:3:0:0:
458,336,157896,1,8,0:3:0:0:
477,311,157939,1,8,0:3:0:0:
483,280,157982,1,8,0:3:0:0:
477,250,158025,1,8,0:3:0:0:
433,208,158111,1,8,0:3:0:0:
360,200,158197,1,8,0:3:0:0:
240,152,158368,1,8,0:3:0:0:
360,96,158540,1,8,0:3:0:0:
56,248,158882,2,0,L|48:96,1,125,4|0,0:1|0:0,0:0:0:0:
368,104,159225,6,0,L|504:104,1,125,4|0,0:0|0:0,0:0:0:0:
344,272,159568,2,0,L|336:136,1,125,8|0,0:1|0:0,0:0:0:0:
488,344,159911,2,0,L|496:192,1,125,8|0,0:1|0:0,0:0:0:0:
352,208,160254,2,0,L|504:200,1,125,8|0,0:1|0:0,0:0:0:0:
200,336,160597,5,8,0:1:0:0:
64,296,160768,1,0,0:0:0:0:
168,248,160940,1,8,0:1:0:0:
64,208,161111,1,0,0:0:0:0:
232,160,161282,1,8,0:1:0:0:
32,160,161625,2,0,L|40:24,1,125,8|0,0:1|0:0,0:0:0:0:
232,32,161968,5,8,0:1:0:0:
96,192,162311,2,0,L|232:192,1,125,8|0,0:1|0:0,0:0:0:0:
376,192,162654,1,8,0:1:0:0:
280,352,162825,2,0,L|272:272,1,62.5,0|0,0:0|0:0,0:0:0:0:
328,256,162997,2,0,L|472:256,1,125,8|0,0:1|0:0,0:0:0:0:
288,192,163340,6,0,L|280:56,1,125,10|0,0:1|0:0,0:0:0:0:
464,304,163682,2,0,L|320:304,1,125,8|0,0:1|0:0,0:0:0:0:
160,248,164025,2,0,L|440:248,1,250,8|8,0:1|0:1,0:0:0:0:
296,224,164540,1,2,0:0:0:0:
56,208,164711,6,0,L|64:72,1,125,14|0,0:0|0:0,0:0:0:0:
216,160,165054,2,0,L|224:16,1,125,8|0,0:0|0:0,0:0:0:0:
64,40,165397,1,10,0:0:0:0:
320,272,165740,1,8,0:0:0:0:
176,296,165911,1,2,0:0:0:0:
448,328,166082,6,0,L|456:192,1,125,8|8,0:0|0:0,0:0:0:0:
280,208,166425,2,0,L|272:80,1,125,8|8,0:0|0:0,0:0:0:0:
432,56,166768,1,8,0:0:0:0:
272,32,166940,1,8,0:0:0:0:
432,304,167111,2,0,L|440:160,1,125,8|8,0:0|0:0,0:0:0:0:
152,200,167454,6,0,L|144:120,1,62.5,12|8,0:0|0:0,0:0:0:0:
224,128,167625,2,0,L|232:64,1,62.5,8|8,0:0|0:0,0:0:0:0:
64,272,167797,2,0,L|136:272,1,62.5,8|8,0:0|0:0,0:0:0:0:
272,272,167968,2,0,L|344:272,1,62.5,8|8,0:0|0:0,0:0:0:0:
176,200,168140,1,12,0:0:0:0:
125,167,168225,1,8,0:0:0:0:
128,112,168311,1,8,0:0:0:0:
176,88,168397,1,8,0:0:0:0:
360,88,168482,2,0,L|440:88,1,62.5,8|8,0:0|0:0,0:0:0:0:
240,312,168654,2,0,L|160:312,1,62.5,8|8,0:0|0:0,0:0:0:0:
424,320,168825,5,14,0:0:0:0:
64,216,169854,5,8,0:3:0:0:
64,216,169940,1,8,0:3:0:0:
64,216,170025,2,0,L|64:176,2,31.25,8|8|8,0:3|0:3|0:3,0:0:0:0:
320,296,170197,6,0,L|464:296,1,125,12|0,0:0|0:0,0:0:0:0:
176,184,170540,2,0,L|24:184,1,125,8|2,0:1|0:0,0:0:0:0:
336,96,170882,2,0,L|472:96,2,125,8|0|8,0:0|0:0|0:1,0:0:0:0:
168,96,171397,1,2,0:0:0:0:
472,208,171568,5,8,0:0:0:0:
344,248,171740,1,2,0:0:0:0:
472,312,171911,1,8,0:1:0:0:
176,328,172082,1,2,0:0:0:0:
424,328,172254,2,0,L|488:328,2,62.5,8|2|0,0:0|0:0|0:0,0:0:0:0:
184,240,172597,1,8,0:1:0:0:
248,224,172682,1,2,0:0:0:0:
312,208,172768,1,2,0:0:0:0:
56,160,172940,6,0,L|48:24,1,125,8|0,0:0|0:0,0:0:0:0:
216,32,173282,2,0,L|80:32,1,125,8|0,0:1|0:0,0:0:0:0:
256,336,173625,2,0,L|264:184,1,125,10|2,0:0|0:0,0:0:0:0:
184,208,173882,1,0,0:0:0:0:
120,168,173968,2,0,L|264:168,1,125,8|2,0:1|0:0,0:0:0:0:
488,112,174311,6,0,L|344:112,1,125,10|0,0:0|0:0,0:0:0:0:
208,96,174654,2,0,L|384:96,1,125,8|0,0:1|0:0,0:0:0:0:
48,256,174997,2,0,L|208:256,1,125,10|0,0:0|0:0,0:0:0:0:
432,208,175340,1,8,0:1:0:0:
168,152,175511,1,8,0:0:0:0:
424,352,175682,6,0,L|432:224,1,125,10|2,0:0|0:0,0:0:0:0:
272,216,176025,2,0,L|264:80,1,125,8|2,0:1|0:0,0:0:0:0:
104,88,176368,1,8,0:0:0:0:
264,240,176711,1,8,0:1:0:0:
96,296,176882,1,0,0:0:0:0:
424,312,177054,5,10,0:0:0:0:
256,296,177225,2,0,L|248:160,1,125,2|8,0:0|0:1,0:0:0:0:
408,152,177568,1,2,0:0:0:0:
128,152,177740,2,0,P|112:64|144:32,1,125,8|0,0:0|0:0,0:0:0:0:
264,208,178082,2,0,L|264:296,1,62.5,8|0,3:1|3:0,0:0:0:0:
192,272,178254,2,0,L|120:216,1,62.5,2|0,3:2|3:0,0:0:0:0:
288,328,178425,6,0,L|448:328,2,125,10|0|8,0:0|0:0|0:1,0:0:0:0:
152,328,178940,1,2,0:0:0:0:
416,232,179111,1,8,0:0:0:0:
288,224,179282,1,2,0:0:0:0:
224,224,179368,1,8,0:0:0:0:
160,224,179454,1,8,0:1:0:0:
288,96,179625,1,0,0:0:0:0:
48,104,179797,5,10,0:0:0:0:
200,176,179968,2,0,L|264:128,2,62.5,2|8|8,0:0|0:0|0:1,0:0:0:0:
48,232,180311,1,8,0:0:0:0:
288,312,180482,1,10,0:0:0:0:
408,272,180654,2,0,L|416:232,2,31.25,8|8|8,0:0|0:0|0:0,0:0:0:0:
200,312,180825,2,0,L|64:312,1,125,4|0,0:1|0:0,0:0:0:0:
320,200,181168,6,0,L|472:200,1,125,12|0,0:0|0:0,0:0:0:0:
280,96,181511,2,0,L|208:96,2,62.5,8|2|0,0:1|0:0|0:0,0:0:0:0:
448,328,181854,2,0,P|464:248|432:184,1,125,8|0,0:0|0:0,0:0:0:0:
200,208,182197,1,8,0:1:0:0:
136,200,182282,1,0,0:0:0:0:
72,192,182368,1,2,0:0:0:0:
344,128,182540,5,10,0:0:0:0:
200,96,182711,1,0,0:0:0:0:
432,328,182882,2,0,L|440:184,1,125,8|0,0:1|0:0,0:0:0:0:
136,192,183225,2,0,L|56:192,2,62.5,10|2|0,0:0|0:0|0:0,0:0:0:0:
392,192,183568,1,8,0:1:0:0:
448,152,183653,1,2,0:0:0:0:
448,88,183739,1,2,0:0:0:0:
384,64,183825,1,2,0:0:0:0:
136,72,183911,5,8,0:0:0:0:
264,208,184082,2,0,L|280:120,2,62.5,2|2|8,0:0|0:0|0:1,0:0:0:0:
128,256,184425,1,8,0:0:0:0:
280,296,184597,1,2,0:0:0:0:
128,352,184768,2,0,L|120:272,1,62.5,2|2,0:0|0:0,0:0:0:0:
192,272,184940,2,0,L|328:272,1,125,8|0,0:1|0:0,0:0:0:0:
40,176,185282,6,0,L|176:176,1,125,10|0,0:0|0:0,0:0:0:0:
440,112,185625,2,0,L|296:112,1,125,8|0,0:1|0:0,0:0:0:0:
456,312,185968,2,0,L|464:160,1,125,10|0,0:0|0:0,0:0:0:0:
208,136,186311,1,8,0:1:0:0:
464,80,186482,1,8,0:0:0:0:
208,304,186654,5,10,0:0:0:0:
352,248,186825,1,2,0:0:0:0:
208,200,186997,1,8,0:1:0:0:
352,168,187168,1,2,0:0:0:0:
40,144,187340,1,8,0:0:0:0:
208,320,187682,2,0,L|216:184,1,125,8|0,0:1|0:0,0:0:0:0:
72,192,188025,5,10,0:0:0:0:
336,120,188197,1,2,0:0:0:0:
208,104,188368,1,8,0:1:0:0:
72,96,188540,1,8,0:0:0:0:
340,241,188711,2,0,P|348:161|332:113,1,125,10|0,0:0|0:0,0:0:0:0:
216,312,189054,2,0,L|224:224,1,62.5,8|0,3:1|3:0,0:0:0:0:
296,248,189225,2,0,L|392:232,1,62.5,2|0,3:2|3:0,0:0:0:0:
176,240,189397,6,0,L|16:240,1,125,10|0,0:0|3:0,0:0:0:0:
112,224,189654,1,0,3:0:0:0:
176,216,189740,1,8,0:1:0:0:
64,136,189911,1,0,3:0:0:0:
224,80,190082,2,0,L|368:80,1,125,10|0,0:0|0:0,0:0:0:0:
216,288,190425,2,0,L|80:288,1,125,8|8,0:1|0:0,0:0:0:0:
352,336,190768,6,0,L|448:336,1,62.5,8|8,0:0|0:0,0:0:0:0:
240,224,190940,2,0,L|168:224,1,62.5,8|8,0:0|0:0,0:0:0:0:
352,184,191111,2,0,L|360:104,1,62.5,8|8,0:0|0:0,0:0:0:0:
280,128,191282,2,0,L|272:56,1,62.5,8|8,0:0|0:0,0:0:0:0:
456,288,191454,1,8,0:0:0:0:
473,262,191496,1,8,0:0:0:0:
480,231,191539,1,8,0:0:0:0:
475,201,191582,1,8,0:0:0:0:
460,174,191625,1,8,0:0:0:0:
436,154,191668,1,8,0:0:0:0:
406,144,191711,1,8,0:0:0:0:
136,136,191797,2,0,L|0:136,1,125,8|2,0:1|0:0,0:0:0:0:
304,344,192140,6,0,L|312:208,1,125,14|0,0:0|0:0,0:0:0:0:
152,208,192482,2,0,L|136:40,1,125,8|0,0:1|0:0,0:0:0:0:
304,80,192825,1,10,0:0:0:0:
144,264,192997,1,0,0:0:0:0:
208,256,193082,1,0,0:0:0:0:
272,248,193168,1,8,0:1:0:0:
144,152,193340,1,2,0:0:0:0:
448,328,193511,6,0,L|456:184,1,125,10|0,0:0|0:0,0:0:0:0:
152,288,193854,2,0,L|144:144,1,125,8|0,0:1|0:0,0:0:0:0:
288,152,194197,1,8,0:0:0:0:
144,144,194368,2,0,L|64:144,1,62.5,8|8,0:0|0:0,0:0:0:0:
288,256,194540,2,0,L|480:256,1,187.5,4|0,0:1|0:0,0:0:0:0:
288,152,194882,6,0,L|112:152,1,125,14|0,0:0|0:0,0:0:0:0:
320,336,195225,2,0,P|336:264|304:192,1,125,8|2,0:1|0:0,0:0:0:0:
256,208,195482,2,0,L|368:72,1,125,2|0,0:0|0:0,0:0:0:0:
136,144,195740,1,2,0:0:0:0:
248,152,195911,1,8,0:1:0:0:
304,120,195996,1,2,0:0:0:0:
304,56,196082,1,2,0:0:0:0:
248,32,196168,1,2,0:0:0:0:
56,304,196254,6,0,L|48:168,1,125,10|0,0:0|0:0,0:0:0:0:
128,176,196511,1,10,0:0:0:0:
288,304,196597,2,0,L|296:176,1,125,8|0,0:1|0:0,0:0:0:0:
208,192,196854,2,0,L|200:32,1,125,2|0,0:0|0:0,0:0:0:0:
392,176,197111,1,2,0:0:0:0:
256,168,197282,1,8,0:1:0:0:
204,137,197367,1,2,0:0:0:0:
204,77,197453,1,2,0:0:0:0:
255,46,197539,1,2,0:0:0:0:
416,336,197625,6,0,L|424:200,1,125,8|0,0:0|0:0,0:0:0:0:
352,208,197882,1,2,0:0:0:0:
288,248,197968,2,0,L|432:248,1,125,8|8,0:1|0:3,0:0:0:0:
336,224,198225,1,8,0:3:0:0:
120,168,198311,2,0,L|112:40,1,125,2|0,0:0|0:0,0:0:0:0:
336,24,198568,2,0,L|352:200,1,125,2|0,0:0|0:0,0:0:0:0:
192,192,198825,1,2,0:0:0:0:
336,312,198997,6,0,L|344:176,1,125,8|0,0:0|0:0,0:0:0:0:
272,192,199254,1,2,0:0:0:0:
192,192,199340,2,0,L|184:112,1,62.5,8|0,0:1|0:0,0:0:0:0:
351,187,199511,2,0,L|360:112,1,62.5,2|0,0:0|0:0,0:0:0:0:
288,112,199682,2,0,L|280:32,1,62.5,8|0,0:0|0:0,0:0:0:0:
432,32,199854,2,0,L|352:32,1,62.5,10|8,0:2|0:3,0:0:0:0:
192,264,200025,1,8,0:1:0:0:
336,304,200197,1,8,0:0:0:0:
72,320,200368,6,0,L|64:176,1,125,8|0,0:0|0:0,0:0:0:0:
136,192,200625,1,2,0:0:0:0:
200,160,200711,2,0,L|32:160,1,125,8|0,0:1|0:0,0:0:0:0:
288,336,200968,2,0,L|296:176,1,125,2|0,0:0|0:0,0:0:0:0:
136,216,201225,1,2,0:0:0:0:
280,208,201397,1,8,0:1:0:0:
336,176,201482,1,0,0:0:0:0:
336,112,201568,1,2,0:0:0:0:
280,80,201654,1,2,0:0:0:0:
128,232,201740,5,8,0:0:0:0:
56,208,201825,2,0,L|48:72,1,125,0|2,0:0|0:0,0:0:0:0:
128,72,202082,2,0,L|288:72,1,125,8|0,0:1|0:0,0:0:0:0:
64,352,202340,2,0,L|80:200,1,125,2|0,0:0|0:0,0:0:0:0:
248,256,202597,1,2,0:0:0:0:
128,248,202768,1,8,0:1:0:0:
78,213,202853,1,2,0:0:0:0:
79,153,202939,1,2,0:0:0:0:
129,119,203025,1,0,0:0:0:0:
336,120,203111,6,0,L|464:160,1,125,10|0,0:0|0:0,0:0:0:0:
392,168,203368,1,2,0:0:0:0:
216,160,203454,2,0,L|56:160,1,125,8|0,0:1|0:0,0:0:0:0:
240,264,203797,2,0,L|88:264,1,125,10|8,0:0|0:0,0:0:0:0:
184,296,204054,1,2,0:0:0:0:
384,200,204140,1,0,0:0:0:0:
456,144,204254,1,8,0:3:0:0:
384,96,204368,1,8,0:3:0:0:
200,96,204482,6,0,L|64:96,1,125,14|0,0:0|0:0,0:0:0:0:
224,176,204825,1,8,0:0:0:0:
80,232,204997,1,10,0:0:0:0:
320,336,205168,2,0,L|328:192,1,125,4|2,0:1|0:0,0:0:0:0:
200,232,205511,1,10,0:0:0:0:
440,176,205682,1,8,0:0:0:0:
200,296,205854,6,0,L|192:144,1,125,14|0,0:0|0:0,0:0:0:0:
360,144,206197,2,0,L|232:144,1,125,8|0,0:1|0:0,0:0:0:0:
304,336,206454,2,0,P|320:256|296:208,1,125,2|0,0:0|0:0,0:0:0:0:
144,224,206711,1,2,0:0:0:0:
280,224,206882,1,8,0:1:0:0:
338,204,206967,1,2,0:0:0:0:
384,152,207053,1,2,0:0:0:0:
392,88,207139,1,2,0:0:0:0:
224,88,207225,6,0,L|64:88,1,125,10|0,0:0|0:0,0:0:0:0:
168,240,207482,2,8,L|184:160,2,62.5,2|8|0,0:0|0:1|0:0,0:1:0:0:
104,136,207740,1,0,0:0:0:0:
40,272,207825,2,0,L|192:272,1,125,2|0,0:0|0:0,0:0:0:0:
352,288,208082,1,2,0:0:0:0:
224,288,208254,1,8,0:1:0:0:
163,276,208339,1,2,0:0:0:0:
118,234,208425,1,2,0:0:0:0:
103,174,208511,1,2,0:0:0:0:
304,168,208597,5,8,0:0:0:0:
376,168,208682,2,0,L|384:32,1,125,2|2,0:0|0:0,0:0:0:0:
208,336,208940,2,0,L|200:184,1,125,8|8,0:1|0:3,0:0:0:0:
272,208,209197,1,8,0:3:0:0:
472,240,209282,2,0,L|480:112,1,125,10|0,0:0|0:0,0:0:0:0:
256,200,209540,2,0,L|248:48,1,125,2|0,0:0|0:0,0:0:0:0:
328,72,209797,1,2,0:0:0:0:
80,320,209968,6,0,L|72:176,1,125,10|0,0:0|0:0,0:0:0:0:
240,192,210225,2,0,L|288:144,2,62.5,2|8|0,0:0|0:1|0:0,0:0:0:0:
168,176,210482,2,0,L|160:80,1,62.5,2|2,0:0|0:0,0:0:0:0:
328,112,210654,1,8,0:0:0:0:
384,136,210739,1,2,0:0:0:0:
328,168,210825,1,8,0:3:0:0:
192,192,210997,1,8,0:1:0:0:
424,248,211168,1,8,0:0:0:0:
192,320,211340,6,0,L|32:320,1,125,14|0,0:0|0:0,0:0:0:0:
224,288,211682,2,0,L|232:152,1,125,8|0,0:1|0:0,0:0:0:0:
144,168,211940,2,0,L|152:32,1,125,2|0,0:0|0:0,0:0:0:0:
336,312,212197,1,2,0:0:0:0:
472,240,212368,1,8,0:1:0:0:
488,184,212454,1,2,0:0:0:0:
472,120,212540,1,2,0:0:0:0:
416,96,212625,1,2,0:0:0:0:
208,96,212711,6,0,L|344:96,1,125,8|0,0:0|0:0,0:0:0:0:
264,208,212968,1,2,0:0:0:0:
192,208,213054,2,0,L|184:72,1,125,8|0,0:1|0:0,0:0:0:0:
280,344,213311,2,0,L|288:200,1,125,2|0,0:0|0:0,0:0:0:0:
72,224,213568,1,2,0:0:0:0:
200,200,213740,2,0,L|208:128,1,62.5,8|2,0:1|0:0,0:0:0:0:
136,136,213911,2,0,L|128:48,1,62.5,2|2,0:0|0:0,0:0:0:0:
352,352,214082,6,0,L|424:352,2,62.5,10|0|8,0:0|0:0|0:0,0:0:0:0:
176,352,214340,2,0,L|104:352,2,62.5,8|8|8,0:0|0:0|0:0,0:0:0:0:
352,336,214597,2,0,L|360:256,1,62.5,8|8,0:0|0:0,0:0:0:0:
200,256,214768,2,0,L|192:208,4,31.25,8|8|8|8|8,0:0|0:0|0:0|0:0|0:0,0:0:0:0:
256,256,215025,1,8,0:0:0:0:
96,256,215111,1,8,0:0:0:0:
69,239,215153,1,8,0:0:0:0:
52,213,215196,1,8,0:0:0:0:
47,182,215239,1,8,0:0:0:0:
55,152,215282,1,8,0:3:0:0:
74,128,215325,1,8,0:3:0:0:
101,113,215368,1,8,0:3:0:0:
304,112,215454,6,0,L|448:112,1,125,10|0,0:0|0:0,0:0:0:0:
248,336,215711,2,0,L|104:336,1,125,8|0,0:0|0:0,0:0:0:0:
320,360,215968,2,0,L|328:208,1,125,8|0,0:0|0:0,0:0:0:0:
144,216,216225,2,0,L|56:216,2,62.5,8|0|0,0:0|0:0|0:0,0:0:0:0:
368,208,216482,1,10,0:0:0:0:
176,192,216825,5,14,0:0:0:0:
136,168,216910,1,8,0:0:0:0:
120,120,216997,1,8,0:0:0:0:
136,72,217082,1,8,0:0:0:0:
176,48,217168,2,0,L|320:48,1,125,8|0,0:1|0:0,0:0:0:0:
168,336,217511,2,0,L|160:192,1,125,8|0,0:0|0:0,0:0:0:0:
296,168,217854,1,8,0:1:0:0:
160,144,218025,1,0,0:0:0:0:
432,216,218197,5,8,0:0:0:0:
472,192,218282,1,8,0:0:0:0:
488,144,218369,1,8,0:0:0:0:
472,96,218454,1,8,0:0:0:0:
432,72,218540,2,0,L|288:72,1,125,8|0,0:1|0:0,0:0:0:0:
440,360,218883,2,0,L|448:216,1,125,8|0,0:0|0:0,0:0:0:0:
312,192,219226,1,8,0:1:0:0:
448,168,219397,1,0,0:0:0:0:
208,320,219568,5,8,0:0:0:0:
147,305,219653,1,8,0:0:0:0:
103,262,219739,1,8,0:0:0:0:
85,203,219825,1,8,0:0:0:0:
160,184,219911,2,0,L|168:40,1,125,8|0,0:1|0:0,0:0:0:0:
32,304,220254,2,0,L|24:176,1,125,8|0,0:0|0:0,0:0:0:0:
152,160,220597,2,0,L|0:160,1,125,8|0,0:1|0:0,0:0:0:0:
304,304,220940,5,8,0:0:0:0:
354,269,221025,1,8,0:0:0:0:
353,209,221111,1,8,0:0:0:0:
303,175,221197,1,8,0:0:0:0:
120,176,221282,1,8,0:1:0:0:
248,288,221454,2,0,L|416:288,1,125,0|8,0:0|0:0,0:0:0:0:
248,232,221797,1,0,0:0:0:0:
384,216,221968,2,0,L|392:80,1,125,8|0,0:1|0:0,0:0:0:0:
160,328,222311,5,8,0:0:0:0:
104,306,222396,1,8,0:0:0:0:
80,250,222482,1,8,0:0:0:0:
105,194,222568,1,8,0:0:0:0:
162,173,222653,1,8,0:1:0:0:
56,160,222825,2,0,L|48:24,1,125,0|8,0:0|0:0,0:0:0:0:
168,32,223168,1,0,0:0:0:0:
48,248,223340,2,0,L|176:248,1,125,8|0,0:1|0:0,0:0:0:0:
424,240,223682,5,8,0:0:0:0:
423,178,223767,1,8,0:0:0:0:
385,130,223853,1,8,0:0:0:0:
325,115,223939,1,8,0:0:0:0:
384,168,224025,2,0,L|392:16,1,125,8|0,0:1|0:0,0:0:0:0:
256,40,224368,1,8,0:0:0:0:
392,16,224540,1,0,0:0:0:0:
256,248,224711,2,0,L|96:224,1,125,8|0,0:1|0:0,0:0:0:0:
376,336,225054,5,8,0:0:0:0:
433,314,225139,1,8,0:0:0:0:
457,258,225225,1,8,0:0:0:0:
432,202,225311,1,8,0:0:0:0:
375,181,225396,1,8,0:1:0:0:
496,136,225568,2,0,L|352:136,1,125,0|8,0:0|0:0,0:0:0:0:
232,136,225911,1,0,0:0:0:0:
368,256,226083,2,0,L|376:96,1,125,8|0,0:1|0:0,0:0:0:0:
72,168,226425,5,8,0:0:0:0:
264,96,226682,1,8,0:0:0:0:
72,48,226940,1,8,0:0:0:0:
312,296,227111,2,0,L|320:128,1,125,8|2,0:1|0:0,0:0:0:0:
160,208,227454,2,0,L|152:64,1,125,10|0,0:0|0:0,0:0:0:0:
440,168,227797,5,6,0:0:0:0:
216,304,228140,1,8,0:0:0:0:
352,272,228311,1,0,0:0:0:0:
216,248,228482,2,0,L|208:112,1,125,8|0,0:0|0:0,0:0:0:0:
352,224,228825,2,0,L|360:88,1,125,8|0,0:0|0:0,0:0:0:0:
200,328,229168,5,8,0:0:0:0:
80,288,229340,1,0,0:0:0:0:
80,192,229511,1,8,0:0:0:0:
200,160,229682,1,0,0:0:0:0:
64,168,229854,2,0,L|56:32,1,125,8|0,0:0|0:0,0:0:0:0:
208,320,230197,2,0,L|216:184,1,125,8|0,0:0|0:0,0:0:0:0:
64,176,230540,6,0,L|208:176,1,125,8|0,0:0|0:0,0:0:0:0:
328,144,230882,1,8,0:0:0:0:
184,104,231054,1,0,0:0:0:0:
328,328,231225,2,0,L|336:184,1,125,8|0,0:0|0:0,0:0:0:0:
184,192,231568,2,0,L|176:48,1,125,8|0,0:0|0:0,0:0:0:0:
336,32,231911,6,0,L|184:32,1,125,8|0,0:0|0:0,0:0:0:0:
360,96,232254,2,0,L|368:280,1,125,8|0,0:0|0:0,0:0:0:0:
224,320,232597,1,8,0:0:0:0:
96,280,232768,1,0,0:0:0:0:
224,216,232940,1,8,0:0:0:0:
96,176,233111,1,0,0:0:0:0:
368,344,233282,6,0,L|384:184,1,125,8|0,3:2|0:0,0:0:0:0:
208,208,233625,2,0,L|192:56,1,125,8|0,3:2|0:0,0:0:0:0:
384,192,233968,2,0,L|392:40,1,125,8|0,3:2|0:0,0:0:0:0:
224,168,234311,2,0,L|208:8,1,125,8|0,3:2|0:0,0:0:0:0:
64,312,234654,6,0,L|64:176,1,125,8|0,3:2|0:0,0:0:0:0:
232,224,234997,2,0,L|216:80,1,125,8|0,3:2|0:0,0:0:0:0:
64,104,235340,2,0,L|200:104,1,125,8|0,3:2|0:0,0:0:0:0:
336,184,235682,2,0,L|176:184,1,125,8|0,3:2|0:0,0:0:0:0:
464,344,236025,6,0,L|472:208,1,125,8|0,3:2|3:0,0:0:0:0:
304,232,236368,2,0,L|288:80,1,125,8|0,3:2|3:0,0:0:0:0:
128,160,236711,2,0,L|128:16,1,125,0|0,3:2|3:0,0:0:0:0:
272,24,237054,1,8,3:2:0:0:
128,24,237225,1,0,3:0:0:0:
432,288,237397,5,8,3:2:0:0:
264,272,237568,2,0,L|176:272,1,62.5,0|0,3:0|3:0,0:0:0:0:
376,96,237825,2,0,L|288:96,1,62.5,0|0,3:0|3:0,0:0:0:0:
120,288,238082,1,0,0:0:0:0:
56,256,238167,1,0,3:0:0:0:
56,192,238253,1,0,3:0:0:0:
120,160,238339,1,0,3:0:0:0:
376,192,238425,2,0,L|112:192,1,250,8|8,0:1|0:0,0:0:0:0:
