osu file format v14

[General]
AudioFilename: audio.mp3
AudioLeadIn: 0
PreviewTime: 170108
Countdown: 0
SampleSet: Soft
StackLeniency: 0.7
Mode: 2
LetterboxInBreaks: 0
WidescreenStoryboard: 1

[Editor]
DistanceSpacing: 0.5
BeatDivisor: 4
GridSize: 8
TimelineZoom: 3.599999

[Metadata]
Title:Aa Kenran no Yume ga Gotoku (Epsilon Remix)
TitleUnicode:嗚呼 絢爛の泡沫が如く (Epsilon Remix)
Artist:Uinyasu, Occhoko Bunny
ArtistUnicode:ういにゃす・おっちょこバニー
Creator:-Luminate
Version:Platter
Source:千の刃濤、桃花染の皇姫
Tags:opening eroge visual novel sen no hatou tsukisome no kouki senmomo august soft Japanese Electronic Nagata Yui 永田ゆい 白鷺雪兎 Yuki Shirasagi 千桃 UiNA video game 小高光太郎 Kotaro Odaka ラムシーニ Ramsini
BeatmapID:2545299
BeatmapSetID:1044161

[Difficulty]
HPDrainRate:4
CircleSize:3.4
OverallDifficulty:8
ApproachRate:8
SliderMultiplier:2.2
SliderTickRate:2

[Events]
//Background and Video events
0,0,"dfsdv.jpg",0,0
//Break Periods
2,122397,126247
//Storyboard Layer 0 (Background)
//Storyboard Layer 1 (Fail)
//Storyboard Layer 2 (Pass)
//Storyboard Layer 3 (Foreground)
//Storyboard Layer 4 (Overlay)
//Storyboard Sound Samples

[TimingPoints]
826,342.857142857143,4,2,1,80,1,0
11797,-100,4,2,2,90,0,0
21397,-100,4,2,2,70,0,0
22768,-100,4,2,1,80,0,0
27740,-100,4,2,1,60,0,0
27997,-100,4,2,1,70,0,0
28254,-100,4,2,2,85,0,0
33740,-100,4,2,1,80,0,0
38883,-100,4,2,2,90,0,0
39226,-100,4,2,2,75,0,0
39911,-100,4,2,1,75,0,0
40254,-100,4,2,2,75,0,0
40597,-100,4,2,1,75,0,0
41968,-100,4,2,2,75,0,0
42654,-100,4,2,1,75,0,0
42997,-100,4,2,2,75,0,0
43340,-100,4,2,2,87,0,0
44711,-100,4,2,1,100,0,1
50197,-100,4,2,1,100,0,1
55340,-100,4,2,2,100,0,0
55683,-100,4,2,2,100,0,1
55768,-100,4,2,1,100,0,1
61168,-100,4,2,1,100,0,1
66311,-100,4,2,2,100,0,1
66654,-100,4,2,1,85,0,0
72140,-100,4,2,1,95,0,0
76254,-100,4,2,2,95,0,0
76940,342.857142857143,4,2,3,40,1,0
82425,-100,4,2,1,75,0,0
87225,-100,4,2,2,80,0,0
87911,-100,4,2,1,80,0,0
93054,-100,4,2,2,80,0,0
93397,-100,4,2,2,80,0,0
94082,-100,4,2,1,80,0,0
94425,-100,4,2,2,80,0,0
94768,-100,4,2,1,80,0,0
96482,-100,4,2,2,80,0,0
96825,-100,4,2,1,80,0,0
97168,-100,4,2,2,80,0,0
97511,-100,4,2,1,80,0,0
99911,-100,4,2,2,80,0,0
100082,-100,4,2,1,80,0,0
100254,-100,4,2,1,100,0,1
121511,-100,4,2,2,100,0,1
122197,-100,4,2,1,70,0,0
122368,-100,4,2,3,40,0,0
127682,-100,4,2,1,75,0,0
132482,-100,4,2,2,75,0,0
133168,-100,4,2,1,85,0,0
144311,-100,4,2,1,50,0,0
145511,-100,4,2,1,80,0,0
150997,-100,4,2,1,85,0,0
157854,-100,4,2,1,70,0,0
158882,-100,4,2,2,85,0,0
166082,-100,4,2,2,88,0,0
169854,-100,4,2,1,70,0,0
170197,-100,4,2,1,100,0,1
180825,-100,4,2,2,100,0,0
181168,-100,4,2,1,100,0,1
185968,-100,4,2,1,100,0,1
192140,-100,4,2,1,90,0,0
194540,-100,4,2,2,100,0,0
194882,-100,4,2,1,100,0,1
204482,-100,4,2,1,100,0,0
205168,-100,4,2,2,100,0,0
205340,-100,4,2,1,100,0,0
205854,-100,4,2,1,100,0,1
216825,-100,4,2,2,85,0,0
227797,-100,4,2,2,70,0,0

[Colours]
Combo1 : 245,201,97
Combo2 : 255,102,179
Combo3 : 198,15,148
Combo4 : 21,204,219

[HitObjects]
192,320,825,6,0,P|128:264|224:184,1,220,12|0,0:0|0:0,0:0:0:0:
304,184,1340,2,0,P|376:112|296:48,1,220,2|0,0:0|0:0,0:0:0:0:
120,160,1854,2,0,L|120:8,1,110,10|0,0:0|0:0,0:0:0:0:
280,48,2197,5,8,0:0:0:0:
192,216,2368,2,0,P|72:128|72:40,1,220,2|0,0:0|0:0,0:0:0:0:
240,168,2883,1,10,0:0:0:0:
120,224,3226,1,8,0:0:0:0:
232,336,3397,2,0,L|240:256,1,55,0|0,3:0|3:0,0:0:0:0:
200,280,3568,5,8,0:0:0:0:
368,264,3740,2,0,P|432:216|328:136,1,220,2|0,0:0|0:0,0:0:0:0:
272,128,4254,2,0,P|208:160|288:256,1,220,10|8,0:0|0:0,0:0:0:0:
376,272,4768,2,0,L|384:376,1,55,0|0,3:0|3:0,0:0:0:0:
336,328,4940,5,8,0:0:0:0:
144,256,5111,2,0,L|392:256,1,220,2|0,0:0|0:0,0:0:0:0:
256,200,5626,2,0,L|248:48,1,110,10|0,0:0|0:0,0:0:0:0:
352,88,5968,1,8,0:0:0:0:
256,56,6140,1,0,3:0:0:0:
16,208,6311,6,0,P|64:96|184:72,1,220,14|8,0:0|0:0,0:0:0:0:
80,312,6826,2,0,P|16:216|112:176,1,220,2|0,0:0|0:0,0:0:0:0:
248,168,7340,2,0,L|368:168,1,110,10|0,0:0|0:0,0:0:0:0:
240,64,7683,5,8,0:0:0:0:
336,296,7854,2,0,P|472:216|472:136,1,220,2|0,0:0|0:0,0:0:0:0:
400,160,8368,2,0,P|328:104|424:40,1,220,10|8,0:0|0:0,0:0:0:0:
496,304,8883,1,0,3:0:0:0:
440,304,8968,1,0,3:0:0:0:
384,304,9054,5,8,0:0:0:0:
200,256,9226,2,0,L|424:104,1,220,2|0,0:0|0:0,0:0:0:0:
312,144,9740,2,0,P|248:56|320:8,1,220,10|8,0:0|0:0,0:0:0:0:
416,16,10254,1,0,3:0:0:0:
176,304,10426,6,0,L|96:224,2,73.3333333333333,0|0|0,3:0|3:0|3:0,0:0:0:0:
320,304,10768,2,0,L|352:208,2,73.3333333333333,0|0|0,3:0|3:0|3:0,0:0:0:0:
256,304,11111,1,10,0:0:0:0:
392,248,11454,2,0,L|456:184,2,55,8|8|8,3:0|3:0|3:0,0:0:0:0:
104,256,11797,6,0,P|40:192|144:112,1,220,14|8,0:0|0:1,0:0:0:0:
288,208,12311,2,0,L|296:64,1,110,2|8,0:0|0:0,0:0:0:0:
208,96,12654,1,0,0:0:0:0:
368,352,12826,2,0,L|472:296,1,110,8|0,0:1|0:0,0:0:0:0:
288,280,13168,5,8,0:0:0:0:
192,264,13340,2,0,L|184:112,1,110,2|8,0:0|0:1,0:0:0:0:
288,152,13683,1,0,0:0:0:0:
128,152,13854,1,10,0:0:0:0:
80,120,13939,1,0,0:0:0:0:
64,72,14025,1,0,0:0:0:0:
84,29,14111,1,0,0:0:0:0:
137,22,14196,1,8,0:1:0:0:
224,16,14368,1,0,0:0:0:0:
64,152,14540,5,8,0:0:0:0:
232,296,14711,2,0,L|240:144,1,110,2|8,0:0|0:1,0:0:0:0:
336,160,15054,1,0,0:0:0:0:
128,344,15226,2,0,L|120:200,1,110,10|0,0:0|0:0,0:0:0:0:
232,200,15568,2,0,L|112:192,1,110,8|0,0:1|0:0,0:0:0:0:
336,120,15911,5,8,0:0:0:0:
248,344,16083,2,0,L|240:184,1,110,2|8,0:0|0:1,0:0:0:0:
336,232,16426,1,0,0:0:0:0:
496,184,16597,1,10,0:0:0:0:
508,131,16682,1,0,0:0:0:0:
492,79,16768,1,0,0:0:0:0:
452,42,16854,1,0,0:0:0:0:
399,31,16939,1,8,0:1:0:0:
488,224,17111,1,0,0:0:0:0:
216,288,17283,6,0,L|104:208,1,110,14|0,0:0|0:0,0:0:0:0:
216,248,17626,2,0,L|224:120,1,110,8|2,0:1|0:0,0:0:0:0:
128,136,17968,2,0,L|120:8,1,110,8|0,0:0|0:0,0:0:0:0:
304,312,18311,2,0,L|312:184,1,110,8|0,0:1|0:0,0:0:0:0:
120,208,18654,5,8,0:0:0:0:
248,152,18911,1,2,0:0:0:0:
120,120,19168,1,2,0:0:0:0:
216,336,19340,1,8,0:0:0:0:
266,317,19425,1,0,0:0:0:0:
285,267,19511,1,0,0:0:0:0:
260,220,19597,1,0,0:0:0:0:
208,207,19682,1,8,0:1:0:0:
120,208,19854,1,0,0:0:0:0:
368,344,20026,5,8,0:0:0:0:
472,304,20197,1,8,0:0:0:0:
472,208,20368,1,8,0:0:0:0:
368,176,20540,1,8,0:0:0:0:
104,344,20711,1,8,0:0:0:0:
53,322,20796,1,8,0:0:0:0:
18,280,20882,1,8,0:0:0:0:
6,227,20968,1,8,0:0:0:0:
19,174,21053,1,8,0:0:0:0:
54,133,21139,1,8,0:0:0:0:
105,112,21225,1,8,0:0:0:0:
352,352,21397,5,10,0:0:0:0:
408,328,21483,1,0,0:0:0:0:
432,272,21568,1,0,0:0:0:0:
408,208,21654,1,0,0:0:0:0:
352,184,21739,1,0,0:0:0:0:
448,128,21911,1,0,0:0:0:0:
280,280,22083,2,0,L|144:208,1,110,0|0,0:0|0:0,0:0:0:0:
352,192,22426,2,0,L|360:64,1,110,4|0,0:1|0:0,0:0:0:0:
96,272,22768,6,0,L|80:120,1,110,8|0,0:0|0:0,0:0:0:0:
128,136,23026,2,0,L|272:32,1,165,0|0,0:0|0:0,0:0:0:0:
160,32,23454,1,8,0:0:0:0:
261,39,23626,2,0,L|269:183,1,110,0|10,0:0|0:0,0:0:0:0:
168,160,23968,1,0,0:0:0:0:
368,208,24140,5,8,0:0:0:0:
256,208,24397,1,0,0:0:0:0:
208,184,24483,2,0,L|200:24,1,110,10|0,0:0|0:0,0:0:0:0:
296,344,24826,2,0,L|304:216,1,110,8|0,0:0|0:0,0:0:0:0:
216,208,25168,1,10,0:0:0:0:
304,176,25340,1,0,0:0:0:0:
112,160,25511,5,8,0:0:0:0:
296,344,25854,2,0,L|304:224,1,110,10|0,0:0|0:0,0:0:0:0:
200,224,26197,2,0,P|160:96|216:80,1,220,8|10,0:0|0:0,0:0:0:0:
304,80,26711,1,0,0:0:0:0:
144,336,26883,6,0,L|48:256,2,110,8|0|8,0:0|0:0|0:0,0:0:0:0:
240,320,27397,1,0,0:0:0:0:
144,296,27568,1,8,0:0:0:0:
320,296,27740,1,2,0:0:0:0:
366,268,27825,1,2,0:0:0:0:
385,218,27911,1,2,0:0:0:0:
368,166,27997,1,2,0:0:0:0:
323,137,28082,1,2,0:0:0:0:
48,184,28254,6,0,L|40:56,1,110,10|0,0:0|0:0,0:0:0:0:
224,304,28597,2,0,L|232:144,1,110,8|0,0:1|0:0,0:0:0:0:
136,192,28940,1,10,0:0:0:0:
232,160,29111,1,0,0:0:0:0:
56,88,29283,2,0,L|168:88,1,110,8|0,0:1|0:0,0:0:0:0:
432,328,29626,6,0,L|440:200,1,110,10|0,0:0|0:0,0:0:0:0:
344,216,29968,2,0,L|336:96,1,110,8|0,0:1|0:0,0:0:0:0:
440,104,30311,1,10,0:0:0:0:
344,48,30483,1,0,0:0:0:0:
440,32,30654,2,0,L|504:32,2,55,8|8|8,0:1|0:0|0:0,0:0:0:0:
192,40,30997,6,0,L|64:40,1,110,10|0,0:0|0:0,0:0:0:0:
256,136,31340,2,0,L|368:136,1,110,10|0,0:1|0:0,0:0:0:0:
200,304,31683,2,0,L|192:184,1,110,8|8,0:0|0:0,0:0:0:0:
296,184,32026,2,0,L|312:96,2,55,8|8|8,0:0|0:0|0:0,0:0:0:0:
56,336,32368,5,8,0:0:0:0:
176,304,32540,2,0,L|184:208,1,55,0|0,3:1|3:1,0:0:0:0:
144,232,32711,1,0,3:1:0:0:
40,232,32883,1,2,0:0:0:0:
320,224,33054,2,0,L|472:224,1,110,8|0,0:1|0:0,0:0:0:0:
320,160,33397,2,0,L|472:160,1,110,2|0,3:0|0:0,0:0:0:0:
184,248,33740,6,0,P|112:176|208:120,1,220,12|8,0:0|0:0,0:0:0:0:
272,112,34254,1,8,0:0:0:0:
104,360,34426,2,0,L|96:232,1,110,8|0,0:1|0:0,0:0:0:0:
184,240,34768,2,0,L|192:104,1,110,2|0,0:0|0:0,0:0:0:0:
24,136,35111,5,8,0:0:0:0:
152,72,35368,1,8,0:0:0:0:
24,32,35626,1,8,0:0:0:0:
320,336,35797,2,0,L|480:336,2,110,8|0|2,0:1|0:0|0:0,0:0:0:0:
488,248,36483,5,8,0:0:0:0:
376,176,36740,1,8,0:0:0:0:
488,120,36997,1,8,0:0:0:0:
192,112,37168,2,0,L|48:112,2,110,8|0|0,0:1|0:0|0:0,0:0:0:0:
352,112,37854,5,0,0:0:0:0:
232,168,38111,1,8,0:0:0:0:
352,224,38368,1,8,0:0:0:0:
144,264,38626,1,8,0:0:0:0:
464,344,38883,2,0,L|472:192,1,110,4|0,0:1|0:0,0:0:0:0:
216,216,39226,6,0,L|64:216,1,110,4|0,0:0|0:0,0:0:0:0:
200,344,39568,2,0,L|208:216,1,110,2|0,0:3|0:0,0:0:0:0:
32,216,39911,2,0,L|24:80,1,110,8|0,0:1|0:0,0:0:0:0:
136,88,40254,2,0,L|-8:56,1,110,2|0,0:3|0:0,0:0:0:0:
272,344,40597,5,8,0:0:0:0:
360,304,40768,1,0,0:0:0:0:
400,208,40940,1,0,0:0:0:0:
384,104,41111,1,0,0:0:0:0:
192,240,41283,2,0,L|184:128,1,110,8|0,0:1|0:0,0:0:0:0:
280,160,41626,2,0,L|288:40,1,110,2|0,0:0|0:0,0:0:0:0:
40,320,41968,6,0,L|32:192,1,110,8|0,0:0|0:0,0:0:0:0:
120,216,42311,2,0,L|8:136,1,110,2|0,0:3|0:0,0:0:0:0:
224,344,42654,2,0,L|232:216,1,110,8|0,0:1|0:0,0:0:0:0:
136,224,42997,2,0,L|256:144,1,110,2|0,0:3|0:0,0:0:0:0:
472,288,43340,6,0,L|480:144,1,110,8|8,0:0|0:0,0:0:0:0:
392,136,43683,1,8,0:0:0:0:
480,104,43854,1,8,0:0:0:0:
320,184,44026,2,0,L|240:184,2,55,8|8|8,0:0|0:0|0:0,0:0:0:0:
480,344,44368,2,0,L|352:344,1,110,4|2,0:1|0:0,0:0:0:0:
96,304,44711,6,0,L|232:304,1,110,14|0,0:0|0:0,0:0:0:0:
280,280,45054,2,0,L|160:176,1,110,8|2,0:1|0:0,0:0:0:0:
376,176,45397,2,0,L|504:112,2,110,8|2|8,0:0|0:0|0:1,0:0:0:0:
280,176,45911,1,2,0:0:0:0:
40,328,46083,6,0,L|40:200,1,110,0|2,0:0|0:0,0:0:0:0:
216,232,46426,2,0,L|224:96,1,110,8|2,0:1|0:0,0:0:0:0:
40,120,46768,1,8,0:0:0:0:
184,296,47111,1,8,0:1:0:0:
96,296,47283,1,2,0:0:0:0:
336,224,47454,6,0,L|464:168,1,110,8|0,0:0|0:0,0:0:0:0:
336,136,47797,2,0,L|456:80,1,110,8|2,0:1|0:0,0:0:0:0:
240,344,48140,2,0,L|232:208,1,110,8|2,0:0|0:0,0:0:0:0:
280,224,48397,1,2,0:0:0:0:
328,216,48483,1,8,0:1:0:0:
224,144,48654,1,2,0:0:0:0:
472,312,48826,6,0,L|344:312,1,110,8|0,0:0|0:0,0:0:0:0:
200,296,49168,2,0,L|192:152,1,110,8|0,0:1|0:0,0:0:0:0:
472,184,49511,2,0,P|456:104|328:32,1,220,10|8,0:0|0:1,0:0:0:0:
440,32,50026,1,8,0:0:0:0:
256,328,50197,6,0,L|248:208,1,110,10|2,0:0|0:0,0:0:0:0:
423,234,50540,2,0,L|431:122,1,110,8|2,0:1|0:0,0:0:0:0:
336,120,50883,1,8,0:0:0:0:
496,336,51226,2,0,L|400:256,1,110,8|0,0:1|0:0,0:0:0:0:
176,216,51568,6,0,L|64:144,2,110,10|2|8,0:0|0:0|0:1,0:0:0:0:
256,216,52083,1,2,0:0:0:0:
96,280,52254,1,8,0:0:0:0:
256,352,52597,2,0,L|264:208,1,110,8|2,0:1|0:0,0:0:0:0:
24,240,52940,6,0,P|88:120|184:112,1,220,10|8,0:0|0:1,0:0:0:0:
248,72,53454,1,0,0:0:0:0:
160,32,53626,1,8,0:0:0:0:
56,112,53797,2,0,L|48:40,2,55,0|0|8,3:0|3:0|3:1,0:0:0:0:
160,176,54140,1,2,3:2:0:0:
360,216,54311,5,8,3:2:0:0:
272,320,54483,2,0,L|264:264,1,55,0|2,0:0|0:0,0:0:0:0:
304,240,54654,2,0,L|448:184,1,110,8|8,0:1|0:0,0:0:0:0:
264,136,54997,2,0,L|128:88,1,110,8|0,0:0|3:0,0:0:0:0:
432,328,55340,2,0,L|440:184,1,110,4|0,0:1|0:0,0:0:0:0:
128,320,55683,6,0,L|120:192,1,110,14|0,0:0|0:0,0:0:0:0:
216,168,56026,1,8,0:1:0:0:
120,128,56197,1,2,0:0:0:0:
304,336,56368,2,0,P|368:248|288:176,1,220,8|8,0:0|0:1,0:0:0:0:
216,176,56883,1,2,0:0:0:0:
464,336,57054,6,0,L|472:208,1,110,8|2,0:0|0:0,0:0:0:0:
376,224,57397,2,0,L|480:176,1,110,8|2,0:1|0:0,0:0:0:0:
296,104,57740,2,0,L|224:56,2,55,8|2|2,0:0|0:0|0:0,0:0:0:0:
472,352,58083,2,0,L|480:280,1,55,8|2,0:1|0:0,0:0:0:0:
432,264,58254,1,2,0:0:0:0:
120,304,58426,5,10,0:0:0:0:
73,276,58511,1,2,0:0:0:0:
56,226,58597,1,2,0:0:0:0:
76,176,58683,1,2,0:0:0:0:
124,151,58768,1,8,0:1:0:0:
224,128,58940,1,0,0:0:0:0:
120,128,59111,2,0,L|112:8,1,110,10|2,0:0|0:0,0:0:0:0:
168,16,59368,1,0,0:0:0:0:
232,16,59454,2,0,L|240:144,1,110,8|0,0:1|0:0,0:0:0:0:
80,184,59797,6,0,L|208:184,1,110,10|0,0:0|0:0,0:0:0:0:
352,248,60140,2,0,L|216:248,1,110,8|0,0:1|0:0,0:0:0:0:
8,312,60483,2,0,L|208:168,1,220,10|8,0:0|0:1,0:0:0:0:
96,184,60997,1,8,0:0:0:0:
432,320,61168,6,0,L|440:176,1,110,8|2,0:0|0:0,0:0:0:0:
256,216,61511,2,0,L|248:96,1,110,8|2,0:1|0:0,0:0:0:0:
344,112,61854,1,8,0:0:0:0:
200,304,62197,1,8,0:1:0:0:
288,320,62368,1,8,0:0:0:0:
120,240,62540,6,0,L|16:176,2,110,10|2|8,0:0|0:0|0:1,0:0:0:0:
200,240,63054,1,2,0:0:0:0:
40,312,63226,1,8,0:0:0:0:
152,344,63483,1,0,3:0:0:0:
152,344,63568,1,8,3:1:0:0:
64,344,63740,1,0,3:0:0:0:
352,336,63911,6,0,L|360:184,1,110,10|0,0:0|0:0,0:0:0:0:
256,232,64254,2,0,L|264:80,1,110,8|0,3:1|3:0,0:0:0:0:
464,120,64597,1,10,0:0:0:0:
360,200,64768,1,0,3:0:0:0:
408,192,64854,1,0,3:0:0:0:
464,184,64940,1,8,3:1:0:0:
360,304,65111,1,8,3:2:0:0:
64,272,65283,6,0,L|56:144,1,110,8|8,0:0|0:0,0:0:0:0:
240,184,65626,2,0,L|248:48,1,110,8|8,0:0|0:0,0:0:0:0:
400,320,65968,2,0,L|480:320,2,55,8|8|8,0:0|0:0|0:0,0:0:0:0:
144,320,66311,2,0,L|8:320,1,110,4|0,0:1|0:0,0:0:0:0:
288,208,66654,6,0,L|424:208,1,110,12|0,0:0|0:0,0:0:0:0:
224,320,66997,1,8,0:1:0:0:
144,280,67168,2,0,L|136:160,1,110,2|0,0:0|0:0,0:0:0:0:
312,168,67511,1,2,0:0:0:0:
400,112,67683,2,0,L|272:112,1,110,8|0,0:1|0:0,0:0:0:0:
112,168,68026,5,8,0:0:0:0:
232,104,68283,1,2,0:0:0:0:
112,56,68540,1,2,0:0:0:0:
272,208,68883,1,0,0:0:0:0:
112,208,69054,2,0,L|104:64,1,110,8|0,0:1|0:0,0:0:0:0:
384,152,69397,5,10,0:0:0:0:
272,88,69654,1,2,0:0:0:0:
384,40,69911,1,2,0:0:0:0:
232,272,70254,1,2,0:0:0:0:
392,264,70426,2,0,L|400:112,1,110,8|0,0:1|0:0,0:0:0:0:
152,160,70768,5,8,0:0:0:0:
40,104,71026,1,2,0:0:0:0:
152,56,71283,1,2,0:0:0:0:
240,32,71454,1,8,0:0:0:0:
72,96,71626,1,2,0:0:0:0:
240,216,71797,2,0,L|376:256,1,110,8|8,0:1|0:0,0:0:0:0:
72,336,72140,5,6,0:0:0:0:
192,264,72397,1,10,0:0:0:0:
64,208,72654,2,0,L|56:72,1,110,10|0,0:0|0:0,0:0:0:0:
328,96,72997,1,8,0:1:0:0:
232,112,73168,5,14,0:0:0:0:
432,192,73426,1,10,0:0:0:0:
232,296,73683,2,0,L|104:208,1,110,10|0,0:0|0:0,0:0:0:0:
384,224,74026,1,8,0:1:0:0:
288,192,74197,6,0,L|288:128,1,55,12|10,0:0|0:0,0:0:0:0:
400,120,74454,2,0,L|400:56,1,55,8|10,0:0|0:0,0:0:0:0:
224,64,74711,2,0,L|416:216,1,220,8|10,0:0|0:0,0:0:0:0:
288,208,75226,2,0,L|280:320,1,110,8|8,0:0|0:0,0:0:0:0:
464,344,75568,2,0,P|488:256|304:120,1,330,10|0,0:0|0:0,0:0:0:0:
56,120,76254,5,4,0:1:0:0:
352,320,76940,6,0,L|360:248,1,55,4|0,0:0|0:0,0:0:0:0:
264,264,77197,2,0,L|256:184,1,55,0|0,0:0|0:0,0:0:0:0:
344,192,77454,1,0,0:0:0:0:
208,192,77625,1,0,0:0:0:0:
296,296,77882,1,0,0:0:0:0:
256,296,77968,2,0,L|136:360,1,110,0|0,0:0|0:0,0:0:0:0:
320,352,78311,5,0,0:0:0:0:
200,280,78568,2,0,L|280:280,1,55,0|0,0:0|0:0,0:0:0:0:
352,280,78825,1,0,0:0:0:0:
256,232,78997,2,0,L|240:144,2,55,0|0|0,0:0|0:0|0:0,0:0:0:0:
360,232,79340,2,0,L|376:144,2,55,0|0|0,0:0|0:0|0:0,0:0:0:0:
192,240,79682,5,0,0:0:0:0:
360,232,80025,2,0,L|368:72,1,110,0|0,0:0|0:0,0:0:0:0:
272,112,80368,1,0,0:0:0:0:
432,72,80711,1,0,0:0:0:0:
384,56,80797,1,0,0:0:0:0:
336,40,80882,1,0,0:0:0:0:
168,40,81054,5,0,0:0:0:0:
256,104,81225,2,0,L|264:160,2,55,0|0|0,0:0|0:0|0:0,0:0:0:0:
168,184,81568,1,0,0:0:0:0:
336,320,81740,1,0,0:0:0:0:
416,272,81911,1,0,0:0:0:0:
440,216,81997,1,0,0:0:0:0:
440,152,82082,1,0,0:0:0:0:
416,104,82168,1,0,0:0:0:0:
352,72,82254,1,0,0:0:0:0:
104,72,82425,6,0,L|96:192,1,110,4|0,0:0|0:0,0:0:0:0:
152,184,82682,1,0,0:0:0:0:
152,184,82768,1,2,0:0:0:0:
48,256,82940,1,0,0:0:0:0:
240,336,83111,2,0,L|248:216,1,110,8|0,0:1|0:0,0:0:0:0:
160,232,83454,2,0,L|152:104,1,110,2|0,0:0|0:0,0:0:0:0:
344,112,83797,5,8,0:0:0:0:
232,88,84054,2,0,L|232:16,1,55,0|2,0:0|0:0,0:0:0:0:
328,32,84311,1,0,0:0:0:0:
176,272,84482,2,0,L|168:128,1,110,8|0,0:1|0:0,0:0:0:0:
280,176,84825,2,0,L|272:48,1,110,0|2,0:0|0:0,0:0:0:0:
104,64,85168,5,0,0:0:0:0:
272,112,85511,1,8,0:0:0:0:
16,200,85854,1,8,0:1:0:0:
296,272,86197,1,8,0:0:0:0:
136,312,86540,5,8,0:0:0:0:
224,336,86711,1,8,0:0:0:0:
136,352,86882,1,8,0:0:0:0:
96,328,86968,1,8,0:0:0:0:
136,296,87054,1,8,0:0:0:0:
448,320,87225,2,0,L|456:168,1,110,8|0,0:1|0:0,0:0:0:0:
360,192,87568,2,0,L|472:112,1,110,2|0,0:3|0:0,0:0:0:0:
208,184,87911,6,0,P|136:128|216:64,1,220,14|8,0:0|0:0,0:0:0:0:
296,64,88425,1,8,0:0:0:0:
56,192,88597,2,0,L|16:88,2,110,8|0|10,0:1|0:0|0:0,0:0:0:0:
232,280,89282,5,8,0:0:0:0:
120,320,89540,1,10,0:0:0:0:
232,352,89797,1,8,0:0:0:0:
472,352,89968,2,0,L|472:200,1,110,8|8,0:1|0:0,0:0:0:0:
304,240,90311,1,8,0:0:0:0:
464,192,90654,5,8,0:0:0:0:
368,120,90911,1,8,0:0:0:0:
464,64,91168,1,8,0:0:0:0:
208,304,91340,2,0,L|208:152,1,110,8|8,0:1|0:0,0:0:0:0:
376,192,91683,1,10,0:0:0:0:
232,168,92025,5,10,0:0:0:0:
376,232,92282,1,8,0:0:0:0:
232,328,92540,1,8,0:0:0:0:
456,328,92797,1,8,0:0:0:0:
80,328,93054,2,0,L|72:168,1,110,4|0,0:1|0:0,0:0:0:0:
320,216,93397,6,0,P|384:144|296:64,1,220,12|2,0:0|0:3,0:0:0:0:
224,64,93911,1,0,0:0:0:0:
392,336,94082,2,0,P|480:256|472:144,1,220,8|2,0:1|0:3,0:0:0:0:
400,160,94597,1,0,0:0:0:0:
128,328,94768,5,8,0:0:0:0:
48,288,94940,1,0,0:0:0:0:
48,200,95111,1,0,0:0:0:0:
128,168,95282,1,0,0:0:0:0:
320,304,95454,2,0,L|328:184,1,110,8|0,0:1|0:0,0:0:0:0:
232,200,95797,2,0,L|224:80,1,110,0|2,0:0|0:0,0:0:0:0:
480,336,96140,6,0,P|432:224|344:184,1,220,8|2,0:0|0:3,0:0:0:0:
432,160,96654,1,0,0:0:0:0:
272,336,96825,2,0,P|176:304|152:192,1,220,8|2,0:1|0:3,0:0:0:0:
240,200,97340,1,0,0:0:0:0:
416,192,97511,6,0,L|424:72,1,110,8|0,0:0|0:0,0:0:0:0:
328,112,97854,2,0,L|320:0,1,110,2|0,0:0|0:0,0:0:0:0:
176,184,98197,1,8,0:1:0:0:
256,144,98368,1,8,0:0:0:0:
176,104,98540,1,8,0:1:0:0:
176,104,98711,1,8,0:0:0:0:
336,336,98882,6,0,L|344:200,1,110,8|8,0:0|0:0,0:0:0:0:
264,192,99225,1,8,0:1:0:0:
344,160,99397,1,8,0:0:0:0:
432,144,99568,2,0,L|440:24,1,110,2|8,0:0|0:0,0:0:0:0:
192,224,99911,2,0,L|64:160,1,110,4|8,0:1|3:0,0:0:0:0:
336,320,100254,6,0,L|456:272,1,110,14|0,0:0|0:0,0:0:0:0:
192,272,100597,2,0,L|184:136,1,110,8|0,0:1|0:0,0:0:0:0:
352,144,100940,2,0,L|480:72,2,110,10|8|8,0:0|0:0|0:1,0:0:0:0:
264,144,101454,1,2,0:0:0:0:
24,296,101625,6,0,L|32:168,1,110,12|2,0:0|0:0,0:0:0:0:
184,184,101968,1,8,0:1:0:0:
272,160,102140,2,0,L|288:88,2,55,8|8|8,0:0|0:1|0:0,0:0:0:0:
184,184,102482,1,8,0:0:0:0:
344,320,102654,2,0,L|328:168,1,110,8|0,0:1|0:0,0:0:0:0:
72,208,102997,6,0,L|80:80,1,110,14|0,0:0|0:0,0:0:0:0:
176,160,103340,2,0,L|192:24,1,110,8|0,0:1|0:0,0:0:0:0:
280,128,103682,2,0,L|296:8,1,110,8|8,0:0|0:0,0:0:0:0:
472,136,104025,1,8,0:1:0:0:
368,224,104197,1,8,0:0:0:0:
416,208,104282,1,8,0:1:0:0:
464,184,104368,6,0,L|360:128,1,110,8|10,0:0|0:0,0:0:0:0:
456,328,104711,2,0,L|344:264,1,110,8|10,0:1|0:0,0:0:0:0:
56,296,105054,2,0,L|48:168,1,110,8|8,0:0|0:0,0:0:0:0:
88,160,105311,1,8,0:0:0:0:
136,144,105397,1,8,0:1:0:0:
32,32,105568,1,8,0:0:0:0:
296,320,105740,6,0,L|456:320,1,110,12|2,0:0|0:0,0:0:0:0:
144,336,106082,2,0,L|136:208,1,110,8|2,0:1|0:0,0:0:0:0:
296,256,106425,2,0,L|304:128,1,110,8|8,0:0|0:0,0:0:0:0:
216,136,106768,1,8,0:1:0:0:
304,96,106940,1,0,0:0:0:0:
56,296,107111,6,0,L|48:176,1,110,12|2,0:0|0:0,0:0:0:0:
216,184,107454,2,0,L|368:168,1,110,8|8,0:1|0:0,0:0:0:0:
352,128,107711,1,8,0:1:0:0:
328,80,107797,1,8,0:0:0:0:
232,72,107968,1,8,0:0:0:0:
416,336,108140,2,0,L|424:208,1,110,8|2,0:1|0:0,0:0:0:0:
128,224,108482,6,0,P|64:144|136:80,1,220,14|8,0:0|0:1,0:0:0:0:
224,80,108997,1,2,0:0:0:0:
376,272,109168,2,0,L|384:128,1,110,0|2,0:0|0:0,0:0:0:0:
336,144,109425,1,2,0:0:0:0:
288,120,109511,1,8,0:1:0:0:
384,48,109682,1,8,0:0:0:0:
136,336,109854,6,0,L|128:200,1,110,10|2,0:0|0:0,0:0:0:0:
312,200,110197,1,8,0:1:0:0:
232,152,110368,1,8,0:0:0:0:
312,112,110540,1,10,0:0:0:0:
152,104,110711,2,0,L|8:104,2,110,8|8|8,0:1|0:0|0:1,0:0:0:0:
416,336,111225,6,0,L|424:208,1,110,6|0,0:0|0:0,0:0:0:0:
360,216,111482,1,2,0:0:0:0:
304,208,111568,2,0,L|296:80,1,110,8|8,0:1|0:0,0:0:0:0:
472,72,111911,2,0,L|368:160,2,110,10|8|8,0:0|0:0|0:1,0:0:0:0:
392,104,112425,1,2,0:0:0:0:
144,320,112597,6,0,L|136:160,1,110,12|2,0:0|0:0,0:0:0:0:
248,216,112940,2,0,L|256:88,1,110,8|8,0:1|0:0,0:0:0:0:
304,96,113197,1,8,0:1:0:0:
360,88,113282,1,8,0:0:0:0:
256,40,113454,1,8,0:0:0:0:
448,312,113625,2,0,L|440:168,1,110,8|0,0:1|0:1,0:0:0:0:
192,192,113968,6,0,L|416:64,1,220,12|8,0:0|0:1,0:0:0:0:
296,56,114482,1,8,0:0:0:0:
208,272,114654,2,0,L|200:144,1,110,2|0,0:0|0:0,0:0:0:0:
360,176,114997,2,0,L|368:56,1,110,8|8,0:1|0:0,0:0:0:0:
312,40,115254,1,8,0:1:0:0:
256,24,115340,5,10,0:0:0:0:
360,136,115511,1,8,0:0:0:0:
88,312,115682,2,0,L|80:184,1,110,8|8,0:1|0:0,0:0:0:0:
344,176,116025,2,0,L|472:128,1,110,10|8,0:0|0:0,0:0:0:0:
360,96,116368,1,8,0:1:0:0:
448,64,116540,1,8,0:0:0:0:
176,328,116711,6,0,L|80:264,2,110,14|2|8,0:0|0:0|0:1,0:0:0:0:
264,328,117225,1,2,0:0:0:0:
352,328,117397,1,8,0:0:0:0:
264,328,117568,1,8,0:0:0:0:
432,280,117740,2,0,L|440:152,1,110,8|8,0:1|0:0,0:0:0:0:
200,152,118082,6,0,L|192:16,1,110,12|8,0:0|0:0,0:0:0:0:
248,32,118340,1,10,0:0:0:0:
304,32,118425,2,0,L|152:32,1,110,8|8,0:1|0:0,0:0:0:0:
136,32,118682,1,8,0:1:0:0:
136,32,118768,1,0,0:0:0:0:
224,96,118940,1,8,0:0:0:0:
64,224,119111,2,0,L|56:72,1,110,8|2,0:1|0:0,0:0:0:0:
296,336,119454,6,0,L|304:208,1,110,10|0,0:0|0:0,0:0:0:0:
208,208,119797,2,0,L|200:80,1,110,8|2,0:1|0:0,0:0:0:0:
360,72,120140,1,10,0:0:0:0:
272,56,120311,1,2,0:0:0:0:
432,304,120482,2,0,L|440:168,1,110,8|0,0:1|0:0,0:0:0:0:
200,184,120825,6,0,L|96:88,2,110,8|10|10,0:0|0:0|0:0,0:0:0:0:
288,184,121340,1,10,0:0:0:0:
40,288,121511,2,0,P|40:144|208:80,1,330,4|0,0:1|0:0,0:0:0:0:
448,72,122197,5,4,0:0:0:0:
224,344,126997,6,0,L|216:216,1,110,0|0,0:0|0:0,0:0:0:0:
312,216,127340,2,0,L|320:152,2,55,0|0|0,0:0|0:0|0:0,0:0:0:0:
64,232,127682,6,0,L|56:96,1,110,8|0,3:2|3:0,0:0:0:0:
160,144,128025,2,0,L|168:24,1,110,8|0,3:2|3:0,0:0:0:0:
56,24,128368,1,8,0:1:0:0:
368,176,128711,1,8,3:2:0:0:
256,288,128882,2,0,L|256:224,1,55,8|8,3:2|3:2,0:0:0:0:
320,224,129054,6,0,L|328:88,1,110,8|0,3:2|3:0,0:0:0:0:
224,128,129397,2,0,L|216:8,1,110,8|0,3:2|3:0,0:0:0:0:
328,16,129740,1,8,0:1:0:0:
64,192,130082,1,8,3:2:0:0:
176,280,130254,2,0,L|176:200,1,55,8|8,3:2|3:2,0:0:0:0:
112,200,130425,5,8,0:0:0:0:
24,152,130597,1,8,0:0:0:0:
112,104,130768,1,8,0:0:0:0:
200,64,130940,1,8,0:0:0:0:
40,40,131111,1,8,0:1:0:0:
40,40,131282,1,8,0:0:0:0:
136,96,131454,1,8,0:0:0:0:
40,136,131625,1,8,0:0:0:0:
312,248,131797,6,0,L|384:248,2,55,8|8|8,0:0|0:0|0:0,0:0:0:0:
152,248,132140,2,0,L|144:104,1,110,8|8,0:0|0:0,0:0:0:0:
408,128,132482,1,4,0:1:0:0:
224,176,132997,1,2,0:0:0:0:
464,328,133168,6,0,L|472:192,1,110,12|0,0:0|0:0,0:0:0:0:
416,200,133425,1,0,0:0:0:0:
360,176,133511,2,0,L|472:176,1,110,2|2,0:0|0:0,0:0:0:0:
312,304,133854,2,0,L|304:176,1,110,8|2,1:0|0:0,0:0:0:0:
360,176,134111,1,0,0:0:0:0:
416,144,134197,2,0,L|264:144,1,110,2|2,0:0|0:0,0:0:0:0:
48,128,134540,6,0,L|144:48,2,110,0|0|0,0:0|0:0|0:0,0:0:0:0:
136,176,135054,1,0,0:0:0:0:
296,280,135225,2,0,L|304:160,1,110,8|2,0:1|0:0,0:0:0:0:
240,160,135482,1,0,0:0:0:0:
176,152,135568,2,0,L|168:16,1,110,10|2,0:0|0:0,0:0:0:0:
408,328,135911,6,0,L|416:192,1,110,8|0,0:0|0:0,0:0:0:0:
224,176,136254,2,0,L|360:152,1,110,2|0,0:0|0:0,0:0:0:0:
416,136,136597,1,8,0:1:0:0:
344,344,136768,2,0,L|336:272,1,55,0|2,0:0|0:0,0:0:0:0:
408,288,136940,2,0,L|416:160,1,110,8|0,0:0|0:0,0:0:0:0:
144,184,137282,5,10,0:0:0:0:
256,168,137454,2,0,L|272:88,2,55,0|0|10,0:0|0:0|0:0,0:0:0:0:
352,216,137797,2,0,L|368:136,2,55,0|2|8,0:0|0:0|0:1,0:0:0:0:
256,248,138140,1,0,0:0:0:0:
456,336,138311,2,0,L|464:216,1,110,2|0,0:0|0:0,0:0:0:0:
224,224,138654,6,0,L|112:152,2,110,14|2|8,0:0|0:0|0:0,0:0:0:0:
312,256,139168,1,0,0:0:0:0:
312,256,139254,1,0,0:0:0:0:
312,256,139340,1,8,0:1:0:0:
192,312,139511,1,0,0:0:0:0:
192,312,139597,1,0,0:0:0:0:
192,312,139682,2,0,L|312:240,1,110,2|0,0:0|0:0,0:0:0:0:
48,216,140025,5,10,0:0:0:0:
144,160,140197,1,2,0:0:0:0:
48,112,140368,1,10,0:0:0:0:
248,312,140625,1,8,0:0:0:0:
192,296,140711,2,0,L|184:168,1,110,8|2,0:1|0:0,0:0:0:0:
360,200,141054,2,0,L|368:72,1,110,2|2,0:0|0:0,0:0:0:0:
104,176,141397,6,0,L|112:32,1,110,8|2,0:0|0:0,0:0:0:0:
232,128,141740,2,0,L|224:8,1,110,2|2,0:0|0:0,0:0:0:0:
64,272,142082,2,0,L|200:192,1,110,8|0,0:1|0:0,0:0:0:0:
248,176,142425,2,0,L|112:96,1,110,2|2,0:0|0:0,0:0:0:0:
408,304,142768,5,8,0:0:0:0:
288,224,143025,1,8,0:0:0:0:
408,160,143282,1,8,0:0:0:0:
216,160,143454,1,8,0:1:0:0:
80,80,143711,1,8,0:0:0:0:
216,16,143968,1,10,0:0:0:0:
456,24,144140,5,10,0:0:0:0:
256,192,144311,12,4,145511,0:0:0:0:
344,320,145854,6,0,L|352:184,1,110,2|0,0:0|0:0,0:0:0:0:
256,200,146197,2,0,P|192:128|304:80,1,220,8|2,0:1|0:0,0:0:0:0:
360,64,146711,1,0,0:0:0:0:
200,296,146882,6,0,L|192:160,1,110,8|0,0:0|0:0,0:0:0:0:
288,184,147225,2,0,L|280:56,1,110,0|0,0:0|0:0,0:0:0:0:
192,224,147568,1,8,0:1:0:0:
152,136,147740,1,2,0:0:0:0:
192,48,147911,1,8,0:0:0:0:
296,32,148082,1,0,0:0:0:0:
120,320,148254,6,0,L|112:200,1,110,10|0,0:0|0:0,0:0:0:0:
216,224,148597,2,0,L|224:80,1,110,2|0,0:0|0:0,0:0:0:0:
112,160,148940,2,0,P|176:32|264:32,1,220,8|2,0:1|0:0,0:0:0:0:
152,24,149454,1,0,0:0:0:0:
320,320,149625,6,0,L|328:192,1,110,8|0,0:0|0:0,0:0:0:0:
232,200,149968,2,0,L|224:80,1,110,2|0,0:0|0:0,0:0:0:0:
328,64,150311,1,8,0:1:0:0:
232,40,150482,1,0,0:0:0:0:
144,16,150654,1,2,0:0:0:0:
456,344,150997,6,0,L|240:256,1,220,12|2,0:0|0:0,0:0:0:0:
344,224,151511,1,0,0:0:0:0:
176,200,151682,2,0,L|168:72,1,110,8|0,0:1|0:0,0:0:0:0:
272,120,152025,2,0,L|280:-8,1,110,2|0,0:0|0:0,0:0:0:0:
120,312,152368,5,8,0:0:0:0:
64,224,152539,1,0,0:0:0:0:
89,134,152710,1,0,0:0:0:0:
193,120,152882,1,0,0:0:0:0:
352,208,153054,2,0,L|360:88,1,110,8|2,0:1|0:0,0:0:0:0:
264,104,153397,2,0,L|256:-16,1,110,8|0,0:0|0:0,0:0:0:0:
432,320,153740,6,0,P|424:240|304:168,1,220,10|2,0:0|0:0,0:0:0:0:
224,168,154254,1,0,0:0:0:0:
392,272,154425,2,0,P|456:208|376:120,1,220,8|2,0:1|0:0,0:0:0:0:
304,120,154940,1,0,0:0:0:0:
64,304,155111,6,0,L|56:176,1,110,8|0,0:0|0:0,0:0:0:0:
152,208,155454,2,0,L|160:88,1,110,0|2,0:0|0:0,0:0:0:0:
336,272,155797,2,0,L|240:208,1,110,8|0,0:1|0:0,0:0:0:0:
344,176,156140,2,0,L|232:104,1,110,0|2,0:0|0:0,0:0:0:0:
432,336,156482,6,0,L|440:208,1,110,8|0,0:0|0:0,0:0:0:0:
336,192,156825,2,0,L|456:136,1,110,2|2,0:0|0:0,0:0:0:0:
192,312,157168,2,0,P|88:224|240:128,1,330,8|0,0:1|0:0,0:0:0:0:
464,344,157854,6,0,P|480:272|448:200,1,110,8|8,0:3|0:3,0:0:0:0:
424,208,158111,1,8,0:3:0:0:
368,200,158197,1,8,0:3:0:0:
280,144,158368,1,8,0:3:0:0:
368,96,158540,1,8,0:3:0:0:
40,80,158882,1,4,0:1:0:0:
464,328,159225,6,0,L|472:192,1,110,4|0,0:0|0:0,0:0:0:0:
296,208,159568,2,0,L|288:88,1,110,8|0,0:1|0:0,0:0:0:0:
376,144,159911,2,0,L|168:24,1,220,8|8,0:1|0:1,0:0:0:0:
280,24,160425,1,0,0:0:0:0:
104,248,160597,6,0,L|96:112,1,110,8|0,0:1|0:0,0:0:0:0:
200,136,160940,2,0,L|208:24,1,110,8|0,0:1|0:0,0:0:0:0:
96,24,161282,1,8,0:1:0:0:
224,192,161625,1,8,0:1:0:0:
224,192,161797,1,0,0:0:0:0:
48,248,161968,6,0,L|240:88,1,220,8|8,0:1|0:1,0:0:0:0:
128,80,162482,1,0,0:0:0:0:
216,48,162654,1,8,0:1:0:0:
304,32,162825,1,0,0:0:0:0:
224,264,162997,2,0,L|216:120,1,110,8|0,0:1|0:0,0:0:0:0:
416,248,163340,6,0,L|424:120,1,110,10|0,0:1|0:0,0:0:0:0:
248,168,163682,2,0,L|240:40,1,110,8|0,0:1|0:0,0:0:0:0:
424,352,164025,2,0,P|488:272|408:192,1,220,8|8,0:1|0:1,0:0:0:0:
336,192,164540,1,2,0:0:0:0:
96,192,164711,6,0,L|88:64,1,110,14|0,0:0|0:0,0:0:0:0:
264,128,165054,2,0,L|256:0,1,110,8|0,0:0|0:0,0:0:0:0:
88,24,165397,1,10,0:0:0:0:
192,248,165740,1,8,0:0:0:0:
96,224,165911,1,2,0:0:0:0:
336,208,166082,6,0,L|344:80,1,110,8|8,0:0|0:0,0:0:0:0:
248,128,166425,2,0,L|376:48,1,110,8|8,0:0|0:0,0:0:0:0:
160,296,166768,2,0,L|24:208,1,110,8|8,0:0|0:0,0:0:0:0:
144,192,167111,1,8,0:0:0:0:
64,144,167282,1,8,0:0:0:0:
304,336,167454,5,12,0:0:0:0:
347,302,167539,1,8,0:0:0:0:
361,250,167625,1,8,0:0:0:0:
339,200,167711,1,8,0:0:0:0:
292,174,167796,1,8,0:0:0:0:
200,168,167968,1,8,0:0:0:0:
448,192,168140,1,12,0:0:0:0:
452,137,168225,1,8,0:0:0:0:
430,87,168311,1,8,0:0:0:0:
389,52,168397,1,8,0:0:0:0:
335,40,168482,1,8,0:0:0:0:
432,24,168654,1,8,0:0:0:0:
176,32,168825,5,14,0:0:0:0:
456,328,170197,6,0,L|464:184,1,110,12|0,0:0|0:0,0:0:0:0:
192,200,170540,2,0,L|56:200,1,110,8|2,0:1|0:0,0:0:0:0:
248,120,170882,2,0,L|376:48,2,110,8|0|8,0:0|0:0|0:1,0:0:0:0:
160,120,171397,1,2,0:0:0:0:
400,328,171568,6,0,L|408:200,1,110,8|2,0:0|0:0,0:0:0:0:
240,208,171911,2,0,L|232:80,1,110,8|2,0:1|0:0,0:0:0:0:
408,160,172254,2,0,L|480:160,2,55,8|2|0,0:0|0:0|0:0,0:0:0:0:
248,144,172597,2,0,L|360:96,1,110,8|2,0:1|0:0,0:0:0:0:
96,320,172940,6,0,L|88:176,1,110,8|0,0:0|0:0,0:0:0:0:
192,216,173282,2,0,L|200:88,1,110,8|0,0:1|0:0,0:0:0:0:
96,88,173625,2,0,L|216:176,1,110,10|2,0:0|0:0,0:0:0:0:
224,200,173882,1,0,0:0:0:0:
224,200,173968,1,8,0:1:0:0:
120,256,174140,1,2,0:0:0:0:
368,344,174311,6,0,L|376:200,1,110,10|0,0:0|0:0,0:0:0:0:
208,152,174654,2,0,L|344:128,1,110,8|0,0:1|0:0,0:0:0:0:
472,112,174997,2,0,L|272:8,1,220,10|8,0:0|0:1,0:0:0:0:
376,16,175511,1,8,0:0:0:0:
80,304,175682,6,0,L|72:160,1,110,10|2,0:0|0:0,0:0:0:0:
248,200,176025,2,0,L|128:144,1,110,8|2,0:1|0:0,0:0:0:0:
320,120,176368,1,8,0:0:0:0:
176,96,176711,1,8,0:1:0:0:
176,96,176882,1,0,0:0:0:0:
432,304,177054,6,0,L|440:160,1,110,10|2,0:0|0:0,0:0:0:0:
264,200,177397,2,0,L|384:144,1,110,8|2,0:1|0:0,0:0:0:0:
192,120,177740,1,8,0:0:0:0:
344,80,178082,1,8,3:1:0:0:
344,80,178254,1,2,3:2:0:0:
104,304,178425,6,0,P|32:216|128:168,1,220,10|8,0:0|0:1,0:0:0:0:
280,160,178940,1,2,0:0:0:0:
192,136,179111,1,8,0:0:0:0:
96,112,179282,2,0,L|80:48,2,55,2|8|8,0:0|0:0|0:1,0:0:0:0:
192,136,179625,1,0,0:0:0:0:
32,208,179797,5,10,0:0:0:0:
120,328,179968,2,0,L|128:240,1,55,2|8,0:0|0:0,0:0:0:0:
80,256,180140,1,8,0:1:0:0:
176,240,180311,1,8,0:0:0:0:
336,216,180482,2,0,L|208:144,1,110,10|8,0:0|0:0,0:0:0:0:
408,336,180825,2,0,L|512:272,1,110,4|0,0:1|0:0,0:0:0:0:
236,294,181168,6,0,L|228:158,1,110,12|0,0:0|0:0,0:0:0:0:
320,144,181511,1,8,0:1:0:0:
224,104,181682,1,0,0:0:0:0:
408,312,181854,2,0,P|472:224|392:152,1,220,8|8,0:0|0:1,0:0:0:0:
320,152,182368,1,2,0:0:0:0:
48,336,182540,6,0,L|40:208,1,110,10|0,0:0|0:0,0:0:0:0:
136,224,182883,2,0,L|32:176,1,110,8|0,0:1|0:0,0:0:0:0:
216,104,183226,2,0,L|288:56,2,55,10|2|0,0:0|0:0|0:0,0:0:0:0:
40,352,183569,2,0,L|32:280,1,55,8|0,0:1|0:0,0:0:0:0:
80,264,183740,1,2,0:0:0:0:
392,304,183912,5,8,0:0:0:0:
439,276,183997,1,2,0:0:0:0:
456,226,184083,1,2,0:0:0:0:
436,176,184169,1,2,0:0:0:0:
388,151,184254,1,8,0:1:0:0:
288,128,184426,1,8,0:0:0:0:
392,128,184597,2,0,L|400:8,1,110,2|2,0:0|0:0,0:0:0:0:
344,16,184854,1,2,0:0:0:0:
280,16,184940,2,0,L|272:144,1,110,8|0,0:1|0:0,0:0:0:0:
435,183,185283,6,0,L|307:183,1,110,10|0,0:0|0:0,0:0:0:0:
160,248,185626,2,0,L|296:248,1,110,8|0,0:1|0:0,0:0:0:0:
504,312,185969,2,0,L|304:168,1,220,10|8,0:0|0:1,0:0:0:0:
416,184,186483,1,8,0:0:0:0:
80,320,186654,6,0,L|72:176,1,110,10|2,0:0|0:0,0:0:0:0:
256,216,186997,2,0,L|264:96,1,110,8|2,0:1|0:0,0:0:0:0:
168,112,187340,1,8,0:0:0:0:
296,304,187682,1,8,0:1:0:0:
208,320,187853,1,0,0:0:0:0:
376,240,188025,6,0,L|480:176,2,110,10|2|8,0:0|0:0|0:1,0:0:0:0:
296,240,188539,1,8,0:0:0:0:
456,312,188711,1,10,0:0:0:0:
344,344,188968,1,0,0:0:0:0:
344,344,189053,1,8,3:1:0:0:
432,344,189225,1,2,3:2:0:0:
144,336,189396,6,0,L|136:184,1,110,10|0,0:0|3:0,0:0:0:0:
240,232,189739,2,0,L|232:80,1,110,8|0,0:1|3:0,0:0:0:0:
32,120,190082,1,10,0:0:0:0:
136,200,190253,1,0,0:0:0:0:
80,192,190339,1,8,0:0:0:0:
32,184,190425,1,8,0:1:0:0:
136,304,190596,1,8,0:0:0:0:
432,272,190768,6,0,L|440:144,1,110,8|8,0:0|0:0,0:0:0:0:
264,176,191111,2,0,L|256:16,1,110,8|8,0:0|0:0,0:0:0:0:
432,56,191454,1,8,0:0:0:0:
376,32,191540,1,8,0:0:0:0:
320,16,191625,1,8,0:0:0:0:
80,216,191797,2,0,L|216:200,1,110,8|2,0:1|0:0,0:0:0:0:
432,320,192140,6,0,P|496:232|408:192,1,220,14|8,0:0|0:1,0:0:0:0:
248,184,192654,1,0,0:0:0:0:
336,168,192825,2,0,L|344:48,1,110,10|0,0:0|0:0,0:0:0:0:
296,40,193082,1,0,0:0:0:0:
248,24,193168,1,8,0:1:0:0:
152,16,193340,1,2,0:0:0:0:
312,280,193511,6,0,L|440:240,1,110,10|0,0:0|0:0,0:0:0:0:
248,192,193854,2,0,L|240:72,1,110,8|0,0:1|0:0,0:0:0:0:
336,128,194197,2,0,L|328:16,1,110,8|8,0:0|0:0,0:0:0:0:
168,240,194540,2,0,L|48:216,1,110,4|0,0:1|0:0,0:0:0:0:
352,336,194882,6,0,P|448:296|488:176,1,220,14|8,0:0|0:1,0:0:0:0:
296,184,195397,1,2,0:0:0:0:
240,168,195482,2,0,P|232:64|288:32,1,165,2|2,0:0|0:0,0:0:0:0:
472,312,195911,2,0,L|488:240,2,55,8|2|2,0:1|0:0|0:0,0:0:0:0:
232,336,196254,5,10,0:0:0:0:
360,328,196511,1,10,0:0:0:0:
368,312,196597,2,0,P|384:240|368:184,1,110,8|0,0:1|0:0,0:0:0:0:
328,192,196854,2,0,P|256:160|224:64,1,165,2|2,0:0|0:0,0:0:0:0:
400,64,197282,2,0,L|464:64,2,55,8|2|2,0:1|0:0|0:0,0:0:0:0:
120,216,197625,5,8,0:0:0:0:
240,192,197797,1,0,0:0:0:0:
272,168,197882,2,0,P|296:88|240:16,1,165,2|8,0:0|0:3,0:0:0:0:
96,280,198311,1,2,0:0:0:0:
192,248,198482,2,0,L|200:176,1,55,0|2,0:0|0:0,0:0:0:0:
32,136,198740,2,0,L|24:72,1,55,0|2,0:0|0:0,0:0:0:0:
328,112,198997,6,0,P|424:176|424:232,1,165,8|2,0:0|0:0,0:0:0:0:
384,232,199340,1,8,0:1:0:0:
352,272,199425,1,0,0:0:0:0:
352,320,199511,1,2,0:0:0:0:
384,352,199597,1,0,0:0:0:0:
432,360,199682,1,8,0:0:0:0:
192,352,199854,1,10,0:2:0:0:
288,296,200025,1,8,0:1:0:0:
192,256,200197,1,8,0:0:0:0:
448,240,200368,6,0,P|496:192|408:96,1,220,8|8,0:0|0:1,0:0:0:0:
240,200,200882,1,0,0:0:0:0:
192,168,200968,2,0,P|240:88|320:80,1,165,2|2,0:0|0:0,0:0:0:0:
128,264,201397,2,0,L|64:264,2,55,8|0|2,0:1|0:0|0:0,0:0:0:0:
416,336,201740,6,0,P|456:280|400:200,1,165,8|2,0:0|0:0,0:0:0:0:
360,192,202082,1,8,0:1:0:0:
184,144,202254,1,0,0:0:0:0:
128,136,202340,1,2,0:0:0:0:
360,72,202597,1,2,0:0:0:0:
184,272,202768,2,0,L|104:272,2,55,8|2|2,0:1|0:0|0:0,0:0:0:0:
464,344,203111,6,0,P|488:264|416:216,1,165,10|2,0:0|0:0,0:0:0:0:
376,200,203454,2,0,L|488:128,1,110,8|0,0:1|0:0,0:0:0:0:
280,112,203797,1,10,0:0:0:0:
400,272,203968,1,2,0:0:0:0:
460,250,204054,2,0,L|468:138,1,110,2|0,0:0|0:0,0:0:0:0:
400,136,204311,1,2,0:0:0:0:
88,232,204482,6,0,L|208:192,1,110,14|0,0:0|0:0,0:0:0:0:
232,152,204740,1,2,0:0:0:0:
192,96,204825,1,8,0:0:0:0:
88,80,204997,1,10,0:0:0:0:
328,320,205168,2,0,L|336:200,1,110,4|2,0:1|0:0,0:0:0:0:
176,184,205511,2,0,L|72:112,1,110,10|8,0:0|0:0,0:0:0:0:
336,112,205854,6,0,L|472:144,1,110,14|0,0:0|0:0,0:0:0:0:
280,256,206197,1,8,0:1:0:0:
392,256,206368,1,0,0:0:0:0:
432,232,206454,2,0,P|448:168|352:88,1,165,2|2,0:0|0:0,0:0:0:0:
240,96,206882,1,8,0:1:0:0:
288,80,206968,1,2,0:0:0:0:
336,64,207054,1,2,0:0:0:0:
88,304,207225,6,0,P|40:232|112:192,1,165,10|2,0:0|0:0,0:0:0:0:
136,176,207568,2,0,L|40:104,1,110,8|0,0:1|0:0,0:0:0:0:
48,110,207825,1,2,0:0:0:0:
296,184,208082,1,2,0:0:0:0:
192,160,208254,2,0,L|184:72,1,55,8|2,0:1|0:0,0:0:0:0:
224,80,208425,1,2,0:0:0:0:
480,336,208597,6,0,P|496:248|416:208,1,165,8|2,0:0|0:0,0:0:0:0:
384,200,208940,2,0,L|496:144,1,110,8|8,0:1|0:3,0:0:0:0:
304,120,209282,1,10,0:0:0:0:
392,280,209454,2,0,L|320:280,1,55,0|2,0:0|0:0,0:0:0:0:
176,280,209711,2,0,L|88:280,1,55,0|2,0:0|0:0,0:0:0:0:
360,232,209968,6,0,L|504:232,1,110,10|0,0:0|0:0,0:0:0:0:
496,208,210225,1,2,0:0:0:0:
512,152,210311,1,8,0:1:0:0:
496,96,210397,1,0,0:0:0:0:
464,72,210482,2,0,L|360:112,1,110,2|8,0:0|0:0,0:0:0:0:
176,168,210825,1,8,0:3:0:0:
256,192,210997,1,8,0:1:0:0:
336,216,211168,1,8,0:0:0:0:
64,224,211340,6,0,P|16:160|96:120,1,165,14|2,0:0|0:0,0:0:0:0:
120,112,211682,1,8,0:1:0:0:
24,88,211854,1,0,0:0:0:0:
24,88,211940,1,2,0:0:0:0:
288,272,212197,1,2,0:0:0:0:
176,256,212368,2,0,L|152:184,2,55,8|2|2,0:1|0:0|0:0,0:0:0:0:
424,256,212711,5,8,0:0:0:0:
320,208,212968,2,0,L|312:136,1,55,2|8,0:0|0:1,0:0:0:0:
424,160,213225,2,0,L|432:96,1,55,0|2,0:0|0:0,0:0:0:0:
368,88,213397,1,0,0:0:0:0:
192,72,213568,1,2,0:0:0:0:
296,192,213740,2,0,L|312:264,2,55,8|2|2,0:1|0:0|0:0,0:0:0:0:
40,184,214082,5,10,0:0:0:0:
144,168,214254,2,0,L|144:88,1,55,8|8,0:0|0:0,0:0:0:0:
96,280,214425,1,8,0:0:0:0:
52,248,214510,1,8,0:0:0:0:
40,196,214596,1,8,0:0:0:0:
67,149,214682,1,8,0:0:0:0:
118,132,214768,2,0,L|272:112,1,110,8|8,0:0|0:0,0:0:0:0:
264,72,215025,1,8,0:0:0:0:
224,32,215111,1,8,0:0:0:0:
128,32,215282,1,8,0:3:0:0:
384,312,215454,5,10,0:0:0:0:
264,240,215711,1,8,0:0:0:0:
384,176,215968,1,8,0:0:0:0:
144,104,216225,1,8,0:0:0:0:
472,64,216482,1,10,0:0:0:0:
320,160,216825,6,0,L|312:80,2,55,14|8|8,0:0|0:0|0:0,0:0:0:0:
408,280,217168,2,0,L|272:192,1,110,8|0,0:1|0:0,0:0:0:0:
136,176,217511,2,0,L|272:88,1,110,8|0,0:0|0:0,0:0:0:0:
136,176,217854,2,0,L|128:64,1,110,8|0,0:1|0:0,0:0:0:0:
384,160,218197,6,0,L|392:80,2,55,8|8|8,0:0|0:0|0:0,0:0:0:0:
296,280,218540,2,0,L|288:128,1,110,8|0,0:1|0:0,0:0:0:0:
192,184,218883,2,0,L|184:40,1,110,8|0,0:0|0:0,0:0:0:0:
290,170,219226,2,0,L|298:58,1,110,8|0,0:1|0:0,0:0:0:0:
40,288,219568,6,0,L|24:224,2,55,8|8|8,0:0|0:0|0:0,0:0:0:0:
128,344,219911,2,0,L|136:224,1,110,8|0,0:1|0:0,0:0:0:0:
312,208,220254,2,0,L|200:120,1,110,8|0,0:0|0:0,0:0:0:0:
312,208,220597,2,0,L|328:48,1,110,8|0,0:1|0:0,0:0:0:0:
72,88,220940,6,0,L|8:56,2,55,8|8|8,0:0|0:0|0:0,0:0:0:0:
248,88,221282,1,8,0:1:0:0:
160,120,221454,2,0,L|152:264,1,110,0|8,0:0|0:0,0:0:0:0:
240,232,221797,1,0,0:0:0:0:
72,352,221968,2,0,L|200:304,1,110,8|0,0:1|0:0,0:0:0:0:
424,256,222311,6,0,L|440:192,2,55,8|8|8,0:0|0:0|0:0,0:0:0:0:
336,256,222654,1,8,0:1:0:0:
432,344,222825,2,0,L|312:280,1,110,0|8,0:0|0:0,0:0:0:0:
168,280,223168,1,0,0:0:0:0:
264,256,223340,2,0,L|272:136,1,110,8|0,0:1|0:0,0:0:0:0:
32,104,223682,6,0,L|16:40,2,55,8|8|8,0:0|0:0|0:0,0:0:0:0:
120,104,224025,1,8,0:1:0:0:
24,160,224197,2,0,L|136:232,1,110,0|8,0:0|0:0,0:0:0:0:
288,224,224540,1,0,0:0:0:0:
200,208,224711,2,0,L|192:88,1,110,8|0,0:1|0:0,0:0:0:0:
432,336,225054,6,0,L|448:256,2,55,8|8|8,0:0|0:0|0:0,0:0:0:0:
352,336,225397,1,8,0:1:0:0:
272,336,225568,1,0,0:0:0:0:
480,280,225740,2,0,L|472:152,1,110,8|0,0:0|0:0,0:0:0:0:
376,168,226082,2,0,L|480:112,1,110,8|0,0:1|0:0,0:0:0:0:
216,112,226425,5,8,0:0:0:0:
336,160,226682,1,8,0:0:0:0:
456,200,226940,1,8,0:0:0:0:
200,344,227111,2,0,L|192:208,1,110,8|2,0:1|0:0,0:0:0:0:
288,224,227454,2,0,L|296:96,1,110,10|0,0:0|0:0,0:0:0:0:
48,184,227797,6,0,L|40:64,1,110,6|0,0:0|0:0,0:0:0:0:
128,48,228140,1,8,0:0:0:0:
40,32,228311,1,0,0:0:0:0:
240,96,228482,1,8,0:0:0:0:
128,152,228825,1,8,0:0:0:0:
128,152,228997,1,0,0:0:0:0:
296,280,229168,6,0,L|416:240,1,110,8|0,0:0|0:0,0:0:0:0:
440,152,229511,1,8,0:0:0:0:
400,64,229682,1,0,0:0:0:0:
232,248,229854,2,0,L|224:136,1,110,8|0,0:0|0:0,0:0:0:0:
328,264,230197,2,0,L|328:128,1,110,8|0,0:0|0:0,0:0:0:0:
424,128,230540,5,8,0:0:0:0:
288,272,230882,1,8,0:0:0:0:
368,304,231054,1,0,0:0:0:0:
192,336,231225,2,0,L|184:200,1,110,8|0,0:0|0:0,0:0:0:0:
280,216,231568,2,0,L|288:96,1,110,8|0,0:0|0:0,0:0:0:0:
112,88,231911,6,0,L|248:32,1,110,8|0,0:0|0:0,0:0:0:0:
112,272,232254,2,0,L|120:136,1,110,8|0,0:0|0:0,0:0:0:0:
288,216,232597,2,0,L|280:80,1,110,8|0,0:0|0:0,0:0:0:0:
200,72,232940,1,8,0:0:0:0:
112,56,233111,1,0,0:0:0:0:
280,352,233282,6,0,L|288:208,1,110,8|0,3:2|0:0,0:0:0:0:
184,248,233625,2,0,L|176:96,1,110,8|0,3:2|0:0,0:0:0:0:
72,160,233968,2,0,L|80:32,1,110,8|0,3:2|0:0,0:0:0:0:
168,32,234311,1,8,3:2:0:0:
80,16,234482,1,0,0:0:0:0:
248,328,234654,6,0,L|256:176,1,110,8|0,3:2|0:0,0:0:0:0:
352,224,234997,2,0,L|336:88,1,110,8|0,3:2|0:0,0:0:0:0:
448,160,235340,2,0,L|432:40,1,110,8|0,3:2|0:0,0:0:0:0:
272,160,235682,2,0,L|264:40,1,110,8|0,3:2|0:0,0:0:0:0:
448,272,236025,5,8,3:2:0:0:
368,232,236197,1,0,3:0:0:0:
288,176,236368,1,8,3:2:0:0:
368,128,236540,1,0,3:0:0:0:
200,232,236711,1,0,3:2:0:0:
128,200,236882,1,0,3:0:0:0:
128,120,237054,1,8,3:2:0:0:
200,88,237225,1,0,3:0:0:0:
384,80,237397,5,8,3:2:0:0:
288,120,237568,1,0,3:0:0:0:
288,120,237654,1,0,3:0:0:0:
384,168,237825,1,0,3:0:0:0:
384,168,237911,1,0,3:0:0:0:
200,312,238082,2,0,L|136:312,2,55,0|0|0,0:0|3:0|3:0,0:0:0:0:
456,312,238425,6,0,L|240:160,1,220,8|8,0:1|0:0,0:0:0:0:
