osu file format v14

[General]
AudioFilename: audio.mp3
AudioLeadIn: 0
PreviewTime: 44613
Countdown: 0
SampleSet: None
StackLeniency: 0.4
Mode: 0
LetterboxInBreaks: 0
WidescreenStoryboard: 1

[Editor]
DistanceSpacing: 1.4
BeatDivisor: 4
GridSize: 4
TimelineZoom: 2.4

[Metadata]
Title:Aa Kenran no Utakata (Yume) ga Shiku (Epsilon Remix)
TitleUnicode:嗚呼 絢爛の泡沫が如く (Epsilon Remix)
Artist:Uinyasu, Occhoko Bunny
ArtistUnicode:ういにゃす・おっちょこバニー
Creator:Uberzolik
Version:ANIME EXTRA!!!!
Source:千の刃濤、桃花染の皇姫
Tags:
BeatmapID:1829944
BeatmapSetID:875698

[Difficulty]
HPDrainRate:4
CircleSize:4
OverallDifficulty:9
ApproachRate:9
SliderMultiplier:1.9
SliderTickRate:1

[Events]
//Background and Video events
0,0,"bg main.jpg",0,0
//Break Periods
2,77127,81298
//Storyboard Layer 0 (Background)
//Storyboard Layer 1 (Fail)
//Storyboard Layer 2 (Pass)
//Storyboard Layer 3 (Foreground)
//Storyboard Sound Samples

[TimingPoints]
813,342.857142857143,4,2,1,80,1,0
11784,-76.9230769230769,4,2,1,80,0,0
22755,-90.9090909090909,4,2,1,80,0,0
33727,-76.9230769230769,4,2,1,80,0,0
34241,-62.5,4,2,1,80,0,0
35098,-76.9230769230769,4,2,1,80,0,0
36470,-71.4285714285714,4,2,1,80,0,0
37841,-90.9090909090909,4,2,1,80,0,0
38098,-76.9230769230769,4,2,1,80,0,0
38355,-71.4285714285714,4,2,1,80,0,0
38613,-66.6666666666667,4,2,1,80,0,0
39213,-90.9090909090909,4,2,1,80,0,0
44698,-71.4285714285714,4,2,1,80,0,1
66298,-76.9230769230769,4,2,1,80,0,0
72127,-71.4285714285714,4,2,1,80,0,0
72384,-66.6666666666667,4,2,1,80,0,0
72641,-62.5,4,2,1,80,0,0
75213,-71.4285714285714,4,2,1,80,0,0
75384,-83.3333333333333,4,2,1,80,0,0
76241,-50,4,2,1,80,0,0
76927,342.857142857143,4,2,1,60,1,0
87384,-71.4285714285714,4,2,1,60,0,0
92269,-66.6666666666667,4,2,1,60,0,0
92527,-62.5,4,2,1,60,0,0
92784,-58.8235294117647,4,2,1,60,0,0
93384,-90.9090909090909,4,2,1,60,0,0
99898,-66.6666666666667,4,2,1,60,0,0
100241,-71.4285714285714,4,2,1,60,0,1
100927,-50,4,2,1,60,0,1
101612,-71.4285714285714,4,2,1,60,0,1
102298,-100,4,2,1,60,0,1
102469,-83.3333333333333,4,2,1,60,0,1
102641,-71.4285714285714,4,2,1,60,0,1
102812,-62.5,4,2,1,60,0,1
105727,-55.5555555555556,4,2,1,60,0,1
106412,-62.5,4,2,1,60,0,1
106755,-83.3333333333333,4,2,1,60,0,1
107098,-62.5,4,2,1,60,0,1
109841,-55.5555555555556,4,2,1,60,0,1
110355,-50,4,2,1,60,0,1
110869,-66.6666666666667,4,2,1,60,0,1
111041,-50,4,2,1,60,0,1
111555,-62.5,4,2,1,60,0,1
111898,-55.5555555555556,4,2,1,60,0,1
112584,-62.5,4,2,1,60,0,1
113441,-58.8235294117647,4,2,1,60,0,1
113612,-55.5555555555556,4,2,1,60,0,1
113784,-52.6315789473684,4,2,1,60,0,1
114298,-62.5,4,2,1,60,0,1
116698,-50,4,2,1,60,0,1
117384,-62.5,4,2,1,60,0,1
119098,-71.4285714285714,4,2,1,60,0,1
119269,-66.6666666666667,4,2,1,60,0,1
119441,-62.5,4,2,1,60,0,1
120127,-58.8235294117647,4,2,1,60,0,1
120641,-66.6666666666667,4,2,1,60,0,1
120812,-71.4285714285714,4,2,1,60,0,1
120984,-62.5,4,2,1,60,0,1
121155,-55.5555555555556,4,2,1,60,0,1
121498,-50,4,2,1,60,0,0
122184,-100,4,2,1,60,0,0

[Colours]
Combo1 : 0,128,192
Combo2 : 255,96,96
Combo3 : 255,161,66
Combo4 : 255,128,192

[HitObjects]
189,122,812,6,0,L|205:17,1,95
376,175,1155,1,0,0:0:0:0:
479,250,1327,2,0,L|448:49,1,190
297,222,1841,2,0,L|321:301,1,47.5
211,273,2013,2,0,L|200:401,1,95
36,144,2355,6,0,L|27:67,1,47.5
292,363,2698,1,0,0:0:0:0:
380,317,2870,2,0,L|398:128,1,190
258,194,3384,1,0,0:0:0:0:
258,194,3470,2,0,L|245:106,1,47.5
141,102,3727,6,0,L|155:-22,1,95
28,55,4070,1,0,0:0:0:0:
132,193,4241,2,0,L|111:-28,1,190
247,239,4755,1,0,0:0:0:0:
247,239,4841,1,0,0:0:0:0:
351,311,5098,6,0,L|363:200,1,95
383,7,5441,1,0,0:0:0:0:
502,139,5613,2,0,L|486:5,1,95
298,146,5955,1,0,0:0:0:0:
184,157,6127,2,0,B|176:69,1,47.5
73,120,6298,6,0,L|90:-15,1,95
239,252,6641,1,0,0:0:0:0:
359,305,6813,2,0,L|340:114,1,190
142,340,7327,1,0,0:0:0:0:
33,339,7498,2,0,L|50:258,1,47.5
246,375,7670,1,0,0:0:0:0:
382,317,7841,6,0,L|369:210,1,95
502,296,8184,1,0,0:0:0:0:
234,219,8355,2,0,L|257:16,1,190
66,266,8870,1,0,0:0:0:0:
66,266,8955,2,0,L|48:174,1,47.5
232,359,9213,5,0,0:0:0:0:
348,279,9384,2,0,L|367:183,1,95
90,131,9727,2,0,L|71:37,1,95
463,224,10070,2,0,L|472:155,1,47.5
481,92,10241,1,0,0:0:0:0:
367,41,10413,5,0,0:0:0:0:
367,41,10527,2,0,L|347:117,1,63.3333333333333
211,0,10755,1,0,0:0:0:0:
211,0,10869,2,0,L|227:61,1,63.3333333333333
17,62,11098,2,0,P|64:52|93:76,1,47.5
247,166,11270,2,0,P|223:166|202:155,1,47.5
307,17,11441,1,0,0:0:0:0:
301,64,11526,1,0,0:0:0:0:
295,111,11612,1,0,0:0:0:0:
290,158,11698,1,0,0:0:0:0:
284,205,11784,6,0,P|272:113|349:59,1,185.249991519928
380,102,12127,2,0,P|352:109|327:67,1,61.7499971733095
189,22,12298,2,0,P|136:61|66:38,1,123.499994346619
388,213,12641,1,0,0:0:0:0:
476,167,12813,2,0,P|485:135|486:79,1,61.7499971733095
349,283,12984,2,0,P|335:227|330:136,1,123.499994346619
452,214,13327,6,0,P|441:186|431:139,1,61.7499971733095
239,256,13498,2,0,P|223:312|207:397,1,123.499994346619
140,236,13841,1,0,0:0:0:0:
134,205,13926,1,0,0:0:0:0:
127,175,14012,1,0,0:0:0:0:
120,145,14098,1,0,0:0:0:0:
111,116,14183,1,0,0:0:0:0:
228,7,14355,1,0,0:0:0:0:
221,56,14441,1,0,0:0:0:0:
215,105,14527,1,0,0:0:0:0:
140,17,14698,6,0,P|241:1|315:49,1,185.249991519928
331,102,15041,2,0,P|286:96|270:68,1,61.7499971733095
39,0,15213,2,0,P|64:46|75:98,1,61.7499971733095
110,143,15384,2,0,P|98:171|82:197,1,61.7499971733095
0,242,15555,2,0,P|27:264|66:282,1,61.7499971733095
159,332,15727,2,0,P|132:354|33:386,1,123.499994346619
297,320,16070,6,0,P|327:324|410:386,1,123.499994346619
191,240,16413,1,0,0:0:0:0:
125,172,16584,2,0,P|115:135|109:78,1,61.7499971733095
50,1,16755,1,0,0:0:0:0:
47,25,16840,1,0,0:0:0:0:
42,49,16926,1,0,0:0:0:0:
1,172,17098,1,0,0:0:0:0:
202,60,17270,6,0,P|255:43|353:50,1,123.499994346619
209,275,17613,1,0,0:0:0:0:
137,206,17784,2,0,P|104:151|87:61,1,123.499994346619
372,205,18127,1,0,0:0:0:0:
434,141,18298,2,0,P|442:108|455:72,1,61.7499971733095
361,233,18470,2,0,P|383:274|402:345,1,61.7499971733095
479,335,18641,6,0,P|408:330|345:370,1,123.499994346619
313,374,18898,2,0,P|252:381|196:356,1,123.499994346619
179,181,19155,2,0,P|223:244|217:357,1,185.249991519928
168,384,19498,2,0,L|151:304,1,61.7499971733095
270,248,19670,2,0,L|281:148,1,61.7499971733095
216,41,19841,1,0,0:0:0:0:
399,118,20013,5,0,0:0:0:0:
510,89,20184,1,0,0:0:0:0:
245,175,20355,1,0,0:0:0:0:
134,146,20526,1,0,0:0:0:0:
15,280,20698,1,0,0:0:0:0:
56,269,20783,1,0,0:0:0:0:
98,276,20869,1,0,0:0:0:0:
134,300,20955,1,0,0:0:0:0:
157,337,21041,5,0,0:0:0:0:
119,290,21126,1,0,0:0:0:0:
124,229,21212,1,0,0:0:0:0:
133,169,21298,1,0,0:0:0:0:
115,110,21384,6,0,P|106:83|90:47,2,61.7499971733095
203,56,21641,2,0,P|213:36|228:-7,2,61.7499971733095
303,66,21898,2,0,P|322:55|359:27,1,61.7499971733095
408,114,22070,2,0,P|427:124|464:152,3,61.7499971733095
434,382,22413,2,0,P|386:314|381:227,1,123.499994346619
351,310,22670,1,0,0:0:0:0:
317,323,22755,6,0,P|257:329|203:275,1,104.500003189087
112,381,23098,2,0,P|148:300|114:231,1,156.750004783631
105,209,23441,2,0,P|86:161|100:96,1,104.500003189087
173,53,23698,1,0,0:0:0:0:
173,53,23784,2,0,P|140:24|117:-19,1,52.2500015945435
48,0,23955,1,0,0:0:0:0:
238,116,24127,6,0,P|275:110|353:152,1,104.500003189087
512,72,24470,2,0,P|475:78|397:36,1,104.500003189087
476,2,24813,1,0,0:0:0:0:
459,104,24984,1,0,0:0:0:0:
332,160,25155,1,0,0:0:0:0:
355,304,25326,1,0,0:0:0:0:
279,353,25498,6,0,P|215:340|157:317,1,104.500003189087
389,223,25841,1,0,0:0:0:0:
265,375,26013,1,0,0:0:0:0:
181,197,26184,2,0,P|172:148|178:74,1,104.500003189087
133,126,26441,1,0,0:0:0:0:
82,140,26527,2,0,P|47:132|18:108,1,52.2500015945435
125,32,26698,2,0,P|147:19|173:15,1,52.2500015945435
366,94,26870,6,0,P|312:85|235:51,1,104.500003189087
302,30,27127,1,0,0:0:0:0:
350,10,27213,2,0,P|388:2|405:3,3,52.2500015945435
294,167,27555,1,0,0:0:0:0:
332,330,27727,1,0,0:0:0:0:
334,356,27813,1,0,0:0:0:0:
369,376,27898,1,0,0:0:0:0:
397,325,27984,1,0,0:0:0:0:
355,277,28070,1,0,0:0:0:0:
333,213,28155,1,0,0:0:0:0:
347,141,28241,6,0,P|336:69|301:17,1,104.500003189087
344,0,28498,2,0,L|330:71,1,52.2500015945435
189,111,28755,1,0,0:0:0:0:
48,50,28927,2,0,P|57:25|63:0,1,52.2500015945435
93,80,29098,2,0,P|83:55|78:29,1,52.2500015945435
10,192,29270,2,0,P|18:168|23:142,1,52.2500015945435
108,239,29441,2,0,P|98:214|93:188,1,52.2500015945435
28,384,29613,6,0,P|27:331|41:281,1,104.500003189087
59,255,29870,2,0,L|11:277,1,52.2500015945435
199,343,30127,1,0,0:0:0:0:
375,358,30298,2,0,P|334:358|301:339,3,52.2500015945435
279,242,30641,1,0,0:0:0:0:
327,224,30726,1,0,0:0:0:0:
379,227,30812,1,0,0:0:0:0:
425,251,30898,1,0,0:0:0:0:
401,277,30984,5,0,0:0:0:0:
358,137,31155,1,0,0:0:0:0:
496,272,31327,1,0,0:0:0:0:
482,349,31498,1,0,0:0:0:0:
276,141,31670,2,0,L|288:64,1,52.2500015945435
171,145,31841,2,0,L|162:93,1,52.2500015945435
69,167,32013,1,0,0:0:0:0:
69,167,32098,1,0,0:0:0:0:
69,167,32184,1,0,0:0:0:0:
69,167,32270,1,0,0:0:0:0:
69,167,32355,5,0,0:0:0:0:
81,319,32527,2,0,L|145:315,2,52.2500015945435
199,379,32870,1,0,0:0:0:0:
204,239,33041,2,0,B|180:225|180:225|171:257|191:265,1,52.2500015945435
199,379,33213,2,0,P|214:348|201:298,1,52.2500015945435
209,130,33384,2,0,P|195:92|169:66,2,69.6666687927247
358,99,33727,6,0,P|429:128|425:19,1,185.249991519928
414,0,34070,2,0,P|431:17|442:63,1,61.7499971733095
394,223,34241,2,0,P|373:270|424:403,2,152
280,331,34755,2,0,P|228:335|131:384,1,152
133,122,35098,6,0,P|177:197|163:270,1,123.499994346619
74,183,35355,2,0,P|110:134|117:73,1,123.499994346619
89,2,35613,1,0,0:0:0:0:
385,36,35955,2,0,L|284:7,1,61.7499971733095
343,207,36127,2,0,L|283:221,1,61.7499971733095
497,144,36298,1,0,0:0:0:0:
238,279,36470,6,0,P|246:211|265:119,1,132.999995941162
195,61,36727,2,0,P|207:121|218:200,1,132.999995941162
339,44,36984,2,0,P|268:44|170:-25,1,132.999995941162
0,0,37327,2,0,P|48:15|83:65,1,66.4999979705811
57,234,37498,2,0,P|45:184|71:129,1,66.4999979705811
277,68,37670,1,0,0:0:0:0:
98,101,37841,6,0,P|160:113|212:132,1,104.500003189087
291,163,38098,2,0,P|236:172|164:195,1,123.499994346619
84,282,38355,2,0,P|144:293|224:252,1,132.999995941162
341,359,38613,2,0,P|269:376|184:345,1,142.500005435944
401,290,38870,2,0,P|421:321|436:362,1,71.2500027179719
445,384,39213,6,0,P|442:290|491:177,1,209.000006378174
333,325,39727,1,0,0:0:0:0:
333,325,39813,1,0,0:0:0:0:
333,325,39898,2,0,P|315:254|282:204,1,104.500003189087
185,371,40241,2,0,P|225:384|283:379,2,69.6666687927247
105,330,40584,6,0,P|65:325|-29:364,1,104.500003189087
51,286,40841,1,0,0:0:0:0:
54,269,40927,2,0,L|42:207,1,52.2500015945435
115,173,41098,2,0,L|124:121,1,52.2500015945435
80,31,41270,1,0,0:0:0:0:
141,86,41441,1,0,0:0:0:0:
160,4,41613,1,0,0:0:0:0:
80,31,41784,1,0,0:0:0:0:
224,130,41955,6,0,P|291:137|404:46,1,209.000006378174
446,88,42413,1,0,0:0:0:0:
477,133,42527,1,0,0:0:0:0:
477,188,42641,1,0,0:0:0:0:
347,235,42813,1,0,0:0:0:0:
371,268,42898,1,0,0:0:0:0:
375,309,42984,1,0,0:0:0:0:
313,353,43155,1,0,0:0:0:0:
487,383,43327,6,0,P|452:366|429:347,1,52.2500015945435
363,229,43498,2,0,P|386:218|408:204,1,52.2500015945435
486,90,43670,2,0,P|464:57|453:29,1,52.2500015945435
291,166,43841,2,0,P|298:127|310:100,1,52.2500015945435
130,144,44013,5,0,0:0:0:0:
81,114,44099,1,0,0:0:0:0:
111,65,44184,1,0,0:0:0:0:
160,95,44270,1,0,0:0:0:0:
119,106,44355,2,0,L|93:-17,1,104.500003189087
208,219,44698,6,0,L|189:386,1,132.999995941162
340,295,45041,2,0,P|299:309|255:316,1,66.4999979705811
56,362,45213,2,0,P|87:373|119:380,1,66.4999979705811
202,174,45384,2,0,P|206:103|249:55,1,132.999995941162
195,77,45641,1,0,0:0:0:0:
141,72,45727,2,0,P|71:51|44:36,1,66.4999979705811
239,254,45898,1,0,0:0:0:0:
303,384,46070,6,0,L|306:318,1,66.4999979705811
512,263,46241,2,0,L|452:294,1,66.4999979705811
442,384,46413,2,0,L|386:348,1,66.4999979705811
443,142,46584,2,0,L|440:209,1,66.4999979705811
340,100,46755,1,0,0:0:0:0:
210,0,46927,1,0,0:0:0:0:
246,38,47013,1,0,0:0:0:0:
252,90,47098,1,0,0:0:0:0:
323,10,47270,1,0,0:0:0:0:
151,77,47441,6,0,P|71:58|28:7,1,132.999995941162
110,297,47784,1,0,0:0:0:0:
208,207,47955,1,0,0:0:0:0:
333,162,48127,2,0,P|406:154|470:177,1,132.999995941162
372,73,48384,1,0,0:0:0:0:
324,48,48470,1,0,0:0:0:0:
252,191,48641,1,0,0:0:0:0:
150,0,48813,6,0,L|165:198,1,199.499993911743
126,277,49155,2,0,L|141:78,1,199.499993911743
56,144,49498,1,0,0:0:0:0:
213,157,49670,1,0,0:0:0:0:
0,258,49841,1,0,0:0:0:0:
122,361,50013,1,0,0:0:0:0:
255,274,50184,5,0,0:0:0:0:
326,314,50355,1,0,0:0:0:0:
425,266,50527,1,0,0:0:0:0:
512,375,50698,1,0,0:0:0:0:
413,167,50870,2,0,P|417:102|473:48,1,132.999995941162
339,80,51127,1,0,0:0:0:0:
325,98,51213,2,0,P|283:83|267:61,1,66.4999979705811
261,170,51384,1,0,0:0:0:0:
296,286,51555,5,0,0:0:0:0:
166,319,51727,1,0,0:0:0:0:
82,233,51898,1,0,0:0:0:0:
149,332,52070,1,0,0:0:0:0:
277,364,52241,1,0,0:0:0:0:
64,353,52413,2,0,P|34:357|-8:372,1,66.4999979705811
155,384,52584,1,0,0:0:0:0:
167,325,52669,1,0,0:0:0:0:
180,266,52756,1,0,0:0:0:0:
161,209,52841,1,0,0:0:0:0:
143,152,52927,6,0,L|162:79,1,66.4999979705811
233,33,53098,1,0,0:0:0:0:
47,274,53270,2,0,L|26:201,1,66.4999979705811
65,125,53441,1,0,0:0:0:0:
105,340,53613,1,0,0:0:0:0:
199,310,53784,1,0,0:0:0:0:
251,298,53870,1,0,0:0:0:0:
294,327,53955,1,0,0:0:0:0:
370,384,54127,1,0,0:0:0:0:
268,212,54298,5,0,0:0:0:0:
302,20,54470,1,0,0:0:0:0:
293,72,54555,1,0,0:0:0:0:
283,124,54641,1,0,0:0:0:0:
381,83,54813,1,0,0:0:0:0:
137,29,54984,1,0,0:0:0:0:
139,42,55069,1,0,0:0:0:0:
141,55,55155,1,0,0:0:0:0:
143,68,55241,1,0,0:0:0:0:
146,81,55327,2,0,L|156:15,3,66.4999979705811
82,126,55670,6,0,L|106:283,1,132.999995941162
10,259,56013,1,0,0:0:0:0:
241,207,56184,1,0,0:0:0:0:
330,253,56355,2,0,L|305:433,1,132.999995941162
437,350,56613,1,0,0:0:0:0:
434,332,56698,2,0,L|424:258,1,66.4999979705811
409,177,56870,1,0,0:0:0:0:
454,20,57041,6,0,P|434:70|399:96,1,66.4999979705811
324,69,57213,2,0,P|343:95|352:127,1,66.4999979705811
194,208,57384,2,0,P|225:195|249:172,1,66.4999979705811
76,196,57556,2,0,P|85:164|82:132,1,66.4999979705811
218,0,57727,2,0,P|222:39|146:124,1,132.999995941162
154,212,57984,1,0,0:0:0:0:
184,226,58070,2,0,P|227:274|229:340,1,132.999995941162
79,377,58413,6,0,P|167:370|203:281,1,132.999995941162
5,289,58755,1,0,0:0:0:0:
115,363,58927,1,0,0:0:0:0:
247,354,59098,1,0,0:0:0:0:
153,182,59270,1,0,0:0:0:0:
128,213,59355,1,0,0:0:0:0:
124,252,59441,1,0,0:0:0:0:
107,106,59613,1,0,0:0:0:0:
268,75,59784,6,0,P|278:21|214:65,1,132.999995941162
382,176,60127,2,0,P|413:149|377:73,1,132.999995941162
384,299,60470,2,0,P|429:328|534:319,1,132.999995941162
323,363,60727,1,0,0:0:0:0:
304,368,60813,2,0,P|263:353|192:352,1,66.4999979705811
126,304,60984,2,0,P|82:311|21:346,1,66.4999979705811
125,161,61155,5,0,0:0:0:0:
107,384,61327,1,0,0:0:0:0:
333,335,61498,1,0,0:0:0:0:
308,249,61670,1,0,0:0:0:0:
259,308,61841,1,0,0:0:0:0:
336,286,62013,1,0,0:0:0:0:
459,353,62184,5,0,0:0:0:0:
486,223,62355,1,0,0:0:0:0:
405,116,62527,1,0,0:0:0:0:
408,36,62698,1,0,0:0:0:0:
483,10,62870,1,0,0:0:0:0:
410,200,63041,1,0,0:0:0:0:
240,143,63213,1,0,0:0:0:0:
247,5,63384,5,0,0:0:0:0:
266,32,63470,1,0,0:0:0:0:
273,64,63555,1,0,0:0:0:0:
176,226,63727,1,0,0:0:0:0:
0,238,63898,6,0,P|-13:168|14:92,1,132.999995941162
82,12,64155,1,0,0:0:0:0:
68,63,64241,1,0,0:0:0:0:
135,304,64413,1,0,0:0:0:0:
374,340,64584,6,0,P|424:315|465:245,1,132.999995941162
458,140,64841,1,0,0:0:0:0:
443,117,64927,1,0,0:0:0:0:
362,121,65098,1,0,0:0:0:0:
332,203,65270,6,0,P|365:201|396:190,1,66.4999979705811
442,297,65441,2,0,P|463:273|477:243,1,66.4999979705811
309,274,65613,2,0,P|295:245|273:220,1,66.4999979705811
112,367,65784,2,0,P|81:357|48:354,1,66.4999979705811
81,92,65955,2,0,P|86:70|86:34,6,33.2499989852906
105,267,66298,2,0,P|90:222|166:205,1,123.499994346619
192,170,66555,1,0,0:0:0:0:
196,120,66641,6,0,P|150:106|54:147,1,123.499994346619
319,21,66984,1,0,0:0:0:0:
396,67,67155,2,0,P|467:72|546:3,1,123.499994346619
350,171,67498,1,0,0:0:0:0:
249,309,67670,2,0,L|328:281,1,61.7499971733095
509,211,67841,2,0,L|450:231,1,61.7499971733095
243,221,68013,6,0,P|167:190|83:216,1,123.499994346619
195,300,68270,2,0,P|226:247|229:186,1,123.499994346619
278,326,68527,2,0,P|224:380|82:345,1,185.249991519928
65,313,68870,2,0,P|57:336|72:376,1,61.7499971733095
158,244,69041,2,0,P|145:209|119:190,1,61.7499971733095
37,128,69213,1,0,0:0:0:0:
15,83,69298,1,0,0:0:0:0:
26,34,69384,6,0,P|75:-3|154:33,1,123.499994346619
235,52,69641,2,0,P|176:40|128:77,1,123.499994346619
203,161,69898,2,0,P|257:172|280:34,1,185.249991519928
320,24,70241,2,0,L|350:98,1,61.7499971733095
411,241,70413,2,0,P|420:174|441:97,1,123.499994346619
332,207,70670,1,0,0:0:0:0:
324,261,70755,6,0,L|476:310,1,123.499994346619
512,221,71013,2,0,P|456:230|394:258,1,123.499994346619
319,351,71270,2,0,P|230:357|245:193,1,246.999988693238
256,166,71784,1,0,0:0:0:0:
172,337,71955,1,0,0:0:0:0:
46,173,72127,6,0,P|32:137|5:98,1,66.4999979705811
207,81,72384,2,0,P|212:42|206:-9,1,71.2500027179719
399,89,72641,2,0,P|423:58|443:15,1,66.4999979705811
46,173,72984,1,0,0:0:0:0:
57,276,73155,6,0,P|89:263|129:238,1,76
228,99,73413,2,0,P|261:119|296:134,1,76
420,249,73670,2,0,P|452:236|492:211,1,76
57,276,74013,1,0,0:0:0:0:
111,355,74184,6,0,P|144:332|201:330,1,76
373,224,74441,2,0,P|324:217|287:194,1,76
215,7,74698,2,0,L|300:24,1,76
289,362,75041,6,0,L|215:377,1,76
225,242,75213,2,0,L|301:262,1,66.4999979705811
282,124,75384,2,0,L|218:135,1,56.9999982604981
256,32,75555,1,0,0:0:0:0:
210,188,76241,6,0,L|356:214,1,95
256,352,76927,5,0,0:0:0:0:
256,31,81898,5,0,0:0:0:0:
275,63,81984,1,0,0:0:0:0:
280,105,82069,1,0,0:0:0:0:
266,150,82155,1,0,0:0:0:0:
242,196,82241,1,0,0:0:0:0:
223,250,82327,1,0,0:0:0:0:
232,310,82412,6,0,P|275:312|327:338,1,95
355,300,82669,1,0,0:0:0:0:
400,284,82755,2,0,P|443:282|497:303,1,95
451,203,83098,5,0,0:0:0:0:
357,218,83269,1,0,0:0:0:0:
298,142,83441,1,0,0:0:0:0:
339,56,83612,1,0,0:0:0:0:
205,188,83784,6,0,P|157:191|115:211,1,95
81,177,84041,1,0,0:0:0:0:
37,162,84127,1,0,0:0:0:0:
0,69,84298,1,0,0:0:0:0:
98,0,84469,5,0,0:0:0:0:
115,93,84641,1,0,0:0:0:0:
269,23,84812,1,0,0:0:0:0:
252,116,84984,1,0,0:0:0:0:
410,2,85155,5,0,0:0:0:0:
252,116,85498,1,0,0:0:0:0:
217,307,85841,2,0,L|232:235,1,47.5
131,359,86184,1,0,0:0:0:0:
213,339,86355,1,0,0:0:0:0:
287,380,86527,6,0,L|372:340,1,47.5
412,360,86698,2,0,L|454:381,1,47.5
492,284,86869,1,0,0:0:0:0:
492,284,86955,1,0,0:0:0:0:
492,284,87040,6,0,L|482:255,2,23.75
459,176,87212,2,0,L|472:119,1,47.5
366,228,87384,2,0,B|305:255|305:255|221:226,1,132.999995941162
128,67,87669,1,0,0:0:0:0:
211,96,87784,1,0,0:0:0:0:
266,164,87898,6,0,P|278:257|272:320,1,132.999995941162
184,369,88241,2,0,P|174:332|167:288,1,66.4999979705811
366,228,88412,2,0,P|379:169|382:73,1,132.999995941162
110,138,88755,2,0,P|132:147|208:164,1,66.4999979705811
408,255,88927,2,0,P|377:267|344:275,1,66.4999979705811
256,363,89098,1,0,0:0:0:0:
35,349,89269,6,0,P|99:345|178:383,1,132.999995941162
256,363,89527,2,0,P|291:307|301:242,1,132.999995941162
251,240,89784,2,0,P|251:267|306:284,1,66.4999979705811
90,87,90127,2,0,L|99:21,1,66.4999979705811
91,188,90298,2,0,P|95:213|100:253,1,66.4999979705811
195,70,90469,1,0,0:0:0:0:
206,219,90641,6,0,P|244:240|372:154,2,199.499993911743
320,333,91327,1,0,0:0:0:0:
398,384,91498,2,0,L|409:319,1,66.4999979705811
496,226,91669,2,0,L|467:40,1,132.999995941162
355,12,92012,6,0,P|384:67|446:61,1,132.999995941162
512,20,92269,2,0,P|487:86|432:130,1,142.500005435944
350,146,92527,2,0,P|367:196|429:299,1,152
488,365,92784,2,0,P|400:362|255:319,1,161.500003080368
175,231,93041,2,0,P|252:266|271:283,1,80.750001540184
284,284,93384,6,0,L|266:202,5,52.2500015945435
140,375,93898,1,0,0:0:0:0:
65,342,94069,2,0,L|78:265,3,52.2500015945435
29,221,94412,1,0,0:0:0:0:
24,151,94527,1,0,0:0:0:0:
19,81,94641,1,0,0:0:0:0:
61,17,94755,6,0,P|109:10|183:76,1,104.500003189087
249,102,95012,2,0,P|320:109|390:53,1,156.750004783631
479,0,95441,1,0,0:0:0:0:
496,81,95612,1,0,0:0:0:0:
418,151,95784,1,0,0:0:0:0:
410,254,95955,1,0,0:0:0:0:
460,346,96127,6,0,P|348:321|349:405,1,209.000006378174
239,359,96584,2,0,P|209:337|171:286,1,69.6666687927247
128,372,96812,2,0,P|143:295|197:245,1,104.500003189087
264,192,97069,1,0,0:0:0:0:
284,143,97155,2,0,P|282:117|253:60,1,52.2500015945435
365,99,97327,1,0,0:0:0:0:
186,136,97498,6,0,P|125:126|76:87,2,104.500003189087
111,205,98012,1,0,0:0:0:0:
162,50,98184,2,0,P|161:24|152:-26,1,52.2500015945435
257,83,98355,1,0,0:0:0:0:
346,51,98527,2,0,P|349:25|354:0,1,52.2500015945435
208,184,98698,5,0,0:0:0:0:
259,195,98784,1,0,0:0:0:0:
308,180,98869,1,0,0:0:0:0:
261,296,99041,1,0,0:0:0:0:
171,339,99212,2,0,P|131:324|94:301,1,52.2500015945435
346,337,99384,2,0,P|381:328|444:288,1,104.500003189087
482,384,99727,1,0,0:0:0:0:
355,234,99898,2,0,P|381:161|475:201,1,142.500005435944
459,103,100155,1,0,0:0:0:0:
434,55,100241,6,0,P|363:56|307:87,1,132.999995941162
43,131,100584,2,0,B|36:99|36:99|33:46,1,66.4999979705811
212,182,100755,2,0,B|216:148|216:148|219:115,1,66.4999979705811
109,366,100927,2,0,B|101:296|101:296|131:242|131:242|121:149,2,190
46,222,101441,1,0,0:0:0:0:
192,315,101612,6,0,B|225:303|225:303|297:258,1,66.4999979705811
460,350,101784,2,0,B|429:341|429:341|397:327,1,66.4999979705811
286,122,101955,2,0,B|308:95|308:95|348:20,1,66.4999979705811
431,218,102127,2,0,B|408:194|408:194|388:167,1,66.4999979705811
382,0,102298,6,0,L|370:71,1,47.5
349,183,102469,2,0,L|359:126,1,56.9999982604981
120,35,102641,2,0,L|133:108,1,66.4999979705811
165,256,102812,2,0,L|149:175,1,76
296,57,102984,6,0,B|266:39|252:1|252:1|264:30|275:76|258:119|213:165,1,228
194,122,103327,2,0,B|234:126|234:126|304:146,1,76
349,183,103498,1,0,0:0:0:0:
432,23,103669,2,0,P|397:53|373:97,1,76
345,232,103841,1,0,0:0:0:0:
435,350,104012,1,0,0:0:0:0:
228,368,104184,5,0,0:0:0:0:
269,323,104269,1,0,0:0:0:0:
324,347,104355,1,0,0:0:0:0:
147,354,104527,1,0,0:0:0:0:
12,276,104698,2,0,P|54:286|87:306,1,76
127,366,104869,2,0,P|108:332|100:295,1,76
88,157,105041,1,0,0:0:0:0:
200,302,105212,1,0,0:0:0:0:
182,243,105298,1,0,0:0:0:0:
193,183,105384,1,0,0:0:0:0:
246,63,105555,1,0,0:0:0:0:
262,375,105727,6,0,P|243:332|266:203,2,170.999994781494
356,338,106241,1,0,0:0:0:0:
152,287,106412,2,0,P|111:282|114:371,1,152
143,384,106755,6,0,B|132:356|132:356|109:323,1,56.9999982604981
146,199,106927,1,0,0:0:0:0:
209,139,107098,2,0,B|226:101|226:101|187:48|182:-31,1,152
293,187,107441,2,0,B|280:228|280:228|267:279,1,76
472,347,107698,1,0,0:0:0:0:
472,347,107784,2,0,B|459:306|459:306|450:274,1,76
442,156,107955,1,0,0:0:0:0:
379,23,108127,6,0,B|340:27|340:27|281:31,1,76
182,92,108298,2,0,B|145:86|145:86|100:75,1,76
0,48,108469,2,0,B|16:13|16:13|117:80|69:183,1,228
59,242,108812,2,0,L|143:186,1,76
79,340,108984,1,0,0:0:0:0:
259,355,109155,2,0,P|296:355|344:331,1,76
354,345,109327,1,0,0:0:0:0:
303,378,109412,1,0,0:0:0:0:
242,370,109498,1,0,0:0:0:0:
442,384,109669,1,0,0:0:0:0:
281,268,109841,6,0,B|266:243|266:243|294:134|294:134|275:44,1,170.999994781494
447,199,110184,2,0,B|403:208|403:208|363:233,1,85.4999973907472
191,163,110355,2,0,B|172:159|147:147|147:147|101:153|65:179|65:179|36:166|-12:172,1,190
60,108,110698,2,0,B|102:122|102:122|177:137,1,95
253,37,110869,2,0,P|216:41|174:50,1,71.2500027179719
116,180,111041,2,0,B|159:171|159:171|207:154,1,95
110,16,111212,6,0,P|80:64|91:251,1,190
109,305,111469,1,0,0:0:0:0:
157,304,111555,2,0,P|192:315|224:337,1,76
345,376,111727,2,0,P|335:332|299:280,1,76
452,229,111898,2,0,B|487:97|487:97|464:34,2,170.999994781494
426,312,112412,1,0,0:0:0:0:
278,191,112584,6,0,P|322:194|381:167,1,76
245,84,112755,2,0,P|217:110|183:125,1,76
78,92,112927,2,0,P|102:55|108:-9,1,76
6,25,113098,1,0,0:0:0:0:
80,330,113269,6,0,B|69:293|69:293|50:199,1,76
165,175,113441,2,0,B|157:216|157:216|147:258,1,80.750001540184
275,357,113612,2,0,B|315:368|315:368|361:377,1,85.4999973907472
449,255,113784,2,0,B|402:263|402:263|356:276,1,90.2499975900651
286,210,113955,6,0,B|258:182|258:182|251:119|273:46|339:13|402:20,1,270.749992770195
384,73,114298,2,0,P|355:49|333:19,1,76
500,154,114469,1,0,0:0:0:0:
471,282,114641,2,0,P|465:319|468:357,1,76
259,277,114812,1,0,0:0:0:0:
319,284,114898,1,0,0:0:0:0:
372,312,114984,1,0,0:0:0:0:
160,331,115155,5,0,0:0:0:0:
100,338,115241,1,0,0:0:0:0:
47,366,115327,1,0,0:0:0:0:
242,384,115498,1,0,0:0:0:0:
84,317,115669,2,0,P|72:281|98:193,1,76
271,373,115841,2,0,P|303:304|245:108,1,228
269,108,116184,2,0,L|253:193,1,76
352,254,116355,2,0,L|333:159,1,76
153,248,116527,2,0,L|257:263,1,76
415,60,116698,6,0,L|192:85,2,190
259,0,117212,1,0,0:0:0:0:
247,181,117384,2,0,L|236:333,1,152
159,364,117641,1,0,0:0:0:0:
154,339,117727,2,0,B|147:301|147:301|135:242,1,76
328,270,117898,2,0,B|335:232|335:232|342:195,1,76
191,77,118069,6,0,P|256:21|258:123,1,228
201,155,118412,1,0,0:0:0:0:
327,74,118584,1,0,0:0:0:0:
372,74,118669,1,0,0:0:0:0:
410,98,118755,1,0,0:0:0:0:
274,242,118927,1,0,0:0:0:0:
63,227,119098,6,0,P|45:190|39:152,1,66.4999979705811
123,18,119269,2,0,P|113:49|116:90,1,71.2500027179719
260,24,119441,2,0,P|323:22|431:98,1,152
488,37,119698,1,0,0:0:0:0:
512,18,119784,5,0,0:0:0:0:
363,172,119955,2,0,P|350:218|341:264,1,76
229,371,120127,2,0,P|206:286|170:202,1,161.500003080368
258,129,120384,1,0,0:0:0:0:
254,168,120469,1,0,0:0:0:0:
177,291,120641,2,0,L|255:317,1,71.2500027179719
311,67,120812,6,0,P|273:79|231:84,1,66.4999979705811
185,108,120984,2,0,P|217:113|262:130,1,76
338,155,121155,2,0,P|291:159|236:173,1,85.4999973907472
155,229,121327,2,0,P|204:232|265:252,1,85.4999973907472
375,323,121498,2,0,B|317:321|278:340|242:373|242:373|208:355|197:328,2,190
256,32,122184,5,0,0:0:0:0:
256,32,122527,5,0,0:0:0:0:
342,71,122698,1,0,0:0:0:0:
428,33,122869,1,0,0:0:0:0:
428,33,123212,5,0,0:0:0:0:
462,121,123384,1,0,0:0:0:0:
462,121,123727,5,0,0:0:0:0:
410,200,123898,1,0,0:0:0:0:
391,292,124069,1,0,0:0:0:0:
331,366,124241,5,0,0:0:0:0:
256,192,124584,1,0,0:0:0:0:
181,18,124927,1,0,0:0:0:0:
181,18,125269,5,0,0:0:0:0:
92,52,125441,1,0,0:0:0:0:
4,16,125612,6,0,P|116:17|181:65,1,190
77,178,126127,2,0,P|165:188|250:117,1,190
151,157,126641,1,0,0:0:0:0:
111,243,126812,1,0,0:0:0:0:
135,335,126984,6,0,P|113:348|96:369,3,47.5
198,268,127327,2,0,P|220:280|246:284,3,47.5
111,243,127669,6,0,P|110:217|60:118,1,95
230,333,128012,1,0,0:0:0:0:
324,341,128184,1,0,0:0:0:0:
382,266,128355,2,0,P|412:251|497:355,1,190
295,246,128869,1,0,0:0:0:0:
278,201,128955,1,0,0:0:0:0:
293,155,129041,1,0,0:0:0:0:
355,83,129212,1,0,0:0:0:0:
414,277,129384,5,0,0:0:0:0:
322,345,129555,1,0,0:0:0:0:
209,323,129727,2,0,P|126:313|51:329,1,142.5
27,308,130069,2,0,L|53:394,1,47.5
75,240,130241,1,0,0:0:0:0:
82,192,130327,1,0,0:0:0:0:
90,145,130412,5,0,0:0:0:0:
54,16,130584,1,0,0:0:0:0:
190,132,130755,1,0,0:0:0:0:
221,0,130927,1,0,0:0:0:0:
