osu file format v14

[General]
AudioFilename: audio.mp3
AudioLeadIn: 0
PreviewTime: -1
Countdown: 1
SampleSet: Soft
StackLeniency: 0.7
Mode: 0
LetterboxInBreaks: 0
WidescreenStoryboard: 0

[Editor]
Bookmarks: 21293
DistanceSpacing: 1.6
BeatDivisor: 4
GridSize: 32
TimelineZoom: 1.8

[Metadata]
Title:Know The Way
TitleUnicode:Know The Way
Artist:Ugandan Knuckles
ArtistUnicode:Ugandan Knuckles
Creator:Nuggel
Version:Nuggelkokoro
Source:
Tags:
BeatmapID:1519158
BeatmapSetID:719370

[Difficulty]
HPDrainRate:6
CircleSize:4
OverallDifficulty:7
ApproachRate:9
SliderMultiplier:1.4
SliderTickRate:1

[Events]
//Background and Video events
0,0,"knuckknuck.jpg",0,0
//Break Periods
//Storyboard Layer 0 (Background)
//Storyboard Layer 1 (Fail)
//Storyboard Layer 2 (Pass)
//Storyboard Layer 3 (Foreground)
//Storyboard Sound Samples

[TimingPoints]
1294,333.333333333333,4,2,0,30,1,0
4877,-200,4,2,0,30,0,0
5127,-66.6666666666667,4,2,0,30,0,0
5627,-100,4,2,0,30,0,0
7877,-100,4,1,0,60,0,0
11877,-133.333333333333,4,1,0,30,0,0
14377,-100,4,1,0,30,0,0
21210,-100,4,1,0,30,0,0
21960,-50,4,1,0,30,0,0
22293,-100,4,1,0,30,0,0
32710,-100,4,3,0,30,0,0
36627,-100,4,3,0,15,0,0
37960,-100,4,3,0,5,0,0

[Colours]
Combo1 : 242,24,57
Combo2 : 0,128,0
Combo3 : 255,255,255

[HitObjects]
214,291,627,6,0,B|129:322|72:263|72:265,1,140
32,170,1127,2,0,B|111:61|180:136|266:28,1,280
321,126,1960,1,0,0:0:0:0:
309,235,2126,5,0,0:0:0:0:
218,170,2293,1,0,0:0:0:0:
370,19,2460,2,0,B|451:128|360:176|445:280,1,280
348,337,3293,1,0,0:0:0:0:
244,292,3460,5,0,0:0:0:0:
244,292,3627,1,0,0:0:0:0:
306,199,3793,2,0,B|251:158|227:203|175:161,1,140
101,76,4293,1,0,0:0:0:0:
101,375,4627,1,0,0:0:0:0:
155,277,4960,2,0,L|159:231,1,35
174,74,5293,2,0,L|317:233,1,210.000008010865
423,202,5793,2,0,P|428:158|403:114,1,70
344,50,6127,1,0,0:0:0:0:
232,48,6293,1,0,0:0:0:0:
172,142,6460,1,0,0:0:0:0:
226,240,6627,2,0,P|180:257|143:256,1,70
57,305,6960,2,0,P|102:322|139:321,1,70
226,366,7293,2,0,P|245:375|230:346,1,70
159,258,7627,1,0,0:0:0:0:
32,192,7960,6,0,B|32:47|32:47|154:192|154:192|154:25,1,490
214,201,9293,6,0,B|215:25|215:25|275:-1|305:54|305:54|319:110|253:114|253:114|317:207,1,490
48,201,10627,6,0,B|89:334|89:334|131:236|131:236|174:333|174:333|216:191,1,490
286,49,11960,6,0,B|393:-22|465:84|465:84|465:156|357:192|357:192|465:228|465:299|465:299|393:407|286:335,1,735.000028038026
192,32,14960,5,0,0:0:0:0:
0,320,15293,1,0,0:0:0:0:
288,128,15627,1,0,0:0:0:0:
136,328,16127,5,0,0:0:0:0:
136,104,16460,1,0,0:0:0:0:
261,289,16793,2,0,P|312:292|343:282,2,70
294,181,17293,5,0,0:0:0:0:
501,95,17627,2,0,P|428:92|410:34,1,140
316,99,18127,2,0,P|314:67|288:27,2,70
0,213,18960,1,0,0:0:0:0:
50,313,19127,6,0,P|80:293|101:254,1,70
119,154,19460,1,0,0:0:0:0:
433,36,19960,6,0,L|421:68,1,35
402,122,20127,1,0,0:0:0:0:
476,332,20460,6,0,L|444:320,1,35
390,301,20627,1,0,0:0:0:0:
172,351,20960,6,0,L|184:319,1,35
203,265,21127,1,0,0:0:0:0:
84,184,21293,5,0,0:0:0:0:
371,257,21627,5,0,0:0:0:0:
245,135,21960,6,0,B|258:164|258:164|264:166|275:145|275:145|282:116|250:103|250:103|223:101|215:128|215:128|210:160|246:168|246:168|254:132|254:132,1,210
245,135,22293,5,0,0:0:0:0:
27,331,22627,6,0,P|69:333|101:321,1,70
284,226,22960,1,0,0:0:0:0:
150,181,23127,1,0,0:0:0:0:
236,290,23293,1,0,0:0:0:0:
241,149,23460,1,0,0:0:0:0:
100,128,23627,2,0,L|66:124,1,35
2,265,23793,2,0,L|36:269,1,35
280,223,23960,6,0,P|238:225|205:213,1,70
23,118,24293,1,0,0:0:0:0:
157,73,24460,1,0,0:0:0:0:
71,182,24626,1,0,0:0:0:0:
66,41,24793,1,0,0:0:0:0:
206,20,24960,2,0,L|240:15,1,35
305,157,25126,2,0,L|270:161,1,35
84,276,25293,6,0,P|126:278|158:266,1,70
305,157,25626,1,0,0:0:0:0:
234,278,25793,1,0,0:0:0:0:
372,299,25960,1,0,0:0:0:0:
510,278,26127,1,0,0:0:0:0:
380,191,26293,2,0,L|345:186,1,35
297,76,26460,2,0,L|331:80,1,35
234,278,26627,6,0,P|276:280|308:268,1,70
376,155,26960,2,0,L|341:150,1,35
185,56,27127,2,0,L|219:60,1,35
384,77,27293,2,0,L|349:72,1,35
177,134,27460,2,0,L|211:138,1,35
463,194,27627,6,0,P|442:222|414:242,1,70
230,220,27960,6,0,P|250:191|278:171,1,70
411,126,28293,1,0,0:0:0:0:
385,263,28460,1,0,0:0:0:0:
278,171,28627,1,0,0:0:0:0:
417,174,28793,1,0,0:0:0:0:
166,306,28960,2,0,L|170:271,1,35
278,171,29127,2,0,L|273:205,1,35
166,306,29293,6,0,P|208:305|239:290,1,70
369,182,29627,1,0,0:0:0:0:
308,56,29793,1,0,0:0:0:0:
215,160,29960,1,0,0:0:0:0:
400,101,30127,1,0,0:0:0:0:
211,77,30293,1,0,0:0:0:0:
512,110,30460,2,0,L|477:113,1,35
400,101,30627,6,0,P|404:135|421:166,1,70
498,283,30960,1,0,0:0:0:0:
477,112,31127,1,0,0:0:0:0:
364,246,31293,1,0,0:0:0:0:
444,44,31460,1,0,0:0:0:0:
338,171,31627,2,0,L|303:174,1,35
200,93,31793,2,0,L|234:98,1,35
339,86,31960,5,0,0:0:0:0:
213,288,32127,1,0,0:0:0:0:
20,85,32293,1,0,0:0:0:0:
291,14,32460,1,0,0:0:0:0:
122,238,32627,1,0,0:0:0:0:
439,191,32960,5,0,0:0:0:0:
383,63,33293,2,0,B|265:43|265:43|224:35|169:63,1,210
123,165,33960,1,0,0:0:0:0:
195,259,34127,1,0,0:0:0:0:
304,214,34293,6,0,P|343:190|355:150,1,70
292,122,34627,2,0,P|368:98|419:133,1,140
474,231,35127,1,0,0:0:0:0:
402,325,35294,1,0,0:0:0:0:
330,231,35460,1,0,0:0:0:0:
296,142,35627,6,0,P|258:169|237:205,1,70
242,279,35960,2,0,B|168:264|132:193|159:135|208:108,1,210
318,155,36627,6,0,P|346:119|344:77,1,70
276,73,36961,2,0,P|339:24|399:39,1,140
484,113,37461,1,0,0:0:0:0:
448,226,37628,1,0,0:0:0:0:
348,162,37794,1,0,0:0:0:0:
243,232,37960,2,0,L|171:166,1,70
244,69,38293,2,0,L|192:116,1,70
