osu file format v14

[General]
AudioFilename: audio.mp3
AudioLeadIn: 0
PreviewTime: 53243
Countdown: 0
SampleSet: Soft
StackLeniency: 0.7
Mode: 3
LetterboxInBreaks: 0
SpecialStyle: 1
WidescreenStoryboard: 1
SamplesMatchPlaybackRate: 1

[Editor]
DistanceSpacing: 0.1
BeatDivisor: 4
GridSize: 32
TimelineZoom: 3.299999

[Metadata]
Title:Firmament Castle "Velier"
TitleUnicode:天空の城ヴェリエル
Artist:Uetsu Shi
ArtistUnicode:うえつ氏
Creator:OliBomby
Version:Lv.9 [NORMAL]
Source:BMS
Tags:Tenkuu no Shiro Verieru BoF2012 Ein Neuer Heiliger Krieg Artcore
BeatmapID:2074426
BeatmapSetID:991930

[Difficulty]
HPDrainRate:4
CircleSize:7
OverallDifficulty:6
ApproachRate:5
SliderMultiplier:1.4
SliderTickRate:1

[Events]
//Background and Video events
0,0,"BG.jpg",0,0
//Break Periods
2,88087,92043
//Storyboard Layer 0 (Background)
//Storyboard Layer 1 (Fail)
//Storyboard Layer 2 (Pass)
//Storyboard Layer 3 (Foreground)
//Storyboard Sound Samples
Sample,1081,0,"vio1_000.wav",70
Sample,1216,0,"pi1_001.wav",70
Sample,1351,0,"pi1_002.wav",70
Sample,1486,0,"pi1_003.wav",70
Sample,1621,0,"pi1_005.wav",70
Sample,1756,0,"pi1_003.wav",70
Sample,1891,0,"pi1_006.wav",70
Sample,2027,0,"pi1_008.wav",70
Sample,2162,0,"pi1_009.wav",70
Sample,2297,0,"pi1_010.wav",70
Sample,2432,0,"pi1_011.wav",70
Sample,2567,0,"pi1_005.wav",70
Sample,2702,0,"pi1_012.wav",70
Sample,2837,0,"pi1_004.wav",70
Sample,2972,0,"pi1_006.wav",70
Sample,3108,0,"pi1_013.wav",70
Sample,3243,0,"pi1_014.wav",70
Sample,3378,0,"pi1_015.wav",70
Sample,3513,0,"pi1_016.wav",70
Sample,3648,0,"pi1_004.wav",70
Sample,3783,0,"pi1_017.wav",70
Sample,3918,0,"pi1_006.wav",70
Sample,4189,0,"pi1_018.wav",70
Sample,4324,0,"pi1_019.wav",70
Sample,4459,0,"pi1_020.wav",70
Sample,4594,0,"pi1_021.wav",70
Sample,4729,0,"pi1_017.wav",70
Sample,4864,0,"pi1_022.wav",70
Sample,5000,0,"pi1_023.wav",70
Sample,5135,0,"pi1_024.wav",70
Sample,5270,0,"pi1_025.wav",70
Sample,5405,0,"pi1_000.wav",70
Sample,5540,0,"pi1_001.wav",70
Sample,5675,0,"pi1_002.wav",70
Sample,5810,0,"pi1_003.wav",70
Sample,5945,0,"pi1_005.wav",70
Sample,6081,0,"pi1_003.wav",70
Sample,6216,0,"pi1_006.wav",70
Sample,6351,0,"pi1_008.wav",70
Sample,6486,0,"pi1_009.wav",70
Sample,6621,0,"pi1_010.wav",70
Sample,6756,0,"pi1_011.wav",70
Sample,6891,0,"pi1_005.wav",70
Sample,7027,0,"pi1_012.wav",70
Sample,7162,0,"pi1_004.wav",70
Sample,7297,0,"pi1_006.wav",70
Sample,7432,0,"pi1_013.wav",70
Sample,7567,0,"pi1_026.wav",70
Sample,7702,0,"pi1_011.wav",70
Sample,7837,0,"pi1_027.wav",70
Sample,7972,0,"pi1_028.wav",70
Sample,8108,0,"pi1_029.wav",70
Sample,8243,0,"pi1_030.wav",70
Sample,8513,0,"pi1_031.wav",70
Sample,8648,0,"__hyuooooooooo.wav",70
Sample,8648,0,"pi1_032.wav",70
Sample,8783,0,"pi1_033.wav",70
Sample,8918,0,"pi1_034.wav",70
Sample,9054,0,"pi1_031.wav",70
Sample,9189,0,"pi1_035.wav",70
Sample,9324,0,"pi1_020.wav",70
Sample,9459,0,"pi1_007.wav",70
Sample,9594,0,"pi1_005.wav",70
Sample,9729,0,"ld4x_fil.wav",70
Sample,18378,0,"piarp_000.wav",70
Sample,18378,0,"ld4x_015.wav",70
Sample,18378,0,"__dohyuuuuuun.wav",70
Sample,18378,0,"pd1_000.wav",70
Sample,18378,0,"_kurasshu_000.wav",70
Sample,18378,0,"ld4x_016.wav",70
Sample,18445,0,"piarp_001.wav",70
Sample,18513,0,"_hat_000.wav",70
Sample,18513,0,"piarp_002.wav",70
Sample,18581,0,"piarp_003.wav",70
Sample,18648,0,"_kurasshu_000.wav",70
Sample,18648,0,"piarp_004.wav",70
Sample,18716,0,"piarp_005.wav",70
Sample,18783,0,"_hat_000.wav",70
Sample,18783,0,"piarp_006.wav",70
Sample,18851,0,"piarp_007.wav",70
Sample,18918,0,"piarp_008.wav",70
Sample,18918,0,"_kurasshu_000.wav",70
Sample,18986,0,"piarp_006.wav",70
Sample,19054,0,"_hat_000.wav",70
Sample,19054,0,"_kurasshu_000.wav",70
Sample,19054,0,"piarp_005.wav",70
Sample,19121,0,"piarp_004.wav",70
Sample,19189,0,"ld4x_017.wav",70
Sample,19189,0,"piarp_003.wav",70
Sample,19256,0,"piarp_002.wav",70
Sample,19324,0,"_kurasshu_000.wav",70
Sample,19324,0,"piarp_009.wav",70
Sample,19324,0,"_hat_001.wav",70
Sample,19391,0,"piarp_000.wav",70
Sample,19459,0,"ld4x_004.wav",70
Sample,19459,0,"pd1_001.wav",70
Sample,19459,0,"piarp_010.wav",70
Sample,19527,0,"piarp_011.wav",70
Sample,19594,0,"piarp_012.wav",70
Sample,19594,0,"_hat_000.wav",70
Sample,19662,0,"piarp_003.wav",70
Sample,19729,0,"piarp_013.wav",70
Sample,19797,0,"piarp_014.wav",70
Sample,19864,0,"ld4x_018.wav",70
Sample,19864,0,"_hat_000.wav",70
Sample,19864,0,"piarp_015.wav",70
Sample,19932,0,"piarp_016.wav",70
Sample,20000,0,"piarp_017.wav",70
Sample,20067,0,"piarp_016.wav",70
Sample,20135,0,"piarp_015.wav",70
Sample,20135,0,"_hat_000.wav",70
Sample,20135,0,"_kurasshu_000.wav",70
Sample,20202,0,"piarp_014.wav",70
Sample,20270,0,"piarp_013.wav",70
Sample,20270,0,"ld4x_019.wav",70
Sample,20337,0,"piarp_003.wav",70
Sample,20405,0,"_kurasshu_001.wav",70
Sample,20405,0,"_hat_001.wav",70
Sample,20405,0,"piarp_012.wav",70
Sample,20472,0,"_kurasshu_001.wav",70
Sample,20472,0,"piarp_011.wav",70
Sample,20506,0,"_kurasshu_001.wav",70
Sample,20540,0,"_kurasshu_002.wav",70
Sample,20540,0,"pd1_002.wav",70
Sample,20540,0,"piarp_018.wav",70
Sample,20540,0,"ld4x_007.wav",70
Sample,20608,0,"piarp_009.wav",70
Sample,20675,0,"piarp_019.wav",70
Sample,20743,0,"piarp_003.wav",70
Sample,20810,0,"piarp_020.wav",70
Sample,20878,0,"piarp_015.wav",70
Sample,20945,0,"piarp_021.wav",70
Sample,21013,0,"piarp_007.wav",70
Sample,21081,0,"piarp_008.wav",70
Sample,21148,0,"piarp_007.wav",70
Sample,21216,0,"piarp_021.wav",70
Sample,21283,0,"piarp_015.wav",70
Sample,21351,0,"piarp_020.wav",70
Sample,21418,0,"piarp_003.wav",70
Sample,21486,0,"piarp_019.wav",70
Sample,21486,0,"_kurasshu_000.wav",70
Sample,21554,0,"piarp_009.wav",70
Sample,21621,0,"ld4x_020.wav",70
Sample,21621,0,"piarp_022.wav",70
Sample,21621,0,"pd1_003.wav",70
Sample,21689,0,"piarp_019.wav",70
Sample,21756,0,"_kurasshu_000.wav",70
Sample,21756,0,"piarp_023.wav",70
Sample,21824,0,"piarp_024.wav",70
Sample,21891,0,"piarp_020.wav",70
Sample,21959,0,"piarp_025.wav",70
Sample,22027,0,"piarp_005.wav",70
Sample,22094,0,"piarp_021.wav",70
Sample,22162,0,"pd1_004.wav",70
Sample,22162,0,"piarp_026.wav",70
Sample,22162,0,"piarp_010.wav",70
Sample,22229,0,"piarp_023.wav",70
Sample,22297,0,"piarp_024.wav",70
Sample,22297,0,"_kurasshu_000.wav",70
Sample,22364,0,"piarp_020.wav",70
Sample,22432,0,"piarp_025.wav",70
Sample,22500,0,"piarp_005.wav",70
Sample,22567,0,"piarp_021.wav",70
Sample,22635,0,"piarp_008.wav",70
Sample,22702,0,"_kurasshu_000.wav",70
Sample,22702,0,"piarp_000.wav",70
Sample,22702,0,"pd1_005.wav",70
Sample,22702,0,"_ki_000.wav",70
Sample,22770,0,"piarp_001.wav",70
Sample,22837,0,"_hat_000.wav",70
Sample,22837,0,"piarp_002.wav",70
Sample,22905,0,"piarp_003.wav",70
Sample,22972,0,"piarp_004.wav",70
Sample,23040,0,"piarp_005.wav",70
Sample,23108,0,"_hat_000.wav",70
Sample,23108,0,"_kurasshu_000.wav",70
Sample,23108,0,"piarp_006.wav",70
Sample,23175,0,"piarp_007.wav",70
Sample,23243,0,"piarp_008.wav",70
Sample,23310,0,"piarp_006.wav",70
Sample,23378,0,"_hat_000.wav",70
Sample,23378,0,"piarp_005.wav",70
Sample,23445,0,"piarp_004.wav",70
Sample,23513,0,"piarp_003.wav",70
Sample,23513,0,"_kurasshu_000.wav",70
Sample,23581,0,"piarp_002.wav",70
Sample,23648,0,"piarp_009.wav",70
Sample,23648,0,"_hat_001.wav",70
Sample,23716,0,"piarp_000.wav",70
Sample,23783,0,"piarp_010.wav",70
Sample,23783,0,"ld4x_021.wav",70
Sample,23783,0,"_kurasshu_000.wav",70
Sample,23783,0,"pd1_006.wav",70
Sample,23783,0,"ld4x_022.wav",70
Sample,23851,0,"piarp_011.wav",70
Sample,23918,0,"_hat_000.wav",70
Sample,23918,0,"piarp_012.wav",70
Sample,23986,0,"piarp_003.wav",70
Sample,24054,0,"piarp_013.wav",70
Sample,24121,0,"piarp_014.wav",70
Sample,24189,0,"_hat_000.wav",70
Sample,24189,0,"piarp_015.wav",70
Sample,24189,0,"_kurasshu_000.wav",70
Sample,24256,0,"piarp_016.wav",70
Sample,24324,0,"piarp_017.wav",70
Sample,24391,0,"piarp_016.wav",70
Sample,24459,0,"_hat_000.wav",70
Sample,24459,0,"piarp_015.wav",70
Sample,24527,0,"piarp_014.wav",70
Sample,24594,0,"ld4x_002.wav",70
Sample,24594,0,"_kurasshu_000.wav",70
Sample,24594,0,"piarp_013.wav",70
Sample,24662,0,"piarp_003.wav",70
Sample,24729,0,"_hat_001.wav",70
Sample,24729,0,"piarp_012.wav",70
Sample,24797,0,"piarp_011.wav",70
Sample,24864,0,"ld4x_026.wav",70
Sample,24864,0,"pd1_000.wav",70
Sample,24864,0,"_kurasshu_003.wav",70
Sample,24864,0,"_ki_000.wav",70
Sample,24864,0,"ld4x_025.wav",70
Sample,24864,0,"piarp_001.wav",70
Sample,24864,0,"ld4x_024.wav",70
Sample,24932,0,"piarp_012.wav",70
Sample,25000,0,"_hat_000.wav",70
Sample,25000,0,"piarp_024.wav",70
Sample,25067,0,"piarp_014.wav",70
Sample,25135,0,"piarp_005.wav",70
Sample,25202,0,"piarp_027.wav",70
Sample,25270,0,"_kurasshu_000.wav",70
Sample,25270,0,"piarp_008.wav",70
Sample,25337,0,"piarp_028.wav",70
Sample,25405,0,"piarp_029.wav",70
Sample,25472,0,"piarp_028.wav",70
Sample,25540,0,"piarp_008.wav",70
Sample,25608,0,"piarp_027.wav",70
Sample,25675,0,"piarp_005.wav",70
Sample,25743,0,"piarp_014.wav",70
Sample,25810,0,"_kurasshu_000.wav",70
Sample,25810,0,"piarp_024.wav",70
Sample,25878,0,"piarp_012.wav",70
Sample,25945,0,"ld4x_027.wav",70
Sample,25945,0,"piarp_029.wav",70
Sample,25945,0,"_ki_000.wav",70
Sample,25945,0,"_kurasshu_000.wav",70
Sample,25945,0,"pd1_007.wav",70
Sample,25945,0,"ld4x_028.wav",70
Sample,26013,0,"piarp_008.wav",70
Sample,26081,0,"_hat_000.wav",70
Sample,26081,0,"piarp_027.wav",70
Sample,26081,0,"_kurasshu_000.wav",70
Sample,26148,0,"piarp_005.wav",70
Sample,26216,0,"piarp_014.wav",70
Sample,26283,0,"piarp_013.wav",70
Sample,26351,0,"_hat_000.wav",70
Sample,26351,0,"_kurasshu_000.wav",70
Sample,26351,0,"ld4x_030.wav",70
Sample,26351,0,"piarp_024.wav",70
Sample,26351,0,"ld4x_029.wav",70
Sample,26351,0,"_ki_000.wav",70
Sample,26418,0,"piarp_012.wav",70
Sample,26486,0,"piarp_029.wav",70
Sample,26554,0,"piarp_008.wav",70
Sample,26621,0,"piarp_027.wav",70
Sample,26621,0,"_kurasshu_000.wav",70
Sample,26621,0,"_hat_000.wav",70
Sample,26689,0,"piarp_005.wav",70
Sample,26756,0,"piarp_014.wav",70
Sample,26756,0,"ld4x_031.wav",70
Sample,26756,0,"ld4x_019.wav",70
Sample,26824,0,"piarp_005.wav",70
Sample,26891,0,"_hat_001.wav",70
Sample,26891,0,"_kurasshu_001.wav",70
Sample,26891,0,"piarp_008.wav",70
Sample,26925,0,"_kurasshu_001.wav",70
Sample,26959,0,"piarp_029.wav",70
Sample,26959,0,"_kurasshu_001.wav",70
Sample,26993,0,"_kurasshu_001.wav",70
Sample,27027,0,"piarp_000.wav",70
Sample,27027,0,"ld4x_032.wav",70
Sample,27027,0,"pd1_008.wav",70
Sample,27027,0,"ld4x_016.wav",70
Sample,27027,0,"_ki_000.wav",70
Sample,27094,0,"piarp_001.wav",70
Sample,27162,0,"piarp_002.wav",70
Sample,27162,0,"_kurasshu_000.wav",70
Sample,27229,0,"piarp_003.wav",70
Sample,27297,0,"piarp_004.wav",70
Sample,27364,0,"piarp_005.wav",70
Sample,27432,0,"piarp_006.wav",70
Sample,27500,0,"piarp_007.wav",70
Sample,27635,0,"piarp_006.wav",70
Sample,27702,0,"_kurasshu_000.wav",70
Sample,27702,0,"piarp_005.wav",70
Sample,27770,0,"piarp_004.wav",70
Sample,27837,0,"piarp_003.wav",70
Sample,27905,0,"piarp_002.wav",70
Sample,27972,0,"piarp_009.wav",70
Sample,27972,0,"ld4x_033.wav",70
Sample,27972,0,"_kurasshu_001.wav",70
Sample,27972,0,"_hat_001.wav",70
Sample,27972,0,"_ki_001.wav",70
Sample,28040,0,"piarp_000.wav",70
Sample,28040,0,"_kurasshu_001.wav",70
Sample,28040,0,"_ki_001.wav",70
Sample,28040,0,"ld4x_034.wav",70
Sample,28108,0,"_kurasshu_000.wav",70
Sample,28108,0,"pd1_001.wav",70
Sample,28108,0,"_ki_000.wav",70
Sample,28108,0,"ld4x_004.wav",70
Sample,28108,0,"piarp_010.wav",70
Sample,28108,0,"ld4x_035.wav",70
Sample,28175,0,"piarp_011.wav",70
Sample,28243,0,"piarp_012.wav",70
Sample,28243,0,"_hat_000.wav",70
Sample,28310,0,"piarp_003.wav",70
Sample,28378,0,"piarp_013.wav",70
Sample,28445,0,"piarp_014.wav",70
Sample,28513,0,"_hat_000.wav",70
Sample,28513,0,"ld4x_036.wav",70
Sample,28513,0,"ld4x_037.wav",70
Sample,28513,0,"piarp_015.wav",70
Sample,28513,0,"_ki_000.wav",70
Sample,28513,0,"_kurasshu_000.wav",70
Sample,28581,0,"piarp_016.wav",70
Sample,28648,0,"piarp_017.wav",70
Sample,28716,0,"piarp_016.wav",70
Sample,28783,0,"piarp_015.wav",70
Sample,28783,0,"_hat_000.wav",70
Sample,28851,0,"piarp_014.wav",70
Sample,28918,0,"ld4x_038.wav",70
Sample,28918,0,"ld4x_039.wav",70
Sample,28918,0,"_kurasshu_000.wav",70
Sample,28918,0,"piarp_013.wav",70
Sample,28918,0,"_ki_000.wav",70
Sample,28986,0,"piarp_003.wav",70
Sample,29054,0,"_kurasshu_001.wav",70
Sample,29054,0,"_hat_001.wav",70
Sample,29054,0,"piarp_012.wav",70
Sample,29121,0,"_kurasshu_001.wav",70
Sample,29121,0,"piarp_011.wav",70
Sample,29155,0,"_kurasshu_001.wav",70
Sample,29189,0,"piarp_018.wav",70
Sample,29189,0,"ld4x_040.wav",70
Sample,29189,0,"_kurasshu_003.wav",70
Sample,29189,0,"pd1_007.wav",70
Sample,29189,0,"_ki_000.wav",70
Sample,29189,0,"ld4x_041.wav",70
Sample,29256,0,"piarp_009.wav",70
Sample,29324,0,"piarp_019.wav",70
Sample,29391,0,"piarp_003.wav",70
Sample,29459,0,"piarp_020.wav",70
Sample,29527,0,"piarp_015.wav",70
Sample,29594,0,"piarp_021.wav",70
Sample,29662,0,"piarp_007.wav",70
Sample,29729,0,"piarp_008.wav",70
Sample,29797,0,"piarp_007.wav",70
Sample,29864,0,"piarp_021.wav",70
Sample,29932,0,"piarp_015.wav",70
Sample,30000,0,"ld4x_042.wav",70
Sample,30000,0,"piarp_020.wav",70
Sample,30067,0,"piarp_003.wav",70
Sample,30135,0,"piarp_019.wav",70
Sample,30202,0,"piarp_009.wav",70
Sample,30270,0,"pd1_009.wav",70
Sample,30270,0,"piarp_022.wav",70
Sample,30270,0,"_kurasshu_004.wav",70
Sample,30270,0,"ld4x_043.wav",70
Sample,30337,0,"piarp_019.wav",70
Sample,30405,0,"piarp_023.wav",70
Sample,30405,0,"_hat_000.wav",70
Sample,30472,0,"piarp_024.wav",70
Sample,30540,0,"piarp_020.wav",70
Sample,30608,0,"piarp_025.wav",70
Sample,30675,0,"_hat_000.wav",70
Sample,30675,0,"_kurasshu_000.wav",70
Sample,30675,0,"piarp_005.wav",70
Sample,30743,0,"piarp_021.wav",70
Sample,30810,0,"piarp_026.wav",70
Sample,30810,0,"pd1_010.wav",70
Sample,30810,0,"piarp_010.wav",70
Sample,30878,0,"piarp_023.wav",70
Sample,30945,0,"piarp_024.wav",70
Sample,30945,0,"_hat_000.wav",70
Sample,31013,0,"piarp_020.wav",70
Sample,31081,0,"piarp_025.wav",70
Sample,31081,0,"_kurasshu_000.wav",70
Sample,31148,0,"piarp_005.wav",70
Sample,31216,0,"_ki_000.wav",70
Sample,31216,0,"_hat_001.wav",70
Sample,31216,0,"piarp_021.wav",70
Sample,31283,0,"piarp_008.wav",70
Sample,31351,0,"pd1_008.wav",70
Sample,31351,0,"ld4x_044.wav",70
Sample,31351,0,"piarp_000.wav",70
Sample,31418,0,"piarp_001.wav",70
Sample,31486,0,"_hat_000.wav",70
Sample,31486,0,"piarp_002.wav",70
Sample,31554,0,"piarp_003.wav",70
Sample,31621,0,"piarp_004.wav",70
Sample,31689,0,"piarp_005.wav",70
Sample,31756,0,"piarp_006.wav",70
Sample,31824,0,"piarp_007.wav",70
Sample,31891,0,"piarp_008.wav",70
Sample,31959,0,"piarp_006.wav",70
Sample,32027,0,"_hat_000.wav",70
Sample,32027,0,"piarp_005.wav",70
Sample,32094,0,"piarp_004.wav",70
Sample,32162,0,"_kurasshu_003.wav",70
Sample,32162,0,"piarp_003.wav",70
Sample,32229,0,"piarp_002.wav",70
Sample,32297,0,"piarp_009.wav",70
Sample,32364,0,"piarp_000.wav",70
Sample,32432,0,"_ki_000.wav",70
Sample,32432,0,"piarp_010.wav",70
Sample,32432,0,"pd1_006.wav",70
Sample,32500,0,"piarp_011.wav",70
Sample,32567,0,"piarp_012.wav",70
Sample,32567,0,"_hat_000.wav",70
Sample,32635,0,"piarp_003.wav",70
Sample,32702,0,"piarp_013.wav",70
Sample,32770,0,"piarp_014.wav",70
Sample,32837,0,"_hat_000.wav",70
Sample,32837,0,"piarp_015.wav",70
Sample,32905,0,"piarp_016.wav",70
Sample,32972,0,"ld4x_047.wav",70
Sample,32972,0,"piarp_017.wav",70
Sample,33040,0,"piarp_016.wav",70
Sample,33108,0,"piarp_015.wav",70
Sample,33108,0,"_hat_000.wav",70
Sample,33108,0,"_ki_000.wav",70
Sample,33175,0,"piarp_014.wav",70
Sample,33243,0,"piarp_013.wav",70
Sample,33310,0,"piarp_003.wav",70
Sample,33378,0,"piarp_012.wav",70
Sample,33378,0,"_hat_001.wav",70
Sample,33378,0,"_ki_001.wav",70
Sample,33378,0,"_kurasshu_001.wav",70
Sample,33445,0,"_ki_001.wav",70
Sample,33445,0,"_kurasshu_001.wav",70
Sample,33445,0,"piarp_011.wav",70
Sample,33513,0,"ld4x_007.wav",70
Sample,33513,0,"piarp_001.wav",70
Sample,33513,0,"pd1_000.wav",70
Sample,33513,0,"_kurasshu_005.wav",70
Sample,33513,0,"ld4x_048.wav",70
Sample,33581,0,"_kurasshu_006.wav",70
Sample,33581,0,"piarp_012.wav",70
Sample,33648,0,"_kurasshu_006.wav",70
Sample,33648,0,"piarp_024.wav",70
Sample,33648,0,"_hat_000.wav",70
Sample,33716,0,"_kurasshu_007.wav",70
Sample,33716,0,"piarp_014.wav",70
Sample,33783,0,"piarp_005.wav",70
Sample,33783,0,"_kurasshu_007.wav",70
Sample,33851,0,"piarp_027.wav",70
Sample,33851,0,"_kurasshu_008.wav",70
Sample,33918,0,"_kurasshu_008.wav",70
Sample,33918,0,"piarp_008.wav",70
Sample,33918,0,"_hat_000.wav",70
Sample,33986,0,"_kurasshu_008.wav",70
Sample,33986,0,"piarp_028.wav",70
Sample,34054,0,"_kurasshu_009.wav",70
Sample,34054,0,"piarp_029.wav",70
Sample,34121,0,"piarp_028.wav",70
Sample,34121,0,"_kurasshu_009.wav",70
Sample,34189,0,"_hat_000.wav",70
Sample,34189,0,"_kurasshu_010.wav",70
Sample,34189,0,"piarp_008.wav",70
Sample,34256,0,"_kurasshu_010.wav",70
Sample,34256,0,"piarp_027.wav",70
Sample,34324,0,"_kurasshu_011.wav",70
Sample,34324,0,"piarp_005.wav",70
Sample,34391,0,"_kurasshu_011.wav",70
Sample,34391,0,"piarp_014.wav",70
Sample,34459,0,"piarp_024.wav",70
Sample,34459,0,"_kurasshu_012.wav",70
Sample,34459,0,"_hat_001.wav",70
Sample,34527,0,"_kurasshu_012.wav",70
Sample,34527,0,"piarp_012.wav",70
Sample,34594,0,"pi3_040.wav",70
Sample,34594,0,"ld4x_049.wav",70
Sample,34594,0,"ld4x_050.wav",70
Sample,34594,0,"pd1_011.wav",70
Sample,34594,0,"_kurasshu_013.wav",70
Sample,34594,0,"piarp_022.wav",70
Sample,34662,0,"piarp_019.wav",70
Sample,34662,0,"_kurasshu_013.wav",70
Sample,34729,0,"_hat_000.wav",70
Sample,34729,0,"piarp_023.wav",70
Sample,34729,0,"_kurasshu_014.wav",70
Sample,34797,0,"_kurasshu_014.wav",70
Sample,34797,0,"piarp_024.wav",70
Sample,34864,0,"piarp_020.wav",70
Sample,34864,0,"_kurasshu_001.wav",70
Sample,34932,0,"_kurasshu_001.wav",70
Sample,34932,0,"piarp_025.wav",70
Sample,35000,0,"piarp_005.wav",70
Sample,35000,0,"_kurasshu_015.wav",70
Sample,35000,0,"_hat_000.wav",70
Sample,35000,0,"pi3_041.wav",70
Sample,35067,0,"piarp_021.wav",70
Sample,35067,0,"_kurasshu_015.wav",70
Sample,35135,0,"_kurasshu_015.wav",70
Sample,35135,0,"piarp_026.wav",70
Sample,35135,0,"piarp_012.wav",70
Sample,35202,0,"_kurasshu_016.wav",70
Sample,35202,0,"piarp_025.wav",70
Sample,35270,0,"piarp_005.wav",70
Sample,35270,0,"_hat_000.wav",70
Sample,35270,0,"_kurasshu_016.wav",70
Sample,35337,0,"piarp_021.wav",70
Sample,35337,0,"_kurasshu_017.wav",70
Sample,35405,0,"pi3_017.wav",70
Sample,35405,0,"piarp_026.wav",70
Sample,35405,0,"_kurasshu_017.wav",70
Sample,35472,0,"piarp_008.wav",70
Sample,35472,0,"_kurasshu_018.wav",70
Sample,35540,0,"_hat_001.wav",70
Sample,35540,0,"_kurasshu_018.wav",70
Sample,35540,0,"piarp_028.wav",70
Sample,35608,0,"piarp_030.wav",70
Sample,35608,0,"_kurasshu_019.wav",70
Sample,35675,0,"_ki_000.wav",70
Sample,35675,0,"piarp_031.wav",70
Sample,35675,0,"__kuraaaaaaasshu.wav",70
Sample,35675,0,"pd1_012.wav",70
Sample,35675,0,"_kurasshu_000.wav",70
Sample,35675,0,"ld4x_051.wav",70
Sample,35675,0,"__dohyuuuuuun.wav",70
Sample,35675,0,"_dr_000.wav",70
Sample,35743,0,"piarp_032.wav",70
Sample,35810,0,"_hat_000.wav",70
Sample,35810,0,"piarp_033.wav",70
Sample,35810,0,"_dr_001.wav",70
Sample,35872,0,"_dr_002.wav",70
Sample,35878,0,"piarp_024.wav",70
Sample,35940,0,"_dr_003.wav",70
Sample,35945,0,"_kurasshu_000.wav",70
Sample,35945,0,"_sna_000.wav",70
Sample,35945,0,"piarp_034.wav",70
Sample,36013,0,"piarp_035.wav",70
Sample,36081,0,"_dr_004.wav",70
Sample,36081,0,"_hat_000.wav",70
Sample,36081,0,"piarp_036.wav",70
Sample,36148,0,"piarp_008.wav",70
Sample,36210,0,"_dr_005.wav",70
Sample,36216,0,"piarp_037.wav",70
Sample,36216,0,"_kurasshu_000.wav",70
Sample,36278,0,"_dr_006.wav",70
Sample,36283,0,"piarp_036.wav",70
Sample,36345,0,"_dr_007.wav",70
Sample,36351,0,"_kurasshu_000.wav",70
Sample,36351,0,"_hat_000.wav",70
Sample,36351,0,"piarp_035.wav",70
Sample,36418,0,"piarp_034.wav",70
Sample,36480,0,"_dr_008.wav",70
Sample,36486,0,"ld4x_052.wav",70
Sample,36486,0,"_ki_000.wav",70
Sample,36486,0,"_sna_001.wav",70
Sample,36486,0,"piarp_024.wav",70
Sample,36486,0,"ld4x_054.wav",70
Sample,36554,0,"piarp_033.wav",70
Sample,36621,0,"_dr_009.wav",70
Sample,36621,0,"_kurasshu_000.wav",70
Sample,36621,0,"_hat_001.wav",70
Sample,36621,0,"piarp_001.wav",70
Sample,36689,0,"piarp_031.wav",70
Sample,36756,0,"pd1_013.wav",70
Sample,36756,0,"_dr_010.wav",70
Sample,36756,0,"ld4x_055.wav",70
Sample,36756,0,"piarp_038.wav",70
Sample,36824,0,"piarp_039.wav",70
Sample,36880,0,"_dr_011.wav",70
Sample,36891,0,"piarp_040.wav",70
Sample,36891,0,"_kurasshu_000.wav",70
Sample,36891,0,"_hat_000.wav",70
Sample,36959,0,"piarp_024.wav",70
Sample,37021,0,"_dr_012.wav",70
Sample,37027,0,"_sna_000.wav",70
Sample,37027,0,"piarp_041.wav",70
Sample,37094,0,"piarp_042.wav",70
Sample,37162,0,"_dr_013.wav",70
Sample,37162,0,"ld4x_056.wav",70
Sample,37162,0,"piarp_005.wav",70
Sample,37162,0,"_hat_000.wav",70
Sample,37162,0,"_kurasshu_000.wav",70
Sample,37229,0,"piarp_043.wav",70
Sample,37297,0,"piarp_044.wav",70
Sample,37297,0,"_dr_014.wav",70
Sample,37359,0,"_dr_015.wav",70
Sample,37364,0,"piarp_043.wav",70
Sample,37432,0,"_hat_000.wav",70
Sample,37432,0,"_kurasshu_000.wav",70
Sample,37432,0,"_dr_016.wav",70
Sample,37432,0,"piarp_005.wav",70
Sample,37494,0,"_dr_017.wav",70
Sample,37500,0,"piarp_042.wav",70
Sample,37561,0,"_dr_018.wav",70
Sample,37567,0,"ld4x_021.wav",70
Sample,37567,0,"piarp_041.wav",70
Sample,37567,0,"_sna_001.wav",70
Sample,37635,0,"piarp_024.wav",70
Sample,37635,0,"_dr_019.wav",70
Sample,37702,0,"_kurasshu_001.wav",70
Sample,37702,0,"_dr_020.wav",70
Sample,37702,0,"piarp_040.wav",70
Sample,37702,0,"_hat_001.wav",70
Sample,37702,0,"_ki_001.wav",70
Sample,37759,0,"_dr_021.wav",70
Sample,37770,0,"piarp_039.wav",70
Sample,37770,0,"_kurasshu_001.wav",70
Sample,37804,0,"_kurasshu_001.wav",70
Sample,37837,0,"ld4x_057.wav",70
Sample,37837,0,"piarp_000.wav",70
Sample,37837,0,"_kurasshu_002.wav",70
Sample,37837,0,"_dr_000.wav",70
Sample,37837,0,"pd1_000.wav",70
Sample,37905,0,"piarp_001.wav",70
Sample,37972,0,"piarp_002.wav",70
Sample,37972,0,"_dr_001.wav",70
Sample,37972,0,"_hat_000.wav",70
Sample,38034,0,"_dr_002.wav",70
Sample,38040,0,"piarp_024.wav",70
Sample,38102,0,"_dr_003.wav",70
Sample,38108,0,"_kurasshu_002.wav",70
Sample,38108,0,"_sna_000.wav",70
Sample,38108,0,"piarp_004.wav",70
Sample,38175,0,"piarp_005.wav",70
Sample,38243,0,"_hat_000.wav",70
Sample,38243,0,"piarp_006.wav",70
Sample,38243,0,"_dr_004.wav",70
Sample,38310,0,"piarp_008.wav",70
Sample,38372,0,"_dr_005.wav",70
Sample,38378,0,"piarp_037.wav",70
Sample,38440,0,"_dr_006.wav",70
Sample,38445,0,"piarp_008.wav",70
Sample,38507,0,"_dr_007.wav",70
Sample,38513,0,"_hat_000.wav",70
Sample,38513,0,"_kurasshu_000.wav",70
Sample,38513,0,"piarp_006.wav",70
Sample,38581,0,"piarp_005.wav",70
Sample,38643,0,"_dr_008.wav",70
Sample,38648,0,"_sna_001.wav",70
Sample,38648,0,"piarp_004.wav",70
Sample,38716,0,"piarp_024.wav",70
Sample,38783,0,"piarp_002.wav",70
Sample,38783,0,"_hat_001.wav",70
Sample,38783,0,"_kurasshu_000.wav",70
Sample,38783,0,"_dr_009.wav",70
Sample,38851,0,"piarp_001.wav",70
Sample,38918,0,"_dr_010.wav",70
Sample,38918,0,"pd1_014.wav",70
Sample,38918,0,"_kurasshu_000.wav",70
Sample,38918,0,"piarp_045.wav",70
Sample,38918,0,"ld4x_058.wav",70
Sample,38986,0,"piarp_002.wav",70
Sample,39042,0,"_dr_011.wav",70
Sample,39054,0,"piarp_046.wav",70
Sample,39054,0,"_kurasshu_000.wav",70
Sample,39054,0,"_hat_000.wav",70
Sample,39121,0,"piarp_047.wav",70
Sample,39183,0,"_dr_012.wav",70
Sample,39189,0,"piarp_004.wav",70
Sample,39189,0,"_sna_000.wav",70
Sample,39256,0,"piarp_048.wav",70
Sample,39324,0,"_hat_000.wav",70
Sample,39324,0,"piarp_035.wav",70
Sample,39324,0,"_dr_013.wav",70
Sample,39324,0,"_kurasshu_000.wav",70
Sample,39391,0,"piarp_006.wav",70
Sample,39459,0,"pd1_015.wav",70
Sample,39459,0,"_dr_014.wav",70
Sample,39459,0,"piarp_049.wav",70
Sample,39459,0,"piarp_038.wav",70
Sample,39521,0,"_dr_015.wav",70
Sample,39527,0,"piarp_046.wav",70
Sample,39594,0,"piarp_047.wav",70
Sample,39594,0,"_kurasshu_000.wav",70
Sample,39594,0,"_dr_016.wav",70
Sample,39594,0,"_hat_000.wav",70
Sample,39656,0,"_dr_017.wav",70
Sample,39662,0,"piarp_004.wav",70
Sample,39724,0,"_dr_018.wav",70
Sample,39729,0,"piarp_048.wav",70
Sample,39729,0,"_sna_001.wav",70
Sample,39797,0,"_dr_019.wav",70
Sample,39797,0,"piarp_035.wav",70
Sample,39864,0,"_hat_001.wav",70
Sample,39864,0,"_kurasshu_000.wav",70
Sample,39864,0,"piarp_006.wav",70
Sample,39864,0,"_dr_020.wav",70
Sample,39921,0,"_dr_021.wav",70
Sample,39932,0,"piarp_037.wav",70
Sample,40000,0,"_dr_000.wav",70
Sample,40000,0,"pd1_016.wav",70
Sample,40000,0,"piarp_031.wav",70
Sample,40000,0,"ld4x_059.wav",70
Sample,40067,0,"piarp_032.wav",70
Sample,40135,0,"piarp_033.wav",70
Sample,40135,0,"_dr_001.wav",70
Sample,40135,0,"_hat_000.wav",70
Sample,40197,0,"_dr_002.wav",70
Sample,40202,0,"piarp_024.wav",70
Sample,40264,0,"_dr_003.wav",70
Sample,40270,0,"piarp_034.wav",70
Sample,40270,0,"_sna_000.wav",70
Sample,40337,0,"piarp_035.wav",70
Sample,40405,0,"_dr_004.wav",70
Sample,40405,0,"_hat_000.wav",70
Sample,40405,0,"ld4x_060.wav",70
Sample,40405,0,"piarp_036.wav",70
Sample,40472,0,"piarp_008.wav",70
Sample,40534,0,"_dr_005.wav",70
Sample,40540,0,"piarp_037.wav",70
Sample,40602,0,"_dr_006.wav",70
Sample,40608,0,"piarp_036.wav",70
Sample,40670,0,"_dr_007.wav",70
Sample,40675,0,"_hat_000.wav",70
Sample,40675,0,"piarp_035.wav",70
Sample,40743,0,"piarp_034.wav",70
Sample,40805,0,"_dr_008.wav",70
Sample,40810,0,"ld4x_061.wav",70
Sample,40810,0,"_sna_001.wav",70
Sample,40810,0,"piarp_024.wav",70
Sample,40878,0,"piarp_033.wav",70
Sample,40945,0,"_hat_001.wav",70
Sample,40945,0,"piarp_001.wav",70
Sample,40945,0,"_dr_009.wav",70
Sample,41013,0,"piarp_031.wav",70
Sample,41081,0,"_dr_010.wav",70
Sample,41081,0,"pd1_017.wav",70
Sample,41081,0,"piarp_038.wav",70
Sample,41081,0,"ld4x_062.wav",70
Sample,41148,0,"piarp_039.wav",70
Sample,41204,0,"_dr_011.wav",70
Sample,41216,0,"piarp_040.wav",70
Sample,41216,0,"_hat_000.wav",70
Sample,41283,0,"ld4x_063.wav",70
Sample,41283,0,"piarp_024.wav",70
Sample,41345,0,"_dr_012.wav",70
Sample,41351,0,"_sna_000.wav",70
Sample,41351,0,"piarp_041.wav",70
Sample,41418,0,"piarp_042.wav",70
Sample,41486,0,"_kurasshu_000.wav",70
Sample,41486,0,"ld4x_064.wav",70
Sample,41486,0,"_hat_000.wav",70
Sample,41486,0,"_dr_013.wav",70
Sample,41486,0,"piarp_005.wav",70
Sample,41554,0,"piarp_043.wav",70
Sample,41621,0,"_dr_014.wav",70
Sample,41621,0,"piarp_044.wav",70
Sample,41683,0,"_dr_015.wav",70
Sample,41689,0,"piarp_043.wav",70
Sample,41756,0,"piarp_005.wav",70
Sample,41756,0,"_dr_016.wav",70
Sample,41756,0,"_hat_000.wav",70
Sample,41818,0,"_dr_017.wav",70
Sample,41824,0,"piarp_042.wav",70
Sample,41886,0,"_dr_018.wav",70
Sample,41891,0,"_sna_001.wav",70
Sample,41891,0,"_kurasshu_000.wav",70
Sample,41891,0,"ld4x_056.wav",70
Sample,41891,0,"piarp_041.wav",70
Sample,41959,0,"piarp_024.wav",70
Sample,41959,0,"_dr_019.wav",70
Sample,42027,0,"_hat_001.wav",70
Sample,42027,0,"_dr_020.wav",70
Sample,42027,0,"piarp_040.wav",70
Sample,42083,0,"_dr_021.wav",70
Sample,42094,0,"piarp_039.wav",70
Sample,42162,0,"ld4x_065.wav",70
Sample,42162,0,"piarp_032.wav",70
Sample,42162,0,"_kurasshu_003.wav",70
Sample,42162,0,"_dr_000.wav",70
Sample,42162,0,"pd1_012.wav",70
Sample,42229,0,"piarp_040.wav",70
Sample,42297,0,"_dr_001.wav",70
Sample,42297,0,"piarp_047.wav",70
Sample,42359,0,"_dr_002.wav",70
Sample,42364,0,"piarp_042.wav",70
Sample,42426,0,"_dr_003.wav",70
Sample,42432,0,"_sna_000.wav",70
Sample,42432,0,"piarp_035.wav",70
Sample,42500,0,"piarp_050.wav",70
Sample,42567,0,"_dr_004.wav",70
Sample,42567,0,"piarp_037.wav",70
Sample,42635,0,"piarp_051.wav",70
Sample,42697,0,"_dr_005.wav",70
Sample,42702,0,"piarp_052.wav",70
Sample,42764,0,"_dr_006.wav",70
Sample,42770,0,"piarp_051.wav",70
Sample,42832,0,"_dr_007.wav",70
Sample,42837,0,"_kurasshu_000.wav",70
Sample,42837,0,"piarp_037.wav",70
Sample,42905,0,"piarp_050.wav",70
Sample,42967,0,"_dr_008.wav",70
Sample,42972,0,"_sna_001.wav",70
Sample,42972,0,"piarp_035.wav",70
Sample,43040,0,"piarp_042.wav",70
Sample,43108,0,"_dr_009.wav",70
Sample,43108,0,"piarp_047.wav",70
Sample,43175,0,"piarp_040.wav",70
Sample,43243,0,"_ki_000.wav",70
Sample,43243,0,"_kurasshu_000.wav",70
Sample,43243,0,"piarp_052.wav",70
Sample,43243,0,"ld4x_064.wav",70
Sample,43243,0,"_dr_010.wav",70
Sample,43243,0,"ld4x_056.wav",70
Sample,43243,0,"__hyuooooooooo.wav",70
Sample,43243,0,"pd1_008.wav",70
Sample,43310,0,"piarp_037.wav",70
Sample,43367,0,"_dr_011.wav",70
Sample,43378,0,"_kurasshu_000.wav",70
Sample,43378,0,"piarp_050.wav",70
Sample,43378,0,"_ki_000.wav",70
Sample,43378,0,"_hat_000.wav",70
Sample,43445,0,"piarp_035.wav",70
Sample,43507,0,"_dr_012.wav",70
Sample,43513,0,"_sna_000.wav",70
Sample,43513,0,"piarp_042.wav",70
Sample,43581,0,"piarp_041.wav",70
Sample,43648,0,"piarp_047.wav",70
Sample,43648,0,"_ki_000.wav",70
Sample,43648,0,"_kurasshu_000.wav",70
Sample,43648,0,"ld4x_052.wav",70
Sample,43648,0,"ld4x_064.wav",70
Sample,43648,0,"_hat_000.wav",70
Sample,43648,0,"_dr_013.wav",70
Sample,43716,0,"piarp_040.wav",70
Sample,43783,0,"piarp_052.wav",70
Sample,43783,0,"_dr_014.wav",70
Sample,43845,0,"_dr_015.wav",70
Sample,43851,0,"piarp_037.wav",70
Sample,43918,0,"_ki_000.wav",70
Sample,43918,0,"_dr_016.wav",70
Sample,43918,0,"_hat_000.wav",70
Sample,43918,0,"_kurasshu_000.wav",70
Sample,43918,0,"piarp_050.wav",70
Sample,43980,0,"_dr_017.wav",70
Sample,43986,0,"piarp_035.wav",70
Sample,44048,0,"_dr_018.wav",70
Sample,44054,0,"piarp_042.wav",70
Sample,44054,0,"ld4x_066.wav",70
Sample,44054,0,"ld4x_067.wav",70
Sample,44054,0,"_sna_001.wav",70
Sample,44121,0,"_dr_019.wav",70
Sample,44121,0,"piarp_035.wav",70
Sample,44189,0,"_dr_020.wav",70
Sample,44189,0,"_kurasshu_001.wav",70
Sample,44189,0,"_ki_001.wav",70
Sample,44189,0,"_hat_001.wav",70
Sample,44189,0,"piarp_037.wav",70
Sample,44222,0,"_ki_001.wav",70
Sample,44222,0,"_kurasshu_001.wav",70
Sample,44245,0,"_dr_021.wav",70
Sample,44256,0,"_kurasshu_001.wav",70
Sample,44256,0,"piarp_052.wav",70
Sample,44256,0,"_ki_001.wav",70
Sample,44290,0,"_kurasshu_001.wav",70
Sample,44290,0,"_ki_001.wav",70
Sample,44324,0,"pd1_018.wav",70
Sample,44324,0,"_dr_000.wav",70
Sample,44324,0,"ld4x_069.wav",70
Sample,44324,0,"piarp_031.wav",70
Sample,44324,0,"ld4x_068.wav",70
Sample,44324,0,"_ki_000.wav",70
Sample,44391,0,"piarp_032.wav",70
Sample,44459,0,"piarp_033.wav",70
Sample,44459,0,"_dr_001.wav",70
Sample,44521,0,"_dr_002.wav",70
Sample,44527,0,"piarp_024.wav",70
Sample,44588,0,"_dr_003.wav",70
Sample,44594,0,"_ki_000.wav",70
Sample,44594,0,"piarp_034.wav",70
Sample,44594,0,"_sna_000.wav",70
Sample,44662,0,"piarp_035.wav",70
Sample,44729,0,"piarp_036.wav",70
Sample,44729,0,"_dr_004.wav",70
Sample,44797,0,"piarp_008.wav",70
Sample,44859,0,"_dr_005.wav",70
Sample,44864,0,"piarp_037.wav",70
Sample,44926,0,"_dr_006.wav",70
Sample,44932,0,"piarp_036.wav",70
Sample,44994,0,"_dr_007.wav",70
Sample,45000,0,"piarp_035.wav",70
Sample,45067,0,"piarp_034.wav",70
Sample,45129,0,"_dr_008.wav",70
Sample,45135,0,"piarp_024.wav",70
Sample,45135,0,"_sna_001.wav",70
Sample,45135,0,"_ki_000.wav",70
Sample,45202,0,"piarp_033.wav",70
Sample,45270,0,"_kurasshu_001.wav",70
Sample,45270,0,"_dr_009.wav",70
Sample,45270,0,"_ki_001.wav",70
Sample,45270,0,"piarp_001.wav",70
Sample,45337,0,"_ki_001.wav",70
Sample,45337,0,"piarp_031.wav",70
Sample,45337,0,"_kurasshu_001.wav",70
Sample,45405,0,"_kurasshu_000.wav",70
Sample,45405,0,"piarp_038.wav",70
Sample,45405,0,"ld4x_070.wav",70
Sample,45405,0,"_ki_000.wav",70
Sample,45405,0,"pd1_013.wav",70
Sample,45405,0,"_dr_010.wav",70
Sample,45405,0,"ld4x_071.wav",70
Sample,45472,0,"piarp_039.wav",70
Sample,45529,0,"_dr_011.wav",70
Sample,45540,0,"_hat_000.wav",70
Sample,45540,0,"_kurasshu_000.wav",70
Sample,45540,0,"piarp_040.wav",70
Sample,45608,0,"piarp_024.wav",70
Sample,45670,0,"_dr_012.wav",70
Sample,45675,0,"piarp_041.wav",70
Sample,45675,0,"_sna_000.wav",70
Sample,45743,0,"piarp_042.wav",70
Sample,45810,0,"ld4x_060.wav",70
Sample,45810,0,"ld4x_072.wav",70
Sample,45810,0,"_kurasshu_000.wav",70
Sample,45810,0,"_ki_000.wav",70
Sample,45810,0,"_hat_000.wav",70
Sample,45810,0,"piarp_005.wav",70
Sample,45810,0,"_dr_013.wav",70
Sample,45878,0,"piarp_043.wav",70
Sample,45945,0,"piarp_044.wav",70
Sample,45945,0,"_kurasshu_000.wav",70
Sample,45945,0,"_dr_014.wav",70
Sample,46007,0,"_dr_015.wav",70
Sample,46013,0,"piarp_043.wav",70
Sample,46081,0,"_dr_016.wav",70
Sample,46081,0,"_hat_000.wav",70
Sample,46081,0,"piarp_005.wav",70
Sample,46143,0,"_dr_017.wav",70
Sample,46148,0,"piarp_042.wav",70
Sample,46210,0,"_dr_018.wav",70
Sample,46216,0,"ld4x_073.wav",70
Sample,46216,0,"_kurasshu_000.wav",70
Sample,46216,0,"piarp_041.wav",70
Sample,46216,0,"_ki_000.wav",70
Sample,46216,0,"_sna_001.wav",70
Sample,46216,0,"ld4x_074.wav",70
Sample,46283,0,"_dr_019.wav",70
Sample,46283,0,"piarp_024.wav",70
Sample,46351,0,"piarp_040.wav",70
Sample,46351,0,"_ki_001.wav",70
Sample,46351,0,"_hat_001.wav",70
Sample,46351,0,"_kurasshu_001.wav",70
Sample,46351,0,"_dr_020.wav",70
Sample,46407,0,"_dr_021.wav",70
Sample,46418,0,"_kurasshu_001.wav",70
Sample,46418,0,"piarp_039.wav",70
Sample,46452,0,"_kurasshu_001.wav",70
Sample,46486,0,"ld4x_075.wav",70
Sample,46486,0,"_dr_000.wav",70
Sample,46486,0,"piarp_000.wav",70
Sample,46486,0,"_ki_000.wav",70
Sample,46486,0,"ld4x_076.wav",70
Sample,46486,0,"pd1_008.wav",70
Sample,46486,0,"_kurasshu_003.wav",70
Sample,46554,0,"piarp_001.wav",70
Sample,46621,0,"_dr_001.wav",70
Sample,46621,0,"piarp_002.wav",70
Sample,46621,0,"_hat_000.wav",70
Sample,46683,0,"_dr_002.wav",70
Sample,46689,0,"piarp_024.wav",70
Sample,46751,0,"_dr_003.wav",70
Sample,46756,0,"_sna_000.wav",70
Sample,46756,0,"_ki_000.wav",70
Sample,46756,0,"piarp_004.wav",70
Sample,46756,0,"ld4x_067.wav",70
Sample,46824,0,"piarp_005.wav",70
Sample,46891,0,"piarp_006.wav",70
Sample,46891,0,"_kurasshu_000.wav",70
Sample,46891,0,"_hat_000.wav",70
Sample,46891,0,"_dr_004.wav",70
Sample,46959,0,"piarp_008.wav",70
Sample,47021,0,"_dr_005.wav",70
Sample,47027,0,"_ki_000.wav",70
Sample,47027,0,"piarp_037.wav",70
Sample,47027,0,"ld4x_077.wav",70
Sample,47088,0,"_dr_006.wav",70
Sample,47094,0,"piarp_008.wav",70
Sample,47156,0,"_dr_007.wav",70
Sample,47162,0,"piarp_006.wav",70
Sample,47162,0,"_kurasshu_002.wav",70
Sample,47162,0,"ld4x_078.wav",70
Sample,47162,0,"_hat_000.wav",70
Sample,47229,0,"piarp_005.wav",70
Sample,47291,0,"_dr_008.wav",70
Sample,47297,0,"_sna_001.wav",70
Sample,47297,0,"piarp_004.wav",70
Sample,47297,0,"_ki_000.wav",70
Sample,47364,0,"piarp_024.wav",70
Sample,47432,0,"piarp_002.wav",70
Sample,47432,0,"_hat_001.wav",70
Sample,47432,0,"_dr_009.wav",70
Sample,47432,0,"ld4x_077.wav",70
Sample,47500,0,"piarp_001.wav",70
Sample,47567,0,"_ki_000.wav",70
Sample,47567,0,"piarp_045.wav",70
Sample,47567,0,"ld4x_075.wav",70
Sample,47567,0,"pd1_019.wav",70
Sample,47567,0,"_dr_010.wav",70
Sample,47567,0,"_kurasshu_004.wav",70
Sample,47635,0,"piarp_002.wav",70
Sample,47691,0,"_dr_011.wav",70
Sample,47702,0,"piarp_046.wav",70
Sample,47702,0,"_hat_000.wav",70
Sample,47770,0,"piarp_047.wav",70
Sample,47832,0,"_dr_012.wav",70
Sample,47837,0,"_ki_000.wav",70
Sample,47837,0,"_sna_000.wav",70
Sample,47837,0,"piarp_004.wav",70
Sample,47837,0,"ld4x_079.wav",70
Sample,47905,0,"piarp_048.wav",70
Sample,47972,0,"ld4x_056.wav",70
Sample,47972,0,"_hat_000.wav",70
Sample,47972,0,"_kurasshu_000.wav",70
Sample,47972,0,"_dr_013.wav",70
Sample,47972,0,"piarp_035.wav",70
Sample,48040,0,"piarp_006.wav",70
Sample,48040,0,"ld4x_080.wav",70
Sample,48108,0,"_dr_014.wav",70
Sample,48108,0,"pd1_020.wav",70
Sample,48108,0,"piarp_038.wav",70
Sample,48108,0,"ld4x_081.wav",70
Sample,48108,0,"piarp_049.wav",70
Sample,48170,0,"_dr_015.wav",70
Sample,48175,0,"piarp_046.wav",70
Sample,48243,0,"_ki_000.wav",70
Sample,48243,0,"_hat_000.wav",70
Sample,48243,0,"_dr_016.wav",70
Sample,48243,0,"piarp_047.wav",70
Sample,48243,0,"ld4x_082.wav",70
Sample,48305,0,"_dr_017.wav",70
Sample,48310,0,"piarp_004.wav",70
Sample,48372,0,"_dr_018.wav",70
Sample,48378,0,"ld4x_010.wav",70
Sample,48378,0,"_kurasshu_000.wav",70
Sample,48378,0,"_sna_001.wav",70
Sample,48378,0,"piarp_048.wav",70
Sample,48445,0,"piarp_035.wav",70
Sample,48445,0,"_dr_019.wav",70
Sample,48513,0,"_hat_001.wav",70
Sample,48513,0,"piarp_006.wav",70
Sample,48513,0,"_dr_020.wav",70
Sample,48513,0,"_ki_000.wav",70
Sample,48569,0,"_dr_021.wav",70
Sample,48581,0,"piarp_037.wav",70
Sample,48648,0,"ld4x_083.wav",70
Sample,48648,0,"piarp_031.wav",70
Sample,48648,0,"_ki_000.wav",70
Sample,48648,0,"_dr_000.wav",70
Sample,48648,0,"pd1_018.wav",70
Sample,48716,0,"piarp_032.wav",70
Sample,48783,0,"_dr_001.wav",70
Sample,48783,0,"_kurasshu_000.wav",70
Sample,48783,0,"piarp_033.wav",70
Sample,48783,0,"_hat_000.wav",70
Sample,48845,0,"_dr_002.wav",70
Sample,48851,0,"piarp_024.wav",70
Sample,48913,0,"_dr_003.wav",70
Sample,48918,0,"_sna_000.wav",70
Sample,48918,0,"piarp_034.wav",70
Sample,48918,0,"_ki_000.wav",70
Sample,48986,0,"piarp_035.wav",70
Sample,49054,0,"piarp_036.wav",70
Sample,49054,0,"_dr_004.wav",70
Sample,49054,0,"_hat_000.wav",70
Sample,49054,0,"_kurasshu_000.wav",70
Sample,49121,0,"piarp_008.wav",70
Sample,49183,0,"_dr_005.wav",70
Sample,49189,0,"_ki_000.wav",70
Sample,49189,0,"piarp_037.wav",70
Sample,49251,0,"_dr_006.wav",70
Sample,49256,0,"piarp_036.wav",70
Sample,49318,0,"_dr_007.wav",70
Sample,49324,0,"piarp_035.wav",70
Sample,49324,0,"_hat_000.wav",70
Sample,49324,0,"_kurasshu_000.wav",70
Sample,49391,0,"piarp_034.wav",70
Sample,49453,0,"_dr_008.wav",70
Sample,49459,0,"_kurasshu_003.wav",70
Sample,49459,0,"ld4x_084.wav",70
Sample,49459,0,"_sna_001.wav",70
Sample,49459,0,"piarp_024.wav",70
Sample,49459,0,"_ki_000.wav",70
Sample,49527,0,"piarp_033.wav",70
Sample,49594,0,"_dr_009.wav",70
Sample,49594,0,"piarp_001.wav",70
Sample,49594,0,"_hat_001.wav",70
Sample,49662,0,"piarp_031.wav",70
Sample,49729,0,"piarp_038.wav",70
Sample,49729,0,"ld4x_085.wav",70
Sample,49729,0,"_ki_000.wav",70
Sample,49729,0,"pd1_017.wav",70
Sample,49729,0,"_dr_010.wav",70
Sample,49797,0,"piarp_039.wav",70
Sample,49853,0,"_dr_011.wav",70
Sample,49864,0,"_kurasshu_000.wav",70
Sample,49864,0,"piarp_040.wav",70
Sample,49864,0,"_hat_000.wav",70
Sample,49932,0,"piarp_024.wav",70
Sample,49994,0,"_dr_012.wav",70
Sample,50000,0,"_sna_000.wav",70
Sample,50000,0,"piarp_041.wav",70
Sample,50000,0,"_kurasshu_003.wav",70
Sample,50067,0,"piarp_042.wav",70
Sample,50135,0,"_hat_000.wav",70
Sample,50135,0,"_ki_000.wav",70
Sample,50135,0,"_dr_013.wav",70
Sample,50135,0,"piarp_005.wav",70
Sample,50202,0,"piarp_043.wav",70
Sample,50270,0,"ld4x_086.wav",70
Sample,50270,0,"piarp_044.wav",70
Sample,50270,0,"_dr_014.wav",70
Sample,50332,0,"_dr_015.wav",70
Sample,50337,0,"piarp_043.wav",70
Sample,50405,0,"_hat_000.wav",70
Sample,50405,0,"_ki_000.wav",70
Sample,50405,0,"_kurasshu_002.wav",70
Sample,50405,0,"_dr_016.wav",70
Sample,50405,0,"piarp_005.wav",70
Sample,50467,0,"_dr_017.wav",70
Sample,50472,0,"piarp_042.wav",70
Sample,50534,0,"_dr_018.wav",70
Sample,50540,0,"piarp_041.wav",70
Sample,50540,0,"_sna_001.wav",70
Sample,50608,0,"piarp_024.wav",70
Sample,50608,0,"_dr_019.wav",70
Sample,50675,0,"_kurasshu_001.wav",70
Sample,50675,0,"_dr_020.wav",70
Sample,50675,0,"_hat_001.wav",70
Sample,50675,0,"_ki_001.wav",70
Sample,50675,0,"piarp_040.wav",70
Sample,50731,0,"_dr_021.wav",70
Sample,50743,0,"_ki_001.wav",70
Sample,50743,0,"piarp_039.wav",70
Sample,50743,0,"_kurasshu_001.wav",70
Sample,50810,0,"_kurasshu_005.wav",70
Sample,50810,0,"pi3_080.wav",70
Sample,50810,0,"_dr_000.wav",70
Sample,50810,0,"ld4x_089.wav",70
Sample,50810,0,"piarp_032.wav",70
Sample,50810,0,"ld4x_088.wav",70
Sample,50810,0,"pd1_021.wav",70
Sample,50810,0,"ld4x_087.wav",70
Sample,50878,0,"_kurasshu_006.wav",70
Sample,50878,0,"piarp_040.wav",70
Sample,50945,0,"_dr_001.wav",70
Sample,50945,0,"piarp_047.wav",70
Sample,50945,0,"_sna_002.wav",70
Sample,50945,0,"_hat_000.wav",70
Sample,50945,0,"_kurasshu_006.wav",70
Sample,51007,0,"_dr_002.wav",70
Sample,51013,0,"piarp_042.wav",70
Sample,51013,0,"_kurasshu_007.wav",70
Sample,51075,0,"_dr_003.wav",70
Sample,51081,0,"_kurasshu_007.wav",70
Sample,51081,0,"piarp_035.wav",70
Sample,51148,0,"piarp_050.wav",70
Sample,51148,0,"_kurasshu_008.wav",70
Sample,51216,0,"_hat_000.wav",70
Sample,51216,0,"_dr_004.wav",70
Sample,51216,0,"_kurasshu_008.wav",70
Sample,51216,0,"piarp_037.wav",70
Sample,51283,0,"piarp_051.wav",70
Sample,51283,0,"_kurasshu_008.wav",70
Sample,51345,0,"_dr_005.wav",70
Sample,51351,0,"_sna_002.wav",70
Sample,51351,0,"_kurasshu_009.wav",70
Sample,51351,0,"piarp_052.wav",70
Sample,51413,0,"_dr_006.wav",70
Sample,51418,0,"piarp_051.wav",70
Sample,51418,0,"_kurasshu_009.wav",70
Sample,51480,0,"_dr_007.wav",70
Sample,51486,0,"piarp_037.wav",70
Sample,51486,0,"_kurasshu_010.wav",70
Sample,51486,0,"_hat_000.wav",70
Sample,51554,0,"piarp_050.wav",70
Sample,51554,0,"_kurasshu_010.wav",70
Sample,51615,0,"_dr_008.wav",70
Sample,51621,0,"_kurasshu_011.wav",70
Sample,51621,0,"piarp_035.wav",70
Sample,51689,0,"piarp_042.wav",70
Sample,51689,0,"_kurasshu_011.wav",70
Sample,51756,0,"_dr_009.wav",70
Sample,51756,0,"_kurasshu_012.wav",70
Sample,51756,0,"_hat_001.wav",70
Sample,51756,0,"_sna_002.wav",70
Sample,51756,0,"piarp_047.wav",70
Sample,51824,0,"piarp_040.wav",70
Sample,51824,0,"_kurasshu_012.wav",70
Sample,51891,0,"ld4x_091.wav",70
Sample,51891,0,"_kurasshu_013.wav",70
Sample,51891,0,"piarp_045.wav",70
Sample,51891,0,"_dr_010.wav",70
Sample,51891,0,"ld4x_090.wav",70
Sample,51891,0,"ld4x_092.wav",70
Sample,51959,0,"_kurasshu_013.wav",70
Sample,51959,0,"piarp_002.wav",70
Sample,52015,0,"_dr_011.wav",70
Sample,52027,0,"piarp_046.wav",70
Sample,52027,0,"_kurasshu_014.wav",70
Sample,52027,0,"_hat_000.wav",70
Sample,52027,0,"_sna_002.wav",70
Sample,52094,0,"_kurasshu_014.wav",70
Sample,52094,0,"piarp_047.wav",70
Sample,52156,0,"_dr_012.wav",70
Sample,52162,0,"_sna_003.wav",70
Sample,52162,0,"_kurasshu_001.wav",70
Sample,52162,0,"piarp_004.wav",70
Sample,52195,0,"_sna_004.wav",70
Sample,52229,0,"_kurasshu_001.wav",70
Sample,52229,0,"piarp_048.wav",70
Sample,52229,0,"_sna_005.wav",70
Sample,52263,0,"_sna_006.wav",70
Sample,52297,0,"_sna_007.wav",70
Sample,52297,0,"_kurasshu_015.wav",70
Sample,52297,0,"piarp_035.wav",70
Sample,52297,0,"_hat_000.wav",70
Sample,52297,0,"_dr_013.wav",70
Sample,52331,0,"_sna_008.wav",70
Sample,52364,0,"_kurasshu_015.wav",70
Sample,52364,0,"piarp_006.wav",70
Sample,52364,0,"_sna_009.wav",70
Sample,52398,0,"_sna_010.wav",70
Sample,52432,0,"_sna_011.wav",70
Sample,52432,0,"_dr_014.wav",70
Sample,52432,0,"piarp_042.wav",70
Sample,52432,0,"_kurasshu_015.wav",70
Sample,52432,0,"piarp_053.wav",70
Sample,52466,0,"_sna_012.wav",70
Sample,52494,0,"_dr_015.wav",70
Sample,52500,0,"_sna_013.wav",70
Sample,52500,0,"piarp_049.wav",70
Sample,52500,0,"_kurasshu_016.wav",70
Sample,52533,0,"_sna_014.wav",70
Sample,52567,0,"_sna_015.wav",70
Sample,52567,0,"_hat_000.wav",70
Sample,52567,0,"_dr_016.wav",70
Sample,52567,0,"piarp_037.wav",70
Sample,52567,0,"_kurasshu_016.wav",70
Sample,52601,0,"_sna_016.wav",70
Sample,52629,0,"_dr_017.wav",70
Sample,52635,0,"piarp_051.wav",70
Sample,52635,0,"_sna_017.wav",70
Sample,52635,0,"_kurasshu_017.wav",70
Sample,52668,0,"_sna_018.wav",70
Sample,52697,0,"_dr_018.wav",70
Sample,52702,0,"_kurasshu_017.wav",70
Sample,52702,0,"piarp_054.wav",70
Sample,52702,0,"_sna_019.wav",70
Sample,52736,0,"_sna_020.wav",70
Sample,52770,0,"_kurasshu_018.wav",70
Sample,52770,0,"_sna_021.wav",70
Sample,52770,0,"_dr_019.wav",70
Sample,52770,0,"piarp_055.wav",70
Sample,52804,0,"_sna_022.wav",70
Sample,52837,0,"piarp_056.wav",70
Sample,52837,0,"_hat_001.wav",70
Sample,52837,0,"_sna_023.wav",70
Sample,52837,0,"_kurasshu_018.wav",70
Sample,52837,0,"_dr_020.wav",70
Sample,52871,0,"_sna_024.wav",70
Sample,52894,0,"_dr_021.wav",70
Sample,52905,0,"piarp_057.wav",70
Sample,52905,0,"_sna_025.wav",70
Sample,52905,0,"_kurasshu_019.wav",70
Sample,52939,0,"_sna_026.wav",70
Sample,53243,0,"_dr_000.wav",70
Sample,53243,0,"pd2_000.wav",70
Sample,53243,0,"pi2_004.wav",70
Sample,53243,0,"__dohyuuuuuun.wav",70
Sample,53243,0,"_ki_034.wav",70
Sample,53243,0,"__kuraaaaaaasshu.wav",70
Sample,53243,0,"pi2_003.wav",70
Sample,53243,0,"ld4x_093.wav",70
Sample,53243,0,"pi2_001.wav",70
Sample,53243,0,"ld4x_094.wav",70
Sample,53310,0,"pi2_005.wav",70
Sample,53378,0,"_kurasshu_020.wav",70
Sample,53378,0,"_dr_001.wav",70
Sample,53440,0,"_dr_002.wav",70
Sample,53445,0,"pi2_007.wav",70
Sample,53507,0,"_dr_003.wav",70
Sample,53513,0,"_ki_034.wav",70
Sample,53513,0,"_sna_000.wav",70
Sample,53581,0,"pi2_009.wav",70
Sample,53648,0,"_kurasshu_020.wav",70
Sample,53648,0,"_dr_004.wav",70
Sample,53716,0,"pi2_011.wav",70
Sample,53778,0,"_dr_005.wav",70
Sample,53783,0,"pd2_001.wav",70
Sample,53783,0,"_ki_034.wav",70
Sample,53783,0,"pd2_002.wav",70
Sample,53845,0,"_dr_006.wav",70
Sample,53851,0,"pi2_013.wav",70
Sample,53913,0,"_dr_007.wav",70
Sample,53918,0,"_kurasshu_020.wav",70
Sample,53986,0,"pi2_015.wav",70
Sample,54048,0,"_dr_008.wav",70
Sample,54054,0,"_sna_001.wav",70
Sample,54054,0,"_ki_034.wav",70
Sample,54121,0,"pi2_017.wav",70
Sample,54189,0,"_dr_009.wav",70
Sample,54189,0,"_kurasshu_020.wav",70
Sample,54256,0,"pi2_019.wav",70
Sample,54324,0,"_ki_034.wav",70
Sample,54324,0,"pd2_003.wav",70
Sample,54324,0,"_dr_010.wav",70
Sample,54391,0,"pi2_019.wav",70
Sample,54448,0,"_dr_011.wav",70
Sample,54459,0,"_kurasshu_020.wav",70
Sample,54527,0,"pi2_015.wav",70
Sample,54588,0,"_dr_012.wav",70
Sample,54594,0,"_ki_034.wav",70
Sample,54594,0,"_sna_000.wav",70
Sample,54662,0,"pi2_021.wav",70
Sample,54729,0,"_kurasshu_020.wav",70
Sample,54729,0,"_dr_013.wav",70
Sample,54797,0,"pi2_022.wav",70
Sample,54864,0,"pd2_002.wav",70
Sample,54864,0,"_dr_014.wav",70
Sample,54864,0,"_ki_034.wav",70
Sample,54926,0,"_dr_015.wav",70
Sample,54932,0,"pi2_011.wav",70
Sample,55000,0,"_dr_016.wav",70
Sample,55000,0,"_kurasshu_020.wav",70
Sample,55061,0,"_dr_017.wav",70
Sample,55067,0,"pi2_010.wav",70
Sample,55129,0,"_dr_018.wav",70
Sample,55135,0,"_sna_001.wav",70
Sample,55135,0,"_ki_034.wav",70
Sample,55202,0,"_dr_019.wav",70
Sample,55202,0,"pi2_009.wav",70
Sample,55270,0,"_dr_020.wav",70
Sample,55270,0,"_kurasshu_020.wav",70
Sample,55326,0,"_dr_021.wav",70
Sample,55337,0,"pi2_008.wav",70
Sample,55405,0,"_dr_000.wav",70
Sample,55405,0,"pi2_028.wav",70
Sample,55405,0,"pi2_026.wav",70
Sample,55405,0,"pd2_003.wav",70
Sample,55405,0,"_ki_034.wav",70
Sample,55472,0,"pi2_017.wav",70
Sample,55540,0,"_kurasshu_020.wav",70
Sample,55540,0,"_dr_001.wav",70
Sample,55602,0,"_dr_002.wav",70
Sample,55608,0,"pi2_016.wav",70
Sample,55670,0,"_dr_003.wav",70
Sample,55675,0,"_ki_034.wav",70
Sample,55675,0,"_sna_000.wav",70
Sample,55743,0,"pi2_015.wav",70
Sample,55810,0,"_dr_004.wav",70
Sample,55810,0,"_kurasshu_020.wav",70
Sample,55878,0,"pi2_029.wav",70
Sample,55940,0,"_dr_005.wav",70
Sample,55945,0,"_ki_034.wav",70
Sample,55945,0,"pd2_002.wav",70
Sample,56007,0,"_dr_006.wav",70
Sample,56013,0,"pi2_013.wav",70
Sample,56075,0,"_dr_007.wav",70
Sample,56081,0,"_kurasshu_020.wav",70
Sample,56148,0,"pi2_021.wav",70
Sample,56210,0,"_dr_008.wav",70
Sample,56216,0,"_sna_001.wav",70
Sample,56216,0,"_ki_034.wav",70
Sample,56283,0,"pi2_011.wav",70
Sample,56351,0,"_dr_009.wav",70
Sample,56351,0,"_kurasshu_020.wav",70
Sample,56418,0,"pi2_010.wav",70
Sample,56486,0,"_dr_010.wav",70
Sample,56486,0,"pd2_004.wav",70
Sample,56486,0,"pi2_033.wav",70
Sample,56486,0,"ld4x_095.wav",70
Sample,56486,0,"_ki_034.wav",70
Sample,56554,0,"pi2_030.wav",70
Sample,56610,0,"_dr_011.wav",70
Sample,56621,0,"_kurasshu_020.wav",70
Sample,56689,0,"pi2_009.wav",70
Sample,56751,0,"_dr_012.wav",70
Sample,56756,0,"_ki_034.wav",70
Sample,56756,0,"_sna_000.wav",70
Sample,56824,0,"pi2_008.wav",70
Sample,56891,0,"_kurasshu_020.wav",70
Sample,56891,0,"_dr_013.wav",70
Sample,56959,0,"pi2_006.wav",70
Sample,57027,0,"_ki_034.wav",70
Sample,57027,0,"_dr_014.wav",70
Sample,57027,0,"pd2_001.wav",70
Sample,57027,0,"pd2_005.wav",70
Sample,57088,0,"_dr_015.wav",70
Sample,57094,0,"pi2_035.wav",70
Sample,57162,0,"_dr_016.wav",70
Sample,57162,0,"_kurasshu_020.wav",70
Sample,57224,0,"_dr_017.wav",70
Sample,57229,0,"pi2_005.wav",70
Sample,57291,0,"_dr_018.wav",70
Sample,57297,0,"_sna_001.wav",70
Sample,57297,0,"_ki_034.wav",70
Sample,57364,0,"_dr_019.wav",70
Sample,57364,0,"pi2_005.wav",70
Sample,57432,0,"_dr_020.wav",70
Sample,57432,0,"_kurasshu_020.wav",70
Sample,57488,0,"_dr_021.wav",70
Sample,57500,0,"pi2_006.wav",70
Sample,57567,0,"pd2_007.wav",70
Sample,57567,0,"pi2_037.wav",70
Sample,57567,0,"ld4x_096.wav",70
Sample,57567,0,"pd2_006.wav",70
Sample,57567,0,"_dr_000.wav",70
Sample,57567,0,"_ki_034.wav",70
Sample,57635,0,"pi2_034.wav",70
Sample,57702,0,"_dr_001.wav",70
Sample,57702,0,"_kurasshu_020.wav",70
Sample,57764,0,"_dr_002.wav",70
Sample,57832,0,"_dr_003.wav",70
Sample,57837,0,"_sna_000.wav",70
Sample,57837,0,"_ki_034.wav",70
Sample,57905,0,"pi2_034.wav",70
Sample,57972,0,"_dr_004.wav",70
Sample,57972,0,"_kurasshu_020.wav",70
Sample,58040,0,"pi2_007.wav",70
Sample,58102,0,"_dr_005.wav",70
Sample,58108,0,"pd2_004.wav",70
Sample,58108,0,"pd2_008.wav",70
Sample,58108,0,"_ki_034.wav",70
Sample,58170,0,"_dr_006.wav",70
Sample,58175,0,"pi2_005.wav",70
Sample,58237,0,"_dr_007.wav",70
Sample,58243,0,"_kurasshu_020.wav",70
Sample,58372,0,"_dr_008.wav",70
Sample,58378,0,"_sna_001.wav",70
Sample,58378,0,"_ki_034.wav",70
Sample,58445,0,"pi2_007.wav",70
Sample,58513,0,"_dr_009.wav",70
Sample,58513,0,"_kurasshu_020.wav",70
Sample,58581,0,"pi2_009.wav",70
Sample,58648,0,"_dr_010.wav",70
Sample,58648,0,"pd2_001.wav",70
Sample,58648,0,"pd2_009.wav",70
Sample,58648,0,"_ki_034.wav",70
Sample,58716,0,"pi2_030.wav",70
Sample,58772,0,"_dr_011.wav",70
Sample,58783,0,"_kurasshu_020.wav",70
Sample,58913,0,"_dr_012.wav",70
Sample,58918,0,"_ki_034.wav",70
Sample,58918,0,"_sna_000.wav",70
Sample,58986,0,"pi2_011.wav",70
Sample,59054,0,"_kurasshu_020.wav",70
Sample,59054,0,"_dr_013.wav",70
Sample,59121,0,"pi2_022.wav",70
Sample,59189,0,"pd2_010.wav",70
Sample,59189,0,"pd2_003.wav",70
Sample,59189,0,"_ki_034.wav",70
Sample,59189,0,"_dr_014.wav",70
Sample,59189,0,"ld4x_097.wav",70
Sample,59251,0,"_dr_015.wav",70
Sample,59256,0,"pi2_011.wav",70
Sample,59324,0,"_kurasshu_020.wav",70
Sample,59324,0,"_dr_016.wav",70
Sample,59386,0,"_dr_017.wav",70
Sample,59453,0,"_dr_018.wav",70
Sample,59459,0,"_sna_001.wav",70
Sample,59459,0,"_ki_034.wav",70
Sample,59527,0,"_dr_019.wav",70
Sample,59527,0,"pi2_014.wav",70
Sample,59594,0,"_kurasshu_020.wav",70
Sample,59594,0,"_dr_020.wav",70
Sample,59650,0,"_dr_021.wav",70
Sample,59662,0,"pi2_017.wav",70
Sample,59729,0,"pi2_039.wav",70
Sample,59729,0,"pi2_023.wav",70
Sample,59729,0,"_ki_034.wav",70
Sample,59729,0,"pi2_041.wav",70
Sample,59729,0,"pd2_011.wav",70
Sample,59729,0,"pi2_042.wav",70
Sample,59729,0,"_dr_000.wav",70
Sample,59729,0,"pd2_012.wav",70
Sample,59864,0,"_dr_001.wav",70
Sample,59864,0,"_kurasshu_020.wav",70
Sample,59926,0,"_dr_002.wav",70
Sample,59994,0,"_dr_003.wav",70
Sample,60000,0,"_ki_034.wav",70
Sample,60000,0,"pi2_023.wav",70
Sample,60000,0,"_sna_000.wav",70
Sample,60000,0,"pi2_013.wav",70
Sample,60067,0,"pi2_021.wav",70
Sample,60135,0,"_kurasshu_020.wav",70
Sample,60135,0,"pi2_011.wav",70
Sample,60135,0,"_dr_004.wav",70
Sample,60202,0,"pi2_010.wav",70
Sample,60264,0,"_dr_005.wav",70
Sample,60270,0,"pi2_013.wav",70
Sample,60270,0,"pd2_003.wav",70
Sample,60270,0,"pi2_023.wav",70
Sample,60270,0,"pd2_008.wav",70
Sample,60270,0,"_ki_034.wav",70
Sample,60332,0,"_dr_006.wav",70
Sample,60337,0,"pi2_021.wav",70
Sample,60399,0,"_dr_007.wav",70
Sample,60405,0,"_kurasshu_020.wav",70
Sample,60405,0,"pi2_011.wav",70
Sample,60472,0,"pi2_010.wav",70
Sample,60534,0,"_dr_008.wav",70
Sample,60540,0,"pi2_023.wav",70
Sample,60540,0,"_ki_034.wav",70
Sample,60540,0,"_sna_001.wav",70
Sample,60540,0,"pi2_013.wav",70
Sample,60608,0,"pi2_021.wav",70
Sample,60675,0,"_dr_009.wav",70
Sample,60675,0,"pi2_011.wav",70
Sample,60675,0,"_kurasshu_020.wav",70
Sample,60743,0,"pi2_010.wav",70
Sample,60810,0,"_dr_010.wav",70
Sample,60810,0,"pd2_004.wav",70
Sample,60810,0,"pd2_013.wav",70
Sample,60810,0,"_ki_034.wav",70
Sample,60810,0,"ld4x_098.wav",70
Sample,60878,0,"pi2_011.wav",70
Sample,60934,0,"_dr_011.wav",70
Sample,60945,0,"_kurasshu_020.wav",70
Sample,61013,0,"pi2_009.wav",70
Sample,61075,0,"_dr_012.wav",70
Sample,61081,0,"_sna_000.wav",70
Sample,61081,0,"_ki_034.wav",70
Sample,61148,0,"pi2_040.wav",70
Sample,61216,0,"_dr_013.wav",70
Sample,61216,0,"_kurasshu_020.wav",70
Sample,61283,0,"pi2_006.wav",70
Sample,61351,0,"pd2_014.wav",70
Sample,61351,0,"_dr_014.wav",70
Sample,61351,0,"pd2_008.wav",70
Sample,61351,0,"_ki_034.wav",70
Sample,61413,0,"_dr_015.wav",70
Sample,61418,0,"pi2_005.wav",70
Sample,61486,0,"_kurasshu_020.wav",70
Sample,61486,0,"_dr_016.wav",70
Sample,61548,0,"_dr_017.wav",70
Sample,61554,0,"pi2_000.wav",70
Sample,61615,0,"_dr_018.wav",70
Sample,61621,0,"_ki_034.wav",70
Sample,61621,0,"_sna_001.wav",70
Sample,61689,0,"_dr_019.wav",70
Sample,61689,0,"pi2_044.wav",70
Sample,61756,0,"_kurasshu_020.wav",70
Sample,61756,0,"_dr_020.wav",70
Sample,61813,0,"_dr_021.wav",70
Sample,61824,0,"pi2_046.wav",70
Sample,61891,0,"_ki_034.wav",70
Sample,61891,0,"pd2_015.wav",70
Sample,61891,0,"ld4x_099.wav",70
Sample,61891,0,"_dr_000.wav",70
Sample,61959,0,"pi2_044.wav",70
Sample,62027,0,"_kurasshu_020.wav",70
Sample,62027,0,"_dr_001.wav",70
Sample,62088,0,"_dr_002.wav",70
Sample,62094,0,"pi2_036.wav",70
Sample,62156,0,"_dr_003.wav",70
Sample,62162,0,"_ki_034.wav",70
Sample,62162,0,"_sna_000.wav",70
Sample,62229,0,"pi2_048.wav",70
Sample,62297,0,"_kurasshu_020.wav",70
Sample,62297,0,"_dr_004.wav",70
Sample,62364,0,"pi2_035.wav",70
Sample,62426,0,"_dr_005.wav",70
Sample,62432,0,"pd2_010.wav",70
Sample,62432,0,"_ki_034.wav",70
Sample,62494,0,"_dr_006.wav",70
Sample,62500,0,"pi2_007.wav",70
Sample,62561,0,"_dr_007.wav",70
Sample,62567,0,"_kurasshu_020.wav",70
Sample,62635,0,"pi2_040.wav",70
Sample,62697,0,"_dr_008.wav",70
Sample,62702,0,"_ki_034.wav",70
Sample,62702,0,"_sna_001.wav",70
Sample,62770,0,"pi2_009.wav",70
Sample,62837,0,"_dr_009.wav",70
Sample,62837,0,"_kurasshu_020.wav",70
Sample,62905,0,"pi2_024.wav",70
Sample,62972,0,"_ki_034.wav",70
Sample,62972,0,"_dr_010.wav",70
Sample,62972,0,"pd2_006.wav",70
Sample,63040,0,"pi2_030.wav",70
Sample,63096,0,"_dr_011.wav",70
Sample,63108,0,"_kurasshu_020.wav",70
Sample,63175,0,"pi2_011.wav",70
Sample,63237,0,"_dr_012.wav",70
Sample,63243,0,"_ki_034.wav",70
Sample,63243,0,"_sna_000.wav",70
Sample,63310,0,"pi2_021.wav",70
Sample,63378,0,"_dr_013.wav",70
Sample,63378,0,"_kurasshu_020.wav",70
Sample,63445,0,"pi2_029.wav",70
Sample,63513,0,"pd2_003.wav",70
Sample,63513,0,"_dr_014.wav",70
Sample,63513,0,"_ki_034.wav",70
Sample,63575,0,"_dr_015.wav",70
Sample,63581,0,"pi2_015.wav",70
Sample,63648,0,"_dr_016.wav",70
Sample,63648,0,"_kurasshu_020.wav",70
Sample,63710,0,"_dr_017.wav",70
Sample,63716,0,"pi2_050.wav",70
Sample,63778,0,"_dr_018.wav",70
Sample,63783,0,"_ki_034.wav",70
Sample,63783,0,"_sna_001.wav",70
Sample,63851,0,"_dr_019.wav",70
Sample,63851,0,"pi2_050.wav",70
Sample,63918,0,"_kurasshu_020.wav",70
Sample,63918,0,"_dr_020.wav",70
Sample,63975,0,"_dr_021.wav",70
Sample,63986,0,"pi2_050.wav",70
Sample,64054,0,"_ki_034.wav",70
Sample,64054,0,"_dr_000.wav",70
Sample,64054,0,"pd2_002.wav",70
Sample,64121,0,"pi2_015.wav",70
Sample,64189,0,"_dr_001.wav",70
Sample,64189,0,"_kurasshu_020.wav",70
Sample,64251,0,"_dr_002.wav",70
Sample,64256,0,"pi2_014.wav",70
Sample,64318,0,"_dr_003.wav",70
Sample,64324,0,"_sna_000.wav",70
Sample,64324,0,"_ki_034.wav",70
Sample,64391,0,"pi2_014.wav",70
Sample,64459,0,"_dr_004.wav",70
Sample,64459,0,"_kurasshu_020.wav",70
Sample,64527,0,"pi2_021.wav",70
Sample,64588,0,"_dr_005.wav",70
Sample,64594,0,"pd2_004.wav",70
Sample,64594,0,"_ki_034.wav",70
Sample,64656,0,"_dr_006.wav",70
Sample,64662,0,"pi2_021.wav",70
Sample,64724,0,"_dr_007.wav",70
Sample,64729,0,"_kurasshu_020.wav",70
Sample,64797,0,"pi2_022.wav",70
Sample,64859,0,"_dr_008.wav",70
Sample,64864,0,"_ki_034.wav",70
Sample,64864,0,"_sna_001.wav",70
Sample,64932,0,"pi2_013.wav",70
Sample,65000,0,"_kurasshu_020.wav",70
Sample,65000,0,"_dr_009.wav",70
Sample,65067,0,"pi2_013.wav",70
Sample,65135,0,"pd2_006.wav",70
Sample,65135,0,"_ki_034.wav",70
Sample,65202,0,"pi2_011.wav",70
Sample,65259,0,"_dr_011.wav",70
Sample,65270,0,"_kurasshu_020.wav",70
Sample,65337,0,"pi2_023.wav",70
Sample,65399,0,"_dr_012.wav",70
Sample,65405,0,"_ki_034.wav",70
Sample,65405,0,"pi2_006.wav",70
Sample,65405,0,"_sna_000.wav",70
Sample,65472,0,"pi2_008.wav",70
Sample,65472,0,"pi2_035.wav",70
Sample,65540,0,"pi2_005.wav",70
Sample,65540,0,"_kurasshu_020.wav",70
Sample,65540,0,"_dr_013.wav",70
Sample,65608,0,"pi2_007.wav",70
Sample,65608,0,"pi2_034.wav",70
Sample,65675,0,"pi2_036.wav",70
Sample,65675,0,"_dr_014.wav",70
Sample,65675,0,"_ki_034.wav",70
Sample,65675,0,"pd2_010.wav",70
Sample,65737,0,"_dr_015.wav",70
Sample,65743,0,"pi2_035.wav",70
Sample,65743,0,"pi2_048.wav",70
Sample,65810,0,"pi2_000.wav",70
Sample,65810,0,"_dr_016.wav",70
Sample,65810,0,"_kurasshu_020.wav",70
Sample,65872,0,"_dr_017.wav",70
Sample,65878,0,"pi2_043.wav",70
Sample,65878,0,"pi2_034.wav",70
Sample,65940,0,"_dr_018.wav",70
Sample,65945,0,"_sna_001.wav",70
Sample,65945,0,"pi2_044.wav",70
Sample,65945,0,"_ki_034.wav",70
Sample,66013,0,"pi2_045.wav",70
Sample,66013,0,"_dr_019.wav",70
Sample,66013,0,"pi2_034.wav",70
Sample,66081,0,"_kurasshu_020.wav",70
Sample,66081,0,"pi2_046.wav",70
Sample,66081,0,"_dr_020.wav",70
Sample,66137,0,"_dr_021.wav",70
Sample,66148,0,"pi2_034.wav",70
Sample,66148,0,"pi2_051.wav",70
Sample,66216,0,"pd2_006.wav",70
Sample,66216,0,"ld4x_100.wav",70
Sample,66216,0,"_ki_034.wav",70
Sample,66216,0,"pd2_016.wav",70
Sample,66216,0,"_dr_000.wav",70
Sample,66283,0,"pi2_005.wav",70
Sample,66351,0,"_kurasshu_020.wav",70
Sample,66351,0,"_dr_001.wav",70
Sample,66413,0,"_dr_002.wav",70
Sample,66418,0,"pi2_035.wav",70
Sample,66480,0,"_dr_003.wav",70
Sample,66486,0,"_sna_000.wav",70
Sample,66486,0,"_ki_034.wav",70
Sample,66554,0,"pi2_007.wav",70
Sample,66621,0,"_kurasshu_020.wav",70
Sample,66621,0,"_dr_004.wav",70
Sample,66689,0,"pi2_007.wav",70
Sample,66751,0,"_dr_005.wav",70
Sample,66756,0,"_ki_034.wav",70
Sample,66756,0,"pd2_004.wav",70
Sample,66818,0,"_dr_006.wav",70
Sample,66824,0,"pi2_008.wav",70
Sample,66886,0,"_dr_007.wav",70
Sample,66891,0,"_kurasshu_020.wav",70
Sample,66959,0,"pi2_024.wav",70
Sample,67021,0,"_dr_008.wav",70
Sample,67027,0,"_ki_034.wav",70
Sample,67027,0,"_sna_001.wav",70
Sample,67094,0,"pi2_023.wav",70
Sample,67162,0,"_kurasshu_020.wav",70
Sample,67162,0,"_dr_009.wav",70
Sample,67229,0,"pi2_010.wav",70
Sample,67297,0,"_ki_034.wav",70
Sample,67297,0,"pd2_009.wav",70
Sample,67297,0,"_dr_010.wav",70
Sample,67364,0,"pi2_023.wav",70
Sample,67421,0,"_dr_011.wav",70
Sample,67432,0,"_kurasshu_020.wav",70
Sample,67500,0,"pi2_022.wav",70
Sample,67561,0,"_dr_012.wav",70
Sample,67567,0,"_sna_000.wav",70
Sample,67567,0,"_ki_034.wav",70
Sample,67635,0,"pi2_022.wav",70
Sample,67702,0,"_kurasshu_020.wav",70
Sample,67702,0,"_dr_013.wav",70
Sample,67770,0,"pi2_021.wav",70
Sample,67837,0,"pd2_002.wav",70
Sample,67837,0,"_dr_014.wav",70
Sample,67837,0,"_ki_034.wav",70
Sample,67899,0,"_dr_015.wav",70
Sample,67905,0,"pi2_014.wav",70
Sample,67972,0,"_kurasshu_020.wav",70
Sample,67972,0,"_dr_016.wav",70
Sample,68034,0,"_dr_017.wav",70
Sample,68040,0,"pi2_013.wav",70
Sample,68102,0,"_dr_018.wav",70
Sample,68108,0,"_sna_001.wav",70
Sample,68108,0,"_ki_034.wav",70
Sample,68175,0,"pi2_029.wav",70
Sample,68175,0,"_dr_019.wav",70
Sample,68243,0,"_dr_020.wav",70
Sample,68243,0,"_kurasshu_020.wav",70
Sample,68299,0,"_dr_021.wav",70
Sample,68310,0,"pi2_016.wav",70
Sample,68378,0,"pd2_009.wav",70
Sample,68378,0,"_dr_000.wav",70
Sample,68378,0,"pi2_050.wav",70
Sample,68378,0,"pd2_017.wav",70
Sample,68378,0,"_ki_034.wav",70
Sample,68378,0,"pd2_018.wav",70
Sample,68445,0,"pi2_055.wav",70
Sample,68513,0,"_dr_001.wav",70
Sample,68513,0,"_kurasshu_020.wav",70
Sample,68547,0,"pi2_058.wav",70
Sample,68575,0,"_dr_002.wav",70
Sample,68643,0,"_dr_003.wav",70
Sample,68648,0,"pi2_061.wav",70
Sample,68648,0,"_sna_000.wav",70
Sample,68648,0,"pi2_063.wav",70
Sample,68648,0,"pi2_065.wav",70
Sample,68648,0,"_ki_034.wav",70
Sample,68648,0,"pi2_064.wav",70
Sample,68783,0,"_dr_004.wav",70
Sample,68783,0,"_kurasshu_020.wav",70
Sample,68913,0,"_dr_005.wav",70
Sample,68918,0,"pi2_009.wav",70
Sample,68918,0,"_ki_034.wav",70
Sample,68918,0,"pd2_002.wav",70
Sample,68918,0,"pi2_021.wav",70
Sample,68918,0,"pi2_030.wav",70
Sample,68980,0,"_dr_006.wav",70
Sample,69048,0,"_dr_007.wav",70
Sample,69054,0,"_kurasshu_020.wav",70
Sample,69183,0,"_dr_008.wav",70
Sample,69189,0,"_sna_001.wav",70
Sample,69189,0,"_ki_034.wav",70
Sample,69324,0,"_kurasshu_020.wav",70
Sample,69324,0,"_dr_009.wav",70
Sample,69459,0,"pd2_019.wav",70
Sample,69459,0,"pd2_018.wav",70
Sample,69459,0,"_ki_034.wav",70
Sample,69459,0,"pd2_020.wav",70
Sample,69459,0,"_dr_010.wav",70
Sample,69583,0,"_dr_011.wav",70
Sample,69594,0,"_kurasshu_020.wav",70
Sample,69724,0,"_dr_012.wav",70
Sample,69729,0,"_ki_034.wav",70
Sample,69729,0,"_sna_000.wav",70
Sample,69864,0,"_kurasshu_020.wav",70
Sample,69864,0,"_dr_013.wav",70
Sample,70000,0,"pd2_021.wav",70
Sample,70000,0,"_ki_034.wav",70
Sample,70000,0,"_dr_014.wav",70
Sample,70061,0,"_dr_015.wav",70
Sample,70135,0,"_dr_016.wav",70
Sample,70135,0,"_kurasshu_020.wav",70
Sample,70197,0,"_dr_017.wav",70
Sample,70264,0,"_dr_018.wav",70
Sample,70270,0,"_ki_034.wav",70
Sample,70270,0,"_sna_001.wav",70
Sample,70337,0,"_dr_019.wav",70
Sample,70405,0,"_kurasshu_020.wav",70
Sample,70405,0,"_dr_020.wav",70
Sample,70461,0,"_dr_021.wav",70
Sample,70540,0,"pi2_068.wav",70
Sample,70540,0,"hue_000.wav",70
Sample,70540,0,"ld4x_097.wav",70
Sample,70540,0,"pi2_000.wav",70
Sample,70540,0,"pd2_000.wav",70
Sample,70540,0,"_dr_000.wav",70
Sample,70608,0,"pi2_048.wav",70
Sample,70675,0,"pi2_036.wav",70
Sample,70675,0,"_dr_001.wav",70
Sample,70737,0,"_dr_002.wav",70
Sample,70743,0,"pi2_035.wav",70
Sample,70805,0,"_dr_003.wav",70
Sample,70810,0,"pi2_005.wav",70
Sample,70878,0,"pi2_034.wav",70
Sample,70945,0,"pi2_035.wav",70
Sample,70945,0,"_dr_004.wav",70
Sample,71013,0,"pi2_006.wav",70
Sample,71075,0,"_dr_005.wav",70
Sample,71081,0,"pd2_001.wav",70
Sample,71081,0,"pi2_007.wav",70
Sample,71143,0,"_dr_006.wav",70
Sample,71148,0,"pi2_040.wav",70
Sample,71210,0,"_dr_007.wav",70
Sample,71216,0,"pi2_008.wav",70
Sample,71283,0,"pi2_023.wav",70
Sample,71345,0,"_dr_008.wav",70
Sample,71351,0,"pi2_024.wav",70
Sample,71418,0,"pi2_008.wav",70
Sample,71486,0,"_dr_009.wav",70
Sample,71486,0,"pi2_023.wav",70
Sample,71554,0,"pi2_030.wav",70
Sample,71621,0,"_dr_010.wav",70
Sample,71621,0,"pi2_010.wav",70
Sample,71621,0,"pd2_005.wav",70
Sample,71689,0,"pi2_022.wav",70
Sample,71745,0,"_dr_011.wav",70
Sample,71756,0,"pi2_023.wav",70
Sample,71824,0,"pi2_022.wav",70
Sample,71886,0,"_dr_012.wav",70
Sample,71891,0,"pi2_058.wav",70
Sample,71925,0,"pi2_069.wav",70
Sample,71959,0,"pi2_059.wav",70
Sample,71993,0,"pi2_057.wav",70
Sample,72027,0,"_dr_013.wav",70
Sample,72027,0,"pi2_070.wav",70
Sample,72060,0,"pi2_071.wav",70
Sample,72094,0,"pi2_059.wav",70
Sample,72128,0,"pi2_058.wav",70
Sample,72162,0,"pi2_069.wav",70
Sample,72162,0,"hue_001.wav",70
Sample,72162,0,"ld4x_096.wav",70
Sample,72162,0,"pd2_002.wav",70
Sample,72162,0,"_dr_014.wav",70
Sample,72162,0,"pi2_072.wav",70
Sample,72195,0,"pi2_071.wav",70
Sample,72224,0,"_dr_015.wav",70
Sample,72229,0,"pi2_076.wav",70
Sample,72229,0,"pi2_057.wav",70
Sample,72263,0,"pi2_077.wav",70
Sample,72297,0,"pi2_070.wav",70
Sample,72297,0,"_dr_016.wav",70
Sample,72297,0,"pi2_078.wav",70
Sample,72331,0,"pi2_058.wav",70
Sample,72359,0,"_dr_017.wav",70
Sample,72364,0,"pi2_070.wav",70
Sample,72364,0,"pi2_046.wav",70
Sample,72398,0,"pi2_059.wav",70
Sample,72426,0,"_dr_018.wav",70
Sample,72432,0,"pi2_074.wav",70
Sample,72432,0,"pi2_073.wav",70
Sample,72432,0,"pi2_045.wav",70
Sample,72432,0,"pi2_021.wav",70
Sample,72432,0,"pi2_075.wav",70
Sample,72432,0,"pi2_015.wav",70
Sample,72500,0,"pi2_014.wav",70
Sample,72500,0,"pi2_079.wav",70
Sample,72500,0,"_dr_019.wav",70
Sample,72567,0,"pi2_015.wav",70
Sample,72567,0,"pi2_080.wav",70
Sample,72567,0,"_dr_020.wav",70
Sample,72623,0,"_dr_021.wav",70
Sample,72635,0,"pi2_016.wav",70
Sample,72635,0,"pi2_081.wav",70
Sample,72702,0,"pd2_003.wav",70
Sample,72702,0,"pi2_014.wav",70
Sample,72702,0,"pi2_005.wav",70
Sample,72702,0,"_dr_000.wav",70
Sample,72770,0,"pi2_006.wav",70
Sample,72770,0,"pi2_015.wav",70
Sample,72837,0,"pi2_040.wav",70
Sample,72837,0,"pi2_050.wav",70
Sample,72837,0,"_dr_001.wav",70
Sample,72899,0,"_dr_002.wav",70
Sample,72905,0,"pi2_017.wav",70
Sample,72905,0,"pi2_024.wav",70
Sample,72967,0,"_dr_003.wav",70
Sample,72972,0,"pi2_009.wav",70
Sample,72972,0,"pi2_015.wav",70
Sample,73040,0,"pi2_014.wav",70
Sample,73040,0,"pi2_023.wav",70
Sample,73108,0,"_dr_004.wav",70
Sample,73108,0,"pi2_013.wav",70
Sample,73108,0,"pi2_030.wav",70
Sample,73175,0,"pi2_010.wav",70
Sample,73175,0,"pi2_021.wav",70
Sample,73237,0,"_dr_005.wav",70
Sample,73243,0,"pi2_011.wav",70
Sample,73243,0,"pd2_002.wav",70
Sample,73305,0,"_dr_006.wav",70
Sample,73310,0,"pi2_012.wav",70
Sample,73372,0,"_dr_007.wav",70
Sample,73378,0,"pi2_021.wav",70
Sample,73445,0,"pi2_013.wav",70
Sample,73507,0,"_dr_008.wav",70
Sample,73513,0,"pi2_014.wav",70
Sample,73513,0,"pi2_082.wav",70
Sample,73581,0,"pi2_029.wav",70
Sample,73648,0,"pi2_016.wav",70
Sample,73648,0,"_dr_009.wav",70
Sample,73716,0,"pi2_017.wav",70
Sample,73783,0,"hue_002.wav",70
Sample,73783,0,"pi2_044.wav",70
Sample,73783,0,"_dr_010.wav",70
Sample,73783,0,"pd2_004.wav",70
Sample,73783,0,"ld4x_095.wav",70
Sample,73783,0,"pi2_083.wav",70
Sample,73783,0,"pi2_020.wav",70
Sample,73851,0,"pi2_019.wav",70
Sample,73851,0,"pi2_048.wav",70
Sample,73907,0,"_dr_011.wav",70
Sample,73918,0,"pi2_034.wav",70
Sample,73918,0,"pi2_017.wav",70
Sample,73986,0,"pi2_016.wav",70
Sample,73986,0,"pi2_005.wav",70
Sample,74048,0,"_dr_012.wav",70
Sample,74054,0,"pi2_044.wav",70
Sample,74054,0,"pi2_015.wav",70
Sample,74054,0,"pi2_007.wav",70
Sample,74121,0,"pi2_043.wav",70
Sample,74121,0,"pi2_014.wav",70
Sample,74189,0,"_dr_013.wav",70
Sample,74189,0,"pi2_013.wav",70
Sample,74189,0,"pi2_000.wav",70
Sample,74256,0,"pi2_021.wav",70
Sample,74256,0,"pi2_036.wav",70
Sample,74324,0,"pi2_034.wav",70
Sample,74324,0,"pi2_011.wav",70
Sample,74324,0,"_dr_014.wav",70
Sample,74324,0,"pi2_086.wav",70
Sample,74324,0,"pd2_001.wav",70
Sample,74386,0,"_dr_015.wav",70
Sample,74391,0,"pi2_005.wav",70
Sample,74391,0,"pi2_022.wav",70
Sample,74459,0,"_dr_016.wav",70
Sample,74459,0,"pi2_030.wav",70
Sample,74459,0,"pi2_035.wav",70
Sample,74521,0,"_dr_017.wav",70
Sample,74527,0,"pi2_006.wav",70
Sample,74527,0,"pi2_023.wav",70
Sample,74588,0,"_dr_018.wav",70
Sample,74594,0,"pi2_007.wav",70
Sample,74594,0,"pi2_009.wav",70
Sample,74662,0,"_dr_019.wav",70
Sample,74662,0,"pi2_008.wav",70
Sample,74729,0,"pi2_023.wav",70
Sample,74729,0,"_dr_020.wav",70
Sample,74786,0,"_dr_021.wav",70
Sample,74797,0,"pi2_030.wav",70
Sample,74864,0,"hue_003.wav",70
Sample,74864,0,"pi2_090.wav",70
Sample,74864,0,"_dr_000.wav",70
Sample,74864,0,"pd2_022.wav",70
Sample,74864,0,"ld4x_101.wav",70
Sample,74864,0,"pi2_091.wav",70
Sample,74864,0,"pi2_029.wav",70
Sample,74932,0,"pi2_013.wav",70
Sample,75000,0,"pi2_021.wav",70
Sample,75000,0,"_dr_001.wav",70
Sample,75061,0,"_dr_002.wav",70
Sample,75067,0,"pi2_011.wav",70
Sample,75129,0,"_dr_003.wav",70
Sample,75135,0,"pi2_010.wav",70
Sample,75202,0,"pi2_030.wav",70
Sample,75270,0,"pi2_023.wav",70
Sample,75270,0,"_dr_004.wav",70
Sample,75337,0,"pi2_024.wav",70
Sample,75399,0,"_dr_005.wav",70
Sample,75405,0,"pi2_040.wav",70
Sample,75405,0,"pd2_008.wav",70
Sample,75467,0,"_dr_006.wav",70
Sample,75472,0,"pi2_006.wav",70
Sample,75534,0,"_dr_007.wav",70
Sample,75540,0,"pi2_005.wav",70
Sample,75608,0,"pi2_048.wav",70
Sample,75670,0,"_dr_008.wav",70
Sample,75675,0,"pi2_079.wav",70
Sample,75743,0,"pi2_092.wav",70
Sample,75810,0,"_dr_009.wav",70
Sample,75810,0,"pi2_093.wav",70
Sample,75878,0,"pi2_094.wav",70
Sample,75945,0,"pi2_095.wav",70
Sample,75945,0,"pd2_004.wav",70
Sample,75945,0,"_dr_010.wav",70
Sample,75945,0,"pi2_096.wav",70
Sample,75945,0,"pi2_023.wav",70
Sample,76013,0,"pi2_030.wav",70
Sample,76013,0,"pi2_097.wav",70
Sample,76069,0,"_dr_011.wav",70
Sample,76081,0,"pi2_098.wav",70
Sample,76081,0,"pi2_010.wav",70
Sample,76148,0,"pi2_022.wav",70
Sample,76148,0,"pi2_099.wav",70
Sample,76210,0,"_dr_012.wav",70
Sample,76216,0,"pi2_100.wav",70
Sample,76216,0,"pi2_011.wav",70
Sample,76283,0,"pi2_012.wav",70
Sample,76283,0,"pi2_101.wav",70
Sample,76351,0,"pi2_102.wav",70
Sample,76351,0,"_dr_013.wav",70
Sample,76351,0,"pi2_021.wav",70
Sample,76418,0,"pi2_012.wav",70
Sample,76418,0,"pi2_103.wav",70
Sample,76486,0,"pi2_021.wav",70
Sample,76486,0,"hue_004.wav",70
Sample,76486,0,"ld4x_102.wav",70
Sample,76486,0,"pd2_003.wav",70
Sample,76486,0,"pi2_101.wav",70
Sample,76486,0,"_dr_014.wav",70
Sample,76548,0,"_dr_015.wav",70
Sample,76554,0,"pi2_100.wav",70
Sample,76554,0,"pi2_012.wav",70
Sample,76621,0,"_dr_016.wav",70
Sample,76621,0,"pi2_099.wav",70
Sample,76621,0,"pi2_021.wav",70
Sample,76683,0,"_dr_017.wav",70
Sample,76689,0,"pi2_012.wav",70
Sample,76689,0,"pi2_105.wav",70
Sample,76751,0,"_dr_018.wav",70
Sample,76756,0,"pi2_013.wav",70
Sample,76756,0,"pi2_097.wav",70
Sample,76824,0,"pi2_014.wav",70
Sample,76824,0,"_dr_019.wav",70
Sample,76824,0,"pi2_106.wav",70
Sample,76891,0,"pi2_094.wav",70
Sample,76891,0,"_dr_020.wav",70
Sample,76891,0,"pi2_107.wav",70
Sample,76948,0,"_dr_021.wav",70
Sample,76959,0,"pi2_093.wav",70
Sample,76959,0,"pi2_016.wav",70
Sample,77027,0,"pd2_017.wav",70
Sample,77027,0,"_dr_000.wav",70
Sample,77027,0,"pi2_108.wav",70
Sample,77027,0,"pd2_011.wav",70
Sample,77094,0,"pi2_109.wav",70
Sample,77094,0,"pi2_015.wav",70
Sample,77162,0,"pi2_079.wav",70
Sample,77162,0,"pi2_014.wav",70
Sample,77162,0,"_dr_001.wav",70
Sample,77224,0,"_dr_002.wav",70
Sample,77229,0,"pi2_021.wav",70
Sample,77229,0,"pi2_048.wav",70
Sample,77291,0,"_dr_003.wav",70
Sample,77297,0,"pi2_036.wav",70
Sample,77297,0,"pi2_013.wav",70
Sample,77364,0,"pi2_021.wav",70
Sample,77364,0,"pi2_005.wav",70
Sample,77432,0,"pi2_035.wav",70
Sample,77432,0,"_dr_004.wav",70
Sample,77432,0,"pi2_011.wav",70
Sample,77500,0,"pi2_020.wav",70
Sample,77500,0,"pi2_006.wav",70
Sample,77500,0,"pi2_030.wav",70
Sample,77561,0,"_dr_005.wav",70
Sample,77567,0,"pi2_007.wav",70
Sample,77567,0,"pd2_002.wav",70
Sample,77567,0,"pi2_017.wav",70
Sample,77629,0,"_dr_006.wav",70
Sample,77635,0,"pi2_016.wav",70
Sample,77635,0,"pi2_040.wav",70
Sample,77697,0,"_dr_007.wav",70
Sample,77702,0,"pi2_008.wav",70
Sample,77702,0,"pi2_029.wav",70
Sample,77770,0,"pi2_021.wav",70
Sample,77770,0,"pi2_024.wav",70
Sample,77832,0,"_dr_008.wav",70
Sample,77837,0,"pi2_022.wav",70
Sample,77837,0,"pi2_009.wav",70
Sample,77905,0,"pi2_030.wav",70
Sample,77972,0,"_dr_009.wav",70
Sample,77972,0,"pi2_023.wav",70
Sample,78040,0,"pi2_009.wav",70
Sample,78108,0,"pi2_110.wav",70
Sample,78108,0,"pd2_003.wav",70
Sample,78108,0,"pd2_020.wav",70
Sample,78108,0,"__hyuooooooooo.wav",70
Sample,78108,0,"_dr_010.wav",70
Sample,78108,0,"ld4x_098.wav",70
Sample,78108,0,"hue_005.wav",70
Sample,78108,0,"ld4x_095.wav",70
Sample,78231,0,"_dr_011.wav",70
Sample,78372,0,"_dr_012.wav",70
Sample,78378,0,"pi2_009.wav",70
Sample,78378,0,"pi2_015.wav",70
Sample,78445,0,"pi2_029.wav",70
Sample,78445,0,"pi2_024.wav",70
Sample,78513,0,"_dr_013.wav",70
Sample,78513,0,"pi2_013.wav",70
Sample,78513,0,"pi2_008.wav",70
Sample,78581,0,"pi2_040.wav",70
Sample,78581,0,"pi2_021.wav",70
Sample,78648,0,"_dr_014.wav",70
Sample,78648,0,"pi2_007.wav",70
Sample,78648,0,"pi2_012.wav",70
Sample,78648,0,"pd2_004.wav",70
Sample,78710,0,"_dr_015.wav",70
Sample,78716,0,"pi2_006.wav",70
Sample,78716,0,"pi2_011.wav",70
Sample,78783,0,"pi2_023.wav",70
Sample,78783,0,"_dr_016.wav",70
Sample,78783,0,"pi2_035.wav",70
Sample,78845,0,"_dr_017.wav",70
Sample,78851,0,"pi2_009.wav",70
Sample,78851,0,"pi2_005.wav",70
Sample,78913,0,"_dr_018.wav",70
Sample,78918,0,"pi2_034.wav",70
Sample,78918,0,"pi2_023.wav",70
Sample,78986,0,"_dr_019.wav",70
Sample,78986,0,"pi2_048.wav",70
Sample,78986,0,"pi2_030.wav",70
Sample,79054,0,"_dr_020.wav",70
Sample,79054,0,"pi2_022.wav",70
Sample,79054,0,"pi2_000.wav",70
Sample,79110,0,"_dr_021.wav",70
Sample,79121,0,"pi2_044.wav",70
Sample,79121,0,"pi2_012.wav",70
Sample,79189,0,"pd2_015.wav",70
Sample,79189,0,"_dr_000.wav",70
Sample,79189,0,"pi2_003.wav",70
Sample,79189,0,"ld4x_099.wav",70
Sample,79189,0,"pi2_110.wav",70
Sample,79189,0,"hue_007.wav",70
Sample,79189,0,"pi2_115.wav",70
Sample,79189,0,"pi2_112.wav",70
Sample,79189,0,"ld4x_103.wav",70
Sample,79324,0,"_dr_001.wav",70
Sample,79386,0,"_dr_002.wav",70
Sample,79453,0,"_dr_003.wav",70
Sample,79459,0,"pi2_116.wav",70
Sample,79527,0,"pi2_040.wav",70
Sample,79594,0,"_dr_004.wav",70
Sample,79594,0,"pi2_008.wav",70
Sample,79662,0,"pi2_024.wav",70
Sample,79724,0,"_dr_005.wav",70
Sample,79729,0,"pd2_010.wav",70
Sample,79729,0,"pi2_009.wav",70
Sample,79791,0,"_dr_006.wav",70
Sample,79797,0,"pi2_023.wav",70
Sample,79859,0,"_dr_007.wav",70
Sample,79864,0,"pi2_030.wav",70
Sample,79932,0,"pi2_010.wav",70
Sample,79994,0,"_dr_008.wav",70
Sample,80000,0,"pi2_022.wav",70
Sample,80067,0,"pi2_011.wav",70
Sample,80135,0,"pi2_012.wav",70
Sample,80135,0,"_dr_009.wav",70
Sample,80202,0,"pi2_021.wav",70
Sample,80270,0,"pd2_006.wav",70
Sample,80270,0,"pi2_012.wav",70
Sample,80270,0,"_dr_010.wav",70
Sample,80337,0,"pi2_013.wav",70
Sample,80394,0,"_dr_011.wav",70
Sample,80405,0,"pi2_014.wav",70
Sample,80472,0,"pi2_029.wav",70
Sample,80534,0,"_dr_012.wav",70
Sample,80540,0,"pi2_015.wav",70
Sample,80608,0,"pi2_016.wav",70
Sample,80675,0,"pi2_050.wav",70
Sample,80675,0,"_dr_013.wav",70
Sample,80743,0,"pi2_017.wav",70
Sample,80810,0,"pd2_003.wav",70
Sample,80810,0,"_dr_014.wav",70
Sample,80810,0,"pi2_117.wav",70
Sample,80810,0,"pi2_018.wav",70
Sample,80872,0,"_dr_015.wav",70
Sample,80878,0,"pi2_019.wav",70
Sample,80945,0,"_dr_016.wav",70
Sample,80945,0,"pi2_025.wav",70
Sample,81007,0,"_dr_017.wav",70
Sample,81013,0,"pi2_020.wav",70
Sample,81075,0,"_dr_018.wav",70
Sample,81081,0,"pi2_019.wav",70
Sample,81148,0,"pi2_018.wav",70
Sample,81148,0,"_dr_019.wav",70
Sample,81216,0,"pi2_017.wav",70
Sample,81216,0,"_dr_020.wav",70
Sample,81272,0,"_dr_021.wav",70
Sample,81283,0,"pi2_050.wav",70
Sample,81351,0,"pd2_011.wav",70
Sample,81351,0,"pi2_015.wav",70
Sample,81351,0,"pi2_117.wav",70
Sample,81351,0,"_dr_000.wav",70
Sample,81418,0,"pi2_050.wav",70
Sample,81486,0,"pi2_018.wav",70
Sample,81486,0,"_dr_001.wav",70
Sample,81548,0,"_dr_002.wav",70
Sample,81554,0,"pi2_017.wav",70
Sample,81615,0,"_dr_003.wav",70
Sample,81621,0,"pi2_016.wav",70
Sample,81689,0,"pi2_017.wav",70
Sample,81756,0,"pi2_015.wav",70
Sample,81756,0,"pi2_118.wav",70
Sample,81756,0,"_dr_004.wav",70
Sample,81824,0,"pi2_029.wav",70
Sample,81886,0,"_dr_005.wav",70
Sample,81891,0,"pi2_013.wav",70
Sample,81891,0,"pd2_023.wav",70
Sample,81953,0,"_dr_006.wav",70
Sample,81959,0,"pi2_029.wav",70
Sample,82021,0,"_dr_007.wav",70
Sample,82027,0,"pi2_021.wav",70
Sample,82027,0,"pi2_119.wav",70
Sample,82094,0,"pi2_011.wav",70
Sample,82156,0,"_dr_008.wav",70
Sample,82162,0,"pi2_022.wav",70
Sample,82229,0,"pi2_012.wav",70
Sample,82297,0,"pi2_030.wav",70
Sample,82297,0,"_dr_009.wav",70
Sample,82364,0,"pi2_023.wav",70
Sample,82432,0,"_dr_010.wav",70
Sample,82432,0,"pd2_024.wav",70
Sample,82432,0,"pi2_009.wav",70
Sample,82500,0,"pi2_008.wav",70
Sample,82556,0,"_dr_011.wav",70
Sample,82567,0,"pi2_023.wav",70
Sample,82635,0,"pi2_030.wav",70
Sample,82697,0,"_dr_012.wav",70
Sample,82702,0,"pi2_022.wav",70
Sample,82770,0,"pi2_023.wav",70
Sample,82837,0,"pi2_009.wav",70
Sample,82837,0,"_dr_013.wav",70
Sample,82905,0,"pi2_008.wav",70
Sample,82972,0,"_dr_014.wav",70
Sample,82972,0,"pi2_020.wav",70
Sample,82972,0,"pd2_010.wav",70
Sample,83034,0,"_dr_015.wav",70
Sample,83040,0,"pi2_025.wav",70
Sample,83108,0,"_dr_016.wav",70
Sample,83108,0,"pi2_019.wav",70
Sample,83170,0,"_dr_017.wav",70
Sample,83175,0,"pi2_018.wav",70
Sample,83237,0,"_dr_018.wav",70
Sample,83243,0,"pi2_017.wav",70
Sample,83310,0,"_dr_019.wav",70
Sample,83310,0,"pi2_016.wav",70
Sample,83378,0,"_dr_020.wav",70
Sample,83378,0,"pi2_015.wav",70
Sample,83434,0,"_dr_021.wav",70
Sample,83445,0,"pi2_014.wav",70
Sample,83513,0,"pd2_025.wav",70
Sample,83513,0,"_dr_000.wav",70
Sample,83513,0,"pi2_021.wav",70
Sample,83513,0,"ld4x_096.wav",70
Sample,83513,0,"pi2_110.wav",70
Sample,83513,0,"hue_008.wav",70
Sample,83648,0,"_dr_001.wav",70
Sample,83648,0,"_kurasshu_020.wav",70
Sample,83710,0,"_dr_002.wav",70
Sample,83778,0,"_dr_003.wav",70
Sample,83783,0,"_sna_000.wav",70
Sample,83783,0,"pi2_006.wav",70
Sample,83783,0,"pi2_017.wav",70
Sample,83851,0,"pi2_040.wav",70
Sample,83851,0,"pi2_016.wav",70
Sample,83918,0,"_dr_004.wav",70
Sample,83918,0,"_kurasshu_020.wav",70
Sample,83918,0,"pi2_024.wav",70
Sample,83918,0,"pi2_015.wav",70
Sample,83986,0,"pi2_009.wav",70
Sample,83986,0,"pi2_014.wav",70
Sample,84048,0,"_dr_005.wav",70
Sample,84054,0,"pd2_010.wav",70
Sample,84115,0,"_dr_006.wav",70
Sample,84121,0,"pi2_009.wav",70
Sample,84183,0,"_dr_007.wav",70
Sample,84189,0,"_kurasshu_020.wav",70
Sample,84318,0,"_dr_008.wav",70
Sample,84324,0,"pi2_127.wav",70
Sample,84324,0,"pi2_126.wav",70
Sample,84324,0,"_sna_001.wav",70
Sample,84324,0,"_ki_034.wav",70
Sample,84391,0,"pi2_011.wav",70
Sample,84459,0,"_dr_009.wav",70
Sample,84459,0,"pi2_022.wav",70
Sample,84527,0,"pi2_023.wav",70
Sample,84594,0,"pd2_006.wav",70
Sample,84594,0,"pi2_031.wav",70
Sample,84594,0,"hue_009.wav",70
Sample,84594,0,"_dr_010.wav",70
Sample,84662,0,"pi2_023.wav",70
Sample,84718,0,"_dr_011.wav",70
Sample,84729,0,"pi2_009.wav",70
Sample,84729,0,"_kurasshu_020.wav",70
Sample,84797,0,"pi2_008.wav",70
Sample,84859,0,"_dr_012.wav",70
Sample,84864,0,"_sna_000.wav",70
Sample,84864,0,"pi2_131.wav",70
Sample,84864,0,"pi2_132.wav",70
Sample,84932,0,"pi2_009.wav",70
Sample,85000,0,"pi2_024.wav",70
Sample,85000,0,"_dr_013.wav",70
Sample,85000,0,"_kurasshu_020.wav",70
Sample,85067,0,"pi2_040.wav",70
Sample,85135,0,"_dr_014.wav",70
Sample,85135,0,"hue_010.wav",70
Sample,85135,0,"pi2_134.wav",70
Sample,85135,0,"pd2_004.wav",70
Sample,85135,0,"ld4x_096.wav",70
Sample,85197,0,"_dr_015.wav",70
Sample,85202,0,"pi2_040.wav",70
Sample,85270,0,"pi2_135.wav",70
Sample,85270,0,"_dr_016.wav",70
Sample,85270,0,"_kurasshu_020.wav",70
Sample,85332,0,"_dr_017.wav",70
Sample,85399,0,"_dr_018.wav",70
Sample,85405,0,"pi2_137.wav",70
Sample,85405,0,"_ki_034.wav",70
Sample,85405,0,"_sna_001.wav",70
Sample,85405,0,"pi2_059.wav",70
Sample,85439,0,"pi2_054.wav",70
Sample,85472,0,"_dr_019.wav",70
Sample,85472,0,"pi2_055.wav",70
Sample,85506,0,"pi2_138.wav",70
Sample,85540,0,"pi2_056.wav",70
Sample,85540,0,"hue_011.wav",70
Sample,85540,0,"_dr_020.wav",70
Sample,85574,0,"pi2_069.wav",70
Sample,85596,0,"_dr_021.wav",70
Sample,85608,0,"pi2_071.wav",70
Sample,85641,0,"pi2_058.wav",70
Sample,85675,0,"pi2_141.wav",70
Sample,85675,0,"pi2_139.wav",70
Sample,85675,0,"pi2_135.wav",70
Sample,85675,0,"_dr_000.wav",70
Sample,85675,0,"pd2_003.wav",70
Sample,85720,0,"pi2_143.wav",70
Sample,85765,0,"pi2_144.wav",70
Sample,85810,0,"pi2_135.wav",70
Sample,85810,0,"_kurasshu_020.wav",70
Sample,85810,0,"_dr_001.wav",70
Sample,85810,0,"pi2_145.wav",70
Sample,85810,0,"pi2_141.wav",70
Sample,85855,0,"pi2_146.wav",70
Sample,85872,0,"_dr_002.wav",70
Sample,85900,0,"pi2_147.wav",70
Sample,85940,0,"_dr_003.wav",70
Sample,85945,0,"pi2_142.wav",70
Sample,85945,0,"pi2_135.wav",70
Sample,85945,0,"pi2_139.wav",70
Sample,85945,0,"_sna_000.wav",70
Sample,85990,0,"pi2_148.wav",70
Sample,86036,0,"pi2_149.wav",70
Sample,86081,0,"pi2_135.wav",70
Sample,86081,0,"pi2_142.wav",70
Sample,86081,0,"_dr_004.wav",70
Sample,86081,0,"pi2_150.wav",70
Sample,86081,0,"_kurasshu_020.wav",70
Sample,86126,0,"pi2_151.wav",70
Sample,86171,0,"pi2_152.wav",70
Sample,86210,0,"_dr_005.wav",70
Sample,86216,0,"pd2_004.wav",70
Sample,86216,0,"pi2_022.wav",70
Sample,86216,0,"pi2_141.wav",70
Sample,86216,0,"pi2_153.wav",70
Sample,86216,0,"pi2_142.wav",70
Sample,86261,0,"pi2_154.wav",70
Sample,86278,0,"_dr_006.wav",70
Sample,86306,0,"pi2_155.wav",70
Sample,86345,0,"_dr_007.wav",70
Sample,86351,0,"pi2_135.wav",70
Sample,86351,0,"_kurasshu_020.wav",70
Sample,86351,0,"pi2_141.wav",70
Sample,86351,0,"pi2_156.wav",70
Sample,86396,0,"pi2_157.wav",70
Sample,86441,0,"pi2_158.wav",70
Sample,86480,0,"_dr_008.wav",70
Sample,86486,0,"pi2_160.wav",70
Sample,86486,0,"_sna_001.wav",70
Sample,86486,0,"pi2_142.wav",70
Sample,86486,0,"pi2_159.wav",70
Sample,86531,0,"pi2_161.wav",70
Sample,86576,0,"pi2_162.wav",70
Sample,86621,0,"pi2_135.wav",70
Sample,86621,0,"_dr_009.wav",70
Sample,86621,0,"_kurasshu_020.wav",70
Sample,86621,0,"pi2_163.wav",70
Sample,86666,0,"pi2_165.wav",70
Sample,86711,0,"pi2_166.wav",70
Sample,86756,0,"pi2_123.wav",70
Sample,86756,0,"pi2_074.wav",70
Sample,86756,0,"pd2_003.wav",70
Sample,86756,0,"hue_012.wav",70
Sample,86756,0,"_dr_010.wav",70
Sample,86756,0,"ld4x_098.wav",70
Sample,86756,0,"pi2_167.wav",70
Sample,86756,0,"pd2_017.wav",70
Sample,86801,0,"pi2_156.wav",70
Sample,86801,0,"pi2_170.wav",70
Sample,86846,0,"pi2_157.wav",70
Sample,86846,0,"pi2_171.wav",70
Sample,86880,0,"_dr_011.wav",70
Sample,86891,0,"_kurasshu_020.wav",70
Sample,86891,0,"pi2_172.wav",70
Sample,86891,0,"pi2_158.wav",70
Sample,86936,0,"pi2_159.wav",70
Sample,86936,0,"pi2_173.wav",70
Sample,86981,0,"pi2_174.wav",70
Sample,86981,0,"pi2_162.wav",70
Sample,87021,0,"_dr_012.wav",70
Sample,87027,0,"_sna_000.wav",70
Sample,87027,0,"pi2_163.wav",70
Sample,87027,0,"pi2_175.wav",70
Sample,87072,0,"pi2_165.wav",70
Sample,87072,0,"pi2_176.wav",70
Sample,87117,0,"pi2_166.wav",70
Sample,87117,0,"pi2_177.wav",70
Sample,87162,0,"_dr_013.wav",70
Sample,87162,0,"pi2_178.wav",70
Sample,87162,0,"pi2_123.wav",70
Sample,87162,0,"_kurasshu_020.wav",70
Sample,87162,0,"pi2_179.wav",70
Sample,87207,0,"pi2_180.wav",70
Sample,87207,0,"pi2_167.wav",70
Sample,87252,0,"pi2_182.wav",70
Sample,87252,0,"pi2_181.wav",70
Sample,87297,0,"pi2_170.wav",70
Sample,87297,0,"pd2_002.wav",70
Sample,87297,0,"pi2_183.wav",70
Sample,87297,0,"pi2_162.wav",70
Sample,87297,0,"_dr_014.wav",70
Sample,87297,0,"hue_013.wav",70
Sample,87342,0,"pi2_184.wav",70
Sample,87342,0,"pi2_163.wav",70
Sample,87342,0,"pi2_171.wav",70
Sample,87359,0,"_dr_015.wav",70
Sample,87387,0,"pi2_172.wav",70
Sample,87387,0,"pi2_183.wav",70
Sample,87387,0,"pi2_165.wav",70
Sample,87432,0,"_dr_016.wav",70
Sample,87432,0,"pi2_173.wav",70
Sample,87432,0,"_kurasshu_020.wav",70
Sample,87432,0,"pi2_166.wav",70
Sample,87432,0,"pi2_181.wav",70
Sample,87477,0,"pi2_174.wav",70
Sample,87477,0,"pi2_178.wav",70
Sample,87477,0,"pi2_179.wav",70
Sample,87494,0,"_dr_017.wav",70
Sample,87522,0,"pi2_167.wav",70
Sample,87522,0,"pi2_175.wav",70
Sample,87522,0,"pi2_184.wav",70
Sample,87561,0,"_dr_018.wav",70
Sample,87567,0,"pi2_182.wav",70
Sample,87567,0,"_sna_001.wav",70
Sample,87567,0,"pi2_176.wav",70
Sample,87567,0,"_ki_034.wav",70
Sample,87612,0,"pi2_170.wav",70
Sample,87612,0,"pi2_177.wav",70
Sample,87635,0,"_dr_019.wav",70
Sample,87657,0,"pi2_178.wav",70
Sample,87657,0,"pi2_171.wav",70
Sample,87702,0,"_dr_020.wav",70
Sample,87702,0,"_kurasshu_020.wav",70
Sample,87702,0,"pi2_180.wav",70
Sample,87702,0,"pi2_172.wav",70
Sample,87747,0,"pi2_174.wav",70
Sample,87747,0,"pi2_183.wav",70
Sample,87759,0,"_dr_021.wav",70
Sample,87792,0,"pi2_184.wav",70
Sample,87792,0,"pi2_175.wav",70
Sample,87837,0,"vio2_000.wav",70
Sample,87837,0,"pd2_026.wav",70
Sample,87837,0,"piarp_031.wav",70
Sample,87837,0,"__dohyuuuuuun.wav",70
Sample,87837,0,"hue_014.wav",70
Sample,87837,0,"_dr_000.wav",70
Sample,87837,0,"ld4x_051.wav",70
Sample,87905,0,"piarp_032.wav",70
Sample,87972,0,"piarp_033.wav",70
Sample,87972,0,"_dr_001.wav",70
Sample,87972,0,"_hat_000.wav",70
Sample,88034,0,"_dr_002.wav",70
Sample,88040,0,"piarp_024.wav",70
Sample,88102,0,"_dr_003.wav",70
Sample,88108,0,"piarp_034.wav",70
Sample,88175,0,"piarp_035.wav",70
Sample,88243,0,"_hat_000.wav",70
Sample,88243,0,"piarp_036.wav",70
Sample,88243,0,"_dr_004.wav",70
Sample,88310,0,"piarp_008.wav",70
Sample,88372,0,"_dr_005.wav",70
Sample,88378,0,"piarp_037.wav",70
Sample,88440,0,"_dr_006.wav",70
Sample,88445,0,"piarp_036.wav",70
Sample,88507,0,"_dr_007.wav",70
Sample,88513,0,"_hat_000.wav",70
Sample,88513,0,"piarp_035.wav",70
Sample,88581,0,"piarp_034.wav",70
Sample,88643,0,"_dr_008.wav",70
Sample,88648,0,"ld4x_052.wav",70
Sample,88648,0,"ld4x_054.wav",70
Sample,88648,0,"piarp_024.wav",70
Sample,88716,0,"piarp_033.wav",70
Sample,88783,0,"_hat_001.wav",70
Sample,88783,0,"piarp_001.wav",70
Sample,88783,0,"_dr_009.wav",70
Sample,88851,0,"piarp_031.wav",70
Sample,88918,0,"vio2_001.wav",70
Sample,88918,0,"pd2_027.wav",70
Sample,88918,0,"_dr_010.wav",70
Sample,88918,0,"piarp_038.wav",70
Sample,88918,0,"ld4x_055.wav",70
Sample,88986,0,"piarp_039.wav",70
Sample,89042,0,"_dr_011.wav",70
Sample,89054,0,"_hat_000.wav",70
Sample,89054,0,"piarp_040.wav",70
Sample,89121,0,"piarp_024.wav",70
Sample,89183,0,"_dr_012.wav",70
Sample,89189,0,"piarp_041.wav",70
Sample,89256,0,"piarp_042.wav",70
Sample,89324,0,"piarp_005.wav",70
Sample,89324,0,"ld4x_056.wav",70
Sample,89324,0,"_dr_013.wav",70
Sample,89324,0,"_hat_000.wav",70
Sample,89391,0,"piarp_043.wav",70
Sample,89459,0,"pd2_028.wav",70
Sample,89459,0,"vio2_002.wav",70
Sample,89459,0,"piarp_044.wav",70
Sample,89459,0,"_dr_014.wav",70
Sample,89521,0,"_dr_015.wav",70
Sample,89527,0,"piarp_043.wav",70
Sample,89594,0,"_dr_016.wav",70
Sample,89594,0,"_hat_000.wav",70
Sample,89594,0,"piarp_005.wav",70
Sample,89656,0,"_dr_017.wav",70
Sample,89662,0,"piarp_042.wav",70
Sample,89724,0,"_dr_018.wav",70
Sample,89729,0,"piarp_041.wav",70
Sample,89729,0,"ld4x_010.wav",70
Sample,89797,0,"piarp_024.wav",70
Sample,89797,0,"_dr_019.wav",70
Sample,89864,0,"piarp_040.wav",70
Sample,89864,0,"_dr_020.wav",70
Sample,89864,0,"_hat_001.wav",70
Sample,89921,0,"_dr_021.wav",70
Sample,89932,0,"piarp_039.wav",70
Sample,90000,0,"pd2_029.wav",70
Sample,90000,0,"vio2_003.wav",70
Sample,90000,0,"_dr_000.wav",70
Sample,90000,0,"ld4x_057.wav",70
Sample,90000,0,"piarp_000.wav",70
Sample,90067,0,"piarp_001.wav",70
Sample,90135,0,"_dr_001.wav",70
Sample,90135,0,"_hat_000.wav",70
Sample,90135,0,"piarp_002.wav",70
Sample,90197,0,"_dr_002.wav",70
Sample,90202,0,"piarp_024.wav",70
Sample,90264,0,"_dr_003.wav",70
Sample,90270,0,"piarp_004.wav",70
Sample,90337,0,"piarp_005.wav",70
Sample,90405,0,"_dr_004.wav",70
Sample,90405,0,"_hat_000.wav",70
Sample,90405,0,"piarp_006.wav",70
Sample,90472,0,"piarp_008.wav",70
Sample,90534,0,"_dr_005.wav",70
Sample,90540,0,"vio2_001.wav",70
Sample,90540,0,"piarp_037.wav",70
Sample,90540,0,"pd2_027.wav",70
Sample,90602,0,"_dr_006.wav",70
Sample,90608,0,"piarp_008.wav",70
Sample,90670,0,"_dr_007.wav",70
Sample,90675,0,"piarp_006.wav",70
Sample,90675,0,"_hat_000.wav",70
Sample,90743,0,"piarp_005.wav",70
Sample,90805,0,"_dr_008.wav",70
Sample,90810,0,"piarp_004.wav",70
Sample,90878,0,"piarp_024.wav",70
Sample,90945,0,"_dr_009.wav",70
Sample,90945,0,"piarp_002.wav",70
Sample,90945,0,"_hat_001.wav",70
Sample,91013,0,"piarp_001.wav",70
Sample,91081,0,"ld4x_058.wav",70
Sample,91081,0,"_dr_010.wav",70
Sample,91081,0,"piarp_045.wav",70
Sample,91081,0,"pd2_030.wav",70
Sample,91081,0,"vio2_004.wav",70
Sample,91148,0,"piarp_002.wav",70
Sample,91204,0,"_dr_011.wav",70
Sample,91216,0,"_hat_000.wav",70
Sample,91216,0,"piarp_046.wav",70
Sample,91283,0,"piarp_047.wav",70
Sample,91345,0,"_dr_012.wav",70
Sample,91351,0,"piarp_004.wav",70
Sample,91418,0,"piarp_048.wav",70
Sample,91486,0,"piarp_035.wav",70
Sample,91486,0,"_hat_000.wav",70
Sample,91486,0,"_dr_013.wav",70
Sample,91554,0,"piarp_006.wav",70
Sample,91621,0,"pd2_031.wav",70
Sample,91621,0,"_dr_014.wav",70
Sample,91621,0,"piarp_038.wav",70
Sample,91621,0,"vio2_005.wav",70
Sample,91621,0,"piarp_049.wav",70
Sample,91683,0,"_dr_015.wav",70
Sample,91689,0,"piarp_046.wav",70
Sample,91756,0,"piarp_047.wav",70
Sample,91756,0,"_hat_000.wav",70
Sample,91756,0,"_dr_016.wav",70
Sample,91818,0,"_dr_017.wav",70
Sample,91824,0,"piarp_004.wav",70
Sample,91886,0,"_dr_018.wav",70
Sample,91891,0,"piarp_048.wav",70
Sample,91959,0,"piarp_035.wav",70
Sample,91959,0,"_dr_019.wav",70
Sample,92027,0,"piarp_006.wav",70
Sample,92027,0,"_dr_020.wav",70
Sample,92027,0,"_hat_001.wav",70
Sample,92083,0,"_dr_021.wav",70
Sample,92094,0,"piarp_037.wav",70
Sample,92162,0,"ld4x_059.wav",70
Sample,92162,0,"piarp_031.wav",70
Sample,92162,0,"pd2_032.wav",70
Sample,92162,0,"_dr_000.wav",70
Sample,92162,0,"vio2_006.wav",70
Sample,92229,0,"piarp_032.wav",70
Sample,92297,0,"_dr_001.wav",70
Sample,92297,0,"piarp_033.wav",70
Sample,92297,0,"_hat_000.wav",70
Sample,92359,0,"_dr_002.wav",70
Sample,92364,0,"piarp_024.wav",70
Sample,92426,0,"_dr_003.wav",70
Sample,92432,0,"piarp_034.wav",70
Sample,92500,0,"piarp_035.wav",70
Sample,92567,0,"piarp_036.wav",70
Sample,92567,0,"_dr_004.wav",70
Sample,92567,0,"ld4x_060.wav",70
Sample,92567,0,"_hat_000.wav",70
Sample,92635,0,"piarp_008.wav",70
Sample,92697,0,"_dr_005.wav",70
Sample,92702,0,"piarp_037.wav",70
Sample,92764,0,"_dr_006.wav",70
Sample,92770,0,"piarp_036.wav",70
Sample,92832,0,"_dr_007.wav",70
Sample,92837,0,"_hat_000.wav",70
Sample,92837,0,"piarp_035.wav",70
Sample,92905,0,"piarp_034.wav",70
Sample,92967,0,"_dr_008.wav",70
Sample,92972,0,"piarp_024.wav",70
Sample,92972,0,"ld4x_061.wav",70
Sample,93040,0,"piarp_033.wav",70
Sample,93108,0,"piarp_001.wav",70
Sample,93108,0,"_hat_001.wav",70
Sample,93108,0,"_dr_009.wav",70
Sample,93175,0,"piarp_031.wav",70
Sample,93243,0,"ld4x_053.wav",70
Sample,93243,0,"piarp_038.wav",70
Sample,93243,0,"pd2_028.wav",70
Sample,93243,0,"vio2_002.wav",70
Sample,93243,0,"_dr_010.wav",70
Sample,93310,0,"piarp_039.wav",70
Sample,93367,0,"_dr_011.wav",70
Sample,93378,0,"piarp_040.wav",70
Sample,93378,0,"_hat_000.wav",70
Sample,93445,0,"ld4x_063.wav",70
Sample,93445,0,"piarp_024.wav",70
Sample,93507,0,"_dr_012.wav",70
Sample,93513,0,"piarp_041.wav",70
Sample,93581,0,"piarp_042.wav",70
Sample,93648,0,"piarp_005.wav",70
Sample,93648,0,"ld4x_064.wav",70
Sample,93648,0,"_dr_013.wav",70
Sample,93648,0,"_hat_000.wav",70
Sample,93716,0,"piarp_043.wav",70
Sample,93783,0,"_dr_014.wav",70
Sample,93783,0,"vio2_004.wav",70
Sample,93783,0,"pd2_030.wav",70
Sample,93783,0,"piarp_044.wav",70
Sample,93845,0,"_dr_015.wav",70
Sample,93851,0,"piarp_043.wav",70
Sample,93918,0,"_hat_000.wav",70
Sample,93918,0,"piarp_005.wav",70
Sample,93918,0,"_dr_016.wav",70
Sample,93980,0,"_dr_017.wav",70
Sample,93986,0,"piarp_042.wav",70
Sample,94048,0,"_dr_018.wav",70
Sample,94054,0,"piarp_041.wav",70
Sample,94054,0,"ld4x_056.wav",70
Sample,94121,0,"piarp_024.wav",70
Sample,94121,0,"_dr_019.wav",70
Sample,94189,0,"_dr_020.wav",70
Sample,94189,0,"piarp_040.wav",70
Sample,94189,0,"_hat_001.wav",70
Sample,94245,0,"_dr_021.wav",70
Sample,94256,0,"piarp_039.wav",70
Sample,94324,0,"piarp_032.wav",70
Sample,94324,0,"ld4x_065.wav",70
Sample,94324,0,"pd2_026.wav",70
Sample,94324,0,"vio2_000.wav",70
Sample,94324,0,"_dr_000.wav",70
Sample,94391,0,"piarp_040.wav",70
Sample,94459,0,"_hat_000.wav",70
Sample,94459,0,"piarp_047.wav",70
Sample,94459,0,"_dr_001.wav",70
Sample,94521,0,"_dr_002.wav",70
Sample,94527,0,"piarp_042.wav",70
Sample,94588,0,"_dr_003.wav",70
Sample,94594,0,"piarp_035.wav",70
Sample,94662,0,"piarp_050.wav",70
Sample,94729,0,"_hat_000.wav",70
Sample,94729,0,"piarp_037.wav",70
Sample,94729,0,"_dr_004.wav",70
Sample,94797,0,"piarp_051.wav",70
Sample,94859,0,"_dr_005.wav",70
Sample,94864,0,"piarp_052.wav",70
Sample,94926,0,"_dr_006.wav",70
Sample,94932,0,"piarp_051.wav",70
Sample,94994,0,"_dr_007.wav",70
Sample,95000,0,"_hat_000.wav",70
Sample,95000,0,"piarp_037.wav",70
Sample,95067,0,"piarp_050.wav",70
Sample,95129,0,"_dr_008.wav",70
Sample,95135,0,"piarp_035.wav",70
Sample,95202,0,"piarp_042.wav",70
Sample,95270,0,"_dr_009.wav",70
Sample,95270,0,"piarp_047.wav",70
Sample,95270,0,"_hat_001.wav",70
Sample,95337,0,"piarp_040.wav",70
Sample,95405,0,"ld4x_064.wav",70
Sample,95405,0,"pd2_033.wav",70
Sample,95405,0,"_dr_010.wav",70
Sample,95405,0,"piarp_052.wav",70
Sample,95405,0,"ld4x_056.wav",70
Sample,95405,0,"vio2_007.wav",70
Sample,95405,0,"__hyuooooooooo.wav",70
Sample,95472,0,"piarp_037.wav",70
Sample,95529,0,"_dr_011.wav",70
Sample,95540,0,"piarp_050.wav",70
Sample,95540,0,"_hat_000.wav",70
Sample,95608,0,"piarp_035.wav",70
Sample,95670,0,"_dr_012.wav",70
Sample,95675,0,"piarp_042.wav",70
Sample,95743,0,"piarp_041.wav",70
Sample,95810,0,"piarp_047.wav",70
Sample,95810,0,"ld4x_064.wav",70
Sample,95810,0,"_dr_013.wav",70
Sample,95810,0,"ld4x_052.wav",70
Sample,95810,0,"_hat_000.wav",70
Sample,95878,0,"piarp_040.wav",70
Sample,95945,0,"pd2_029.wav",70
Sample,95945,0,"_dr_014.wav",70
Sample,95945,0,"piarp_052.wav",70
Sample,95945,0,"vio2_003.wav",70
Sample,96007,0,"_dr_015.wav",70
Sample,96013,0,"piarp_037.wav",70
Sample,96081,0,"piarp_050.wav",70
Sample,96081,0,"_dr_016.wav",70
Sample,96081,0,"_hat_000.wav",70
Sample,96143,0,"_dr_017.wav",70
Sample,96148,0,"piarp_035.wav",70
Sample,96210,0,"_dr_018.wav",70
Sample,96216,0,"ld4x_066.wav",70
Sample,96216,0,"ld4x_067.wav",70
Sample,96216,0,"piarp_042.wav",70
Sample,96283,0,"piarp_035.wav",70
Sample,96283,0,"_dr_019.wav",70
Sample,96351,0,"piarp_037.wav",70
Sample,96351,0,"_dr_020.wav",70
Sample,96351,0,"_hat_001.wav",70
Sample,96407,0,"_dr_021.wav",70
Sample,96418,0,"piarp_052.wav",70
Sample,96486,0,"piarp_031.wav",70
Sample,96486,0,"ld4x_068.wav",70
Sample,96486,0,"pd2_034.wav",70
Sample,96486,0,"ld4x_069.wav",70
Sample,96486,0,"_dr_000.wav",70
Sample,96486,0,"vio2_008.wav",70
Sample,96554,0,"piarp_032.wav",70
Sample,96621,0,"_hat_000.wav",70
Sample,96621,0,"piarp_033.wav",70
Sample,96621,0,"_dr_001.wav",70
Sample,96683,0,"_dr_002.wav",70
Sample,96689,0,"piarp_024.wav",70
Sample,96751,0,"_dr_003.wav",70
Sample,96756,0,"piarp_034.wav",70
Sample,96824,0,"piarp_035.wav",70
Sample,96891,0,"_hat_000.wav",70
Sample,96891,0,"piarp_036.wav",70
Sample,96891,0,"_dr_004.wav",70
Sample,96959,0,"piarp_008.wav",70
Sample,97021,0,"_dr_005.wav",70
Sample,97027,0,"piarp_037.wav",70
Sample,97088,0,"_dr_006.wav",70
Sample,97094,0,"piarp_036.wav",70
Sample,97156,0,"_dr_007.wav",70
Sample,97162,0,"piarp_035.wav",70
Sample,97162,0,"_hat_000.wav",70
Sample,97229,0,"piarp_034.wav",70
Sample,97291,0,"_dr_008.wav",70
Sample,97297,0,"piarp_024.wav",70
Sample,97364,0,"piarp_033.wav",70
Sample,97432,0,"_dr_009.wav",70
Sample,97432,0,"piarp_001.wav",70
Sample,97432,0,"_hat_001.wav",70
Sample,97500,0,"piarp_031.wav",70
Sample,97567,0,"piarp_038.wav",70
Sample,97567,0,"ld4x_070.wav",70
Sample,97567,0,"pd2_035.wav",70
Sample,97567,0,"ld4x_071.wav",70
Sample,97567,0,"_dr_010.wav",70
Sample,97567,0,"vio2_009.wav",70
Sample,97635,0,"piarp_039.wav",70
Sample,97691,0,"_dr_011.wav",70
Sample,97702,0,"piarp_040.wav",70
Sample,97702,0,"_hat_000.wav",70
Sample,97770,0,"piarp_024.wav",70
Sample,97832,0,"_dr_012.wav",70
Sample,97837,0,"piarp_041.wav",70
Sample,97905,0,"piarp_042.wav",70
Sample,97972,0,"_dr_013.wav",70
Sample,97972,0,"ld4x_060.wav",70
Sample,97972,0,"ld4x_072.wav",70
Sample,97972,0,"_hat_000.wav",70
Sample,97972,0,"piarp_005.wav",70
Sample,98040,0,"piarp_043.wav",70
Sample,98108,0,"piarp_044.wav",70
Sample,98108,0,"_dr_014.wav",70
Sample,98170,0,"_dr_015.wav",70
Sample,98175,0,"piarp_043.wav",70
Sample,98243,0,"_dr_016.wav",70
Sample,98243,0,"piarp_005.wav",70
Sample,98243,0,"_hat_000.wav",70
Sample,98305,0,"_dr_017.wav",70
Sample,98310,0,"piarp_042.wav",70
Sample,98372,0,"_dr_018.wav",70
Sample,98378,0,"piarp_041.wav",70
Sample,98378,0,"ld4x_073.wav",70
Sample,98378,0,"ld4x_074.wav",70
Sample,98445,0,"piarp_024.wav",70
Sample,98445,0,"_dr_019.wav",70
Sample,98513,0,"_dr_020.wav",70
Sample,98513,0,"piarp_040.wav",70
Sample,98513,0,"_hat_001.wav",70
Sample,98569,0,"_dr_021.wav",70
Sample,98581,0,"piarp_039.wav",70
Sample,98648,0,"pd2_029.wav",70
Sample,98648,0,"ld4x_076.wav",70
Sample,98648,0,"vio2_003.wav",70
Sample,98648,0,"ld4x_075.wav",70
Sample,98648,0,"piarp_000.wav",70
Sample,98648,0,"_dr_000.wav",70
Sample,98716,0,"piarp_001.wav",70
Sample,98783,0,"_hat_000.wav",70
Sample,98783,0,"piarp_002.wav",70
Sample,98783,0,"_dr_001.wav",70
Sample,98845,0,"_dr_002.wav",70
Sample,98851,0,"piarp_024.wav",70
Sample,98913,0,"_dr_003.wav",70
Sample,98918,0,"piarp_004.wav",70
Sample,98918,0,"ld4x_067.wav",70
Sample,98986,0,"piarp_005.wav",70
Sample,99054,0,"piarp_006.wav",70
Sample,99054,0,"_hat_000.wav",70
Sample,99054,0,"_dr_004.wav",70
Sample,99121,0,"piarp_008.wav",70
Sample,99183,0,"_dr_005.wav",70
Sample,99189,0,"ld4x_077.wav",70
Sample,99189,0,"vio2_010.wav",70
Sample,99189,0,"pd2_036.wav",70
Sample,99189,0,"piarp_037.wav",70
Sample,99251,0,"_dr_006.wav",70
Sample,99256,0,"piarp_008.wav",70
Sample,99318,0,"_dr_007.wav",70
Sample,99324,0,"ld4x_078.wav",70
Sample,99324,0,"piarp_006.wav",70
Sample,99324,0,"_hat_000.wav",70
Sample,99391,0,"piarp_005.wav",70
Sample,99453,0,"_dr_008.wav",70
Sample,99459,0,"piarp_004.wav",70
Sample,99527,0,"piarp_024.wav",70
Sample,99594,0,"_dr_009.wav",70
Sample,99594,0,"_hat_001.wav",70
Sample,99594,0,"ld4x_077.wav",70
Sample,99594,0,"piarp_002.wav",70
Sample,99662,0,"piarp_001.wav",70
Sample,99729,0,"_dr_010.wav",70
Sample,99729,0,"ld4x_075.wav",70
Sample,99729,0,"piarp_045.wav",70
Sample,99729,0,"vio2_011.wav",70
Sample,99729,0,"pd2_037.wav",70
Sample,99797,0,"piarp_002.wav",70
Sample,99853,0,"_dr_011.wav",70
Sample,99864,0,"piarp_046.wav",70
Sample,99864,0,"_hat_000.wav",70
Sample,99932,0,"piarp_047.wav",70
Sample,99994,0,"_dr_012.wav",70
Sample,100000,0,"piarp_004.wav",70
Sample,100000,0,"ld4x_079.wav",70
Sample,100067,0,"piarp_048.wav",70
Sample,100135,0,"ld4x_056.wav",70
Sample,100135,0,"_dr_013.wav",70
Sample,100135,0,"piarp_035.wav",70
Sample,100135,0,"_hat_000.wav",70
Sample,100202,0,"ld4x_080.wav",70
Sample,100202,0,"piarp_006.wav",70
Sample,100270,0,"_dr_014.wav",70
Sample,100270,0,"piarp_038.wav",70
Sample,100270,0,"piarp_049.wav",70
Sample,100270,0,"pd2_033.wav",70
Sample,100270,0,"ld4x_081.wav",70
Sample,100270,0,"vio2_007.wav",70
Sample,100332,0,"_dr_015.wav",70
Sample,100337,0,"piarp_046.wav",70
Sample,100405,0,"piarp_047.wav",70
Sample,100405,0,"_hat_000.wav",70
Sample,100405,0,"ld4x_082.wav",70
Sample,100405,0,"_dr_016.wav",70
Sample,100467,0,"_dr_017.wav",70
Sample,100472,0,"piarp_004.wav",70
Sample,100534,0,"_dr_018.wav",70
Sample,100540,0,"piarp_048.wav",70
Sample,100540,0,"ld4x_010.wav",70
Sample,100608,0,"_dr_019.wav",70
Sample,100608,0,"piarp_035.wav",70
Sample,100675,0,"piarp_006.wav",70
Sample,100675,0,"_hat_001.wav",70
Sample,100675,0,"_dr_020.wav",70
Sample,100731,0,"_dr_021.wav",70
Sample,100743,0,"piarp_037.wav",70
Sample,100810,0,"pd2_034.wav",70
Sample,100810,0,"vio2_008.wav",70
Sample,100810,0,"_dr_000.wav",70
Sample,100810,0,"piarp_031.wav",70
Sample,100810,0,"ld4x_083.wav",70
Sample,100878,0,"piarp_032.wav",70
Sample,100945,0,"_dr_001.wav",70
Sample,100945,0,"piarp_033.wav",70
Sample,100945,0,"_hat_000.wav",70
Sample,101007,0,"_dr_002.wav",70
Sample,101013,0,"piarp_024.wav",70
Sample,101075,0,"_dr_003.wav",70
Sample,101081,0,"piarp_034.wav",70
Sample,101148,0,"piarp_035.wav",70
Sample,101216,0,"_hat_000.wav",70
Sample,101216,0,"piarp_036.wav",70
Sample,101216,0,"_dr_004.wav",70
Sample,101283,0,"piarp_008.wav",70
Sample,101345,0,"_dr_005.wav",70
Sample,101351,0,"piarp_037.wav",70
Sample,101413,0,"_dr_006.wav",70
Sample,101418,0,"piarp_036.wav",70
Sample,101480,0,"_dr_007.wav",70
Sample,101486,0,"_hat_000.wav",70
Sample,101486,0,"piarp_035.wav",70
Sample,101554,0,"piarp_034.wav",70
Sample,101615,0,"_dr_008.wav",70
Sample,101621,0,"piarp_024.wav",70
Sample,101621,0,"ld4x_084.wav",70
Sample,101689,0,"piarp_033.wav",70
Sample,101756,0,"_dr_009.wav",70
Sample,101756,0,"_hat_001.wav",70
Sample,101756,0,"piarp_001.wav",70
Sample,101824,0,"piarp_031.wav",70
Sample,101891,0,"ld4x_085.wav",70
Sample,101891,0,"piarp_038.wav",70
Sample,101891,0,"pd2_033.wav",70
Sample,101891,0,"vio2_007.wav",70
Sample,101891,0,"_dr_010.wav",70
Sample,101959,0,"piarp_039.wav",70
Sample,102015,0,"_dr_011.wav",70
Sample,102027,0,"piarp_040.wav",70
Sample,102027,0,"_hat_000.wav",70
Sample,102094,0,"piarp_024.wav",70
Sample,102156,0,"_dr_012.wav",70
Sample,102162,0,"piarp_041.wav",70
Sample,102229,0,"piarp_042.wav",70
Sample,102297,0,"_hat_000.wav",70
Sample,102297,0,"_dr_013.wav",70
Sample,102297,0,"piarp_005.wav",70
Sample,102364,0,"piarp_043.wav",70
Sample,102432,0,"piarp_044.wav",70
Sample,102432,0,"ld4x_086.wav",70
Sample,102432,0,"_dr_014.wav",70
Sample,102432,0,"pd2_030.wav",70
Sample,102432,0,"vio2_001.wav",70
Sample,102494,0,"_dr_015.wav",70
Sample,102500,0,"piarp_043.wav",70
Sample,102567,0,"piarp_005.wav",70
Sample,102567,0,"_hat_000.wav",70
Sample,102567,0,"_dr_016.wav",70
Sample,102629,0,"_dr_017.wav",70
Sample,102635,0,"piarp_042.wav",70
Sample,102697,0,"_dr_018.wav",70
Sample,102702,0,"piarp_041.wav",70
Sample,102770,0,"_dr_019.wav",70
Sample,102770,0,"piarp_024.wav",70
Sample,102837,0,"piarp_040.wav",70
Sample,102837,0,"_hat_001.wav",70
Sample,102837,0,"_dr_020.wav",70
Sample,102894,0,"_dr_021.wav",70
Sample,102905,0,"piarp_039.wav",70
Sample,102972,0,"vio2_012.wav",70
Sample,102972,0,"ld4x_087.wav",70
Sample,102972,0,"piarp_032.wav",70
Sample,102972,0,"pd2_038.wav",70
Sample,102972,0,"ld4x_089.wav",70
Sample,102972,0,"_dr_000.wav",70
Sample,102972,0,"ld4x_088.wav",70
Sample,103040,0,"piarp_040.wav",70
Sample,103108,0,"_dr_001.wav",70
Sample,103108,0,"_hat_000.wav",70
Sample,103108,0,"piarp_047.wav",70
Sample,103170,0,"_dr_002.wav",70
Sample,103175,0,"piarp_042.wav",70
Sample,103237,0,"_dr_003.wav",70
Sample,103243,0,"piarp_035.wav",70
Sample,103310,0,"piarp_050.wav",70
Sample,103378,0,"_dr_004.wav",70
Sample,103378,0,"_hat_000.wav",70
Sample,103378,0,"piarp_037.wav",70
Sample,103445,0,"piarp_051.wav",70
Sample,103507,0,"_dr_005.wav",70
Sample,103513,0,"piarp_052.wav",70
Sample,103575,0,"_dr_006.wav",70
Sample,103581,0,"piarp_051.wav",70
Sample,103643,0,"_dr_007.wav",70
Sample,103648,0,"piarp_037.wav",70
Sample,103648,0,"_hat_000.wav",70
Sample,103716,0,"piarp_050.wav",70
Sample,103778,0,"_dr_008.wav",70
Sample,103783,0,"piarp_035.wav",70
Sample,103851,0,"piarp_042.wav",70
Sample,103918,0,"piarp_047.wav",70
Sample,103918,0,"_hat_001.wav",70
Sample,103918,0,"_dr_009.wav",70
Sample,103986,0,"piarp_040.wav",70
Sample,104054,0,"ld4x_091.wav",70
Sample,104054,0,"__itumonofiruBIG.wav",70
Sample,104054,0,"piarp_045.wav",70
Sample,104054,0,"_dr_010.wav",70
Sample,104054,0,"ld4x_090.wav",70
Sample,104054,0,"ld4x_092.wav",70
Sample,104121,0,"piarp_002.wav",70
Sample,104177,0,"_dr_011.wav",70
Sample,104189,0,"_hat_000.wav",70
Sample,104189,0,"piarp_046.wav",70
Sample,104256,0,"piarp_047.wav",70
Sample,104318,0,"_dr_012.wav",70
Sample,104324,0,"piarp_004.wav",70
Sample,104391,0,"piarp_048.wav",70
Sample,104459,0,"_kurasshu_025.wav",70
Sample,104459,0,"_hat_000.wav",70
Sample,104459,0,"_dr_013.wav",70
Sample,104459,0,"piarp_035.wav",70
Sample,104527,0,"piarp_006.wav",70
Sample,104594,0,"piarp_042.wav",70
Sample,104594,0,"_dr_014.wav",70
Sample,104594,0,"piarp_053.wav",70
Sample,104656,0,"_dr_015.wav",70
Sample,104662,0,"piarp_049.wav",70
Sample,104729,0,"piarp_037.wav",70
Sample,104729,0,"_kurasshu_025.wav",70
Sample,104729,0,"_dr_016.wav",70
Sample,104729,0,"_hat_000.wav",70
Sample,104791,0,"_dr_017.wav",70
Sample,104797,0,"piarp_051.wav",70
Sample,104859,0,"_dr_018.wav",70
Sample,104864,0,"piarp_054.wav",70
Sample,104932,0,"_dr_019.wav",70
Sample,104932,0,"piarp_055.wav",70
Sample,105000,0,"piarp_056.wav",70
Sample,105000,0,"_hat_001.wav",70
Sample,105000,0,"_dr_020.wav",70
Sample,105056,0,"_dr_021.wav",70
Sample,105067,0,"piarp_057.wav",70
Sample,105135,0,"ld4x_104.wav",70
Sample,105135,0,"_dr_000.wav",70
Sample,105135,0,"piarp_010.wav",70
Sample,105135,0,"_kurasshu_000.wav",70
Sample,105135,0,"bunyu_000.wav",70
Sample,105135,0,"__dohyuuuuuun.wav",70
Sample,105135,0,"pd1_022.wav",70
Sample,105202,0,"piarp_011.wav",70
Sample,105270,0,"_hat_000.wav",70
Sample,105270,0,"piarp_012.wav",70
Sample,105270,0,"_dr_001.wav",70
Sample,105332,0,"_dr_002.wav",70
Sample,105337,0,"piarp_047.wav",70
Sample,105399,0,"_dr_003.wav",70
Sample,105405,0,"_sna_000.wav",70
Sample,105405,0,"pi4_003.wav",70
Sample,105405,0,"piarp_014.wav",70
Sample,105405,0,"_kurasshu_000.wav",70
Sample,105405,0,"pi4_006.wav",70
Sample,105405,0,"pi4_004.wav",70
Sample,105472,0,"piarp_016.wav",70
Sample,105540,0,"_hat_000.wav",70
Sample,105540,0,"_dr_004.wav",70
Sample,105540,0,"piarp_027.wav",70
Sample,105608,0,"piarp_037.wav",70
Sample,105670,0,"_dr_005.wav",70
Sample,105675,0,"piarp_017.wav",70
Sample,105675,0,"_kurasshu_000.wav",70
Sample,105737,0,"_dr_006.wav",70
Sample,105743,0,"piarp_027.wav",70
Sample,105805,0,"_dr_007.wav",70
Sample,105810,0,"_kurasshu_000.wav",70
Sample,105810,0,"piarp_016.wav",70
Sample,105810,0,"_hat_000.wav",70
Sample,105878,0,"piarp_014.wav",70
Sample,105940,0,"_dr_008.wav",70
Sample,105945,0,"ld4x_064.wav",70
Sample,105945,0,"pi4_013.wav",70
Sample,105945,0,"piarp_047.wav",70
Sample,105945,0,"pi4_006.wav",70
Sample,105945,0,"pi4_012.wav",70
Sample,105945,0,"_sna_001.wav",70
Sample,105945,0,"pi4_011.wav",70
Sample,105945,0,"ld4x_105.wav",70
Sample,106013,0,"piarp_012.wav",70
Sample,106081,0,"piarp_032.wav",70
Sample,106081,0,"_dr_009.wav",70
Sample,106081,0,"_kurasshu_000.wav",70
Sample,106081,0,"pi4_014.wav",70
Sample,106081,0,"_hat_001.wav",70
Sample,106148,0,"piarp_010.wav",70
Sample,106216,0,"pd1_011.wav",70
Sample,106216,0,"_dr_010.wav",70
Sample,106216,0,"ld4x_035.wav",70
Sample,106216,0,"pi4_010.wav",70
Sample,106216,0,"piarp_022.wav",70
Sample,106216,0,"pi4_019.wav",70
Sample,106216,0,"bunyu_001.wav",70
Sample,106283,0,"piarp_019.wav",70
Sample,106340,0,"_dr_011.wav",70
Sample,106351,0,"_hat_000.wav",70
Sample,106351,0,"_kurasshu_000.wav",70
Sample,106351,0,"piarp_023.wav",70
Sample,106418,0,"piarp_047.wav",70
Sample,106480,0,"_dr_012.wav",70
Sample,106486,0,"piarp_020.wav",70
Sample,106486,0,"_sna_000.wav",70
Sample,106554,0,"piarp_025.wav",70
Sample,106621,0,"_kurasshu_000.wav",70
Sample,106621,0,"_hat_000.wav",70
Sample,106621,0,"piarp_035.wav",70
Sample,106621,0,"_dr_013.wav",70
Sample,106621,0,"pi4_022.wav",70
Sample,106621,0,"ld4x_023.wav",70
Sample,106689,0,"piarp_021.wav",70
Sample,106756,0,"pi4_018.wav",70
Sample,106756,0,"_dr_014.wav",70
Sample,106756,0,"pi4_023.wav",70
Sample,106756,0,"piarp_028.wav",70
Sample,106818,0,"_dr_015.wav",70
Sample,106824,0,"piarp_021.wav",70
Sample,106891,0,"_kurasshu_000.wav",70
Sample,106891,0,"_dr_016.wav",70
Sample,106891,0,"_hat_000.wav",70
Sample,106891,0,"piarp_035.wav",70
Sample,106953,0,"_dr_017.wav",70
Sample,106959,0,"piarp_025.wav",70
Sample,107021,0,"_dr_018.wav",70
Sample,107027,0,"piarp_020.wav",70
Sample,107027,0,"_sna_001.wav",70
Sample,107027,0,"pi4_018.wav",70
Sample,107027,0,"ld4x_106.wav",70
Sample,107027,0,"pi4_023.wav",70
Sample,107094,0,"_dr_019.wav",70
Sample,107094,0,"piarp_047.wav",70
Sample,107162,0,"_kurasshu_001.wav",70
Sample,107162,0,"_dr_020.wav",70
Sample,107162,0,"piarp_023.wav",70
Sample,107162,0,"_hat_001.wav",70
Sample,107218,0,"_dr_021.wav",70
Sample,107229,0,"piarp_019.wav",70
Sample,107229,0,"_kurasshu_001.wav",70
Sample,107263,0,"_kurasshu_001.wav",70
Sample,107297,0,"_dr_000.wav",70
Sample,107297,0,"piarp_031.wav",70
Sample,107297,0,"ld4x_048.wav",70
Sample,107297,0,"pd1_023.wav",70
Sample,107297,0,"_ki_000.wav",70
Sample,107297,0,"_kurasshu_002.wav",70
Sample,107297,0,"bunyu_002.wav",70
Sample,107364,0,"piarp_032.wav",70
Sample,107432,0,"_dr_001.wav",70
Sample,107432,0,"_hat_000.wav",70
Sample,107432,0,"piarp_033.wav",70
Sample,107494,0,"_dr_002.wav",70
Sample,107500,0,"piarp_047.wav",70
Sample,107561,0,"_dr_003.wav",70
Sample,107567,0,"pi4_031.wav",70
Sample,107567,0,"pi4_030.wav",70
Sample,107567,0,"_kurasshu_002.wav",70
Sample,107567,0,"piarp_034.wav",70
Sample,107567,0,"_sna_000.wav",70
Sample,107635,0,"piarp_035.wav",70
Sample,107702,0,"_dr_004.wav",70
Sample,107702,0,"_hat_000.wav",70
Sample,107702,0,"piarp_036.wav",70
Sample,107770,0,"piarp_037.wav",70
Sample,107832,0,"_dr_005.wav",70
Sample,107837,0,"piarp_017.wav",70
Sample,107899,0,"_dr_006.wav",70
Sample,107905,0,"piarp_037.wav",70
Sample,107967,0,"_dr_007.wav",70
Sample,107972,0,"piarp_036.wav",70
Sample,107972,0,"_hat_000.wav",70
Sample,107972,0,"_kurasshu_000.wav",70
Sample,108040,0,"piarp_035.wav",70
Sample,108102,0,"_dr_008.wav",70
Sample,108108,0,"_sna_001.wav",70
Sample,108108,0,"piarp_034.wav",70
Sample,108175,0,"piarp_047.wav",70
Sample,108243,0,"_dr_009.wav",70
Sample,108243,0,"piarp_033.wav",70
Sample,108243,0,"_hat_001.wav",70
Sample,108243,0,"_kurasshu_000.wav",70
Sample,108310,0,"piarp_032.wav",70
Sample,108378,0,"piarp_009.wav",70
Sample,108378,0,"_dr_010.wav",70
Sample,108378,0,"pi4_038.wav",70
Sample,108378,0,"ld4x_107.wav",70
Sample,108378,0,"pi4_023.wav",70
Sample,108378,0,"pd1_024.wav",70
Sample,108378,0,"_kurasshu_000.wav",70
Sample,108378,0,"bunyu_003.wav",70
Sample,108378,0,"pi4_003.wav",70
Sample,108445,0,"piarp_033.wav",70
Sample,108502,0,"_dr_011.wav",70
Sample,108513,0,"_kurasshu_000.wav",70
Sample,108513,0,"_hat_000.wav",70
Sample,108513,0,"piarp_003.wav",70
Sample,108581,0,"piarp_013.wav",70
Sample,108643,0,"_dr_012.wav",70
Sample,108648,0,"piarp_034.wav",70
Sample,108648,0,"_sna_000.wav",70
Sample,108716,0,"piarp_015.wav",70
Sample,108783,0,"_dr_013.wav",70
Sample,108783,0,"pi4_013.wav",70
Sample,108783,0,"_hat_000.wav",70
Sample,108783,0,"pi4_040.wav",70
Sample,108783,0,"_kurasshu_000.wav",70
Sample,108783,0,"pi4_003.wav",70
Sample,108783,0,"piarp_016.wav",70
Sample,108851,0,"piarp_036.wav",70
Sample,108918,0,"piarp_007.wav",70
Sample,108918,0,"_dr_014.wav",70
Sample,108918,0,"piarp_022.wav",70
Sample,108918,0,"pd1_025.wav",70
Sample,108918,0,"bunyu_004.wav",70
Sample,108980,0,"_dr_015.wav",70
Sample,108986,0,"piarp_003.wav",70
Sample,109054,0,"_kurasshu_000.wav",70
Sample,109054,0,"_dr_016.wav",70
Sample,109054,0,"_hat_000.wav",70
Sample,109054,0,"piarp_013.wav",70
Sample,109115,0,"_dr_017.wav",70
Sample,109121,0,"piarp_034.wav",70
Sample,109183,0,"_dr_018.wav",70
Sample,109189,0,"pi4_044.wav",70
Sample,109189,0,"pi4_013.wav",70
Sample,109189,0,"_sna_001.wav",70
Sample,109189,0,"pi4_037.wav",70
Sample,109189,0,"pi4_003.wav",70
Sample,109189,0,"piarp_015.wav",70
Sample,109189,0,"pi4_029.wav",70
Sample,109256,0,"_dr_019.wav",70
Sample,109256,0,"piarp_016.wav",70
Sample,109324,0,"_hat_001.wav",70
Sample,109324,0,"_dr_020.wav",70
Sample,109324,0,"piarp_036.wav",70
Sample,109324,0,"_kurasshu_000.wav",70
Sample,109380,0,"_dr_021.wav",70
Sample,109391,0,"piarp_017.wav",70
Sample,109459,0,"pi4_047.wav",70
Sample,109459,0,"_kurasshu_000.wav",70
Sample,109459,0,"bunyu_005.wav",70
Sample,109459,0,"pd1_026.wav",70
Sample,109459,0,"_dr_000.wav",70
Sample,109459,0,"piarp_010.wav",70
Sample,109459,0,"ld4x_108.wav",70
Sample,109527,0,"piarp_011.wav",70
Sample,109594,0,"piarp_012.wav",70
Sample,109594,0,"_hat_000.wav",70
Sample,109594,0,"_dr_001.wav",70
Sample,109656,0,"_dr_002.wav",70
Sample,109662,0,"piarp_047.wav",70
Sample,109724,0,"_dr_003.wav",70
Sample,109729,0,"_sna_000.wav",70
Sample,109729,0,"piarp_014.wav",70
Sample,109729,0,"pi4_004.wav",70
Sample,109729,0,"pi4_048.wav",70
Sample,109797,0,"piarp_016.wav",70
Sample,109864,0,"_dr_004.wav",70
Sample,109864,0,"piarp_027.wav",70
Sample,109864,0,"_kurasshu_000.wav",70
Sample,109864,0,"ld4x_109.wav",70
Sample,109864,0,"_hat_000.wav",70
Sample,109932,0,"piarp_037.wav",70
Sample,109994,0,"_dr_005.wav",70
Sample,110000,0,"piarp_017.wav",70
Sample,110000,0,"pi4_033.wav",70
Sample,110061,0,"_dr_006.wav",70
Sample,110067,0,"piarp_027.wav",70
Sample,110129,0,"_dr_007.wav",70
Sample,110135,0,"_hat_000.wav",70
Sample,110135,0,"pi4_052.wav",70
Sample,110135,0,"piarp_016.wav",70
Sample,110202,0,"piarp_014.wav",70
Sample,110264,0,"_dr_008.wav",70
Sample,110270,0,"_sna_001.wav",70
Sample,110270,0,"pi4_049.wav",70
Sample,110270,0,"_kurasshu_000.wav",70
Sample,110270,0,"pi4_053.wav",70
Sample,110270,0,"piarp_047.wav",70
Sample,110270,0,"ld4x_042.wav",70
Sample,110337,0,"piarp_012.wav",70
Sample,110405,0,"_dr_009.wav",70
Sample,110405,0,"piarp_032.wav",70
Sample,110405,0,"_hat_001.wav",70
Sample,110472,0,"piarp_010.wav",70
Sample,110540,0,"_kurasshu_000.wav",70
Sample,110540,0,"bunyu_004.wav",70
Sample,110540,0,"piarp_022.wav",70
Sample,110540,0,"_dr_010.wav",70
Sample,110540,0,"pd1_027.wav",70
Sample,110540,0,"ld4x_110.wav",70
Sample,110608,0,"piarp_019.wav",70
Sample,110664,0,"_dr_011.wav",70
Sample,110675,0,"piarp_023.wav",70
Sample,110675,0,"_hat_000.wav",70
Sample,110743,0,"ld4x_111.wav",70
Sample,110743,0,"piarp_047.wav",70
Sample,110805,0,"_dr_012.wav",70
Sample,110810,0,"piarp_020.wav",70
Sample,110810,0,"_sna_000.wav",70
Sample,110878,0,"piarp_025.wav",70
Sample,110945,0,"_kurasshu_000.wav",70
Sample,110945,0,"_dr_013.wav",70
Sample,110945,0,"piarp_035.wav",70
Sample,110945,0,"_hat_000.wav",70
Sample,110945,0,"pi4_060.wav",70
Sample,110945,0,"ld4x_039.wav",70
Sample,111013,0,"piarp_021.wav",70
Sample,111081,0,"piarp_028.wav",70
Sample,111081,0,"_dr_014.wav",70
Sample,111081,0,"bunyu_006.wav",70
Sample,111143,0,"_dr_015.wav",70
Sample,111148,0,"piarp_021.wav",70
Sample,111216,0,"_hat_000.wav",70
Sample,111216,0,"_dr_016.wav",70
Sample,111216,0,"piarp_035.wav",70
Sample,111278,0,"_dr_017.wav",70
Sample,111283,0,"piarp_025.wav",70
Sample,111345,0,"_dr_018.wav",70
Sample,111351,0,"pi4_062.wav",70
Sample,111351,0,"_kurasshu_000.wav",70
Sample,111351,0,"ld4x_023.wav",70
Sample,111351,0,"_sna_001.wav",70
Sample,111351,0,"pi4_061.wav",70
Sample,111351,0,"piarp_020.wav",70
Sample,111418,0,"piarp_047.wav",70
Sample,111418,0,"_dr_019.wav",70
Sample,111486,0,"_dr_020.wav",70
Sample,111486,0,"_hat_001.wav",70
Sample,111486,0,"piarp_023.wav",70
Sample,111542,0,"_dr_021.wav",70
Sample,111554,0,"piarp_019.wav",70
Sample,111621,0,"piarp_011.wav",70
Sample,111621,0,"pi4_066.wav",70
Sample,111621,0,"pi4_065.wav",70
Sample,111621,0,"bunyu_000.wav",70
Sample,111621,0,"_kurasshu_003.wav",70
Sample,111621,0,"ld4x_112.wav",70
Sample,111621,0,"pd1_022.wav",70
Sample,111621,0,"_dr_000.wav",70
Sample,111689,0,"piarp_023.wav",70
Sample,111756,0,"_hat_000.wav",70
Sample,111756,0,"_dr_001.wav",70
Sample,111756,0,"piarp_013.wav",70
Sample,111818,0,"_dr_002.wav",70
Sample,111824,0,"piarp_025.wav",70
Sample,111886,0,"_dr_003.wav",70
Sample,111891,0,"pi4_068.wav",70
Sample,111891,0,"pi4_067.wav",70
Sample,111891,0,"piarp_016.wav",70
Sample,111891,0,"_sna_000.wav",70
Sample,111959,0,"piarp_026.wav",70
Sample,112027,0,"_dr_004.wav",70
Sample,112027,0,"piarp_017.wav",70
Sample,112027,0,"_kurasshu_000.wav",70
Sample,112027,0,"_hat_000.wav",70
Sample,112094,0,"piarp_058.wav",70
Sample,112156,0,"_dr_005.wav",70
Sample,112162,0,"piarp_059.wav",70
Sample,112224,0,"_dr_006.wav",70
Sample,112229,0,"piarp_058.wav",70
Sample,112291,0,"_dr_007.wav",70
Sample,112297,0,"_kurasshu_000.wav",70
Sample,112297,0,"piarp_017.wav",70
Sample,112297,0,"_hat_000.wav",70
Sample,112364,0,"piarp_026.wav",70
Sample,112426,0,"_dr_008.wav",70
Sample,112432,0,"_sna_001.wav",70
Sample,112432,0,"piarp_016.wav",70
Sample,112432,0,"pi4_043.wav",70
Sample,112500,0,"piarp_025.wav",70
Sample,112567,0,"piarp_013.wav",70
Sample,112567,0,"_kurasshu_000.wav",70
Sample,112567,0,"_hat_001.wav",70
Sample,112567,0,"pi4_056.wav",70
Sample,112567,0,"_dr_009.wav",70
Sample,112635,0,"piarp_023.wav",70
Sample,112702,0,"pi4_073.wav",70
Sample,112702,0,"ld4x_023.wav",70
Sample,112702,0,"_dr_010.wav",70
Sample,112702,0,"pd1_016.wav",70
Sample,112702,0,"bunyu_007.wav",70
Sample,112702,0,"_kurasshu_000.wav",70
Sample,112702,0,"pi4_075.wav",70
Sample,112702,0,"pi4_074.wav",70
Sample,112702,0,"pi4_072.wav",70
Sample,112702,0,"__hyuooooooooo.wav",70
Sample,112702,0,"piarp_059.wav",70
Sample,112702,0,"ld4x_039.wav",70
Sample,112770,0,"piarp_017.wav",70
Sample,112826,0,"_dr_011.wav",70
Sample,112837,0,"piarp_026.wav",70
Sample,112837,0,"_kurasshu_000.wav",70
Sample,112837,0,"_hat_000.wav",70
Sample,112905,0,"piarp_016.wav",70
Sample,112967,0,"_dr_012.wav",70
Sample,112972,0,"piarp_025.wav",70
Sample,113040,0,"piarp_020.wav",70
Sample,113108,0,"ld4x_039.wav",70
Sample,113108,0,"piarp_013.wav",70
Sample,113108,0,"_hat_000.wav",70
Sample,113108,0,"_dr_013.wav",70
Sample,113108,0,"ld4x_105.wav",70
Sample,113108,0,"_kurasshu_000.wav",70
Sample,113175,0,"piarp_023.wav",70
Sample,113243,0,"piarp_059.wav",70
Sample,113243,0,"pi4_077.wav",70
Sample,113243,0,"_dr_014.wav",70
Sample,113305,0,"_dr_015.wav",70
Sample,113310,0,"piarp_017.wav",70
Sample,113378,0,"_dr_016.wav",70
Sample,113378,0,"_hat_000.wav",70
Sample,113378,0,"piarp_026.wav",70
Sample,113378,0,"_kurasshu_000.wav",70
Sample,113440,0,"_dr_017.wav",70
Sample,113445,0,"piarp_016.wav",70
Sample,113507,0,"_dr_018.wav",70
Sample,113513,0,"_sna_001.wav",70
Sample,113513,0,"ld4x_113.wav",70
Sample,113513,0,"piarp_025.wav",70
Sample,113513,0,"ld4x_114.wav",70
Sample,113581,0,"piarp_016.wav",70
Sample,113581,0,"_dr_019.wav",70
Sample,113648,0,"_dr_020.wav",70
Sample,113648,0,"piarp_017.wav",70
Sample,113648,0,"_hat_001.wav",70
Sample,113648,0,"_kurasshu_001.wav",70
Sample,113682,0,"_kurasshu_001.wav",70
Sample,113704,0,"_dr_021.wav",70
Sample,113716,0,"piarp_059.wav",70
Sample,113716,0,"_kurasshu_001.wav",70
Sample,113750,0,"_kurasshu_001.wav",70
Sample,113783,0,"pi4_001.wav",70
Sample,113783,0,"piarp_010.wav",70
Sample,113783,0,"ld4x_016.wav",70
Sample,113783,0,"_dr_000.wav",70
Sample,113783,0,"bunyu_008.wav",70
Sample,113783,0,"pd1_006.wav",70
Sample,113783,0,"ld4x_115.wav",70
Sample,113851,0,"piarp_011.wav",70
Sample,113918,0,"_dr_001.wav",70
Sample,113918,0,"piarp_012.wav",70
Sample,113918,0,"_hat_000.wav",70
Sample,113918,0,"_kurasshu_000.wav",70
Sample,113980,0,"_dr_002.wav",70
Sample,113986,0,"piarp_047.wav",70
Sample,114048,0,"_dr_003.wav",70
Sample,114054,0,"_sna_000.wav",70
Sample,114054,0,"pi4_004.wav",70
Sample,114054,0,"piarp_014.wav",70
Sample,114054,0,"pi4_006.wav",70
Sample,114054,0,"_kurasshu_003.wav",70
Sample,114054,0,"pi4_003.wav",70
Sample,114121,0,"piarp_016.wav",70
Sample,114189,0,"_hat_000.wav",70
Sample,114189,0,"piarp_027.wav",70
Sample,114189,0,"_dr_004.wav",70
Sample,114256,0,"piarp_037.wav",70
Sample,114318,0,"_dr_005.wav",70
Sample,114324,0,"piarp_017.wav",70
Sample,114386,0,"_dr_006.wav",70
Sample,114391,0,"piarp_027.wav",70
Sample,114453,0,"_dr_007.wav",70
Sample,114459,0,"_kurasshu_000.wav",70
Sample,114459,0,"piarp_016.wav",70
Sample,114459,0,"_hat_000.wav",70
Sample,114527,0,"piarp_014.wav",70
Sample,114588,0,"_dr_008.wav",70
Sample,114594,0,"piarp_047.wav",70
Sample,114594,0,"_sna_001.wav",70
Sample,114594,0,"pi4_006.wav",70
Sample,114594,0,"pi4_011.wav",70
Sample,114594,0,"pi4_005.wav",70
Sample,114594,0,"_kurasshu_000.wav",70
Sample,114594,0,"pi4_012.wav",70
Sample,114662,0,"piarp_012.wav",70
Sample,114729,0,"_dr_009.wav",70
Sample,114729,0,"pi4_014.wav",70
Sample,114729,0,"_kurasshu_001.wav",70
Sample,114729,0,"_hat_001.wav",70
Sample,114729,0,"piarp_032.wav",70
Sample,114797,0,"_kurasshu_001.wav",70
Sample,114797,0,"piarp_010.wav",70
Sample,114864,0,"pi4_079.wav",70
Sample,114864,0,"bunyu_001.wav",70
Sample,114864,0,"_dr_010.wav",70
Sample,114864,0,"pi4_019.wav",70
Sample,114864,0,"pd1_011.wav",70
Sample,114864,0,"ld4x_116.wav",70
Sample,114864,0,"piarp_022.wav",70
Sample,114864,0,"ld4x_036.wav",70
Sample,114864,0,"_kurasshu_000.wav",70
Sample,114932,0,"piarp_019.wav",70
Sample,114988,0,"_dr_011.wav",70
Sample,115000,0,"_kurasshu_000.wav",70
Sample,115000,0,"_hat_000.wav",70
Sample,115000,0,"piarp_023.wav",70
Sample,115067,0,"piarp_047.wav",70
Sample,115129,0,"_dr_012.wav",70
Sample,115135,0,"piarp_020.wav",70
Sample,115202,0,"piarp_025.wav",70
Sample,115270,0,"ld4x_109.wav",70
Sample,115270,0,"ld4x_117.wav",70
Sample,115270,0,"_kurasshu_000.wav",70
Sample,115270,0,"pi4_020.wav",70
Sample,115270,0,"piarp_035.wav",70
Sample,115270,0,"_hat_000.wav",70
Sample,115270,0,"_dr_013.wav",70
Sample,115337,0,"piarp_021.wav",70
Sample,115405,0,"pi4_018.wav",70
Sample,115405,0,"_dr_014.wav",70
Sample,115405,0,"pi4_023.wav",70
Sample,115405,0,"piarp_028.wav",70
Sample,115405,0,"_kurasshu_000.wav",70
Sample,115467,0,"_dr_015.wav",70
Sample,115472,0,"piarp_021.wav",70
Sample,115540,0,"_hat_000.wav",70
Sample,115540,0,"_dr_016.wav",70
Sample,115540,0,"piarp_035.wav",70
Sample,115602,0,"_dr_017.wav",70
Sample,115608,0,"piarp_025.wav",70
Sample,115670,0,"_dr_018.wav",70
Sample,115675,0,"ld4x_118.wav",70
Sample,115675,0,"pi4_018.wav",70
Sample,115675,0,"_sna_001.wav",70
Sample,115675,0,"_kurasshu_000.wav",70
Sample,115675,0,"pi4_023.wav",70
Sample,115675,0,"piarp_020.wav",70
Sample,115675,0,"ld4x_027.wav",70
Sample,115743,0,"piarp_047.wav",70
Sample,115743,0,"_dr_019.wav",70
Sample,115810,0,"_dr_020.wav",70
Sample,115810,0,"_kurasshu_001.wav",70
Sample,115810,0,"_hat_001.wav",70
Sample,115810,0,"piarp_023.wav",70
Sample,115867,0,"_dr_021.wav",70
Sample,115878,0,"_kurasshu_001.wav",70
Sample,115878,0,"piarp_019.wav",70
Sample,115912,0,"_kurasshu_001.wav",70
Sample,115945,0,"_kurasshu_003.wav",70
Sample,115945,0,"bunyu_009.wav",70
Sample,115945,0,"piarp_031.wav",70
Sample,115945,0,"pi4_026.wav",70
Sample,115945,0,"_ki_000.wav",70
Sample,115945,0,"ld4x_073.wav",70
Sample,115945,0,"_dr_000.wav",70
Sample,115945,0,"ld4x_119.wav",70
Sample,115945,0,"pd1_016.wav",70
Sample,116013,0,"piarp_032.wav",70
Sample,116081,0,"_hat_000.wav",70
Sample,116081,0,"_dr_001.wav",70
Sample,116081,0,"piarp_033.wav",70
Sample,116143,0,"_dr_002.wav",70
Sample,116148,0,"piarp_047.wav",70
Sample,116210,0,"_dr_003.wav",70
Sample,116216,0,"pi4_031.wav",70
Sample,116216,0,"pi4_030.wav",70
Sample,116216,0,"pi4_029.wav",70
Sample,116216,0,"ld4x_114.wav",70
Sample,116216,0,"_sna_000.wav",70
Sample,116216,0,"piarp_034.wav",70
Sample,116283,0,"piarp_035.wav",70
Sample,116351,0,"_dr_004.wav",70
Sample,116351,0,"_kurasshu_000.wav",70
Sample,116351,0,"piarp_036.wav",70
Sample,116351,0,"_hat_000.wav",70
Sample,116418,0,"piarp_037.wav",70
Sample,116480,0,"_dr_005.wav",70
Sample,116486,0,"pi4_032.wav",70
Sample,116486,0,"bunyu_010.wav",70
Sample,116486,0,"ld4x_120.wav",70
Sample,116486,0,"piarp_017.wav",70
Sample,116548,0,"_dr_006.wav",70
Sample,116554,0,"piarp_037.wav",70
Sample,116615,0,"_dr_007.wav",70
Sample,116621,0,"piarp_036.wav",70
Sample,116621,0,"_hat_000.wav",70
Sample,116621,0,"ld4x_077.wav",70
Sample,116621,0,"_kurasshu_002.wav",70
Sample,116689,0,"piarp_035.wav",70
Sample,116751,0,"_dr_008.wav",70
Sample,116756,0,"piarp_034.wav",70
Sample,116756,0,"_sna_001.wav",70
Sample,116756,0,"pi4_029.wav",70
Sample,116824,0,"piarp_047.wav",70
Sample,116891,0,"ld4x_120.wav",70
Sample,116891,0,"piarp_033.wav",70
Sample,116891,0,"_dr_009.wav",70
Sample,116891,0,"_hat_001.wav",70
Sample,116959,0,"piarp_032.wav",70
Sample,117027,0,"pi4_037.wav",70
Sample,117027,0,"pi4_036.wav",70
Sample,117027,0,"pi4_023.wav",70
Sample,117027,0,"_dr_010.wav",70
Sample,117027,0,"bunyu_011.wav",70
Sample,117027,0,"piarp_009.wav",70
Sample,117027,0,"ld4x_073.wav",70
Sample,117027,0,"pi4_003.wav",70
Sample,117027,0,"_kurasshu_004.wav",70
Sample,117027,0,"pd1_028.wav",70
Sample,117094,0,"piarp_033.wav",70
Sample,117150,0,"_dr_011.wav",70
Sample,117162,0,"piarp_003.wav",70
Sample,117162,0,"_hat_000.wav",70
Sample,117229,0,"piarp_013.wav",70
Sample,117291,0,"_dr_012.wav",70
Sample,117297,0,"_sna_000.wav",70
Sample,117297,0,"piarp_034.wav",70
Sample,117297,0,"ld4x_121.wav",70
Sample,117364,0,"piarp_015.wav",70
Sample,117432,0,"pi4_040.wav",70
Sample,117432,0,"_hat_000.wav",70
Sample,117432,0,"_kurasshu_000.wav",70
Sample,117432,0,"ld4x_023.wav",70
Sample,117432,0,"pi4_005.wav",70
Sample,117432,0,"pi4_029.wav",70
Sample,117432,0,"pi4_003.wav",70
Sample,117432,0,"_dr_013.wav",70
Sample,117432,0,"piarp_016.wav",70
Sample,117500,0,"piarp_036.wav",70
Sample,117500,0,"ld4x_122.wav",70
Sample,117567,0,"piarp_022.wav",70
Sample,117567,0,"_dr_014.wav",70
Sample,117567,0,"ld4x_123.wav",70
Sample,117567,0,"pd1_003.wav",70
Sample,117567,0,"bunyu_012.wav",70
Sample,117567,0,"piarp_007.wav",70
Sample,117629,0,"_dr_015.wav",70
Sample,117635,0,"piarp_003.wav",70
Sample,117702,0,"_hat_000.wav",70
Sample,117702,0,"_dr_016.wav",70
Sample,117702,0,"piarp_013.wav",70
Sample,117702,0,"ld4x_124.wav",70
Sample,117764,0,"_dr_017.wav",70
Sample,117770,0,"piarp_034.wav",70
Sample,117832,0,"_dr_018.wav",70
Sample,117837,0,"pi4_084.wav",70
Sample,117837,0,"piarp_015.wav",70
Sample,117837,0,"_kurasshu_000.wav",70
Sample,117837,0,"pi4_029.wav",70
Sample,117837,0,"pi4_037.wav",70
Sample,117837,0,"pi4_003.wav",70
Sample,117837,0,"ld4x_106.wav",70
Sample,117837,0,"pi4_005.wav",70
Sample,117837,0,"pi4_032.wav",70
Sample,117837,0,"_sna_001.wav",70
Sample,117905,0,"_dr_019.wav",70
Sample,117905,0,"piarp_016.wav",70
Sample,117972,0,"_kurasshu_000.wav",70
Sample,117972,0,"_hat_001.wav",70
Sample,117972,0,"piarp_036.wav",70
Sample,117972,0,"_dr_020.wav",70
Sample,118029,0,"_dr_021.wav",70
Sample,118040,0,"piarp_017.wav",70
Sample,118108,0,"piarp_010.wav",70
Sample,118108,0,"pd1_006.wav",70
Sample,118108,0,"pi4_086.wav",70
Sample,118108,0,"bunyu_008.wav",70
Sample,118108,0,"pi4_088.wav",70
Sample,118108,0,"ld4x_125.wav",70
Sample,118108,0,"pi4_087.wav",70
Sample,118108,0,"_dr_000.wav",70
Sample,118175,0,"piarp_011.wav",70
Sample,118243,0,"piarp_012.wav",70
Sample,118243,0,"_dr_001.wav",70
Sample,118243,0,"_hat_000.wav",70
Sample,118305,0,"_dr_002.wav",70
Sample,118310,0,"piarp_047.wav",70
Sample,118372,0,"_dr_003.wav",70
Sample,118378,0,"pi4_074.wav",70
Sample,118378,0,"_sna_000.wav",70
Sample,118378,0,"piarp_014.wav",70
Sample,118445,0,"piarp_016.wav",70
Sample,118513,0,"piarp_027.wav",70
Sample,118513,0,"_hat_000.wav",70
Sample,118513,0,"_dr_004.wav",70
Sample,118581,0,"piarp_037.wav",70
Sample,118643,0,"_dr_005.wav",70
Sample,118648,0,"piarp_017.wav",70
Sample,118710,0,"_dr_006.wav",70
Sample,118716,0,"piarp_027.wav",70
Sample,118778,0,"_dr_007.wav",70
Sample,118783,0,"_hat_000.wav",70
Sample,118783,0,"piarp_016.wav",70
Sample,118783,0,"_kurasshu_000.wav",70
Sample,118851,0,"piarp_014.wav",70
Sample,118913,0,"_dr_008.wav",70
Sample,118918,0,"_kurasshu_003.wav",70
Sample,118918,0,"pi4_054.wav",70
Sample,118918,0,"ld4x_126.wav",70
Sample,118918,0,"_sna_001.wav",70
Sample,118918,0,"piarp_047.wav",70
Sample,118918,0,"pi4_004.wav",70
Sample,118986,0,"piarp_012.wav",70
Sample,119054,0,"_dr_009.wav",70
Sample,119054,0,"piarp_032.wav",70
Sample,119054,0,"_hat_001.wav",70
Sample,119121,0,"piarp_010.wav",70
Sample,119189,0,"_dr_010.wav",70
Sample,119189,0,"pd1_027.wav",70
Sample,119189,0,"ld4x_127.wav",70
Sample,119189,0,"piarp_022.wav",70
Sample,119189,0,"pi4_094.wav",70
Sample,119189,0,"pi4_095.wav",70
Sample,119189,0,"bunyu_013.wav",70
Sample,119256,0,"piarp_019.wav",70
Sample,119313,0,"_dr_011.wav",70
Sample,119324,0,"piarp_023.wav",70
Sample,119324,0,"_kurasshu_000.wav",70
Sample,119324,0,"_hat_000.wav",70
Sample,119391,0,"piarp_047.wav",70
Sample,119453,0,"_dr_012.wav",70
Sample,119459,0,"piarp_020.wav",70
Sample,119459,0,"_sna_000.wav",70
Sample,119459,0,"_kurasshu_003.wav",70
Sample,119527,0,"piarp_025.wav",70
Sample,119594,0,"_hat_000.wav",70
Sample,119594,0,"_dr_013.wav",70
Sample,119594,0,"piarp_035.wav",70
Sample,119662,0,"piarp_021.wav",70
Sample,119729,0,"_dr_014.wav",70
Sample,119729,0,"piarp_028.wav",70
Sample,119729,0,"ld4x_128.wav",70
Sample,119791,0,"_dr_015.wav",70
Sample,119797,0,"piarp_021.wav",70
Sample,119864,0,"_hat_000.wav",70
Sample,119864,0,"piarp_035.wav",70
Sample,119864,0,"_dr_016.wav",70
Sample,119864,0,"_kurasshu_002.wav",70
Sample,119926,0,"_dr_017.wav",70
Sample,119932,0,"piarp_025.wav",70
Sample,119994,0,"_dr_018.wav",70
Sample,120000,0,"pi4_051.wav",70
Sample,120000,0,"_sna_001.wav",70
Sample,120000,0,"piarp_020.wav",70
Sample,120000,0,"pi4_062.wav",70
Sample,120067,0,"_dr_019.wav",70
Sample,120067,0,"piarp_047.wav",70
Sample,120135,0,"piarp_023.wav",70
Sample,120135,0,"_hat_001.wav",70
Sample,120135,0,"_kurasshu_001.wav",70
Sample,120135,0,"_dr_020.wav",70
Sample,120191,0,"_dr_021.wav",70
Sample,120202,0,"_kurasshu_001.wav",70
Sample,120202,0,"piarp_019.wav",70
Sample,120270,0,"_kurasshu_005.wav",70
Sample,120270,0,"ld4x_129.wav",70
Sample,120270,0,"_dr_000.wav",70
Sample,120270,0,"pd1_029.wav",70
Sample,120270,0,"bunyu_014.wav",70
Sample,120270,0,"pi4_099.wav",70
Sample,120270,0,"pi4_101.wav",70
Sample,120270,0,"pi4_100.wav",70
Sample,120270,0,"pi4_098.wav",70
Sample,120270,0,"ld4x_131.wav",70
Sample,120270,0,"piarp_011.wav",70
Sample,120270,0,"ld4x_130.wav",70
Sample,120337,0,"_kurasshu_006.wav",70
Sample,120337,0,"piarp_023.wav",70
Sample,120405,0,"_hat_000.wav",70
Sample,120405,0,"_dr_001.wav",70
Sample,120405,0,"_sna_002.wav",70
Sample,120405,0,"_kurasshu_006.wav",70
Sample,120405,0,"piarp_013.wav",70
Sample,120467,0,"_dr_002.wav",70
Sample,120472,0,"_kurasshu_007.wav",70
Sample,120472,0,"piarp_025.wav",70
Sample,120534,0,"_dr_003.wav",70
Sample,120540,0,"piarp_016.wav",70
Sample,120540,0,"pi4_041.wav",70
Sample,120540,0,"_kurasshu_007.wav",70
Sample,120608,0,"piarp_026.wav",70
Sample,120608,0,"_kurasshu_008.wav",70
Sample,120675,0,"_dr_004.wav",70
Sample,120675,0,"_hat_000.wav",70
Sample,120675,0,"piarp_017.wav",70
Sample,120675,0,"_kurasshu_008.wav",70
Sample,120743,0,"_kurasshu_008.wav",70
Sample,120743,0,"piarp_058.wav",70
Sample,120805,0,"_dr_005.wav",70
Sample,120810,0,"piarp_059.wav",70
Sample,120810,0,"_kurasshu_009.wav",70
Sample,120810,0,"_sna_002.wav",70
Sample,120872,0,"_dr_006.wav",70
Sample,120878,0,"piarp_058.wav",70
Sample,120878,0,"_kurasshu_009.wav",70
Sample,120940,0,"_dr_007.wav",70
Sample,120945,0,"piarp_017.wav",70
Sample,120945,0,"pi4_048.wav",70
Sample,120945,0,"_hat_000.wav",70
Sample,120945,0,"_kurasshu_010.wav",70
Sample,121013,0,"piarp_026.wav",70
Sample,121013,0,"_kurasshu_010.wav",70
Sample,121075,0,"_dr_008.wav",70
Sample,121081,0,"piarp_016.wav",70
Sample,121081,0,"_kurasshu_011.wav",70
Sample,121148,0,"piarp_025.wav",70
Sample,121148,0,"_kurasshu_011.wav",70
Sample,121216,0,"_dr_009.wav",70
Sample,121216,0,"_hat_001.wav",70
Sample,121216,0,"piarp_013.wav",70
Sample,121216,0,"_kurasshu_012.wav",70
Sample,121216,0,"pi4_102.wav",70
Sample,121216,0,"_sna_002.wav",70
Sample,121283,0,"piarp_023.wav",70
Sample,121283,0,"_kurasshu_012.wav",70
Sample,121351,0,"ld4x_132.wav",70
Sample,121351,0,"_kurasshu_013.wav",70
Sample,121351,0,"piarp_009.wav",70
Sample,121351,0,"_dr_010.wav",70
Sample,121351,0,"ld4x_014.wav",70
Sample,121351,0,"ld4x_133.wav",70
Sample,121418,0,"_kurasshu_013.wav",70
Sample,121418,0,"piarp_033.wav",70
Sample,121475,0,"_dr_011.wav",70
Sample,121486,0,"_sna_002.wav",70
Sample,121486,0,"_kurasshu_014.wav",70
Sample,121486,0,"_hat_000.wav",70
Sample,121486,0,"piarp_003.wav",70
Sample,121554,0,"piarp_013.wav",70
Sample,121554,0,"_kurasshu_014.wav",70
Sample,121615,0,"_dr_012.wav",70
Sample,121621,0,"_sna_003.wav",70
Sample,121621,0,"piarp_034.wav",70
Sample,121621,0,"_kurasshu_001.wav",70
Sample,121655,0,"_sna_004.wav",70
Sample,121689,0,"_kurasshu_001.wav",70
Sample,121689,0,"_sna_005.wav",70
Sample,121689,0,"piarp_015.wav",70
Sample,121722,0,"_sna_006.wav",70
Sample,121756,0,"_dr_013.wav",70
Sample,121756,0,"_hat_000.wav",70
Sample,121756,0,"piarp_016.wav",70
Sample,121756,0,"_kurasshu_015.wav",70
Sample,121756,0,"_sna_007.wav",70
Sample,121790,0,"_sna_008.wav",70
Sample,121824,0,"piarp_036.wav",70
Sample,121824,0,"_sna_009.wav",70
Sample,121824,0,"_kurasshu_015.wav",70
Sample,121858,0,"_sna_010.wav",70
Sample,121891,0,"_kurasshu_015.wav",70
Sample,121891,0,"_dr_014.wav",70
Sample,121891,0,"piarp_025.wav",70
Sample,121891,0,"_sna_011.wav",70
Sample,121891,0,"piarp_060.wav",70
Sample,121925,0,"_sna_012.wav",70
Sample,121953,0,"_dr_015.wav",70
Sample,121959,0,"_kurasshu_016.wav",70
Sample,121959,0,"piarp_007.wav",70
Sample,121959,0,"_sna_013.wav",70
Sample,121993,0,"_sna_014.wav",70
Sample,122027,0,"_kurasshu_016.wav",70
Sample,122027,0,"_dr_016.wav",70
Sample,122027,0,"_hat_000.wav",70
Sample,122027,0,"_sna_015.wav",70
Sample,122027,0,"piarp_017.wav",70
Sample,122060,0,"_sna_016.wav",70
Sample,122088,0,"_dr_017.wav",70
Sample,122094,0,"_kurasshu_017.wav",70
Sample,122094,0,"_sna_017.wav",70
Sample,122094,0,"piarp_058.wav",70
Sample,122128,0,"_sna_018.wav",70
Sample,122156,0,"_dr_018.wav",70
Sample,122162,0,"_sna_019.wav",70
Sample,122162,0,"_kurasshu_017.wav",70
Sample,122162,0,"piarp_061.wav",70
Sample,122195,0,"_sna_020.wav",70
Sample,122229,0,"_sna_021.wav",70
Sample,122229,0,"piarp_062.wav",70
Sample,122229,0,"_dr_019.wav",70
Sample,122229,0,"_kurasshu_018.wav",70
Sample,122263,0,"_sna_022.wav",70
Sample,122297,0,"_hat_001.wav",70
Sample,122297,0,"_sna_023.wav",70
Sample,122297,0,"_dr_020.wav",70
Sample,122297,0,"piarp_063.wav",70
Sample,122297,0,"_kurasshu_018.wav",70
Sample,122331,0,"_sna_024.wav",70
Sample,122353,0,"_dr_021.wav",70
Sample,122364,0,"piarp_064.wav",70
Sample,122364,0,"_sna_025.wav",70
Sample,122364,0,"_kurasshu_019.wav",70
Sample,122398,0,"_sna_026.wav",70
Sample,122432,0,"__kuraaaaaaasshu.wav",70
Sample,122432,0,"__outr.wav",70
Sample,122432,0,"__dohyuuuuuun.wav",70

[TimingPoints]
0,270.27027027027,4,2,0,70,1,0

[HitObjects]
32,192,1081,5,0,2:0:0:70:pi1_000.wav
96,192,1081,1,0,2:0:0:70:__kuraaaaaaasshu.wav
480,192,1081,1,0,2:0:0:70:__dohyuuuuuun.wav
32,192,4324,1,0,2:0:0:70:vio1_001.wav
96,192,5405,1,0,2:0:0:70:vio1_002.wav
288,192,7567,1,0,2:0:0:70:vio1_003.wav
416,192,8648,1,0,2:0:0:70:vio1_004.wav
32,192,9729,1,0,2:0:0:70:pi1_000.wav
480,192,9729,1,0,2:0:0:70:vio1_005.wav
160,192,9864,1,0,2:0:0:70:pi1_001.wav
352,192,9999,1,0,2:0:0:70:pi1_002.wav
480,192,10135,1,0,2:0:0:70:pi1_003.wav
160,192,10270,1,0,2:0:0:70:pi1_005.wav
416,192,10405,1,0,2:0:0:70:pi1_003.wav
288,192,10540,1,0,2:0:0:70:pi1_006.wav
96,192,10675,1,0,2:0:0:70:pi1_008.wav
32,192,10810,1,0,2:0:0:70:pi1_009.wav
160,192,10945,1,0,2:0:0:70:pi1_010.wav
352,192,11081,1,0,2:0:0:70:pi1_011.wav
416,192,11216,1,0,2:0:0:70:pi1_005.wav
480,192,11351,1,0,2:0:0:70:pi1_012.wav
416,192,11486,1,0,2:0:0:70:pi1_004.wav
352,192,11621,1,0,2:0:0:70:pi1_006.wav
160,192,11756,1,0,2:0:0:70:pi1_013.wav
32,192,11891,1,0,2:0:0:70:pi1_014.wav
96,192,12027,1,0,2:0:0:70:pi1_015.wav
160,192,12162,1,0,2:0:0:70:pi1_016.wav
352,192,12297,1,0,2:0:0:70:pi1_004.wav
480,192,12432,1,0,2:0:0:70:pi1_017.wav
288,192,12567,1,0,2:0:0:70:pi1_006.wav
96,192,12837,1,0,2:0:0:70:pi1_018.wav
32,192,12972,1,0,2:0:0:70:pi1_019.wav
96,192,13108,1,0,2:0:0:70:pi1_020.wav
288,192,13243,1,0,2:0:0:70:pi1_021.wav
416,192,13378,1,0,2:0:0:70:pi1_017.wav
96,192,13513,1,0,2:0:0:70:pi1_022.wav
160,192,13648,1,0,2:0:0:70:pi1_023.wav
352,192,13783,1,0,2:0:0:70:pi1_024.wav
480,192,13918,1,0,2:0:0:70:pi1_025.wav
32,192,14054,1,0,2:0:0:70:pi1_000.wav
160,192,14189,1,0,2:0:0:70:pi1_001.wav
352,192,14324,1,0,2:0:0:70:pi1_002.wav
480,192,14459,1,0,2:0:0:70:pi1_003.wav
160,192,14594,1,0,2:0:0:70:pi1_005.wav
416,192,14729,1,0,2:0:0:70:pi1_003.wav
288,192,14864,1,0,2:0:0:70:pi1_006.wav
96,192,14999,1,0,2:0:0:70:pi1_008.wav
32,192,15135,1,0,2:0:0:70:pi1_009.wav
160,192,15270,1,0,2:0:0:70:pi1_010.wav
288,192,15405,1,0,2:0:0:70:pi1_011.wav
416,192,15540,1,0,2:0:0:70:pi1_005.wav
480,192,15675,1,0,2:0:0:70:pi1_012.wav
352,192,15810,1,0,2:0:0:70:pi1_004.wav
288,192,15945,1,0,2:0:0:70:pi1_006.wav
96,192,16081,1,0,2:0:0:70:pi1_013.wav
32,192,16216,5,0,2:0:0:70:pi1_026.wav
160,192,16351,1,0,2:0:0:70:pi1_011.wav
352,192,16486,1,0,2:0:0:70:pi1_027.wav
416,192,16621,1,0,2:0:0:70:pi1_028.wav
480,192,16756,1,0,2:0:0:70:pi1_029.wav
416,192,16891,1,0,2:0:0:70:pi1_030.wav
160,192,17162,1,0,2:0:0:70:pi1_031.wav
32,192,17297,1,0,2:0:0:70:pi1_032.wav
96,192,17297,1,0,2:0:0:70:__itumonofiru.wav
160,192,17432,1,0,2:0:0:70:pi1_033.wav
352,192,17567,1,0,2:0:0:70:pi1_034.wav
480,192,17702,1,0,2:0:0:70:pi1_031.wav
32,192,17837,1,0,2:0:0:70:pi1_035.wav
160,192,17972,1,0,2:0:0:70:pi1_020.wav
352,192,18108,1,0,2:0:0:70:pi1_007.wav
480,192,18243,1,0,2:0:0:70:pi1_005.wav
32,192,18378,1,0,2:0:0:70:_ki_000.wav
160,192,18378,1,0,2:0:0:70:pi3_001.wav
352,192,18378,1,0,2:0:0:70:pi3_000.wav
96,192,18378,1,0,2:0:0:70:__kuraaaaaaasshu.wav
160,192,18648,1,0,2:0:0:70:_ki_000.wav
96,192,18918,1,0,2:0:0:70:_ki_000.wav
32,192,19189,1,0,2:0:0:70:_ki_000.wav
352,192,19189,1,0,2:0:0:70:pi3_002.wav
160,192,19324,1,0,2:0:0:70:_ki_000.wav
352,192,19459,1,0,2:0:0:70:pi3_003.wav
32,192,19594,1,0,2:0:0:70:_ki_000.wav
416,192,19594,1,0,2:0:0:70:_kurasshu_000.wav
32,192,19864,1,0,2:0:0:70:_ki_000.wav
160,192,19864,1,0,2:0:0:70:pi3_004.wav
480,192,19864,1,0,2:0:0:70:_kurasshu_000.wav
96,192,20135,1,0,2:0:0:70:_ki_000.wav
160,192,20270,1,0,2:0:0:70:pi3_005.wav
480,192,20405,1,0,2:0:0:70:_ki_001.wav
416,192,20472,1,0,2:0:0:70:_ki_001.wav
352,192,20506,1,0,2:0:0:70:_ki_001.wav
32,192,20540,1,0,2:0:0:70:_ki_000.wav
288,192,20540,1,0,2:0:0:70:pi3_006.wav
416,192,20675,1,0,2:0:0:70:_hat_000.wav
32,192,20810,1,0,2:0:0:70:_ki_000.wav
160,192,20810,1,0,2:0:0:70:_kurasshu_002.wav
416,192,20945,1,0,2:0:0:70:_hat_000.wav
32,192,21081,1,0,2:0:0:70:_ki_000.wav
288,192,21216,1,0,2:0:0:70:_kurasshu_000.wav
416,192,21216,1,0,2:0:0:70:_hat_000.wav
32,192,21351,1,0,2:0:0:70:_ki_000.wav
416,192,21486,1,0,2:0:0:70:_hat_001.wav
32,192,21621,1,0,2:0:0:70:_ki_000.wav
160,192,21621,1,0,2:0:0:70:pi3_007.wav
352,192,21621,1,0,2:0:0:70:_kurasshu_000.wav
32,192,21756,1,0,2:0:0:70:_ki_000.wav
416,192,21756,1,0,2:0:0:70:_hat_000.wav
32,192,22027,1,0,2:0:0:70:_ki_000.wav
288,192,22027,1,0,2:0:0:70:_kurasshu_000.wav
416,192,22027,1,0,2:0:0:70:_hat_000.wav
32,192,22297,1,0,2:0:0:70:_ki_000.wav
416,192,22297,1,0,2:0:0:70:_hat_000.wav
160,192,22432,1,0,2:0:0:70:_ki_000.wav
288,192,22567,1,0,2:0:0:70:_kurasshu_000.wav
416,192,22567,1,0,2:0:0:70:_hat_001.wav
96,192,22702,1,0,2:0:0:70:pi3_008.wav
352,192,22702,1,0,2:0:0:70:ld4x_005.wav
32,192,23108,1,0,2:0:0:70:_ki_000.wav
160,192,23108,1,0,2:0:0:70:pi3_009.wav
416,192,23108,1,0,2:0:0:70:ld4x_003.wav
32,192,23513,1,0,2:0:0:70:_ki_000.wav
288,192,23513,1,0,2:0:0:70:pi3_002.wav
480,192,23513,1,0,2:0:0:70:ld4x_002.wav
32,192,23783,1,0,2:0:0:70:_ki_000.wav
160,192,23783,1,0,2:0:0:70:pi3_011.wav
352,192,23783,1,0,2:0:0:70:pi3_010.wav
32,192,24189,1,0,2:0:0:70:_ki_000.wav
288,192,24189,1,0,2:0:0:70:ld4x_011.wav
416,192,24189,1,0,2:0:0:70:pi3_012.wav
32,192,24594,1,0,2:0:0:70:_ki_000.wav
160,192,24594,1,0,2:0:0:70:pi3_002.wav
352,192,24594,1,0,2:0:0:70:ld4x_023.wav
480,192,24594,1,0,2:0:0:70:pi3_013.wav
96,192,24864,1,0,2:0:0:70:pi3_016.wav
288,192,24864,1,0,2:0:0:70:pi3_015.wav
416,192,24864,1,0,2:0:0:70:pi3_014.wav
32,192,25135,1,0,2:0:0:70:_ki_000.wav
416,192,25270,1,0,2:0:0:70:_hat_000.wav
32,192,25405,1,0,2:0:0:70:_ki_000.wav
288,192,25540,1,0,2:0:0:70:_kurasshu_000.wav
416,192,25540,1,0,2:0:0:70:_hat_000.wav
32,192,25675,1,0,2:0:0:70:_ki_000.wav
416,192,25810,1,0,2:0:0:70:_hat_001.wav
32,192,25945,1,0,2:0:0:70:pi3_018.wav
288,192,25945,1,0,2:0:0:70:pi3_017.wav
160,192,26081,1,0,2:0:0:70:_ki_000.wav
96,192,26351,1,0,2:0:0:70:pi3_019.wav
352,192,26351,1,0,2:0:0:70:pi3_020.wav
32,192,26621,1,0,2:0:0:70:_ki_000.wav
160,192,26756,1,0,2:0:0:70:pi3_005.wav
416,192,26756,1,0,2:0:0:70:pi3_021.wav
32,192,26891,1,0,2:0:0:70:_ki_001.wav
96,192,26925,1,0,2:0:0:70:_ki_001.wav
160,192,26959,1,0,2:0:0:70:_ki_001.wav
288,192,26993,1,0,2:0:0:70:_ki_001.wav
352,192,27027,1,0,2:0:0:70:pi3_000.wav
480,192,27027,1,0,2:0:0:70:pi3_022.wav
416,192,27162,1,0,2:0:0:70:_hat_000.wav
32,192,27297,1,0,2:0:0:70:_ki_000.wav
288,192,27297,1,0,2:0:0:70:_kurasshu_003.wav
416,192,27432,1,0,2:0:0:70:_hat_000.wav
32,192,27567,1,0,2:0:0:70:_ki_000.wav
160,192,27567,1,0,2:0:0:70:piarp_008.wav
416,192,27702,1,0,2:0:0:70:_hat_000.wav
32,192,27837,1,0,2:0:0:70:_ki_000.wav
288,192,27837,1,0,2:0:0:70:_kurasshu_000.wav
96,192,27972,1,0,2:0:0:70:pi3_023.wav
288,192,28040,1,0,2:0:0:70:pi3_024.wav
416,192,28108,1,0,2:0:0:70:pi3_003.wav
480,192,28108,1,0,2:0:0:70:pi3_025.wav
160,192,28243,1,0,2:0:0:70:_ki_000.wav
352,192,28243,1,0,2:0:0:70:_kurasshu_000.wav
32,192,28513,1,0,2:0:0:70:pi3_026.wav
480,192,28513,1,0,2:0:0:70:pi3_027.wav
160,192,28648,1,0,2:0:0:70:_kurasshu_000.wav
352,192,28648,1,0,2:0:0:70:_ki_000.wav
160,192,28918,1,0,2:0:0:70:pi3_028.wav
352,192,28918,1,0,2:0:0:70:pi3_029.wav
32,192,29054,1,0,2:0:0:70:_ki_001.wav
96,192,29121,1,0,2:0:0:70:_ki_001.wav
160,192,29155,1,0,2:0:0:70:_ki_001.wav
288,192,29189,1,0,2:0:0:70:pi3_031.wav
480,192,29189,1,0,2:0:0:70:pi3_030.wav
352,192,29324,1,0,2:0:0:70:_hat_000.wav
32,192,29459,1,0,2:0:0:70:_ki_000.wav
352,192,29594,1,0,2:0:0:70:_hat_000.wav
480,192,29594,1,0,2:0:0:70:_kurasshu_000.wav
32,192,29729,1,0,2:0:0:70:_ki_000.wav
288,192,29864,1,0,2:0:0:70:_kurasshu_002.wav
416,192,29864,1,0,2:0:0:70:_hat_000.wav
32,192,29999,1,0,2:0:0:70:_ki_000.wav
160,192,29999,1,0,2:0:0:70:pi3_032.wav
352,192,30135,1,0,2:0:0:70:_hat_001.wav
96,192,30270,1,0,2:0:0:70:_ki_000.wav
480,192,30270,1,0,2:0:0:70:pi3_033.wav
160,192,30540,1,0,2:0:0:70:_ki_000.wav
288,192,30675,1,0,2:0:0:70:ld4x_011.wav
416,192,30675,1,0,2:0:0:70:pi3_012.wav
96,192,30945,1,0,2:0:0:70:_ki_000.wav
160,192,31081,1,0,2:0:0:70:ld4x_027.wav
352,192,31081,1,0,2:0:0:70:pi3_017.wav
32,192,31351,1,0,2:0:0:70:_ki_000.wav
160,192,31351,1,0,2:0:0:70:pi3_034.wav
352,192,31486,1,0,2:0:0:70:_kurasshu_000.wav
32,192,31621,1,0,2:0:0:70:_ki_000.wav
288,192,31756,1,0,2:0:0:70:_kurasshu_000.wav
416,192,31756,1,0,2:0:0:70:_hat_000.wav
32,192,31891,1,0,2:0:0:70:_ki_000.wav
352,192,32027,1,0,2:0:0:70:_kurasshu_000.wav
32,192,32162,1,0,2:0:0:70:_ki_000.wav
160,192,32162,1,0,2:0:0:70:ld4x_045.wav
416,192,32162,1,0,2:0:0:70:pi3_035.wav
96,192,32297,1,0,2:0:0:70:_hat_001.wav
288,192,32432,1,0,2:0:0:70:ld4x_046.wav
480,192,32432,1,0,2:0:0:70:pi3_036.wav
96,192,32567,1,0,2:0:0:70:_kurasshu_000.wav
416,192,32702,1,0,2:0:0:70:_kurasshu_003.wav
288,192,32837,1,0,2:0:0:70:_ki_000.wav
96,192,32972,1,0,2:0:0:70:pi3_037.wav
32,192,33108,1,0,2:0:0:70:_kurasshu_002.wav
96,192,33513,1,0,2:0:0:70:pi3_039.wav
288,192,33513,1,0,2:0:0:70:pi3_038.wav
480,192,33513,1,0,2:0:0:70:_ki_002.wav
352,192,33581,1,0,2:0:0:70:_ki_003.wav
160,192,33648,1,0,2:0:0:70:_ki_004.wav
32,192,33716,1,0,2:0:0:70:_ki_005.wav
480,192,33783,1,0,2:0:0:70:_ki_006.wav
352,192,33851,1,0,2:0:0:70:_ki_007.wav
160,192,33918,1,0,2:0:0:70:_ki_008.wav
32,192,33986,1,0,2:0:0:70:_ki_009.wav
480,192,34054,1,0,2:0:0:70:_ki_010.wav
352,192,34121,1,0,2:0:0:70:_ki_011.wav
160,192,34189,1,0,2:0:0:70:_ki_012.wav
32,192,34256,1,0,2:0:0:70:_ki_013.wav
480,192,34324,1,0,2:0:0:70:_ki_014.wav
352,192,34391,1,0,2:0:0:70:_ki_015.wav
160,192,34459,1,0,2:0:0:70:_ki_016.wav
32,192,34527,1,0,2:0:0:70:_ki_017.wav
480,192,34594,1,0,2:0:0:70:_ki_018.wav
352,192,34662,1,0,2:0:0:70:_ki_019.wav
160,192,34729,1,0,2:0:0:70:_ki_020.wav
32,192,34797,1,0,2:0:0:70:_ki_021.wav
480,192,34864,1,0,2:0:0:70:_ki_022.wav
352,192,34932,1,0,2:0:0:70:_ki_023.wav
160,192,34999,1,0,2:0:0:70:_ki_024.wav
32,192,35067,1,0,2:0:0:70:_ki_025.wav
480,192,35135,1,0,2:0:0:70:_ki_026.wav
352,192,35202,1,0,2:0:0:70:_ki_027.wav
160,192,35270,1,0,2:0:0:70:_ki_028.wav
32,192,35337,1,0,2:0:0:70:_ki_029.wav
480,192,35405,1,0,2:0:0:70:_ki_030.wav
352,192,35472,1,0,2:0:0:70:_ki_031.wav
160,192,35540,1,0,2:0:0:70:_ki_032.wav
32,192,35608,1,0,2:0:0:70:_ki_033.wav
352,192,35675,1,0,2:0:0:70:pi3_042.wav
160,192,35945,1,0,2:0:0:70:_ki_000.wav
32,192,36216,1,0,2:0:0:70:_ki_000.wav
352,192,36452,1,0,2:0:0:1:
160,192,36486,1,0,2:0:0:70:pi3_043.wav
416,192,36486,1,0,2:0:0:70:pi3_044.wav
32,192,36621,1,0,2:0:0:70:_ki_000.wav
416,192,36722,1,0,2:0:0:1:
480,192,36756,1,0,2:0:0:70:pi3_045.wav
160,192,36891,1,0,2:0:0:70:_ki_000.wav
480,192,37128,1,0,2:0:0:1:
32,192,37162,1,0,2:0:0:70:_ki_000.wav
352,192,37162,1,0,2:0:0:70:pi3_046.wav
96,192,37432,1,0,2:0:0:70:_ki_000.wav
352,192,37533,1,0,2:0:0:1:
160,192,37567,1,0,2:0:0:70:pi3_010.wav
480,192,37770,1,0,2:0:0:70:_ki_001.wav
160,192,37804,1,0,2:0:0:1:
416,192,37804,1,0,2:0:0:70:_ki_001.wav
32,192,37837,1,0,2:0:0:70:pi3_047.wav
352,192,37837,1,0,2:0:0:70:_ki_000.wav
480,192,38108,1,0,2:0:0:70:_ki_000.wav
352,192,38378,1,0,2:0:0:70:_ki_000.wav
480,192,38648,1,0,2:0:0:70:_ki_000.wav
32,192,38885,1,0,2:0:0:1:
160,192,38918,1,0,2:0:0:70:_ki_000.wav
352,192,38918,1,0,2:0:0:70:pi3_048.wav
32,192,39054,1,0,2:0:0:70:_ki_000.wav
160,192,39324,1,0,2:0:0:70:_ki_000.wav
32,192,39594,1,0,2:0:0:70:_ki_000.wav
160,192,39729,1,0,2:0:0:70:_ki_000.wav
352,192,39966,1,0,2:0:0:1:
96,192,39999,1,0,2:0:0:70:_ki_000.wav
288,192,39999,1,0,2:0:0:70:pi3_049.wav
416,192,39999,1,0,2:0:0:70:_kurasshu_000.wav
288,192,40371,1,0,2:0:0:1:
32,192,40405,1,0,2:0:0:70:_ki_000.wav
160,192,40405,1,0,2:0:0:70:pi3_050.wav
352,192,40405,1,0,2:0:0:70:_kurasshu_000.wav
160,192,40777,1,0,2:0:0:1:
32,192,40810,1,0,2:0:0:70:_ki_000.wav
352,192,40810,1,0,2:0:0:70:pi3_051.wav
480,192,40810,1,0,2:0:0:70:_kurasshu_000.wav
352,192,41047,1,0,2:0:0:1:
32,192,41081,1,0,2:0:0:70:_ki_000.wav
288,192,41081,1,0,2:0:0:70:pi3_052.wav
480,192,41081,1,0,2:0:0:70:_kurasshu_000.wav
288,192,41182,1,0,2:0:0:1:
288,192,41283,1,0,2:0:0:70:pi3_053.wav
288,192,41452,1,0,2:0:0:1:
32,192,41486,1,0,2:0:0:70:_ki_000.wav
480,192,41486,1,0,2:0:0:70:pi3_054.wav
480,192,41858,1,0,2:0:0:1:
160,192,41891,1,0,2:0:0:70:_ki_000.wav
352,192,41891,1,0,2:0:0:70:pi3_046.wav
352,192,42128,1,0,2:0:0:1:
32,192,42162,1,0,2:0:0:70:pi3_055.wav
160,192,42162,1,0,2:0:0:70:_ki_000.wav
480,192,42297,1,0,2:0:0:70:_hat_000.wav
160,192,42432,1,0,2:0:0:70:_ki_000.wav
352,192,42567,1,0,2:0:0:70:_kurasshu_000.wav
480,192,42567,1,0,2:0:0:70:_hat_000.wav
160,192,42702,1,0,2:0:0:70:_ki_000.wav
416,192,42837,1,0,2:0:0:70:_hat_000.wav
160,192,42972,1,0,2:0:0:70:_ki_000.wav
288,192,43108,1,0,2:0:0:70:_kurasshu_000.wav
416,192,43108,1,0,2:0:0:70:_hat_001.wav
32,192,43209,1,0,2:0:0:1:
160,192,43243,1,0,2:0:0:70:pi3_046.wav
352,192,43243,1,0,2:0:0:70:pi3_054.wav
160,192,43547,1,0,2:0:0:1:
352,192,43547,1,0,2:0:0:1:
160,192,43648,1,0,2:0:0:70:pi3_043.wav
352,192,43648,1,0,2:0:0:70:pi3_056.wav
160,192,44020,1,0,2:0:0:1:
352,192,44020,1,0,2:0:0:1:
96,192,44054,1,0,2:0:0:70:pi3_057.wav
416,192,44054,1,0,2:0:0:70:pi3_058.wav
96,192,44290,1,0,2:0:0:1:
416,192,44290,1,0,2:0:0:1:
32,192,44324,1,0,2:0:0:70:pi3_059.wav
480,192,44324,1,0,2:0:0:70:pi3_060.wav
288,192,44459,1,0,2:0:0:70:_kurasshu_000.wav
416,192,44459,1,0,2:0:0:70:_hat_000.wav
96,192,44594,1,0,2:0:0:70:_kurasshu_003.wav
416,192,44729,1,0,2:0:0:70:_hat_000.wav
160,192,44864,1,0,2:0:0:70:_ki_000.wav
96,192,44999,1,0,2:0:0:70:_kurasshu_000.wav
288,192,44999,1,0,2:0:0:70:_hat_000.wav
416,192,45135,1,0,2:0:0:70:_kurasshu_000.wav
288,192,45270,1,0,2:0:0:70:_hat_001.wav
32,192,45371,1,0,2:0:0:1:
480,192,45371,1,0,2:0:0:1:
96,192,45405,1,0,2:0:0:70:pi3_061.wav
352,192,45405,1,0,2:0:0:70:pi3_062.wav
416,192,45540,1,0,2:0:0:70:_ki_000.wav
96,192,45777,1,0,2:0:0:1:
160,192,45810,1,0,2:0:0:70:pi3_064.wav
416,192,45810,1,0,2:0:0:70:pi3_063.wav
480,192,45945,1,0,2:0:0:70:_ki_000.wav
160,192,46182,1,0,2:0:0:1:
352,192,46216,1,0,2:0:0:70:pi3_066.wav
480,192,46216,1,0,2:0:0:70:pi3_065.wav
32,192,46418,1,0,2:0:0:70:_ki_001.wav
96,192,46452,1,0,2:0:0:70:_ki_001.wav
352,192,46452,1,0,2:0:0:1:
160,192,46486,1,0,2:0:0:70:pi3_068.wav
416,192,46486,1,0,2:0:0:70:pi3_067.wav
416,192,46722,1,0,2:0:0:1:
352,192,46756,1,0,2:0:0:70:pi3_058.wav
352,192,46993,1,0,2:0:0:1:
288,192,47027,1,0,2:0:0:70:pi3_069.wav
288,192,47128,1,0,2:0:0:1:
160,192,47162,1,0,2:0:0:70:pi3_070.wav
160,192,47398,1,0,2:0:0:1:
288,192,47432,1,0,2:0:0:70:pi3_069.wav
288,192,47533,1,0,2:0:0:1:
352,192,47567,1,0,2:0:0:70:pi3_071.wav
352,192,47804,1,0,2:0:0:1:
416,192,47837,1,0,2:0:0:70:pi3_072.wav
32,192,47972,1,0,2:0:0:70:pi3_046.wav
160,192,48040,1,0,2:0:0:70:pi3_073.wav
416,192,48074,1,0,2:0:0:1:
352,192,48108,1,0,2:0:0:70:pi3_074.wav
480,192,48243,1,0,2:0:0:70:pi3_075.wav
352,192,48378,1,0,2:0:0:70:pi3_010.wav
352,192,48614,1,0,2:0:0:1:
480,192,48614,1,0,2:0:0:1:
160,192,48648,1,0,2:0:0:70:pi3_076.wav
160,192,49425,1,0,2:0:0:1:
352,192,49459,1,0,2:0:0:70:pi3_077.wav
352,192,49695,1,0,2:0:0:1:
480,192,49729,1,0,2:0:0:70:pi3_078.wav
480,192,50236,1,0,2:0:0:1:
416,192,50270,1,0,2:0:0:70:pi3_079.wav
416,192,50709,1,0,2:0:0:1:
96,192,50810,1,0,2:0:0:70:pi3_081.wav
416,192,50810,1,0,2:0:0:70:pi3_082.wav
480,192,50810,1,0,2:0:0:70:_ki_002.wav
352,192,50878,1,0,2:0:0:70:_ki_003.wav
160,192,50945,1,0,2:0:0:70:_ki_004.wav
32,192,51013,1,0,2:0:0:70:_ki_005.wav
480,192,51081,1,0,2:0:0:70:_ki_006.wav
352,192,51148,1,0,2:0:0:70:_ki_007.wav
160,192,51216,1,0,2:0:0:70:_ki_008.wav
32,192,51283,1,0,2:0:0:70:_ki_009.wav
480,192,51351,1,0,2:0:0:70:_ki_010.wav
352,192,51418,1,0,2:0:0:70:_ki_011.wav
160,192,51486,1,0,2:0:0:70:_ki_012.wav
32,192,51554,1,0,2:0:0:70:_ki_013.wav
480,192,51621,1,0,2:0:0:70:_ki_014.wav
352,192,51689,1,0,2:0:0:70:_ki_015.wav
160,192,51756,1,0,2:0:0:70:_ki_016.wav
32,192,51824,1,0,2:0:0:70:_ki_017.wav
96,192,51858,1,0,2:0:0:1:
416,192,51858,1,0,2:0:0:1:
160,192,51891,1,0,2:0:0:70:pi3_083.wav
352,192,51891,1,0,2:0:0:70:pi3_084.wav
480,192,51891,1,0,2:0:0:70:_ki_018.wav
416,192,51959,1,0,2:0:0:70:_ki_019.wav
288,192,52027,1,0,2:0:0:70:_ki_020.wav
96,192,52094,1,0,2:0:0:70:_ki_021.wav
32,192,52162,1,0,2:0:0:70:_ki_022.wav
96,192,52229,1,0,2:0:0:70:_ki_023.wav
288,192,52297,1,0,2:0:0:70:_ki_024.wav
416,192,52364,1,0,2:0:0:70:_ki_025.wav
480,192,52432,1,0,2:0:0:70:_ki_026.wav
416,192,52499,1,0,2:0:0:70:_ki_027.wav
288,192,52567,1,0,2:0:0:70:_ki_028.wav
96,192,52635,1,0,2:0:0:70:_ki_029.wav
32,192,52702,1,0,2:0:0:70:_ki_030.wav
96,192,52770,1,0,2:0:0:70:_ki_031.wav
288,192,52837,1,0,2:0:0:70:_ki_032.wav
416,192,52905,1,0,2:0:0:70:_ki_033.wav
160,192,52939,1,0,2:0:0:1:
352,192,52939,1,0,2:0:0:1:
32,192,53243,1,0,2:0:0:70:pi2_000.wav
416,192,53243,1,0,2:0:0:70:__sugokuiioto.wav
480,192,53243,1,0,2:0:0:70:pi2_002.wav
96,192,53378,1,0,2:0:0:70:pi2_006.wav
160,192,53513,1,0,2:0:0:70:pi2_008.wav
288,192,53648,1,0,2:0:0:70:pi2_010.wav
96,192,53783,1,0,2:0:0:70:pi2_012.wav
160,192,53918,1,0,2:0:0:70:pi2_014.wav
288,192,54054,1,0,2:0:0:70:pi2_016.wav
352,192,54189,1,0,2:0:0:70:pi2_018.wav
480,192,54324,1,0,2:0:0:70:pi2_020.wav
416,192,54459,1,0,2:0:0:70:pi2_017.wav
352,192,54594,1,0,2:0:0:70:pi2_014.wav
288,192,54729,1,0,2:0:0:70:pi2_011.wav
416,192,54864,1,0,2:0:0:70:pi2_021.wav
352,192,54999,1,0,2:0:0:70:pi2_022.wav
288,192,55135,1,0,2:0:0:70:pi2_023.wav
96,192,55270,1,0,2:0:0:70:pi2_024.wav
32,192,55405,1,0,2:0:0:70:pi2_027.wav
480,192,55405,1,0,2:0:0:70:pi2_025.wav
416,192,55540,1,0,2:0:0:70:pi2_015.wav
352,192,55675,1,0,2:0:0:70:pi2_029.wav
288,192,55810,1,0,2:0:0:70:pi2_014.wav
160,192,55945,1,0,2:0:0:70:pi2_021.wav
352,192,56081,1,0,2:0:0:70:pi2_012.wav
288,192,56216,1,0,2:0:0:70:pi2_010.wav
96,192,56351,1,0,2:0:0:70:pi2_030.wav
32,192,56486,1,0,2:0:0:70:pi2_031.wav
480,192,56486,1,0,2:0:0:70:pi2_032.wav
416,192,56621,1,0,2:0:0:70:pi2_008.wav
352,192,56756,1,0,2:0:0:70:pi2_007.wav
288,192,56891,1,0,2:0:0:70:pi2_005.wav
416,192,57027,1,0,2:0:0:70:pi2_034.wav
288,192,57162,1,0,2:0:0:70:pi2_036.wav
160,192,57297,1,0,2:0:0:70:pi2_000.wav
96,192,57432,1,0,2:0:0:70:pi2_034.wav
32,192,57567,1,0,2:0:0:70:pi2_039.wav
288,192,57567,1,0,2:0:0:70:pi2_038.wav
160,192,57702,1,0,2:0:0:70:pi2_005.wav
352,192,57770,1,0,2:0:0:70:pi2_035.wav
96,192,57837,1,0,2:0:0:70:pi2_005.wav
160,192,57972,1,0,2:0:0:70:pi2_035.wav
288,192,58108,1,0,2:0:0:70:pi2_006.wav
96,192,58243,1,0,2:0:0:70:pi2_035.wav
288,192,58310,1,0,2:0:0:70:pi2_007.wav
416,192,58378,1,0,2:0:0:70:pi2_040.wav
160,192,58513,1,0,2:0:0:70:pi2_008.wav
352,192,58648,1,0,2:0:0:70:pi2_023.wav
96,192,58783,1,0,2:0:0:70:pi2_023.wav
352,192,58851,1,0,2:0:0:70:pi2_010.wav
288,192,58918,1,0,2:0:0:70:pi2_022.wav
416,192,59054,1,0,2:0:0:70:pi2_010.wav
160,192,59189,1,0,2:0:0:70:pi2_012.wav
288,192,59324,1,0,2:0:0:70:pi2_012.wav
416,192,59391,1,0,2:0:0:70:pi2_021.wav
352,192,59459,1,0,2:0:0:70:pi2_013.wav
416,192,59594,1,0,2:0:0:70:pi2_016.wav
480,192,59729,1,0,2:0:0:70:pi2_016.wav
416,192,59797,1,0,2:0:0:70:pi2_017.wav
352,192,59864,1,0,2:0:0:70:pi2_016.wav
160,192,59932,1,0,2:0:0:70:pi2_029.wav
480,192,59999,1,0,2:0:0:70:pi2_016.wav
416,192,60067,1,0,2:0:0:70:pi2_017.wav
352,192,60135,1,0,2:0:0:70:pi2_016.wav
160,192,60202,1,0,2:0:0:70:pi2_029.wav
480,192,60270,1,0,2:0:0:70:pi2_016.wav
416,192,60337,1,0,2:0:0:70:pi2_017.wav
352,192,60405,1,0,2:0:0:70:pi2_016.wav
160,192,60472,1,0,2:0:0:70:pi2_029.wav
480,192,60540,1,0,2:0:0:70:pi2_019.wav
416,192,60608,1,0,2:0:0:70:pi2_017.wav
288,192,60675,1,0,2:0:0:70:pi2_016.wav
96,192,60743,1,0,2:0:0:70:pi2_029.wav
352,192,60810,1,0,2:0:0:70:pi2_021.wav
288,192,60945,1,0,2:0:0:70:pi2_010.wav
160,192,61081,1,0,2:0:0:70:pi2_008.wav
96,192,61216,1,0,2:0:0:70:pi2_007.wav
352,192,61351,1,0,2:0:0:70:pi2_035.wav
288,192,61486,1,0,2:0:0:70:pi2_036.wav
160,192,61621,1,0,2:0:0:70:pi2_043.wav
96,192,61756,1,0,2:0:0:70:pi2_045.wav
32,192,61891,1,0,2:0:0:70:pi2_047.wav
352,192,61891,1,0,2:0:0:70:pi2_037.wav
96,192,62027,1,0,2:0:0:70:pi2_048.wav
160,192,62162,1,0,2:0:0:70:pi2_034.wav
288,192,62297,1,0,2:0:0:70:pi2_005.wav
352,192,62432,1,0,2:0:0:70:pi2_006.wav
416,192,62567,1,0,2:0:0:70:pi2_049.wav
480,192,62702,1,0,2:0:0:70:pi2_024.wav
416,192,62837,1,0,2:0:0:70:pi2_030.wav
32,192,62972,1,0,2:0:0:70:pi2_023.wav
96,192,63108,1,0,2:0:0:70:pi2_022.wav
160,192,63243,1,0,2:0:0:70:pi2_012.wav
288,192,63378,1,0,2:0:0:70:pi2_013.wav
352,192,63513,1,0,2:0:0:70:pi2_014.wav
416,192,63648,1,0,2:0:0:70:pi2_016.wav
480,192,63783,1,0,2:0:0:70:pi2_017.wav
416,192,63918,1,0,2:0:0:70:pi2_018.wav
480,192,64054,1,0,2:0:0:70:pi2_017.wav
416,192,64189,1,0,2:0:0:70:pi2_016.wav
288,192,64324,1,0,2:0:0:70:pi2_050.wav
480,192,64459,1,0,2:0:0:70:pi2_016.wav
352,192,64594,1,0,2:0:0:70:pi2_014.wav
160,192,64729,1,0,2:0:0:70:pi2_013.wav
416,192,64864,1,0,2:0:0:70:pi2_012.wav
288,192,64999,1,0,2:0:0:70:pi2_014.wav
96,192,65135,1,0,2:0:0:70:_dr_010.wav
480,192,65135,1,0,2:0:0:70:pi2_012.wav
416,192,65270,1,0,2:0:0:70:pi2_030.wav
352,192,65405,1,0,2:0:0:70:pi2_024.wav
288,192,65540,1,0,2:0:0:70:pi2_040.wav
416,192,65675,1,0,2:0:0:70:pi2_006.wav
288,192,65810,1,0,2:0:0:70:pi2_005.wav
160,192,65945,1,0,2:0:0:70:pi2_036.wav
96,192,66081,1,0,2:0:0:70:pi2_048.wav
32,192,66216,1,0,2:0:0:70:pi2_036.wav
352,192,66216,1,0,2:0:0:70:pi2_052.wav
96,192,66351,1,0,2:0:0:70:pi2_034.wav
288,192,66486,1,0,2:0:0:70:pi2_006.wav
416,192,66621,1,0,2:0:0:70:pi2_008.wav
160,192,66756,1,0,2:0:0:70:pi2_024.wav
288,192,66891,1,0,2:0:0:70:pi2_023.wav
352,192,67027,1,0,2:0:0:70:pi2_009.wav
416,192,67162,1,0,2:0:0:70:pi2_008.wav
32,192,67297,1,0,2:0:0:70:pi2_030.wav
96,192,67432,1,0,2:0:0:70:pi2_010.wav
160,192,67567,1,0,2:0:0:70:pi2_011.wav
288,192,67702,1,0,2:0:0:70:pi2_012.wav
96,192,67837,1,0,2:0:0:70:pi2_013.wav
288,192,67972,1,0,2:0:0:70:pi2_021.wav
416,192,68108,1,0,2:0:0:70:pi2_014.wav
480,192,68243,1,0,2:0:0:70:pi2_015.wav
32,192,68378,1,0,2:0:0:70:pi2_053.wav
96,192,68412,1,0,2:0:0:70:pi2_054.wav
160,192,68479,1,0,2:0:0:70:pi2_056.wav
288,192,68513,1,0,2:0:0:70:pi2_057.wav
352,192,68581,1,0,2:0:0:70:pi2_059.wav
416,192,68614,1,0,2:0:0:70:pi2_060.wav
480,192,68648,1,0,2:0:0:70:pi2_062.wav
480,192,68918,1,0,2:0:0:70:pi2_017.wav
160,192,68986,1,0,2:0:0:70:pi2_016.wav
416,192,69054,1,0,2:0:0:70:pi2_029.wav
96,192,69121,1,0,2:0:0:70:pi2_013.wav
352,192,69189,1,0,2:0:0:70:pi2_021.wav
32,192,69256,1,0,2:0:0:70:pi2_011.wav
288,192,69324,1,0,2:0:0:70:pi2_010.wav
480,192,69391,1,0,2:0:0:70:pi2_009.wav
416,192,69459,1,0,2:0:0:70:pi2_024.wav
160,192,69527,1,0,2:0:0:70:pi2_008.wav
352,192,69594,1,0,2:0:0:70:pi2_007.wav
96,192,69662,1,0,2:0:0:70:pi2_006.wav
288,192,69729,1,0,2:0:0:70:pi2_005.wav
32,192,69797,1,0,2:0:0:70:pi2_036.wav
160,192,69864,1,0,2:0:0:70:pi2_048.wav
416,192,69932,1,0,2:0:0:70:pi2_043.wav
352,192,69999,1,0,2:0:0:70:pi2_007.wav
96,192,70067,1,0,2:0:0:70:pi2_035.wav
288,192,70135,1,0,2:0:0:70:pi2_034.wav
32,192,70202,1,0,2:0:0:70:pi2_036.wav
160,192,70270,1,0,2:0:0:70:pi2_048.wav
352,192,70337,1,0,2:0:0:70:pi2_000.wav
96,192,70405,1,0,2:0:0:70:pi2_043.wav
288,192,70472,1,0,2:0:0:70:pi2_045.wav
32,192,70540,1,0,2:0:0:70:_ki_034.wav
160,192,70540,1,0,2:0:0:70:pi2_066.wav
480,192,70540,1,0,2:0:0:70:pi2_067.wav
416,192,70675,1,0,2:0:0:70:_kurasshu_020.wav
32,192,70810,1,0,2:0:0:70:_ki_034.wav
288,192,70810,1,0,2:0:0:70:_sna_000.wav
416,192,70945,1,0,2:0:0:70:_kurasshu_020.wav
32,192,71081,1,0,2:0:0:70:_ki_034.wav
416,192,71216,1,0,2:0:0:70:_kurasshu_020.wav
32,192,71351,1,0,2:0:0:70:_ki_034.wav
288,192,71351,1,0,2:0:0:70:_sna_001.wav
416,192,71486,1,0,2:0:0:70:_kurasshu_020.wav
32,192,71621,1,0,2:0:0:70:_ki_034.wav
416,192,71756,1,0,2:0:0:70:_kurasshu_020.wav
32,192,71891,1,0,2:0:0:70:_ki_034.wav
288,192,71891,1,0,2:0:0:70:_sna_000.wav
416,192,72027,1,0,2:0:0:70:_kurasshu_020.wav
32,192,72162,1,0,2:0:0:70:_ki_034.wav
160,192,72162,1,0,2:0:0:70:pi2_073.wav
352,192,72162,1,0,2:0:0:70:pi2_075.wav
480,192,72162,1,0,2:0:0:70:pi2_074.wav
416,192,72297,1,0,2:0:0:70:_kurasshu_020.wav
32,192,72432,1,0,2:0:0:70:_ki_034.wav
288,192,72432,1,0,2:0:0:70:_sna_001.wav
416,192,72567,1,0,2:0:0:70:_kurasshu_020.wav
32,192,72702,1,0,2:0:0:70:_ki_034.wav
416,192,72837,1,0,2:0:0:70:_kurasshu_020.wav
32,192,72972,1,0,2:0:0:70:_ki_034.wav
288,192,72972,1,0,2:0:0:70:_sna_000.wav
416,192,73108,1,0,2:0:0:70:_kurasshu_020.wav
32,192,73243,1,0,2:0:0:70:_ki_034.wav
416,192,73378,1,0,2:0:0:70:_kurasshu_020.wav
32,192,73513,1,0,2:0:0:70:_ki_034.wav
288,192,73513,1,0,2:0:0:70:_sna_001.wav
416,192,73648,1,0,2:0:0:70:_kurasshu_020.wav
32,192,73783,1,0,2:0:0:70:_ki_034.wav
288,192,73783,1,0,2:0:0:70:pi2_085.wav
480,192,73783,1,0,2:0:0:70:pi2_084.wav
416,192,73918,1,0,2:0:0:70:_kurasshu_020.wav
32,192,74054,1,0,2:0:0:70:_ki_034.wav
288,192,74054,1,0,2:0:0:70:_sna_000.wav
416,192,74189,1,0,2:0:0:70:_kurasshu_020.wav
32,192,74324,1,0,2:0:0:70:_ki_034.wav
416,192,74459,1,0,2:0:0:70:_kurasshu_020.wav
32,192,74594,1,0,2:0:0:70:_ki_034.wav
288,192,74594,1,0,2:0:0:70:_sna_001.wav
416,192,74729,1,0,2:0:0:70:_kurasshu_020.wav
32,192,74864,1,0,2:0:0:70:_ki_034.wav
288,192,74864,1,0,2:0:0:70:pi2_089.wav
352,192,74864,1,0,2:0:0:70:pi2_088.wav
480,192,74864,1,0,2:0:0:70:pi2_087.wav
416,192,74999,1,0,2:0:0:70:_kurasshu_020.wav
32,192,75135,1,0,2:0:0:70:_ki_034.wav
288,192,75135,1,0,2:0:0:70:_sna_000.wav
416,192,75270,1,0,2:0:0:70:_kurasshu_020.wav
32,192,75405,1,0,2:0:0:70:_ki_034.wav
416,192,75540,1,0,2:0:0:70:_kurasshu_020.wav
32,192,75675,1,0,2:0:0:70:_ki_034.wav
288,192,75675,1,0,2:0:0:70:_sna_001.wav
416,192,75810,1,0,2:0:0:70:_kurasshu_020.wav
32,192,75945,1,0,2:0:0:70:_ki_034.wav
416,192,76081,1,0,2:0:0:70:_kurasshu_020.wav
32,192,76216,1,0,2:0:0:70:_ki_034.wav
288,192,76216,1,0,2:0:0:70:_sna_000.wav
416,192,76351,1,0,2:0:0:70:_kurasshu_020.wav
32,192,76486,1,0,2:0:0:70:_ki_034.wav
160,192,76486,1,0,2:0:0:70:pi2_104.wav
352,192,76486,1,0,2:0:0:70:pi2_001.wav
480,192,76486,1,0,2:0:0:70:pi2_003.wav
416,192,76621,1,0,2:0:0:70:_kurasshu_020.wav
32,192,76756,1,0,2:0:0:70:_ki_034.wav
288,192,76756,1,0,2:0:0:70:_sna_001.wav
416,192,76891,1,0,2:0:0:70:_kurasshu_020.wav
32,192,77027,1,0,2:0:0:70:_ki_034.wav
416,192,77162,1,0,2:0:0:70:_kurasshu_020.wav
32,192,77297,1,0,2:0:0:70:_ki_034.wav
288,192,77297,1,0,2:0:0:70:_sna_000.wav
416,192,77432,1,0,2:0:0:70:_kurasshu_020.wav
32,192,77567,1,0,2:0:0:70:_ki_034.wav
416,192,77702,1,0,2:0:0:70:_kurasshu_020.wav
32,192,77837,1,0,2:0:0:70:_ki_034.wav
288,192,77837,1,0,2:0:0:70:_sna_001.wav
416,192,77972,1,0,2:0:0:70:_kurasshu_020.wav
32,192,78108,1,0,2:0:0:70:_ki_034.wav
160,192,78108,1,0,2:0:0:70:pi2_111.wav
480,192,78108,1,0,2:0:0:70:pi2_023.wav
416,192,78243,1,0,2:0:0:70:_kurasshu_020.wav
32,192,78378,1,0,2:0:0:70:_ki_034.wav
288,192,78378,1,0,2:0:0:70:_sna_000.wav
416,192,78513,1,0,2:0:0:70:_kurasshu_020.wav
32,192,78648,1,0,2:0:0:70:_ki_034.wav
416,192,78783,1,0,2:0:0:70:_kurasshu_020.wav
32,192,78918,1,0,2:0:0:70:_ki_034.wav
288,192,78918,1,0,2:0:0:70:_sna_001.wav
416,192,79054,1,0,2:0:0:70:_kurasshu_020.wav
32,192,79189,1,0,2:0:0:70:_ki_034.wav
288,192,79189,1,0,2:0:0:70:pi2_114.wav
480,192,79189,1,0,2:0:0:70:pi2_113.wav
416,192,79324,1,0,2:0:0:70:_kurasshu_020.wav
32,192,79459,1,0,2:0:0:70:_ki_034.wav
160,192,79459,1,0,2:0:0:70:_sna_000.wav
416,192,79594,1,0,2:0:0:70:_kurasshu_020.wav
32,192,79729,1,0,2:0:0:70:_ki_034.wav
416,192,79864,1,0,2:0:0:70:_kurasshu_020.wav
32,192,79999,1,0,2:0:0:70:_ki_034.wav
160,192,79999,1,0,2:0:0:70:_sna_001.wav
416,192,80135,1,0,2:0:0:70:_kurasshu_020.wav
32,192,80270,1,0,2:0:0:70:_ki_034.wav
416,192,80405,1,0,2:0:0:70:_kurasshu_020.wav
32,192,80540,1,0,2:0:0:70:_ki_034.wav
160,192,80540,1,0,2:0:0:70:_sna_000.wav
416,192,80675,1,0,2:0:0:70:_kurasshu_020.wav
32,192,80810,1,0,2:0:0:70:_ki_034.wav
416,192,80945,1,0,2:0:0:70:_kurasshu_020.wav
32,192,81081,1,0,2:0:0:70:_ki_034.wav
160,192,81081,1,0,2:0:0:70:_sna_001.wav
416,192,81216,1,0,2:0:0:70:_kurasshu_020.wav
32,192,81351,1,0,2:0:0:70:_ki_034.wav
416,192,81486,1,0,2:0:0:70:_kurasshu_020.wav
32,192,81621,1,0,2:0:0:70:_ki_034.wav
160,192,81621,1,0,2:0:0:70:_sna_000.wav
416,192,81756,1,0,2:0:0:70:_kurasshu_020.wav
32,192,81891,1,0,2:0:0:70:_ki_034.wav
416,192,82027,1,0,2:0:0:70:_kurasshu_020.wav
32,192,82162,1,0,2:0:0:70:_ki_034.wav
160,192,82162,1,0,2:0:0:70:_sna_001.wav
416,192,82297,1,0,2:0:0:70:_kurasshu_020.wav
32,192,82432,1,0,2:0:0:70:_ki_034.wav
416,192,82567,1,0,2:0:0:70:_kurasshu_020.wav
32,192,82702,1,0,2:0:0:70:_ki_034.wav
160,192,82702,1,0,2:0:0:70:_sna_000.wav
416,192,82837,1,0,2:0:0:70:_kurasshu_020.wav
32,192,82972,1,0,2:0:0:70:_ki_034.wav
416,192,83108,1,0,2:0:0:70:_kurasshu_020.wav
32,192,83243,1,0,2:0:0:70:_ki_034.wav
160,192,83243,1,0,2:0:0:70:_sna_001.wav
416,192,83378,1,0,2:0:0:70:_kurasshu_020.wav
32,192,83513,1,0,2:0:0:70:_ki_034.wav
160,192,83513,1,0,2:0:0:70:pi2_120.wav
352,192,83513,1,0,2:0:0:70:pi2_121.wav
480,192,83513,1,0,2:0:0:70:pi2_122.wav
32,192,83783,1,0,2:0:0:70:_ki_034.wav
32,192,84054,1,0,2:0:0:70:_ki_034.wav
288,192,84054,1,0,2:0:0:70:pi2_024.wav
416,192,84054,1,0,2:0:0:70:pi2_021.wav
96,192,84189,1,0,2:0:0:70:pi2_125.wav
288,192,84189,1,0,2:0:0:70:pi2_124.wav
416,192,84189,1,0,2:0:0:70:pi2_123.wav
288,192,84459,1,0,2:0:0:70:_kurasshu_020.wav
32,192,84594,1,0,2:0:0:70:_ki_034.wav
160,192,84594,1,0,2:0:0:70:pi2_130.wav
352,192,84594,1,0,2:0:0:70:pi2_129.wav
480,192,84594,1,0,2:0:0:70:pi2_128.wav
32,192,84864,1,0,2:0:0:70:_ki_034.wav
32,192,85135,1,0,2:0:0:70:_ki_034.wav
352,192,85135,1,0,2:0:0:70:pi2_135.wav
480,192,85135,1,0,2:0:0:70:pi2_133.wav
96,192,85270,1,0,2:0:0:70:pi2_136.wav
352,192,85270,1,0,2:0:0:70:pi2_134.wav
480,192,85270,1,0,2:0:0:70:pi2_133.wav
288,192,85540,1,0,2:0:0:70:_kurasshu_020.wav
32,192,85675,1,0,2:0:0:70:_ki_034.wav
352,192,85675,1,0,2:0:0:70:pi2_142.wav
480,192,85675,1,0,2:0:0:70:pi2_140.wav
288,192,85810,1,0,2:0:0:70:pi2_142.wav
32,192,85945,1,0,2:0:0:70:_ki_034.wav
160,192,85945,1,0,2:0:0:70:pi2_141.wav
480,192,85945,1,0,2:0:0:70:pi2_019.wav
288,192,86081,1,0,2:0:0:70:pi2_141.wav
32,192,86216,1,0,2:0:0:70:_ki_034.wav
352,192,86216,1,0,2:0:0:70:pi2_135.wav
480,192,86216,1,0,2:0:0:70:pi2_017.wav
288,192,86351,1,0,2:0:0:70:pi2_142.wav
32,192,86486,1,0,2:0:0:70:_ki_034.wav
160,192,86486,1,0,2:0:0:70:pi2_021.wav
480,192,86486,1,0,2:0:0:70:pi2_019.wav
288,192,86621,1,0,2:0:0:70:pi2_164.wav
32,192,86756,1,0,2:0:0:70:_ki_034.wav
352,192,86756,1,0,2:0:0:70:pi2_169.wav
480,192,86756,1,0,2:0:0:70:pi2_168.wav
96,192,87027,1,0,2:0:0:70:_ki_034.wav
160,192,87162,1,0,2:0:0:70:pi2_074.wav
352,192,87162,1,0,2:0:0:70:pi2_169.wav
480,192,87162,1,0,2:0:0:70:pi2_168.wav
288,192,87297,1,0,2:0:0:70:_ki_034.wav
32,192,87432,1,0,2:0:0:70:pi2_074.wav
160,192,87432,1,0,2:0:0:70:pi2_169.wav
352,192,87432,1,0,2:0:0:70:pi2_123.wav
480,192,87432,1,0,2:0:0:70:pi2_168.wav
32,192,87837,1,0,2:0:0:70:__kuraaaaaaasshu.wav
32,192,96486,5,0,2:0:0:70:_kurasshu_021.wav
32,192,98648,1,0,2:0:0:70:_kurasshu_022.wav
32,192,99189,1,0,2:0:0:70:_kurasshu_023.wav
32,192,99594,1,0,2:0:0:70:_kurasshu_024.wav
32,192,99864,1,0,2:0:0:70:_kurasshu_024.wav
32,192,100135,1,0,2:0:0:70:_kurasshu_024.wav
32,192,100270,1,0,2:0:0:70:_kurasshu_024.wav
32,192,100405,1,0,2:0:0:70:_kurasshu_023.wav
32,192,100810,1,0,2:0:0:70:_kurasshu_022.wav
32,192,101486,1,0,2:0:0:70:_kurasshu_025.wav
32,192,101891,1,0,2:0:0:70:_kurasshu_026.wav
32,192,102567,1,0,2:0:0:70:_kurasshu_025.wav
32,192,102972,1,0,2:0:0:70:_kurasshu_023.wav
32,192,103513,1,0,2:0:0:70:_kurasshu_023.wav
32,192,104054,1,0,2:0:0:70:_kurasshu_023.wav
32,192,104324,1,0,2:0:0:70:_kurasshu_025.wav
32,192,104594,1,0,2:0:0:70:_kurasshu_025.wav
32,192,104864,1,0,2:0:0:70:_kurasshu_023.wav
32,192,105135,1,0,2:0:0:70:_ki_000.wav
256,192,105135,1,0,2:0:0:70:pi4_001.wav
109,192,105135,1,0,2:0:0:70:__kuraaaaaaasshu.wav
402,192,105135,1,0,2:0:0:70:pi4_000.wav
32,192,105405,1,0,2:0:0:70:_ki_000.wav
352,192,105405,1,0,2:0:0:70:pi4_002.wav
160,192,105540,1,0,2:0:0:70:pi4_007.wav
96,192,105675,1,0,2:0:0:70:_ki_000.wav
480,192,105675,1,0,2:0:0:70:pi4_010.wav
160,192,105945,1,0,2:0:0:70:_ki_000.wav
416,192,105945,1,0,2:0:0:70:pi4_008.wav
96,192,106081,1,0,2:0:0:70:_ki_000.wav
352,192,106081,1,0,2:0:0:70:pi4_015.wav
32,192,106216,1,0,2:0:0:70:pi4_016.wav
480,192,106216,1,0,2:0:0:70:pi4_018.wav
160,192,106351,1,0,2:0:0:70:_ki_000.wav
32,192,106621,1,0,2:0:0:70:_ki_000.wav
160,192,106621,1,0,2:0:0:70:pi4_020.wav
480,192,106621,1,0,2:0:0:70:pi4_021.wav
32,192,106891,1,0,2:0:0:70:_ki_000.wav
352,192,106891,1,0,2:0:0:70:pi4_024.wav
160,192,107027,1,0,2:0:0:70:pi4_025.wav
480,192,107027,1,0,2:0:0:70:pi4_008.wav
352,192,107162,1,0,2:0:0:70:_ki_001.wav
32,192,107229,1,0,2:0:0:70:_ki_001.wav
96,192,107263,1,0,2:0:0:70:_ki_001.wav
160,192,107297,1,0,2:0:0:70:pi4_026.wav
480,192,107297,1,0,2:0:0:70:pi4_027.wav
32,192,107567,1,0,2:0:0:70:_ki_000.wav
288,192,107567,1,0,2:0:0:70:pi4_028.wav
416,192,107567,1,0,2:0:0:70:pi4_029.wav
32,192,107837,1,0,2:0:0:70:_ki_000.wav
160,192,107837,1,0,2:0:0:70:pi4_033.wav
480,192,107837,1,0,2:0:0:70:pi4_035.wav
32,192,108108,1,0,2:0:0:70:_ki_000.wav
288,192,108108,1,0,2:0:0:70:pi4_030.wav
416,192,108108,1,0,2:0:0:70:pi4_029.wav
32,192,108378,1,0,2:0:0:70:_ki_000.wav
352,192,108378,1,0,2:0:0:70:pi4_036.wav
480,192,108378,1,0,2:0:0:70:pi4_037.wav
160,192,108513,1,0,2:0:0:70:_ki_000.wav
32,192,108783,1,0,2:0:0:70:_ki_000.wav
288,192,108783,1,0,2:0:0:70:pi4_039.wav
480,192,108783,1,0,2:0:0:70:pi4_029.wav
32,192,109054,1,0,2:0:0:70:_ki_000.wav
160,192,109189,1,0,2:0:0:70:_ki_000.wav
352,192,109189,1,0,2:0:0:70:pi4_043.wav
480,192,109189,1,0,2:0:0:70:pi4_042.wav
32,192,109459,1,0,2:0:0:70:_ki_000.wav
160,192,109459,1,0,2:0:0:70:pi4_046.wav
416,192,109459,1,0,2:0:0:70:pi4_045.wav
32,192,109729,1,0,2:0:0:70:_ki_000.wav
352,192,109729,1,0,2:0:0:70:pi4_049.wav
160,192,109864,1,0,2:0:0:70:_ki_000.wav
288,192,109999,1,0,2:0:0:70:pi4_050.wav
416,192,109999,1,0,2:0:0:70:pi4_051.wav
32,192,110135,1,0,2:0:0:70:_ki_000.wav
160,192,110270,1,0,2:0:0:70:_ki_000.wav
352,192,110270,1,0,2:0:0:70:pi4_054.wav
32,192,110540,1,0,2:0:0:70:_ki_000.wav
160,192,110540,1,0,2:0:0:70:pi4_056.wav
416,192,110540,1,0,2:0:0:70:pi4_055.wav
352,192,110675,1,0,2:0:0:70:pi4_057.wav
480,192,110810,1,0,2:0:0:70:pi4_058.wav
96,192,110945,1,0,2:0:0:70:_ki_000.wav
288,192,110945,1,0,2:0:0:70:pi4_022.wav
416,192,110945,1,0,2:0:0:70:pi4_059.wav
32,192,111216,1,0,2:0:0:70:_ki_035.wav
160,192,111283,1,0,2:0:0:70:_ki_035.wav
352,192,111351,1,0,2:0:0:70:_ki_000.wav
480,192,111351,1,0,2:0:0:70:pi4_051.wav
32,192,111621,1,0,2:0:0:70:_ki_000.wav
288,192,111621,1,0,2:0:0:70:pi4_063.wav
416,192,111621,1,0,2:0:0:70:pi4_064.wav
32,192,111891,1,0,2:0:0:70:_ki_000.wav
160,192,111891,1,0,2:0:0:70:pi4_022.wav
352,192,111891,1,0,2:0:0:70:pi4_041.wav
416,192,112027,1,0,2:0:0:70:pi4_043.wav
32,192,112162,1,0,2:0:0:70:_ki_000.wav
480,192,112162,1,0,2:0:0:70:pi4_038.wav
288,192,112297,1,0,2:0:0:70:pi4_069.wav
96,192,112432,1,0,2:0:0:70:_ki_000.wav
352,192,112432,1,0,2:0:0:70:pi4_070.wav
416,192,112567,1,0,2:0:0:70:pi4_039.wav
32,192,112702,1,0,2:0:0:70:_ki_000.wav
480,192,112702,1,0,2:0:0:70:pi4_071.wav
160,192,112837,1,0,2:0:0:70:_ki_000.wav
416,192,112972,1,0,2:0:0:70:_sna_000.wav
96,192,113108,1,0,2:0:0:70:_ki_000.wav
352,192,113108,1,0,2:0:0:70:pi4_076.wav
32,192,113243,1,0,2:0:0:70:pi4_005.wav
480,192,113243,1,0,2:0:0:70:pi4_017.wav
160,192,113378,1,0,2:0:0:70:_ki_000.wav
416,192,113513,1,0,2:0:0:70:pi4_071.wav
352,192,113648,1,0,2:0:0:70:_ki_001.wav
288,192,113682,1,0,2:0:0:70:_ki_001.wav
160,192,113716,1,0,2:0:0:70:_ki_001.wav
96,192,113749,1,0,2:0:0:70:_ki_001.wav
32,192,113783,1,0,2:0:0:70:_ki_000.wav
480,192,113783,1,0,2:0:0:70:pi4_000.wav
32,192,114054,1,0,2:0:0:70:_ki_000.wav
288,192,114054,1,0,2:0:0:70:pi4_002.wav
416,192,114189,1,0,2:0:0:70:pi4_007.wav
96,192,114324,1,0,2:0:0:70:_ki_000.wav
480,192,114324,1,0,2:0:0:70:pi4_009.wav
160,192,114594,1,0,2:0:0:70:_ki_000.wav
416,192,114594,1,0,2:0:0:70:pi4_007.wav
32,192,114729,1,0,2:0:0:70:_ki_001.wav
288,192,114729,1,0,2:0:0:70:pi4_015.wav
96,192,114797,1,0,2:0:0:70:_ki_001.wav
160,192,114864,1,0,2:0:0:70:_ki_000.wav
352,192,114864,1,0,2:0:0:70:pi4_078.wav
480,192,114864,1,0,2:0:0:70:pi4_009.wav
96,192,114999,1,0,2:0:0:70:_ki_000.wav
160,192,115135,1,0,2:0:0:70:_sna_000.wav
32,192,115270,1,0,2:0:0:70:_ki_000.wav
352,192,115270,1,0,2:0:0:70:pi4_022.wav
480,192,115270,1,0,2:0:0:70:pi4_021.wav
160,192,115405,1,0,2:0:0:70:_ki_000.wav
352,192,115540,1,0,2:0:0:70:pi4_024.wav
96,192,115675,1,0,2:0:0:70:_ki_000.wav
288,192,115675,1,0,2:0:0:70:pi4_025.wav
416,192,115675,1,0,2:0:0:70:pi4_008.wav
32,192,115810,1,0,2:0:0:70:_ki_001.wav
96,192,115878,1,0,2:0:0:70:_ki_001.wav
160,192,115912,1,0,2:0:0:70:_ki_001.wav
288,192,115945,1,0,2:0:0:70:pi4_027.wav
480,192,115945,1,0,2:0:0:70:pi4_080.wav
32,192,116216,1,0,2:0:0:70:_ki_000.wav
352,192,116216,1,0,2:0:0:70:pi4_028.wav
32,192,116486,1,0,2:0:0:70:_ki_000.wav
160,192,116486,1,0,2:0:0:70:pi4_034.wav
416,192,116486,1,0,2:0:0:70:pi4_010.wav
32,192,116756,1,0,2:0:0:70:_ki_000.wav
288,192,116756,1,0,2:0:0:70:pi4_030.wav
352,192,116891,1,0,2:0:0:70:_ki_035.wav
416,192,116959,1,0,2:0:0:70:_ki_035.wav
32,192,117027,1,0,2:0:0:70:_ki_000.wav
160,192,117027,1,0,2:0:0:70:pi4_035.wav
480,192,117027,1,0,2:0:0:70:pi4_081.wav
352,192,117297,1,0,2:0:0:70:_ki_035.wav
32,192,117432,1,0,2:0:0:70:_ki_000.wav
160,192,117432,1,0,2:0:0:70:pi4_082.wav
480,192,117432,1,0,2:0:0:70:pi4_083.wav
32,192,117837,1,0,2:0:0:70:_ki_000.wav
288,192,117837,1,0,2:0:0:70:pi4_042.wav
416,192,117837,1,0,2:0:0:70:pi4_044.wav
96,192,117972,1,0,2:0:0:70:_ki_000.wav
32,192,118108,1,0,2:0:0:70:_ki_000.wav
160,192,118108,1,0,2:0:0:70:pi4_046.wav
352,192,118108,1,0,2:0:0:70:pi4_085.wav
480,192,118243,1,0,2:0:0:70:_kurasshu_000.wav
32,192,118378,1,0,2:0:0:70:_ki_000.wav
288,192,118378,1,0,2:0:0:70:pi4_040.wav
416,192,118378,1,0,2:0:0:70:pi4_089.wav
352,192,118513,1,0,2:0:0:70:_kurasshu_000.wav
32,192,118648,1,0,2:0:0:70:_ki_000.wav
416,192,118648,1,0,2:0:0:70:pi4_090.wav
352,192,118783,1,0,2:0:0:70:pi4_052.wav
32,192,118918,1,0,2:0:0:70:_ki_000.wav
160,192,118918,1,0,2:0:0:70:pi4_006.wav
480,192,118918,1,0,2:0:0:70:pi4_091.wav
32,192,119189,1,0,2:0:0:70:_ki_000.wav
288,192,119189,1,0,2:0:0:70:pi4_092.wav
416,192,119189,1,0,2:0:0:70:pi4_093.wav
32,192,119459,1,0,2:0:0:70:_ki_000.wav
160,192,119594,1,0,2:0:0:70:_ki_000.wav
352,192,119594,1,0,2:0:0:70:pi4_059.wav
480,192,119729,1,0,2:0:0:70:pi4_084.wav
32,192,119864,1,0,2:0:0:70:_ki_000.wav
288,192,119999,1,0,2:0:0:70:pi4_096.wav
416,192,119999,1,0,2:0:0:70:pi4_097.wav
480,192,120135,1,0,2:0:0:70:_ki_001.wav
352,192,120202,1,0,2:0:0:70:_ki_001.wav
32,192,120270,1,0,2:0:0:70:_ki_002.wav
160,192,120337,1,0,2:0:0:70:_ki_003.wav
352,192,120405,1,0,2:0:0:70:_ki_004.wav
480,192,120472,1,0,2:0:0:70:_ki_005.wav
32,192,120540,1,0,2:0:0:70:_ki_006.wav
160,192,120608,1,0,2:0:0:70:_ki_007.wav
352,192,120675,1,0,2:0:0:70:_ki_008.wav
480,192,120743,1,0,2:0:0:70:_ki_009.wav
32,192,120810,1,0,2:0:0:70:_ki_010.wav
160,192,120878,1,0,2:0:0:70:_ki_011.wav
352,192,120945,1,0,2:0:0:70:_ki_012.wav
480,192,121013,1,0,2:0:0:70:_ki_013.wav
32,192,121081,1,0,2:0:0:70:_ki_014.wav
160,192,121148,1,0,2:0:0:70:_ki_015.wav
352,192,121216,1,0,2:0:0:70:_ki_016.wav
480,192,121283,1,0,2:0:0:70:_ki_017.wav
32,192,121351,1,0,2:0:0:70:_ki_018.wav
160,192,121418,1,0,2:0:0:70:_ki_019.wav
352,192,121486,1,0,2:0:0:70:_ki_020.wav
480,192,121554,1,0,2:0:0:70:_ki_021.wav
32,192,121621,1,0,2:0:0:70:_ki_022.wav
160,192,121689,1,0,2:0:0:70:_ki_023.wav
352,192,121756,1,0,2:0:0:70:_ki_024.wav
480,192,121824,1,0,2:0:0:70:_ki_025.wav
32,192,121891,1,0,2:0:0:70:_ki_026.wav
160,192,121959,1,0,2:0:0:70:_ki_027.wav
352,192,122027,1,0,2:0:0:70:_ki_028.wav
480,192,122094,1,0,2:0:0:70:_ki_029.wav
32,192,122162,1,0,2:0:0:70:_ki_030.wav
160,192,122229,1,0,2:0:0:70:_ki_031.wav
352,192,122297,1,0,2:0:0:70:_ki_032.wav
480,192,122364,1,0,2:0:0:70:_ki_033.wav
32,192,122432,1,0,2:0:0:70:__sugokuiioto.wav
