osu file format v14

[General]
AudioFilename: Grand Finale.mp3
AudioLeadIn: 1500
PreviewTime: -1
Countdown: 0
SampleSet: Soft
StackLeniency: 0.7
Mode: 0
LetterboxInBreaks: 0
WidescreenStoryboard: 0

[Editor]
Bookmarks: 18411,35978,53276,54897,57600,59762,61924,63005,64086,65168,66249,68411,70573,72195,74897,78141,79222,82465,87870,96519,105168,119222,120168,121384,122465
DistanceSpacing: 1.9
BeatDivisor: 4
GridSize: 4
TimelineZoom: 3.499998

[Metadata]
Title:Firmament Castle "Velier"
TitleUnicode:天空の城ヴェリエル
Artist:Uetsu Shi
ArtistUnicode:うえつ氏
Creator:Cherry Blossom
Version:Grand Finale 2015
Source:BMS
Tags:bof2012 ein neuer heiliger krieg PeaceCast.bms dialgadu77 sayaka- dialgadu77 sayaka-
BeatmapID:897279
BeatmapSetID:96366

[Difficulty]
HPDrainRate:6
CircleSize:4
OverallDifficulty:9
ApproachRate:10
SliderMultiplier:1.9
SliderTickRate:1

[Events]
//Background and Video events
0,0,"#stagefile.jpg",0,0
//Break Periods
2,88070,95965
//Storyboard Layer 0 (Background)
//Storyboard Layer 1 (Fail)
//Storyboard Layer 2 (Pass)
//Storyboard Layer 3 (Foreground)
//Storyboard Sound Samples
Sample,1081,0,"__kuraaaaaaasshu.wav",70
Sample,1081,0,"__dohyuuuuuun.wav",70
Sample,1081,0,"vio1_000.wav",70
Sample,4324,0,"vio1_001.wav",70
Sample,5405,0,"vio1_002.wav",70
Sample,7567,0,"vio1_003.wav",70
Sample,8648,0,"vio1_004.wav",70
Sample,8648,0,"__hyuooooooooo.wav",70
Sample,9729,0,"ld4x_fil.wav",70
Sample,9729,0,"vio1_005.wav",70
Sample,17297,0,"__itumonofiru.wav",70
Sample,18378,0,"ld4x_015.wav",70
Sample,18378,0,"_ki_000.wav",70
Sample,18378,0,"__kuraaaaaaasshu.wav",70
Sample,18378,0,"ld4x_016.wav",70
Sample,18378,0,"_kurasshu_000.wav",70
Sample,18378,0,"__dohyuuuuuun.wav",70
Sample,18378,0,"pd1_000.wav",70
Sample,18513,0,"_hat_000.wav",70
Sample,18648,0,"_kurasshu_000.wav",70
Sample,18648,0,"_ki_000.wav",70
Sample,18783,0,"_hat_000.wav",70
Sample,18918,0,"_ki_000.wav",70
Sample,18918,0,"_kurasshu_000.wav",70
Sample,19054,0,"_kurasshu_000.wav",70
Sample,19054,0,"_hat_000.wav",70
Sample,19189,0,"ld4x_017.wav",70
Sample,19189,0,"_ki_000.wav",70
Sample,19324,0,"_kurasshu_000.wav",70
Sample,19324,0,"_hat_001.wav",70
Sample,19324,0,"_ki_000.wav",70
Sample,19459,0,"pd1_001.wav",70
Sample,19459,0,"ld4x_004.wav",70
Sample,19594,0,"_ki_000.wav",70
Sample,19594,0,"_hat_000.wav",70
Sample,19594,0,"_kurasshu_000.wav",70
Sample,19864,0,"ld4x_018.wav",70
Sample,19864,0,"_hat_000.wav",70
Sample,19864,0,"_kurasshu_000.wav",70
Sample,19864,0,"_ki_000.wav",70
Sample,20135,0,"_ki_000.wav",70
Sample,20135,0,"_kurasshu_000.wav",70
Sample,20135,0,"_hat_000.wav",70
Sample,20270,0,"ld4x_019.wav",70
Sample,20405,0,"_kurasshu_001.wav",70
Sample,20405,0,"_ki_001.wav",70
Sample,20405,0,"_hat_001.wav",70
Sample,20472,0,"_kurasshu_001.wav",70
Sample,20472,0,"_ki_001.wav",70
Sample,20506,0,"_ki_001.wav",70
Sample,20506,0,"_kurasshu_001.wav",70
Sample,20540,0,"_ki_000.wav",70
Sample,20540,0,"pd1_002.wav",70
Sample,20540,0,"_kurasshu_002.wav",70
Sample,20540,0,"ld4x_007.wav",70
Sample,20675,0,"_hat_000.wav",70
Sample,20810,0,"_kurasshu_002.wav",70
Sample,20810,0,"_ki_000.wav",70
Sample,20945,0,"_hat_000.wav",70
Sample,21081,0,"_ki_000.wav",70
Sample,21216,0,"_kurasshu_000.wav",70
Sample,21216,0,"_hat_000.wav",70
Sample,21351,0,"_ki_000.wav",70
Sample,21486,0,"_kurasshu_000.wav",70
Sample,21486,0,"_hat_001.wav",70
Sample,21621,0,"_kurasshu_000.wav",70
Sample,21621,0,"pd1_003.wav",70
Sample,21621,0,"ld4x_020.wav",70
Sample,21621,0,"_ki_000.wav",70
Sample,21756,0,"_ki_000.wav",70
Sample,21756,0,"_hat_000.wav",70
Sample,21756,0,"_kurasshu_000.wav",70
Sample,22027,0,"_kurasshu_000.wav",70
Sample,22027,0,"_ki_000.wav",70
Sample,22027,0,"_hat_000.wav",70
Sample,22162,0,"pd1_004.wav",70
Sample,22297,0,"_kurasshu_000.wav",70
Sample,22297,0,"_hat_000.wav",70
Sample,22297,0,"_ki_000.wav",70
Sample,22432,0,"_ki_000.wav",70
Sample,22567,0,"_hat_001.wav",70
Sample,22567,0,"_kurasshu_000.wav",70
Sample,22702,0,"ld4x_005.wav",70
Sample,22702,0,"_ki_000.wav",70
Sample,22702,0,"pd1_005.wav",70
Sample,22702,0,"_kurasshu_000.wav",70
Sample,22837,0,"_hat_000.wav",70
Sample,23108,0,"_kurasshu_000.wav",70
Sample,23108,0,"_hat_000.wav",70
Sample,23108,0,"_ki_000.wav",70
Sample,23108,0,"ld4x_003.wav",70
Sample,23378,0,"_hat_000.wav",70
Sample,23513,0,"ld4x_002.wav",70
Sample,23513,0,"_ki_000.wav",70
Sample,23513,0,"_kurasshu_000.wav",70
Sample,23648,0,"_hat_001.wav",70
Sample,23783,0,"ld4x_021.wav",70
Sample,23783,0,"_ki_000.wav",70
Sample,23783,0,"pd1_006.wav",70
Sample,23783,0,"_kurasshu_000.wav",70
Sample,23783,0,"ld4x_022.wav",70
Sample,23918,0,"_hat_000.wav",70
Sample,24189,0,"_hat_000.wav",70
Sample,24189,0,"_kurasshu_000.wav",70
Sample,24189,0,"ld4x_011.wav",70
Sample,24189,0,"_ki_000.wav",70
Sample,24459,0,"_hat_000.wav",70
Sample,24594,0,"_kurasshu_000.wav",70
Sample,24594,0,"ld4x_002.wav",70
Sample,24594,0,"ld4x_023.wav",70
Sample,24594,0,"_ki_000.wav",70
Sample,24729,0,"_hat_001.wav",70
Sample,24864,0,"ld4x_024.wav",70
Sample,24864,0,"_kurasshu_003.wav",70
Sample,24864,0,"ld4x_026.wav",70
Sample,24864,0,"_ki_000.wav",70
Sample,24864,0,"ld4x_025.wav",70
Sample,24864,0,"pd1_000.wav",70
Sample,25000,0,"_hat_000.wav",70
Sample,25135,0,"_ki_000.wav",70
Sample,25270,0,"_kurasshu_000.wav",70
Sample,25270,0,"_hat_000.wav",70
Sample,25405,0,"_ki_000.wav",70
Sample,25540,0,"_kurasshu_000.wav",70
Sample,25540,0,"_hat_000.wav",70
Sample,25675,0,"_ki_000.wav",70
Sample,25810,0,"_hat_001.wav",70
Sample,25810,0,"_kurasshu_000.wav",70
Sample,25945,0,"ld4x_027.wav",70
Sample,25945,0,"_kurasshu_000.wav",70
Sample,25945,0,"pd1_007.wav",70
Sample,25945,0,"_ki_000.wav",70
Sample,25945,0,"ld4x_028.wav",70
Sample,26081,0,"_ki_000.wav",70
Sample,26081,0,"_kurasshu_000.wav",70
Sample,26081,0,"_hat_000.wav",70
Sample,26351,0,"ld4x_030.wav",70
Sample,26351,0,"ld4x_029.wav",70
Sample,26351,0,"_kurasshu_000.wav",70
Sample,26351,0,"_hat_000.wav",70
Sample,26351,0,"_ki_000.wav",70
Sample,26621,0,"_ki_000.wav",70
Sample,26621,0,"_kurasshu_000.wav",70
Sample,26621,0,"_hat_000.wav",70
Sample,26756,0,"ld4x_031.wav",70
Sample,26756,0,"ld4x_019.wav",70
Sample,26891,0,"_hat_001.wav",70
Sample,26891,0,"_kurasshu_001.wav",70
Sample,26891,0,"_ki_001.wav",70
Sample,26925,0,"_ki_001.wav",70
Sample,26925,0,"_kurasshu_001.wav",70
Sample,26959,0,"_ki_001.wav",70
Sample,26959,0,"_kurasshu_001.wav",70
Sample,26993,0,"_ki_001.wav",70
Sample,26993,0,"_kurasshu_001.wav",70
Sample,27027,0,"ld4x_016.wav",70
Sample,27027,0,"pd1_008.wav",70
Sample,27027,0,"ld4x_032.wav",70
Sample,27027,0,"_ki_000.wav",70
Sample,27162,0,"_kurasshu_000.wav",70
Sample,27162,0,"_hat_000.wav",70
Sample,27297,0,"_kurasshu_003.wav",70
Sample,27297,0,"_ki_000.wav",70
Sample,27432,0,"_hat_000.wav",70
Sample,27567,0,"_ki_000.wav",70
Sample,27702,0,"_kurasshu_000.wav",70
Sample,27702,0,"_hat_000.wav",70
Sample,27837,0,"_ki_000.wav",70
Sample,27837,0,"_kurasshu_000.wav",70
Sample,27972,0,"_kurasshu_001.wav",70
Sample,27972,0,"_hat_001.wav",70
Sample,27972,0,"ld4x_033.wav",70
Sample,27972,0,"_ki_001.wav",70
Sample,28040,0,"ld4x_034.wav",70
Sample,28040,0,"_ki_001.wav",70
Sample,28040,0,"_kurasshu_001.wav",70
Sample,28108,0,"ld4x_004.wav",70
Sample,28108,0,"_kurasshu_000.wav",70
Sample,28108,0,"pd1_001.wav",70
Sample,28108,0,"_ki_000.wav",70
Sample,28108,0,"ld4x_035.wav",70
Sample,28243,0,"_kurasshu_000.wav",70
Sample,28243,0,"_ki_000.wav",70
Sample,28243,0,"_hat_000.wav",70
Sample,28513,0,"ld4x_037.wav",70
Sample,28513,0,"ld4x_036.wav",70
Sample,28513,0,"_kurasshu_000.wav",70
Sample,28513,0,"_ki_000.wav",70
Sample,28513,0,"_hat_000.wav",70
Sample,28648,0,"_ki_000.wav",70
Sample,28648,0,"_kurasshu_000.wav",70
Sample,28783,0,"_hat_000.wav",70
Sample,28918,0,"ld4x_038.wav",70
Sample,28918,0,"ld4x_039.wav",70
Sample,28918,0,"_kurasshu_000.wav",70
Sample,28918,0,"_ki_000.wav",70
Sample,29054,0,"_kurasshu_001.wav",70
Sample,29054,0,"_hat_001.wav",70
Sample,29054,0,"_ki_001.wav",70
Sample,29121,0,"_kurasshu_001.wav",70
Sample,29121,0,"_ki_001.wav",70
Sample,29155,0,"_ki_001.wav",70
Sample,29155,0,"_kurasshu_001.wav",70
Sample,29189,0,"ld4x_040.wav",70
Sample,29189,0,"_ki_000.wav",70
Sample,29189,0,"_kurasshu_003.wav",70
Sample,29189,0,"ld4x_041.wav",70
Sample,29189,0,"pd1_007.wav",70
Sample,29324,0,"_hat_000.wav",70
Sample,29459,0,"_ki_000.wav",70
Sample,29594,0,"_kurasshu_000.wav",70
Sample,29594,0,"_hat_000.wav",70
Sample,29729,0,"_ki_000.wav",70
Sample,29864,0,"_hat_000.wav",70
Sample,29864,0,"_kurasshu_002.wav",70
Sample,30000,0,"_ki_000.wav",70
Sample,30000,0,"ld4x_042.wav",70
Sample,30135,0,"_hat_001.wav",70
Sample,30270,0,"ld4x_043.wav",70
Sample,30270,0,"_ki_000.wav",70
Sample,30270,0,"_kurasshu_004.wav",70
Sample,30270,0,"pd1_009.wav",70
Sample,30405,0,"_hat_000.wav",70
Sample,30540,0,"_ki_000.wav",70
Sample,30675,0,"_kurasshu_000.wav",70
Sample,30675,0,"_hat_000.wav",70
Sample,30675,0,"ld4x_011.wav",70
Sample,30810,0,"pd1_010.wav",70
Sample,30945,0,"_hat_000.wav",70
Sample,30945,0,"_ki_000.wav",70
Sample,31081,0,"ld4x_027.wav",70
Sample,31081,0,"_kurasshu_000.wav",70
Sample,31216,0,"_hat_001.wav",70
Sample,31216,0,"_ki_000.wav",70
Sample,31351,0,"ld4x_044.wav",70
Sample,31351,0,"_ki_000.wav",70
Sample,31351,0,"pd1_008.wav",70
Sample,31486,0,"_kurasshu_000.wav",70
Sample,31486,0,"_hat_000.wav",70
Sample,31621,0,"_ki_000.wav",70
Sample,31756,0,"_kurasshu_000.wav",70
Sample,31756,0,"_hat_000.wav",70
Sample,31891,0,"_ki_000.wav",70
Sample,32027,0,"_kurasshu_000.wav",70
Sample,32027,0,"_hat_000.wav",70
Sample,32162,0,"ld4x_045.wav",70
Sample,32162,0,"_ki_000.wav",70
Sample,32162,0,"_kurasshu_003.wav",70
Sample,32297,0,"_hat_001.wav",70
Sample,32432,0,"ld4x_046.wav",70
Sample,32432,0,"pd1_006.wav",70
Sample,32432,0,"_ki_000.wav",70
Sample,32567,0,"_hat_000.wav",70
Sample,32567,0,"_kurasshu_000.wav",70
Sample,32702,0,"_kurasshu_003.wav",70
Sample,32837,0,"_ki_000.wav",70
Sample,32837,0,"_hat_000.wav",70
Sample,32972,0,"ld4x_047.wav",70
Sample,33108,0,"_hat_000.wav",70
Sample,33108,0,"_kurasshu_002.wav",70
Sample,33108,0,"_ki_000.wav",70
Sample,33378,0,"_ki_001.wav",70
Sample,33378,0,"_kurasshu_001.wav",70
Sample,33378,0,"_hat_001.wav",70
Sample,33445,0,"_kurasshu_001.wav",70
Sample,33445,0,"_ki_001.wav",70
Sample,33513,0,"ld4x_007.wav",70
Sample,33513,0,"_kurasshu_005.wav",70
Sample,33513,0,"pd1_000.wav",70
Sample,33513,0,"_ki_002.wav",70
Sample,33513,0,"ld4x_048.wav",70
Sample,33581,0,"_ki_003.wav",70
Sample,33581,0,"_kurasshu_006.wav",70
Sample,33648,0,"_kurasshu_006.wav",70
Sample,33648,0,"_ki_004.wav",70
Sample,33648,0,"_hat_000.wav",70
Sample,33716,0,"_kurasshu_007.wav",70
Sample,33716,0,"_ki_005.wav",70
Sample,33783,0,"_kurasshu_007.wav",70
Sample,33783,0,"_ki_006.wav",70
Sample,33851,0,"_kurasshu_008.wav",70
Sample,33851,0,"_ki_007.wav",70
Sample,33918,0,"_hat_000.wav",70
Sample,33918,0,"_kurasshu_008.wav",70
Sample,33918,0,"_ki_008.wav",70
Sample,33986,0,"_kurasshu_008.wav",70
Sample,33986,0,"_ki_009.wav",70
Sample,34054,0,"_ki_010.wav",70
Sample,34054,0,"_kurasshu_009.wav",70
Sample,34121,0,"_ki_011.wav",70
Sample,34121,0,"_kurasshu_009.wav",70
Sample,34189,0,"_kurasshu_010.wav",70
Sample,34189,0,"_hat_000.wav",70
Sample,34189,0,"_ki_012.wav",70
Sample,34256,0,"_kurasshu_010.wav",70
Sample,34256,0,"_ki_013.wav",70
Sample,34324,0,"_kurasshu_011.wav",70
Sample,34324,0,"_ki_014.wav",70
Sample,34391,0,"_kurasshu_011.wav",70
Sample,34391,0,"_ki_015.wav",70
Sample,34459,0,"_kurasshu_012.wav",70
Sample,34459,0,"_ki_016.wav",70
Sample,34459,0,"_hat_001.wav",70
Sample,34527,0,"_ki_017.wav",70
Sample,34527,0,"_kurasshu_012.wav",70
Sample,34594,0,"_kurasshu_013.wav",70
Sample,34594,0,"pd1_011.wav",70
Sample,34594,0,"pi3_040.wav",70
Sample,34594,0,"ld4x_049.wav",70
Sample,34594,0,"_ki_018.wav",70
Sample,34594,0,"ld4x_050.wav",70
Sample,34662,0,"_ki_019.wav",70
Sample,34662,0,"_kurasshu_013.wav",70
Sample,34729,0,"_ki_020.wav",70
Sample,34729,0,"_hat_000.wav",70
Sample,34729,0,"_kurasshu_014.wav",70
Sample,34797,0,"_ki_021.wav",70
Sample,34797,0,"_kurasshu_014.wav",70
Sample,34864,0,"_ki_022.wav",70
Sample,34864,0,"_kurasshu_001.wav",70
Sample,34932,0,"_ki_023.wav",70
Sample,34932,0,"_kurasshu_001.wav",70
Sample,35000,0,"_ki_024.wav",70
Sample,35000,0,"pi3_041.wav",70
Sample,35000,0,"_kurasshu_015.wav",70
Sample,35000,0,"_hat_000.wav",70
Sample,35067,0,"_ki_025.wav",70
Sample,35067,0,"_kurasshu_015.wav",70
Sample,35135,0,"_ki_026.wav",70
Sample,35135,0,"_kurasshu_015.wav",70
Sample,35202,0,"_ki_027.wav",70
Sample,35202,0,"_kurasshu_016.wav",70
Sample,35270,0,"_hat_000.wav",70
Sample,35270,0,"_ki_028.wav",70
Sample,35270,0,"_kurasshu_016.wav",70
Sample,35337,0,"_ki_029.wav",70
Sample,35337,0,"_kurasshu_017.wav",70
Sample,35405,0,"_kurasshu_017.wav",70
Sample,35405,0,"_ki_030.wav",70
Sample,35405,0,"pi3_017.wav",70
Sample,35472,0,"_kurasshu_018.wav",70
Sample,35472,0,"_ki_031.wav",70
Sample,35540,0,"_ki_032.wav",70
Sample,35540,0,"_kurasshu_018.wav",70
Sample,35540,0,"_hat_001.wav",70
Sample,35608,0,"_ki_033.wav",70
Sample,35608,0,"_kurasshu_019.wav",70
Sample,35675,0,"__dohyuuuuuun.wav",70
Sample,35675,0,"__kuraaaaaaasshu.wav",70
Sample,35675,0,"_kurasshu_000.wav",70
Sample,35675,0,"_ki_000.wav",70
Sample,35675,0,"pi3_042.wav",70
Sample,35675,0,"ld4x_051.wav",70
Sample,35675,0,"_dr_000.wav",70
Sample,35675,0,"pd1_012.wav",70
Sample,35810,0,"_dr_001.wav",70
Sample,35810,0,"_hat_000.wav",70
Sample,35872,0,"_dr_002.wav",70
Sample,35940,0,"_dr_003.wav",70
Sample,35945,0,"_ki_000.wav",70
Sample,35945,0,"_sna_000.wav",70
Sample,35945,0,"_kurasshu_000.wav",70
Sample,36081,0,"_dr_004.wav",70
Sample,36081,0,"_hat_000.wav",70
Sample,36210,0,"_dr_005.wav",70
Sample,36216,0,"_kurasshu_000.wav",70
Sample,36216,0,"_ki_000.wav",70
Sample,36278,0,"_dr_006.wav",70
Sample,36345,0,"_dr_007.wav",70
Sample,36351,0,"_hat_000.wav",70
Sample,36351,0,"_kurasshu_000.wav",70
Sample,36480,0,"_dr_008.wav",70
Sample,36486,0,"pi3_044.wav",70
Sample,36486,0,"_ki_000.wav",70
Sample,36486,0,"ld4x_054.wav",70
Sample,36486,0,"pi3_043.wav",70
Sample,36486,0,"ld4x_052.wav",70
Sample,36486,0,"_sna_001.wav",70
Sample,36621,0,"_dr_009.wav",70
Sample,36621,0,"_ki_000.wav",70
Sample,36621,0,"_kurasshu_000.wav",70
Sample,36621,0,"_hat_001.wav",70
Sample,36756,0,"_dr_010.wav",70
Sample,36756,0,"ld4x_055.wav",70
Sample,36756,0,"pi3_045.wav",70
Sample,36756,0,"pd1_013.wav",70
Sample,36880,0,"_dr_011.wav",70
Sample,36891,0,"_ki_000.wav",70
Sample,36891,0,"_hat_000.wav",70
Sample,36891,0,"_kurasshu_000.wav",70
Sample,37021,0,"_dr_012.wav",70
Sample,37027,0,"_sna_000.wav",70
Sample,37162,0,"_dr_013.wav",70
Sample,37162,0,"_hat_000.wav",70
Sample,37162,0,"ld4x_056.wav",70
Sample,37162,0,"_ki_000.wav",70
Sample,37162,0,"pi3_046.wav",70
Sample,37162,0,"_kurasshu_000.wav",70
Sample,37297,0,"_dr_014.wav",70
Sample,37359,0,"_dr_015.wav",70
Sample,37432,0,"_kurasshu_000.wav",70
Sample,37432,0,"_dr_016.wav",70
Sample,37432,0,"_hat_000.wav",70
Sample,37432,0,"_ki_000.wav",70
Sample,37494,0,"_dr_017.wav",70
Sample,37561,0,"_dr_018.wav",70
Sample,37567,0,"_sna_001.wav",70
Sample,37567,0,"pi3_010.wav",70
Sample,37567,0,"ld4x_021.wav",70
Sample,37635,0,"_dr_019.wav",70
Sample,37702,0,"_ki_001.wav",70
Sample,37702,0,"_kurasshu_001.wav",70
Sample,37702,0,"_hat_001.wav",70
Sample,37702,0,"_dr_020.wav",70
Sample,37759,0,"_dr_021.wav",70
Sample,37770,0,"_kurasshu_001.wav",70
Sample,37770,0,"_ki_001.wav",70
Sample,37804,0,"_ki_001.wav",70
Sample,37804,0,"_kurasshu_001.wav",70
Sample,37837,0,"_dr_000.wav",70
Sample,37837,0,"pd1_000.wav",70
Sample,37837,0,"ld4x_057.wav",70
Sample,37837,0,"pi3_047.wav",70
Sample,37837,0,"_kurasshu_002.wav",70
Sample,37837,0,"_ki_000.wav",70
Sample,37972,0,"_dr_001.wav",70
Sample,37972,0,"_hat_000.wav",70
Sample,38034,0,"_dr_002.wav",70
Sample,38102,0,"_dr_003.wav",70
Sample,38108,0,"_sna_000.wav",70
Sample,38108,0,"_ki_000.wav",70
Sample,38108,0,"_kurasshu_002.wav",70
Sample,38243,0,"_hat_000.wav",70
Sample,38243,0,"_dr_004.wav",70
Sample,38372,0,"_dr_005.wav",70
Sample,38378,0,"_ki_000.wav",70
Sample,38440,0,"_dr_006.wav",70
Sample,38507,0,"_dr_007.wav",70
Sample,38513,0,"_hat_000.wav",70
Sample,38513,0,"_kurasshu_000.wav",70
Sample,38643,0,"_dr_008.wav",70
Sample,38648,0,"_ki_000.wav",70
Sample,38648,0,"_sna_001.wav",70
Sample,38783,0,"_hat_001.wav",70
Sample,38783,0,"_dr_009.wav",70
Sample,38783,0,"_kurasshu_000.wav",70
Sample,38918,0,"pd1_014.wav",70
Sample,38918,0,"_dr_010.wav",70
Sample,38918,0,"ld4x_058.wav",70
Sample,38918,0,"_ki_000.wav",70
Sample,38918,0,"pi3_048.wav",70
Sample,38918,0,"_kurasshu_000.wav",70
Sample,39042,0,"_dr_011.wav",70
Sample,39054,0,"_ki_000.wav",70
Sample,39054,0,"_hat_000.wav",70
Sample,39054,0,"_kurasshu_000.wav",70
Sample,39183,0,"_dr_012.wav",70
Sample,39189,0,"_sna_000.wav",70
Sample,39324,0,"_hat_000.wav",70
Sample,39324,0,"_dr_013.wav",70
Sample,39324,0,"_ki_000.wav",70
Sample,39324,0,"_kurasshu_000.wav",70
Sample,39459,0,"_dr_014.wav",70
Sample,39459,0,"piarp_049.wav",70
Sample,39459,0,"pd1_015.wav",70
Sample,39521,0,"_dr_015.wav",70
Sample,39560,0,"piarp_049.wav",70
Sample,39594,0,"_kurasshu_000.wav",70
Sample,39594,0,"_hat_000.wav",70
Sample,39594,0,"_dr_016.wav",70
Sample,39594,0,"_ki_000.wav",70
Sample,39656,0,"_dr_017.wav",70
Sample,39724,0,"_dr_018.wav",70
Sample,39729,0,"_sna_001.wav",70
Sample,39729,0,"_ki_000.wav",70
Sample,39797,0,"_dr_019.wav",70
Sample,39864,0,"_hat_001.wav",70
Sample,39864,0,"_kurasshu_000.wav",70
Sample,39864,0,"_dr_020.wav",70
Sample,39921,0,"_dr_021.wav",70
Sample,40000,0,"pd1_016.wav",70
Sample,40000,0,"_dr_000.wav",70
Sample,40000,0,"_kurasshu_000.wav",70
Sample,40000,0,"_ki_000.wav",70
Sample,40000,0,"pi3_049.wav",70
Sample,40000,0,"ld4x_059.wav",70
Sample,40135,0,"_hat_000.wav",70
Sample,40135,0,"_dr_001.wav",70
Sample,40197,0,"_dr_002.wav",70
Sample,40264,0,"_dr_003.wav",70
Sample,40270,0,"_sna_000.wav",70
Sample,40405,0,"pi3_050.wav",70
Sample,40405,0,"_dr_004.wav",70
Sample,40405,0,"ld4x_060.wav",70
Sample,40405,0,"_kurasshu_000.wav",70
Sample,40405,0,"_ki_000.wav",70
Sample,40405,0,"_hat_000.wav",70
Sample,40534,0,"_dr_005.wav",70
Sample,40602,0,"_dr_006.wav",70
Sample,40670,0,"_dr_007.wav",70
Sample,40675,0,"_hat_000.wav",70
Sample,40805,0,"_dr_008.wav",70
Sample,40810,0,"_ki_000.wav",70
Sample,40810,0,"_sna_001.wav",70
Sample,40810,0,"_kurasshu_000.wav",70
Sample,40810,0,"pi3_051.wav",70
Sample,40810,0,"ld4x_061.wav",70
Sample,40945,0,"_hat_001.wav",70
Sample,40945,0,"_dr_009.wav",70
Sample,41081,0,"pi3_052.wav",70
Sample,41081,0,"_ki_000.wav",70
Sample,41081,0,"_dr_010.wav",70
Sample,41081,0,"pd1_017.wav",70
Sample,41081,0,"_kurasshu_000.wav",70
Sample,41081,0,"ld4x_062.wav",70
Sample,41204,0,"_dr_011.wav",70
Sample,41216,0,"_hat_000.wav",70
Sample,41283,0,"ld4x_063.wav",70
Sample,41283,0,"pi3_053.wav",70
Sample,41345,0,"_dr_012.wav",70
Sample,41351,0,"_sna_000.wav",70
Sample,41486,0,"_dr_013.wav",70
Sample,41486,0,"_kurasshu_000.wav",70
Sample,41486,0,"_ki_000.wav",70
Sample,41486,0,"pi3_054.wav",70
Sample,41486,0,"_hat_000.wav",70
Sample,41486,0,"ld4x_064.wav",70
Sample,41621,0,"_dr_014.wav",70
Sample,41683,0,"_dr_015.wav",70
Sample,41756,0,"_hat_000.wav",70
Sample,41756,0,"_dr_016.wav",70
Sample,41818,0,"_dr_017.wav",70
Sample,41886,0,"_dr_018.wav",70
Sample,41891,0,"_ki_000.wav",70
Sample,41891,0,"pi3_046.wav",70
Sample,41891,0,"_sna_001.wav",70
Sample,41891,0,"ld4x_056.wav",70
Sample,41891,0,"_kurasshu_000.wav",70
Sample,41959,0,"_dr_019.wav",70
Sample,42027,0,"_dr_020.wav",70
Sample,42027,0,"_hat_001.wav",70
Sample,42083,0,"_dr_021.wav",70
Sample,42162,0,"pd1_012.wav",70
Sample,42162,0,"_dr_000.wav",70
Sample,42162,0,"_ki_000.wav",70
Sample,42162,0,"_kurasshu_003.wav",70
Sample,42162,0,"pi3_055.wav",70
Sample,42162,0,"ld4x_065.wav",70
Sample,42297,0,"_dr_001.wav",70
Sample,42297,0,"_hat_000.wav",70
Sample,42359,0,"_dr_002.wav",70
Sample,42426,0,"_dr_003.wav",70
Sample,42432,0,"_sna_000.wav",70
Sample,42432,0,"_ki_000.wav",70
Sample,42567,0,"_dr_004.wav",70
Sample,42567,0,"_hat_000.wav",70
Sample,42567,0,"_kurasshu_000.wav",70
Sample,42697,0,"_dr_005.wav",70
Sample,42702,0,"_ki_000.wav",70
Sample,42764,0,"_dr_006.wav",70
Sample,42832,0,"_dr_007.wav",70
Sample,42837,0,"_kurasshu_000.wav",70
Sample,42837,0,"_hat_000.wav",70
Sample,42967,0,"_dr_008.wav",70
Sample,42972,0,"_sna_001.wav",70
Sample,42972,0,"_ki_000.wav",70
Sample,43108,0,"_kurasshu_000.wav",70
Sample,43108,0,"_hat_001.wav",70
Sample,43108,0,"_dr_009.wav",70
Sample,43243,0,"__hyuooooooooo.wav",70
Sample,43243,0,"pd1_008.wav",70
Sample,43243,0,"_dr_010.wav",70
Sample,43243,0,"pi3_054.wav",70
Sample,43243,0,"pi3_046.wav",70
Sample,43243,0,"ld4x_064.wav",70
Sample,43243,0,"_kurasshu_000.wav",70
Sample,43243,0,"ld4x_056.wav",70
Sample,43243,0,"_ki_000.wav",70
Sample,43367,0,"_dr_011.wav",70
Sample,43378,0,"_kurasshu_000.wav",70
Sample,43378,0,"_ki_000.wav",70
Sample,43378,0,"_hat_000.wav",70
Sample,43507,0,"_dr_012.wav",70
Sample,43513,0,"_sna_000.wav",70
Sample,43648,0,"ld4x_052.wav",70
Sample,43648,0,"_hat_000.wav",70
Sample,43648,0,"pi3_043.wav",70
Sample,43648,0,"pi3_056.wav",70
Sample,43648,0,"_ki_000.wav",70
Sample,43648,0,"_dr_013.wav",70
Sample,43648,0,"ld4x_064.wav",70
Sample,43648,0,"_kurasshu_000.wav",70
Sample,43783,0,"_dr_014.wav",70
Sample,43845,0,"_dr_015.wav",70
Sample,43918,0,"_kurasshu_000.wav",70
Sample,43918,0,"_hat_000.wav",70
Sample,43918,0,"_dr_016.wav",70
Sample,43918,0,"_ki_000.wav",70
Sample,43980,0,"_dr_017.wav",70
Sample,44048,0,"_dr_018.wav",70
Sample,44054,0,"ld4x_066.wav",70
Sample,44054,0,"pi3_057.wav",70
Sample,44054,0,"pi3_058.wav",70
Sample,44054,0,"_sna_001.wav",70
Sample,44054,0,"ld4x_067.wav",70
Sample,44121,0,"_dr_019.wav",70
Sample,44189,0,"_hat_001.wav",70
Sample,44189,0,"_kurasshu_001.wav",70
Sample,44189,0,"_ki_001.wav",70
Sample,44189,0,"_dr_020.wav",70
Sample,44222,0,"_kurasshu_001.wav",70
Sample,44222,0,"_ki_001.wav",70
Sample,44245,0,"_dr_021.wav",70
Sample,44256,0,"_kurasshu_001.wav",70
Sample,44256,0,"_ki_001.wav",70
Sample,44290,0,"_ki_001.wav",70
Sample,44290,0,"_kurasshu_001.wav",70
Sample,44324,0,"pi3_060.wav",70
Sample,44324,0,"pd1_018.wav",70
Sample,44324,0,"_ki_000.wav",70
Sample,44324,0,"ld4x_068.wav",70
Sample,44324,0,"_dr_000.wav",70
Sample,44324,0,"ld4x_069.wav",70
Sample,44324,0,"pi3_059.wav",70
Sample,44459,0,"_kurasshu_000.wav",70
Sample,44459,0,"_dr_001.wav",70
Sample,44459,0,"_hat_000.wav",70
Sample,44521,0,"_dr_002.wav",70
Sample,44588,0,"_dr_003.wav",70
Sample,44594,0,"_ki_000.wav",70
Sample,44594,0,"_kurasshu_003.wav",70
Sample,44594,0,"_sna_000.wav",70
Sample,44729,0,"_hat_000.wav",70
Sample,44729,0,"_dr_004.wav",70
Sample,44859,0,"_dr_005.wav",70
Sample,44864,0,"_ki_000.wav",70
Sample,44926,0,"_dr_006.wav",70
Sample,44994,0,"_dr_007.wav",70
Sample,45000,0,"_hat_000.wav",70
Sample,45000,0,"_kurasshu_000.wav",70
Sample,45129,0,"_dr_008.wav",70
Sample,45135,0,"_sna_001.wav",70
Sample,45135,0,"_kurasshu_000.wav",70
Sample,45135,0,"_ki_000.wav",70
Sample,45270,0,"_hat_001.wav",70
Sample,45270,0,"_ki_001.wav",70
Sample,45270,0,"_dr_009.wav",70
Sample,45270,0,"_kurasshu_001.wav",70
Sample,45337,0,"_kurasshu_001.wav",70
Sample,45337,0,"_ki_001.wav",70
Sample,45405,0,"ld4x_071.wav",70
Sample,45405,0,"_ki_000.wav",70
Sample,45405,0,"pi3_061.wav",70
Sample,45405,0,"pd1_013.wav",70
Sample,45405,0,"_kurasshu_000.wav",70
Sample,45405,0,"pi3_062.wav",70
Sample,45405,0,"ld4x_070.wav",70
Sample,45405,0,"_dr_010.wav",70
Sample,45529,0,"_dr_011.wav",70
Sample,45540,0,"_kurasshu_000.wav",70
Sample,45540,0,"_hat_000.wav",70
Sample,45540,0,"_ki_000.wav",70
Sample,45670,0,"_dr_012.wav",70
Sample,45675,0,"_sna_000.wav",70
Sample,45810,0,"ld4x_072.wav",70
Sample,45810,0,"_dr_013.wav",70
Sample,45810,0,"pi3_064.wav",70
Sample,45810,0,"_hat_000.wav",70
Sample,45810,0,"_kurasshu_000.wav",70
Sample,45810,0,"_ki_000.wav",70
Sample,45810,0,"ld4x_060.wav",70
Sample,45810,0,"pi3_063.wav",70
Sample,45945,0,"_dr_014.wav",70
Sample,45945,0,"_ki_000.wav",70
Sample,45945,0,"_kurasshu_000.wav",70
Sample,46007,0,"_dr_015.wav",70
Sample,46081,0,"_dr_016.wav",70
Sample,46081,0,"_hat_000.wav",70
Sample,46143,0,"_dr_017.wav",70
Sample,46210,0,"_dr_018.wav",70
Sample,46216,0,"_sna_001.wav",70
Sample,46216,0,"_kurasshu_000.wav",70
Sample,46216,0,"ld4x_073.wav",70
Sample,46216,0,"pi3_066.wav",70
Sample,46216,0,"pi3_065.wav",70
Sample,46216,0,"_ki_000.wav",70
Sample,46216,0,"ld4x_074.wav",70
Sample,46283,0,"_dr_019.wav",70
Sample,46351,0,"_ki_001.wav",70
Sample,46351,0,"_kurasshu_001.wav",70
Sample,46351,0,"_hat_001.wav",70
Sample,46351,0,"_dr_020.wav",70
Sample,46407,0,"_dr_021.wav",70
Sample,46418,0,"_kurasshu_001.wav",70
Sample,46418,0,"_ki_001.wav",70
Sample,46452,0,"_ki_001.wav",70
Sample,46452,0,"_kurasshu_001.wav",70
Sample,46486,0,"pi3_067.wav",70
Sample,46486,0,"pi3_068.wav",70
Sample,46486,0,"_dr_000.wav",70
Sample,46486,0,"pd1_008.wav",70
Sample,46486,0,"_ki_000.wav",70
Sample,46486,0,"ld4x_075.wav",70
Sample,46486,0,"_kurasshu_003.wav",70
Sample,46486,0,"ld4x_076.wav",70
Sample,46621,0,"_hat_000.wav",70
Sample,46621,0,"_dr_001.wav",70
Sample,46683,0,"_dr_002.wav",70
Sample,46751,0,"_dr_003.wav",70
Sample,46756,0,"ld4x_067.wav",70
Sample,46756,0,"_ki_000.wav",70
Sample,46756,0,"_sna_000.wav",70
Sample,46756,0,"pi3_058.wav",70
Sample,46891,0,"_hat_000.wav",70
Sample,46891,0,"_kurasshu_000.wav",70
Sample,46891,0,"_dr_004.wav",70
Sample,47021,0,"_dr_005.wav",70
Sample,47027,0,"ld4x_077.wav",70
Sample,47027,0,"pi3_069.wav",70
Sample,47027,0,"_ki_000.wav",70
Sample,47088,0,"_dr_006.wav",70
Sample,47156,0,"_dr_007.wav",70
Sample,47162,0,"_kurasshu_002.wav",70
Sample,47162,0,"_hat_000.wav",70
Sample,47162,0,"ld4x_078.wav",70
Sample,47162,0,"pi3_070.wav",70
Sample,47291,0,"_dr_008.wav",70
Sample,47297,0,"_ki_000.wav",70
Sample,47297,0,"_sna_001.wav",70
Sample,47432,0,"pi3_069.wav",70
Sample,47432,0,"ld4x_077.wav",70
Sample,47432,0,"_dr_009.wav",70
Sample,47432,0,"_hat_001.wav",70
Sample,47567,0,"_ki_000.wav",70
Sample,47567,0,"pi3_071.wav",70
Sample,47567,0,"ld4x_075.wav",70
Sample,47567,0,"pd1_019.wav",70
Sample,47567,0,"_dr_010.wav",70
Sample,47567,0,"_kurasshu_004.wav",70
Sample,47691,0,"_dr_011.wav",70
Sample,47702,0,"_hat_000.wav",70
Sample,47832,0,"_dr_012.wav",70
Sample,47837,0,"_sna_000.wav",70
Sample,47837,0,"ld4x_079.wav",70
Sample,47837,0,"_ki_000.wav",70
Sample,47837,0,"pi3_072.wav",70
Sample,47972,0,"ld4x_056.wav",70
Sample,47972,0,"_kurasshu_000.wav",70
Sample,47972,0,"_dr_013.wav",70
Sample,47972,0,"pi3_046.wav",70
Sample,47972,0,"_hat_000.wav",70
Sample,48040,0,"pi3_073.wav",70
Sample,48040,0,"ld4x_080.wav",70
Sample,48108,0,"pd1_020.wav",70
Sample,48108,0,"piarp_049.wav",70
Sample,48108,0,"_dr_014.wav",70
Sample,48108,0,"ld4x_081.wav",70
Sample,48108,0,"pi3_074.wav",70
Sample,48170,0,"_dr_015.wav",70
Sample,48243,0,"pi3_075.wav",70
Sample,48243,0,"_ki_000.wav",70
Sample,48243,0,"piarp_049.wav",70
Sample,48243,0,"_dr_016.wav",70
Sample,48243,0,"_hat_000.wav",70
Sample,48243,0,"ld4x_082.wav",70
Sample,48305,0,"_dr_017.wav",70
Sample,48372,0,"_dr_018.wav",70
Sample,48378,0,"_kurasshu_000.wav",70
Sample,48378,0,"_sna_001.wav",70
Sample,48378,0,"ld4x_010.wav",70
Sample,48378,0,"pi3_010.wav",70
Sample,48445,0,"_dr_019.wav",70
Sample,48513,0,"_hat_001.wav",70
Sample,48513,0,"_ki_000.wav",70
Sample,48513,0,"_dr_020.wav",70
Sample,48569,0,"_dr_021.wav",70
Sample,48648,0,"ld4x_083.wav",70
Sample,48648,0,"pi3_076.wav",70
Sample,48648,0,"_ki_000.wav",70
Sample,48648,0,"_dr_000.wav",70
Sample,48648,0,"pd1_018.wav",70
Sample,48783,0,"_dr_001.wav",70
Sample,48783,0,"_kurasshu_000.wav",70
Sample,48783,0,"_hat_000.wav",70
Sample,48845,0,"_dr_002.wav",70
Sample,48913,0,"_dr_003.wav",70
Sample,48918,0,"_sna_000.wav",70
Sample,48918,0,"_ki_000.wav",70
Sample,49054,0,"_kurasshu_000.wav",70
Sample,49054,0,"_dr_004.wav",70
Sample,49054,0,"_hat_000.wav",70
Sample,49183,0,"_dr_005.wav",70
Sample,49189,0,"_ki_000.wav",70
Sample,49251,0,"_dr_006.wav",70
Sample,49318,0,"_dr_007.wav",70
Sample,49324,0,"_kurasshu_000.wav",70
Sample,49324,0,"_hat_000.wav",70
Sample,49453,0,"_dr_008.wav",70
Sample,49459,0,"pi3_077.wav",70
Sample,49459,0,"_sna_001.wav",70
Sample,49459,0,"_kurasshu_003.wav",70
Sample,49459,0,"_ki_000.wav",70
Sample,49459,0,"ld4x_084.wav",70
Sample,49594,0,"_hat_001.wav",70
Sample,49594,0,"_dr_009.wav",70
Sample,49729,0,"pi3_078.wav",70
Sample,49729,0,"ld4x_085.wav",70
Sample,49729,0,"_ki_000.wav",70
Sample,49729,0,"pd1_017.wav",70
Sample,49729,0,"_dr_010.wav",70
Sample,49853,0,"_dr_011.wav",70
Sample,49864,0,"_hat_000.wav",70
Sample,49864,0,"_kurasshu_000.wav",70
Sample,49994,0,"_dr_012.wav",70
Sample,50000,0,"_kurasshu_003.wav",70
Sample,50000,0,"_sna_000.wav",70
Sample,50135,0,"_hat_000.wav",70
Sample,50135,0,"_ki_000.wav",70
Sample,50135,0,"_dr_013.wav",70
Sample,50270,0,"pi3_079.wav",70
Sample,50270,0,"ld4x_086.wav",70
Sample,50270,0,"_dr_014.wav",70
Sample,50332,0,"_dr_015.wav",70
Sample,50405,0,"_hat_000.wav",70
Sample,50405,0,"_dr_016.wav",70
Sample,50405,0,"_ki_000.wav",70
Sample,50405,0,"_kurasshu_002.wav",70
Sample,50467,0,"_dr_017.wav",70
Sample,50534,0,"_dr_018.wav",70
Sample,50540,0,"_sna_001.wav",70
Sample,50608,0,"_dr_019.wav",70
Sample,50675,0,"_dr_020.wav",70
Sample,50675,0,"_kurasshu_001.wav",70
Sample,50675,0,"_ki_001.wav",70
Sample,50675,0,"_hat_001.wav",70
Sample,50731,0,"_dr_021.wav",70
Sample,50743,0,"_kurasshu_001.wav",70
Sample,50743,0,"_ki_001.wav",70
Sample,50810,0,"pi3_080.wav",70
Sample,50810,0,"_dr_000.wav",70
Sample,50810,0,"_kurasshu_005.wav",70
Sample,50810,0,"ld4x_089.wav",70
Sample,50810,0,"pi3_081.wav",70
Sample,50810,0,"pi3_082.wav",70
Sample,50810,0,"_ki_002.wav",70
Sample,50810,0,"ld4x_087.wav",70
Sample,50810,0,"ld4x_088.wav",70
Sample,50810,0,"pd1_021.wav",70
Sample,50878,0,"_ki_003.wav",70
Sample,50878,0,"_kurasshu_006.wav",70
Sample,50945,0,"_sna_002.wav",70
Sample,50945,0,"_hat_000.wav",70
Sample,50945,0,"_dr_001.wav",70
Sample,50945,0,"_ki_004.wav",70
Sample,50945,0,"_kurasshu_006.wav",70
Sample,51007,0,"_dr_002.wav",70
Sample,51013,0,"_kurasshu_007.wav",70
Sample,51013,0,"_ki_005.wav",70
Sample,51075,0,"_dr_003.wav",70
Sample,51081,0,"_kurasshu_007.wav",70
Sample,51081,0,"_ki_006.wav",70
Sample,51148,0,"_kurasshu_008.wav",70
Sample,51148,0,"_ki_007.wav",70
Sample,51216,0,"_kurasshu_008.wav",70
Sample,51216,0,"_ki_008.wav",70
Sample,51216,0,"_dr_004.wav",70
Sample,51216,0,"_hat_000.wav",70
Sample,51283,0,"_kurasshu_008.wav",70
Sample,51283,0,"_ki_009.wav",70
Sample,51345,0,"_dr_005.wav",70
Sample,51351,0,"_kurasshu_009.wav",70
Sample,51351,0,"_sna_002.wav",70
Sample,51351,0,"_ki_010.wav",70
Sample,51413,0,"_dr_006.wav",70
Sample,51418,0,"_kurasshu_009.wav",70
Sample,51418,0,"_ki_011.wav",70
Sample,51480,0,"_dr_007.wav",70
Sample,51486,0,"_ki_012.wav",70
Sample,51486,0,"_hat_000.wav",70
Sample,51486,0,"_kurasshu_010.wav",70
Sample,51554,0,"_kurasshu_010.wav",70
Sample,51554,0,"_ki_013.wav",70
Sample,51615,0,"_dr_008.wav",70
Sample,51621,0,"_kurasshu_011.wav",70
Sample,51621,0,"_ki_014.wav",70
Sample,51689,0,"_kurasshu_011.wav",70
Sample,51689,0,"_ki_015.wav",70
Sample,51756,0,"_kurasshu_012.wav",70
Sample,51756,0,"_sna_002.wav",70
Sample,51756,0,"_hat_001.wav",70
Sample,51756,0,"_dr_009.wav",70
Sample,51756,0,"_ki_016.wav",70
Sample,51824,0,"_kurasshu_012.wav",70
Sample,51824,0,"_ki_017.wav",70
Sample,51891,0,"ld4x_091.wav",70
Sample,51891,0,"_dr_010.wav",70
Sample,51891,0,"pi3_084.wav",70
Sample,51891,0,"_ki_018.wav",70
Sample,51891,0,"ld4x_090.wav",70
Sample,51891,0,"pi3_083.wav",70
Sample,51891,0,"ld4x_092.wav",70
Sample,51891,0,"_kurasshu_013.wav",70
Sample,51959,0,"_kurasshu_013.wav",70
Sample,51959,0,"_ki_019.wav",70
Sample,52015,0,"_dr_011.wav",70
Sample,52027,0,"_hat_000.wav",70
Sample,52027,0,"_kurasshu_014.wav",70
Sample,52027,0,"_ki_020.wav",70
Sample,52027,0,"_sna_002.wav",70
Sample,52094,0,"_kurasshu_014.wav",70
Sample,52094,0,"_ki_021.wav",70
Sample,52156,0,"_dr_012.wav",70
Sample,52162,0,"_ki_022.wav",70
Sample,52162,0,"_sna_003.wav",70
Sample,52162,0,"_kurasshu_001.wav",70
Sample,52195,0,"_sna_004.wav",70
Sample,52229,0,"_sna_005.wav",70
Sample,52229,0,"_kurasshu_001.wav",70
Sample,52229,0,"_ki_023.wav",70
Sample,52263,0,"_sna_006.wav",70
Sample,52297,0,"_kurasshu_015.wav",70
Sample,52297,0,"_ki_024.wav",70
Sample,52297,0,"_hat_000.wav",70
Sample,52297,0,"_dr_013.wav",70
Sample,52297,0,"_sna_007.wav",70
Sample,52331,0,"_sna_008.wav",70
Sample,52364,0,"_ki_025.wav",70
Sample,52364,0,"_kurasshu_015.wav",70
Sample,52364,0,"_sna_009.wav",70
Sample,52398,0,"_sna_010.wav",70
Sample,52432,0,"_ki_026.wav",70
Sample,52432,0,"_dr_014.wav",70
Sample,52432,0,"piarp_042.wav",70
Sample,52432,0,"_sna_011.wav",70
Sample,52432,0,"_kurasshu_015.wav",70
Sample,52466,0,"_sna_012.wav",70
Sample,52494,0,"_dr_015.wav",70
Sample,52500,0,"_ki_027.wav",70
Sample,52500,0,"_sna_013.wav",70
Sample,52500,0,"_kurasshu_016.wav",70
Sample,52533,0,"_sna_014.wav",70
Sample,52533,0,"piarp_042.wav",70
Sample,52567,0,"_hat_000.wav",70
Sample,52567,0,"_sna_015.wav",70
Sample,52567,0,"_kurasshu_016.wav",70
Sample,52567,0,"_dr_016.wav",70
Sample,52567,0,"_ki_028.wav",70
Sample,52601,0,"_sna_016.wav",70
Sample,52629,0,"_dr_017.wav",70
Sample,52635,0,"_ki_029.wav",70
Sample,52635,0,"_kurasshu_017.wav",70
Sample,52635,0,"_sna_017.wav",70
Sample,52668,0,"_sna_018.wav",70
Sample,52697,0,"_dr_018.wav",70
Sample,52702,0,"_ki_030.wav",70
Sample,52702,0,"_kurasshu_017.wav",70
Sample,52702,0,"_sna_019.wav",70
Sample,52736,0,"_sna_020.wav",70
Sample,52770,0,"_sna_021.wav",70
Sample,52770,0,"_kurasshu_018.wav",70
Sample,52770,0,"_ki_031.wav",70
Sample,52770,0,"_dr_019.wav",70
Sample,52804,0,"_sna_022.wav",70
Sample,52837,0,"_dr_020.wav",70
Sample,52837,0,"_hat_001.wav",70
Sample,52837,0,"_ki_032.wav",70
Sample,52837,0,"_kurasshu_018.wav",70
Sample,52837,0,"_sna_023.wav",70
Sample,52871,0,"_sna_024.wav",70
Sample,52894,0,"_dr_021.wav",70
Sample,52905,0,"_ki_033.wav",70
Sample,52905,0,"_kurasshu_019.wav",70
Sample,52905,0,"_sna_025.wav",70
Sample,52939,0,"_sna_026.wav",70
Sample,53243,0,"ld4x_093.wav",70
Sample,53243,0,"pi2_000.wav",70
Sample,53243,0,"__sugokuiioto.wav",70
Sample,53243,0,"_dr_000.wav",70
Sample,53243,0,"ld4x_094.wav",70
Sample,53310,0,"pi2_005.wav",70
Sample,53378,0,"_kurasshu_020.wav",70
Sample,53378,0,"pi2_006.wav",70
Sample,53378,0,"_dr_001.wav",70
Sample,53440,0,"_dr_002.wav",70
Sample,53445,0,"pi2_007.wav",70
Sample,53507,0,"_dr_003.wav",70
Sample,53513,0,"pi2_008.wav",70
Sample,53581,0,"pi2_009.wav",70
Sample,53648,0,"pi2_010.wav",70
Sample,53648,0,"_kurasshu_020.wav",70
Sample,53648,0,"_dr_004.wav",70
Sample,53716,0,"pi2_011.wav",70
Sample,53778,0,"_dr_005.wav",70
Sample,53783,0,"pi2_012.wav",70
Sample,53845,0,"_dr_006.wav",70
Sample,53851,0,"pi2_013.wav",70
Sample,53913,0,"_dr_007.wav",70
Sample,53918,0,"pi2_014.wav",70
Sample,53918,0,"_kurasshu_020.wav",70
Sample,53986,0,"pi2_015.wav",70
Sample,54048,0,"_dr_008.wav",70
Sample,54054,0,"pi2_016.wav",70
Sample,54121,0,"pi2_017.wav",70
Sample,54189,0,"_kurasshu_020.wav",70
Sample,54189,0,"pi2_018.wav",70
Sample,54189,0,"_dr_009.wav",70
Sample,54256,0,"pi2_019.wav",70
Sample,54324,0,"pi2_020.wav",70
Sample,54324,0,"_dr_010.wav",70
Sample,54391,0,"pi2_019.wav",70
Sample,54448,0,"_dr_011.wav",70
Sample,54459,0,"pi2_017.wav",70
Sample,54459,0,"_kurasshu_020.wav",70
Sample,54527,0,"pi2_015.wav",70
Sample,54588,0,"_dr_012.wav",70
Sample,54594,0,"pi2_014.wav",70
Sample,54662,0,"pi2_021.wav",70
Sample,54729,0,"_kurasshu_020.wav",70
Sample,54729,0,"pi2_011.wav",70
Sample,54729,0,"_dr_013.wav",70
Sample,54797,0,"pi2_022.wav",70
Sample,54864,0,"pi2_021.wav",70
Sample,54864,0,"_dr_014.wav",70
Sample,54926,0,"_dr_015.wav",70
Sample,54932,0,"pi2_011.wav",70
Sample,55000,0,"_dr_016.wav",70
Sample,55000,0,"pi2_022.wav",70
Sample,55000,0,"_kurasshu_020.wav",70
Sample,55061,0,"_dr_017.wav",70
Sample,55067,0,"pi2_010.wav",70
Sample,55129,0,"_dr_018.wav",70
Sample,55135,0,"pi2_023.wav",70
Sample,55202,0,"_dr_019.wav",70
Sample,55202,0,"pi2_009.wav",70
Sample,55270,0,"pi2_024.wav",70
Sample,55270,0,"_kurasshu_020.wav",70
Sample,55270,0,"_dr_020.wav",70
Sample,55326,0,"_dr_021.wav",70
Sample,55337,0,"pi2_008.wav",70
Sample,55405,0,"pi2_025.wav",70
Sample,55405,0,"pi2_027.wav",70
Sample,55405,0,"pi2_026.wav",70
Sample,55405,0,"pi2_028.wav",70
Sample,55405,0,"_dr_000.wav",70
Sample,55472,0,"pi2_017.wav",70
Sample,55540,0,"pi2_015.wav",70
Sample,55540,0,"_kurasshu_020.wav",70
Sample,55540,0,"_dr_001.wav",70
Sample,55602,0,"_dr_002.wav",70
Sample,55608,0,"pi2_016.wav",70
Sample,55670,0,"_dr_003.wav",70
Sample,55675,0,"pi2_029.wav",70
Sample,55743,0,"pi2_015.wav",70
Sample,55810,0,"_kurasshu_020.wav",70
Sample,55810,0,"pi2_014.wav",70
Sample,55810,0,"_dr_004.wav",70
Sample,55878,0,"pi2_029.wav",70
Sample,55940,0,"_dr_005.wav",70
Sample,55945,0,"pi2_021.wav",70
Sample,56007,0,"_dr_006.wav",70
Sample,56013,0,"pi2_013.wav",70
Sample,56075,0,"_dr_007.wav",70
Sample,56081,0,"pi2_012.wav",70
Sample,56081,0,"_kurasshu_020.wav",70
Sample,56148,0,"pi2_021.wav",70
Sample,56210,0,"_dr_008.wav",70
Sample,56216,0,"pi2_010.wav",70
Sample,56283,0,"pi2_011.wav",70
Sample,56351,0,"_kurasshu_020.wav",70
Sample,56351,0,"_dr_009.wav",70
Sample,56351,0,"pi2_030.wav",70
Sample,56418,0,"pi2_010.wav",70
Sample,56486,0,"pi2_033.wav",70
Sample,56486,0,"pi2_031.wav",70
Sample,56486,0,"pi2_032.wav",70
Sample,56486,0,"_dr_010.wav",70
Sample,56486,0,"ld4x_095.wav",70
Sample,56554,0,"pi2_030.wav",70
Sample,56610,0,"_dr_011.wav",70
Sample,56621,0,"pi2_008.wav",70
Sample,56621,0,"_kurasshu_020.wav",70
Sample,56689,0,"pi2_009.wav",70
Sample,56751,0,"_dr_012.wav",70
Sample,56756,0,"pi2_007.wav",70
Sample,56824,0,"pi2_008.wav",70
Sample,56891,0,"_dr_013.wav",70
Sample,56891,0,"_kurasshu_020.wav",70
Sample,56891,0,"pi2_005.wav",70
Sample,56959,0,"pi2_006.wav",70
Sample,57027,0,"_dr_014.wav",70
Sample,57027,0,"pi2_034.wav",70
Sample,57088,0,"_dr_015.wav",70
Sample,57094,0,"pi2_035.wav",70
Sample,57162,0,"_kurasshu_020.wav",70
Sample,57162,0,"_dr_016.wav",70
Sample,57162,0,"pi2_036.wav",70
Sample,57224,0,"_dr_017.wav",70
Sample,57229,0,"pi2_005.wav",70
Sample,57291,0,"_dr_018.wav",70
Sample,57297,0,"pi2_000.wav",70
Sample,57364,0,"_dr_019.wav",70
Sample,57364,0,"pi2_005.wav",70
Sample,57432,0,"pi2_034.wav",70
Sample,57432,0,"_kurasshu_020.wav",70
Sample,57432,0,"_dr_020.wav",70
Sample,57488,0,"_dr_021.wav",70
Sample,57500,0,"pi2_006.wav",70
Sample,57567,0,"pi2_037.wav",70
Sample,57567,0,"pi2_039.wav",70
Sample,57567,0,"pi2_038.wav",70
Sample,57567,0,"ld4x_096.wav",70
Sample,57567,0,"_dr_000.wav",70
Sample,57635,0,"pi2_034.wav",70
Sample,57702,0,"pi2_005.wav",70
Sample,57702,0,"_dr_001.wav",70
Sample,57764,0,"_dr_002.wav",70
Sample,57770,0,"pi2_035.wav",70
Sample,57832,0,"_dr_003.wav",70
Sample,57837,0,"pi2_005.wav",70
Sample,57905,0,"pi2_034.wav",70
Sample,57972,0,"_dr_004.wav",70
Sample,57972,0,"pi2_035.wav",70
Sample,58040,0,"pi2_007.wav",70
Sample,58102,0,"_dr_005.wav",70
Sample,58108,0,"pi2_006.wav",70
Sample,58170,0,"_dr_006.wav",70
Sample,58175,0,"pi2_005.wav",70
Sample,58237,0,"_dr_007.wav",70
Sample,58243,0,"pi2_035.wav",70
Sample,58310,0,"pi2_007.wav",70
Sample,58372,0,"_dr_008.wav",70
Sample,58378,0,"pi2_040.wav",70
Sample,58445,0,"pi2_007.wav",70
Sample,58513,0,"_dr_009.wav",70
Sample,58513,0,"pi2_008.wav",70
Sample,58581,0,"pi2_009.wav",70
Sample,58648,0,"_dr_010.wav",70
Sample,58648,0,"pi2_023.wav",70
Sample,58716,0,"pi2_030.wav",70
Sample,58772,0,"_dr_011.wav",70
Sample,58783,0,"pi2_023.wav",70
Sample,58851,0,"pi2_010.wav",70
Sample,58913,0,"_dr_012.wav",70
Sample,58918,0,"pi2_022.wav",70
Sample,58986,0,"pi2_011.wav",70
Sample,59054,0,"_dr_013.wav",70
Sample,59054,0,"pi2_010.wav",70
Sample,59121,0,"pi2_022.wav",70
Sample,59189,0,"_dr_014.wav",70
Sample,59189,0,"pi2_012.wav",70
Sample,59189,0,"ld4x_097.wav",70
Sample,59251,0,"_dr_015.wav",70
Sample,59256,0,"pi2_011.wav",70
Sample,59324,0,"_dr_016.wav",70
Sample,59324,0,"pi2_012.wav",70
Sample,59386,0,"_dr_017.wav",70
Sample,59391,0,"pi2_021.wav",70
Sample,59453,0,"_dr_018.wav",70
Sample,59459,0,"pi2_013.wav",70
Sample,59527,0,"_dr_019.wav",70
Sample,59527,0,"pi2_014.wav",70
Sample,59594,0,"pi2_016.wav",70
Sample,59594,0,"_dr_020.wav",70
Sample,59650,0,"_dr_021.wav",70
Sample,59662,0,"pi2_017.wav",70
Sample,59729,0,"pi2_023.wav",70
Sample,59729,0,"pi2_042.wav",70
Sample,59729,0,"pi2_039.wav",70
Sample,59729,0,"pi2_016.wav",70
Sample,59729,0,"pi2_041.wav",70
Sample,59729,0,"_dr_000.wav",70
Sample,59797,0,"pi2_017.wav",70
Sample,59864,0,"_dr_001.wav",70
Sample,59864,0,"pi2_016.wav",70
Sample,59926,0,"_dr_002.wav",70
Sample,59932,0,"pi2_029.wav",70
Sample,59994,0,"_dr_003.wav",70
Sample,60000,0,"pi2_016.wav",70
Sample,60000,0,"pi2_023.wav",70
Sample,60000,0,"pi2_013.wav",70
Sample,60067,0,"pi2_017.wav",70
Sample,60067,0,"pi2_021.wav",70
Sample,60135,0,"pi2_011.wav",70
Sample,60135,0,"_dr_004.wav",70
Sample,60135,0,"pi2_016.wav",70
Sample,60202,0,"pi2_010.wav",70
Sample,60202,0,"pi2_029.wav",70
Sample,60264,0,"_dr_005.wav",70
Sample,60270,0,"pi2_023.wav",70
Sample,60270,0,"pi2_013.wav",70
Sample,60270,0,"pi2_016.wav",70
Sample,60332,0,"_dr_006.wav",70
Sample,60337,0,"pi2_017.wav",70
Sample,60337,0,"pi2_021.wav",70
Sample,60399,0,"_dr_007.wav",70
Sample,60405,0,"pi2_016.wav",70
Sample,60405,0,"pi2_011.wav",70
Sample,60472,0,"pi2_010.wav",70
Sample,60472,0,"pi2_029.wav",70
Sample,60534,0,"_dr_008.wav",70
Sample,60540,0,"pi2_013.wav",70
Sample,60540,0,"pi2_023.wav",70
Sample,60540,0,"pi2_019.wav",70
Sample,60608,0,"pi2_021.wav",70
Sample,60608,0,"pi2_017.wav",70
Sample,60675,0,"pi2_016.wav",70
Sample,60675,0,"_dr_009.wav",70
Sample,60675,0,"pi2_011.wav",70
Sample,60743,0,"pi2_029.wav",70
Sample,60743,0,"pi2_010.wav",70
Sample,60810,0,"_dr_010.wav",70
Sample,60810,0,"pi2_021.wav",70
Sample,60810,0,"ld4x_098.wav",70
Sample,60878,0,"pi2_011.wav",70
Sample,60934,0,"_dr_011.wav",70
Sample,60945,0,"pi2_010.wav",70
Sample,61013,0,"pi2_009.wav",70
Sample,61075,0,"_dr_012.wav",70
Sample,61081,0,"pi2_008.wav",70
Sample,61148,0,"pi2_040.wav",70
Sample,61216,0,"_dr_013.wav",70
Sample,61216,0,"pi2_007.wav",70
Sample,61283,0,"pi2_006.wav",70
Sample,61351,0,"_dr_014.wav",70
Sample,61351,0,"pi2_035.wav",70
Sample,61413,0,"_dr_015.wav",70
Sample,61418,0,"pi2_005.wav",70
Sample,61486,0,"pi2_036.wav",70
Sample,61486,0,"_dr_016.wav",70
Sample,61548,0,"_dr_017.wav",70
Sample,61554,0,"pi2_000.wav",70
Sample,61615,0,"_dr_018.wav",70
Sample,61621,0,"pi2_043.wav",70
Sample,61689,0,"_dr_019.wav",70
Sample,61689,0,"pi2_044.wav",70
Sample,61756,0,"pi2_045.wav",70
Sample,61756,0,"_dr_020.wav",70
Sample,61813,0,"_dr_021.wav",70
Sample,61824,0,"pi2_046.wav",70
Sample,61891,0,"ld4x_099.wav",70
Sample,61891,0,"pi2_047.wav",70
Sample,61891,0,"pi2_037.wav",70
Sample,61959,0,"pi2_044.wav",70
Sample,62027,0,"pi2_048.wav",70
Sample,62027,0,"_kurasshu_020.wav",70
Sample,62088,0,"_dr_002.wav",70
Sample,62094,0,"pi2_036.wav",70
Sample,62162,0,"pi2_034.wav",70
Sample,62229,0,"pi2_048.wav",70
Sample,62297,0,"pi2_005.wav",70
Sample,62297,0,"_kurasshu_020.wav",70
Sample,62364,0,"pi2_035.wav",70
Sample,62432,0,"pi2_006.wav",70
Sample,62494,0,"_dr_006.wav",70
Sample,62500,0,"pi2_007.wav",70
Sample,62567,0,"pi2_049.wav",70
Sample,62567,0,"_kurasshu_020.wav",70
Sample,62635,0,"pi2_040.wav",70
Sample,62702,0,"pi2_024.wav",70
Sample,62770,0,"pi2_009.wav",70
Sample,62837,0,"pi2_030.wav",70
Sample,62837,0,"_kurasshu_020.wav",70
Sample,62905,0,"pi2_024.wav",70
Sample,62972,0,"pi2_023.wav",70
Sample,63040,0,"pi2_030.wav",70
Sample,63108,0,"pi2_022.wav",70
Sample,63108,0,"_kurasshu_020.wav",70
Sample,63175,0,"pi2_011.wav",70
Sample,63243,0,"pi2_012.wav",70
Sample,63310,0,"pi2_021.wav",70
Sample,63378,0,"pi2_013.wav",70
Sample,63378,0,"_kurasshu_020.wav",70
Sample,63445,0,"pi2_029.wav",70
Sample,63513,0,"pi2_014.wav",70
Sample,63581,0,"pi2_015.wav",70
Sample,63648,0,"pi2_016.wav",70
Sample,63648,0,"_kurasshu_020.wav",70
Sample,63716,0,"pi2_050.wav",70
Sample,63783,0,"pi2_017.wav",70
Sample,63851,0,"pi2_050.wav",70
Sample,63918,0,"pi2_018.wav",70
Sample,63918,0,"_kurasshu_020.wav",70
Sample,63986,0,"pi2_050.wav",70
Sample,64054,0,"pi2_017.wav",70
Sample,64121,0,"pi2_015.wav",70
Sample,64189,0,"pi2_016.wav",70
Sample,64251,0,"_dr_002.wav",70
Sample,64256,0,"pi2_014.wav",70
Sample,64324,0,"pi2_050.wav",70
Sample,64391,0,"pi2_014.wav",70
Sample,64459,0,"pi2_016.wav",70
Sample,64527,0,"pi2_021.wav",70
Sample,64594,0,"pi2_014.wav",70
Sample,64656,0,"_dr_006.wav",70
Sample,64662,0,"pi2_021.wav",70
Sample,64729,0,"pi2_013.wav",70
Sample,64797,0,"pi2_022.wav",70
Sample,64864,0,"pi2_012.wav",70
Sample,64932,0,"pi2_013.wav",70
Sample,65000,0,"pi2_014.wav",70
Sample,65067,0,"pi2_013.wav",70
Sample,65135,0,"pi2_012.wav",70
Sample,65202,0,"pi2_011.wav",70
Sample,65270,0,"pi2_030.wav",70
Sample,65337,0,"pi2_023.wav",70
Sample,65405,0,"pi2_024.wav",70
Sample,65405,0,"pi2_006.wav",70
Sample,65472,0,"pi2_035.wav",70
Sample,65472,0,"pi2_008.wav",70
Sample,65540,0,"pi2_040.wav",70
Sample,65540,0,"pi2_005.wav",70
Sample,65608,0,"pi2_034.wav",70
Sample,65608,0,"pi2_007.wav",70
Sample,65675,0,"pi2_006.wav",70
Sample,65675,0,"pi2_036.wav",70
Sample,65743,0,"pi2_048.wav",70
Sample,65743,0,"pi2_035.wav",70
Sample,65810,0,"pi2_005.wav",70
Sample,65810,0,"pi2_000.wav",70
Sample,65878,0,"pi2_043.wav",70
Sample,65878,0,"pi2_034.wav",70
Sample,65945,0,"pi2_044.wav",70
Sample,65945,0,"pi2_036.wav",70
Sample,66013,0,"pi2_034.wav",70
Sample,66013,0,"pi2_045.wav",70
Sample,66081,0,"pi2_046.wav",70
Sample,66081,0,"pi2_048.wav",70
Sample,66148,0,"pi2_034.wav",70
Sample,66148,0,"pi2_051.wav",70
Sample,66216,0,"pi2_036.wav",70
Sample,66216,0,"pd2_016.wav",70
Sample,66216,0,"pi2_052.wav",70
Sample,66216,0,"ld4x_100.wav",70
Sample,66216,0,"pd2_006.wav",70
Sample,66283,0,"pi2_005.wav",70
Sample,66351,0,"pi2_034.wav",70
Sample,66418,0,"pi2_035.wav",70
Sample,66486,0,"_sna_000.wav",70
Sample,66486,0,"pi2_006.wav",70
Sample,66554,0,"pi2_007.wav",70
Sample,66621,0,"pi2_008.wav",70
Sample,66689,0,"pi2_007.wav",70
Sample,66756,0,"pd2_004.wav",70
Sample,66756,0,"pi2_024.wav",70
Sample,66824,0,"pi2_008.wav",70
Sample,66891,0,"pi2_023.wav",70
Sample,66959,0,"pi2_024.wav",70
Sample,67027,0,"pi2_009.wav",70
Sample,67027,0,"_sna_001.wav",70
Sample,67094,0,"pi2_023.wav",70
Sample,67162,0,"pi2_008.wav",70
Sample,67229,0,"pi2_010.wav",70
Sample,67297,0,"pi2_030.wav",70
Sample,67297,0,"pd2_009.wav",70
Sample,67364,0,"pi2_023.wav",70
Sample,67432,0,"pi2_010.wav",70
Sample,67500,0,"pi2_022.wav",70
Sample,67567,0,"pi2_011.wav",70
Sample,67567,0,"_sna_000.wav",70
Sample,67635,0,"pi2_022.wav",70
Sample,67702,0,"pi2_012.wav",70
Sample,67770,0,"pi2_021.wav",70
Sample,67837,0,"pd2_002.wav",70
Sample,67837,0,"pi2_013.wav",70
Sample,67837,0,"_ki_034.wav",70
Sample,67905,0,"pi2_014.wav",70
Sample,67972,0,"_kurasshu_020.wav",70
Sample,67972,0,"pi2_021.wav",70
Sample,68040,0,"pi2_013.wav",70
Sample,68108,0,"pi2_014.wav",70
Sample,68108,0,"_sna_001.wav",70
Sample,68108,0,"_ki_034.wav",70
Sample,68175,0,"pi2_029.wav",70
Sample,68243,0,"pi2_015.wav",70
Sample,68243,0,"_kurasshu_020.wav",70
Sample,68310,0,"pi2_016.wav",70
Sample,68378,0,"pd2_017.wav",70
Sample,68378,0,"pi2_050.wav",70
Sample,68378,0,"pi2_053.wav",70
Sample,68378,0,"pd2_009.wav",70
Sample,68378,0,"pd2_018.wav",70
Sample,68412,0,"pi2_054.wav",70
Sample,68445,0,"pi2_055.wav",70
Sample,68479,0,"pi2_056.wav",70
Sample,68513,0,"pi2_057.wav",70
Sample,68547,0,"pi2_058.wav",70
Sample,68581,0,"pi2_059.wav",70
Sample,68614,0,"pi2_060.wav",70
Sample,68648,0,"pi2_061.wav",70
Sample,68648,0,"pi2_064.wav",70
Sample,68648,0,"_sna_000.wav",70
Sample,68648,0,"pi2_062.wav",70
Sample,68648,0,"pi2_065.wav",70
Sample,68648,0,"pi2_063.wav",70
Sample,68918,0,"pi2_021.wav",70
Sample,68918,0,"pd2_002.wav",70
Sample,68918,0,"pi2_030.wav",70
Sample,68918,0,"pi2_009.wav",70
Sample,68918,0,"pi2_017.wav",70
Sample,68986,0,"pi2_016.wav",70
Sample,69054,0,"pi2_029.wav",70
Sample,69121,0,"pi2_013.wav",70
Sample,69189,0,"pi2_021.wav",70
Sample,69189,0,"_sna_001.wav",70
Sample,69256,0,"pi2_011.wav",70
Sample,69324,0,"pi2_010.wav",70
Sample,69391,0,"pi2_009.wav",70
Sample,69459,0,"pi2_024.wav",70
Sample,69459,0,"pd2_020.wav",70
Sample,69459,0,"pd2_019.wav",70
Sample,69459,0,"pd2_018.wav",70
Sample,69527,0,"pi2_008.wav",70
Sample,69594,0,"pi2_007.wav",70
Sample,69662,0,"pi2_006.wav",70
Sample,69729,0,"_sna_000.wav",70
Sample,69729,0,"pi2_005.wav",70
Sample,69797,0,"pi2_036.wav",70
Sample,69864,0,"pi2_048.wav",70
Sample,69932,0,"pi2_043.wav",70
Sample,70000,0,"pd2_021.wav",70
Sample,70000,0,"pi2_007.wav",70
Sample,70067,0,"pi2_035.wav",70
Sample,70135,0,"pi2_034.wav",70
Sample,70202,0,"pi2_036.wav",70
Sample,70270,0,"pi2_048.wav",70
Sample,70270,0,"_sna_001.wav",70
Sample,70337,0,"pi2_000.wav",70
Sample,70405,0,"pi2_043.wav",70
Sample,70472,0,"pi2_045.wav",70
Sample,70540,0,"pd2_000.wav",70
Sample,70540,0,"ld4x_097.wav",70
Sample,70540,0,"_ki_034.wav",70
Sample,70540,0,"hue_000.wav",70
Sample,70540,0,"_dr_000.wav",70
Sample,70675,0,"_dr_001.wav",70
Sample,70675,0,"_kurasshu_020.wav",70
Sample,70737,0,"_dr_002.wav",70
Sample,70805,0,"_dr_003.wav",70
Sample,70810,0,"_ki_034.wav",70
Sample,70810,0,"_sna_000.wav",70
Sample,70945,0,"_dr_004.wav",70
Sample,70945,0,"_kurasshu_020.wav",70
Sample,71075,0,"_dr_005.wav",70
Sample,71081,0,"_ki_034.wav",70
Sample,71081,0,"pd2_001.wav",70
Sample,71143,0,"_dr_006.wav",70
Sample,71210,0,"_dr_007.wav",70
Sample,71216,0,"_kurasshu_020.wav",70
Sample,71345,0,"_dr_008.wav",70
Sample,71351,0,"_sna_001.wav",70
Sample,71351,0,"_ki_034.wav",70
Sample,71486,0,"_kurasshu_020.wav",70
Sample,71486,0,"_dr_009.wav",70
Sample,71621,0,"_ki_034.wav",70
Sample,71621,0,"pd2_005.wav",70
Sample,71621,0,"_dr_010.wav",70
Sample,71745,0,"_dr_011.wav",70
Sample,71756,0,"_kurasshu_020.wav",70
Sample,71886,0,"_dr_012.wav",70
Sample,71891,0,"_ki_034.wav",70
Sample,71891,0,"_sna_000.wav",70
Sample,72027,0,"_kurasshu_020.wav",70
Sample,72027,0,"_dr_013.wav",70
Sample,72162,0,"_ki_034.wav",70
Sample,72162,0,"pi2_075.wav",70
Sample,72162,0,"pd2_002.wav",70
Sample,72162,0,"ld4x_096.wav",70
Sample,72162,0,"_dr_014.wav",70
Sample,72162,0,"hue_001.wav",70
Sample,72162,0,"pi2_074.wav",70
Sample,72224,0,"_dr_015.wav",70
Sample,72297,0,"_kurasshu_020.wav",70
Sample,72297,0,"_dr_016.wav",70
Sample,72359,0,"_dr_017.wav",70
Sample,72426,0,"_dr_018.wav",70
Sample,72432,0,"_sna_001.wav",70
Sample,72432,0,"pi2_073.wav",70
Sample,72432,0,"pi2_074.wav",70
Sample,72432,0,"_ki_034.wav",70
Sample,72500,0,"_dr_019.wav",70
Sample,72567,0,"_kurasshu_020.wav",70
Sample,72567,0,"_dr_020.wav",70
Sample,72623,0,"_dr_021.wav",70
Sample,72702,0,"_ki_034.wav",70
Sample,72702,0,"pd2_003.wav",70
Sample,72702,0,"_dr_000.wav",70
Sample,72837,0,"_dr_001.wav",70
Sample,72837,0,"_kurasshu_020.wav",70
Sample,72899,0,"_dr_002.wav",70
Sample,72967,0,"_dr_003.wav",70
Sample,72972,0,"_ki_034.wav",70
Sample,72972,0,"_sna_000.wav",70
Sample,73108,0,"_dr_004.wav",70
Sample,73108,0,"_kurasshu_020.wav",70
Sample,73237,0,"_dr_005.wav",70
Sample,73243,0,"_ki_034.wav",70
Sample,73243,0,"pd2_002.wav",70
Sample,73305,0,"_dr_006.wav",70
Sample,73372,0,"_dr_007.wav",70
Sample,73378,0,"_kurasshu_020.wav",70
Sample,73507,0,"_dr_008.wav",70
Sample,73513,0,"_ki_034.wav",70
Sample,73513,0,"_sna_001.wav",70
Sample,73648,0,"_kurasshu_020.wav",70
Sample,73648,0,"_dr_009.wav",70
Sample,73783,0,"pd2_004.wav",70
Sample,73783,0,"ld4x_095.wav",70
Sample,73783,0,"_ki_034.wav",70
Sample,73783,0,"hue_002.wav",70
Sample,73783,0,"_dr_010.wav",70
Sample,73907,0,"_dr_011.wav",70
Sample,73918,0,"_kurasshu_020.wav",70
Sample,74048,0,"_dr_012.wav",70
Sample,74054,0,"_sna_000.wav",70
Sample,74054,0,"_ki_034.wav",70
Sample,74189,0,"_dr_013.wav",70
Sample,74189,0,"_kurasshu_020.wav",70
Sample,74324,0,"pd2_001.wav",70
Sample,74324,0,"_dr_014.wav",70
Sample,74324,0,"_ki_034.wav",70
Sample,74386,0,"_dr_015.wav",70
Sample,74459,0,"_dr_016.wav",70
Sample,74459,0,"_kurasshu_020.wav",70
Sample,74521,0,"_dr_017.wav",70
Sample,74588,0,"_dr_018.wav",70
Sample,74594,0,"_sna_001.wav",70
Sample,74594,0,"_ki_034.wav",70
Sample,74662,0,"_dr_019.wav",70
Sample,74729,0,"_dr_020.wav",70
Sample,74729,0,"_kurasshu_020.wav",70
Sample,74786,0,"_dr_021.wav",70
Sample,74864,0,"pd2_022.wav",70
Sample,74864,0,"ld4x_101.wav",70
Sample,74864,0,"_ki_034.wav",70
Sample,74864,0,"hue_003.wav",70
Sample,74864,0,"_dr_000.wav",70
Sample,75000,0,"_dr_001.wav",70
Sample,75000,0,"_kurasshu_020.wav",70
Sample,75061,0,"_dr_002.wav",70
Sample,75129,0,"_dr_003.wav",70
Sample,75135,0,"_ki_034.wav",70
Sample,75135,0,"_sna_000.wav",70
Sample,75270,0,"_dr_004.wav",70
Sample,75270,0,"_kurasshu_020.wav",70
Sample,75399,0,"_dr_005.wav",70
Sample,75405,0,"_ki_034.wav",70
Sample,75405,0,"pd2_008.wav",70
Sample,75467,0,"_dr_006.wav",70
Sample,75534,0,"_dr_007.wav",70
Sample,75540,0,"_kurasshu_020.wav",70
Sample,75670,0,"_dr_008.wav",70
Sample,75675,0,"_ki_034.wav",70
Sample,75675,0,"_sna_001.wav",70
Sample,75810,0,"_kurasshu_020.wav",70
Sample,75810,0,"_dr_009.wav",70
Sample,75945,0,"_ki_034.wav",70
Sample,75945,0,"pd2_004.wav",70
Sample,75945,0,"_dr_010.wav",70
Sample,76069,0,"_dr_011.wav",70
Sample,76081,0,"_kurasshu_020.wav",70
Sample,76210,0,"_dr_012.wav",70
Sample,76216,0,"_sna_000.wav",70
Sample,76216,0,"_ki_034.wav",70
Sample,76351,0,"_kurasshu_020.wav",70
Sample,76351,0,"_dr_013.wav",70
Sample,76486,0,"_ki_034.wav",70
Sample,76486,0,"ld4x_102.wav",70
Sample,76486,0,"pd2_003.wav",70
Sample,76486,0,"hue_004.wav",70
Sample,76486,0,"_dr_014.wav",70
Sample,76548,0,"_dr_015.wav",70
Sample,76621,0,"_dr_016.wav",70
Sample,76621,0,"_kurasshu_020.wav",70
Sample,76683,0,"_dr_017.wav",70
Sample,76751,0,"_dr_018.wav",70
Sample,76756,0,"_ki_034.wav",70
Sample,76756,0,"_sna_001.wav",70
Sample,76824,0,"_dr_019.wav",70
Sample,76891,0,"_dr_020.wav",70
Sample,76891,0,"_kurasshu_020.wav",70
Sample,76948,0,"_dr_021.wav",70
Sample,77027,0,"_ki_034.wav",70
Sample,77027,0,"pd2_011.wav",70
Sample,77027,0,"pd2_017.wav",70
Sample,77027,0,"_dr_000.wav",70
Sample,77162,0,"_kurasshu_020.wav",70
Sample,77162,0,"_dr_001.wav",70
Sample,77224,0,"_dr_002.wav",70
Sample,77291,0,"_dr_003.wav",70
Sample,77297,0,"_sna_000.wav",70
Sample,77297,0,"_ki_034.wav",70
Sample,77432,0,"_kurasshu_020.wav",70
Sample,77432,0,"_dr_004.wav",70
Sample,77561,0,"_dr_005.wav",70
Sample,77567,0,"pd2_002.wav",70
Sample,77567,0,"_ki_034.wav",70
Sample,77629,0,"_dr_006.wav",70
Sample,77697,0,"_dr_007.wav",70
Sample,77702,0,"_kurasshu_020.wav",70
Sample,77832,0,"_dr_008.wav",70
Sample,77837,0,"_ki_034.wav",70
Sample,77837,0,"_sna_001.wav",70
Sample,77972,0,"_dr_009.wav",70
Sample,77972,0,"_kurasshu_020.wav",70
Sample,78108,0,"__hyuooooooooo.wav",70
Sample,78108,0,"_ki_034.wav",70
Sample,78108,0,"pd2_020.wav",70
Sample,78108,0,"ld4x_095.wav",70
Sample,78108,0,"_dr_010.wav",70
Sample,78108,0,"hue_005.wav",70
Sample,78108,0,"ld4x_098.wav",70
Sample,78108,0,"pd2_003.wav",70
Sample,78231,0,"_dr_011.wav",70
Sample,78243,0,"_kurasshu_020.wav",70
Sample,78372,0,"_dr_012.wav",70
Sample,78378,0,"_sna_000.wav",70
Sample,78378,0,"_ki_034.wav",70
Sample,78513,0,"_dr_013.wav",70
Sample,78513,0,"_kurasshu_020.wav",70
Sample,78648,0,"_dr_014.wav",70
Sample,78648,0,"_ki_034.wav",70
Sample,78648,0,"pd2_004.wav",70
Sample,78710,0,"_dr_015.wav",70
Sample,78783,0,"_dr_016.wav",70
Sample,78783,0,"_kurasshu_020.wav",70
Sample,78845,0,"_dr_017.wav",70
Sample,78913,0,"_dr_018.wav",70
Sample,78918,0,"_sna_001.wav",70
Sample,78918,0,"_ki_034.wav",70
Sample,78986,0,"_dr_019.wav",70
Sample,79054,0,"_kurasshu_020.wav",70
Sample,79054,0,"_dr_020.wav",70
Sample,79110,0,"_dr_021.wav",70
Sample,79189,0,"pd2_015.wav",70
Sample,79189,0,"ld4x_099.wav",70
Sample,79189,0,"ld4x_103.wav",70
Sample,79189,0,"hue_007.wav",70
Sample,79189,0,"_dr_000.wav",70
Sample,79189,0,"_ki_034.wav",70
Sample,79324,0,"_dr_001.wav",70
Sample,79324,0,"_kurasshu_020.wav",70
Sample,79386,0,"_dr_002.wav",70
Sample,79453,0,"_dr_003.wav",70
Sample,79459,0,"_ki_034.wav",70
Sample,79459,0,"_sna_000.wav",70
Sample,79594,0,"_dr_004.wav",70
Sample,79594,0,"_kurasshu_020.wav",70
Sample,79724,0,"_dr_005.wav",70
Sample,79729,0,"pd2_010.wav",70
Sample,79729,0,"_ki_034.wav",70
Sample,79791,0,"_dr_006.wav",70
Sample,79859,0,"_dr_007.wav",70
Sample,79864,0,"_kurasshu_020.wav",70
Sample,79994,0,"_dr_008.wav",70
Sample,80000,0,"_sna_001.wav",70
Sample,80000,0,"_ki_034.wav",70
Sample,80135,0,"_dr_009.wav",70
Sample,80135,0,"_kurasshu_020.wav",70
Sample,80270,0,"pd2_006.wav",70
Sample,80270,0,"_ki_034.wav",70
Sample,80270,0,"_dr_010.wav",70
Sample,80394,0,"_dr_011.wav",70
Sample,80405,0,"_kurasshu_020.wav",70
Sample,80534,0,"_dr_012.wav",70
Sample,80540,0,"_sna_000.wav",70
Sample,80540,0,"_ki_034.wav",70
Sample,80675,0,"_kurasshu_020.wav",70
Sample,80675,0,"_dr_013.wav",70
Sample,80810,0,"_ki_034.wav",70
Sample,80810,0,"pd2_003.wav",70
Sample,80810,0,"pi2_117.wav",70
Sample,80810,0,"_dr_014.wav",70
Sample,80872,0,"_dr_015.wav",70
Sample,80945,0,"_dr_016.wav",70
Sample,80945,0,"_kurasshu_020.wav",70
Sample,81007,0,"_dr_017.wav",70
Sample,81075,0,"_dr_018.wav",70
Sample,81081,0,"_sna_001.wav",70
Sample,81081,0,"_ki_034.wav",70
Sample,81148,0,"_dr_019.wav",70
Sample,81216,0,"_kurasshu_020.wav",70
Sample,81216,0,"_dr_020.wav",70
Sample,81272,0,"_dr_021.wav",70
Sample,81351,0,"_ki_034.wav",70
Sample,81351,0,"pi2_117.wav",70
Sample,81351,0,"_dr_000.wav",70
Sample,81351,0,"pd2_011.wav",70
Sample,81486,0,"_kurasshu_020.wav",70
Sample,81486,0,"_dr_001.wav",70
Sample,81548,0,"_dr_002.wav",70
Sample,81615,0,"_dr_003.wav",70
Sample,81621,0,"_sna_000.wav",70
Sample,81621,0,"_ki_034.wav",70
Sample,81756,0,"_dr_004.wav",70
Sample,81756,0,"_kurasshu_020.wav",70
Sample,81756,0,"pi2_118.wav",70
Sample,81886,0,"_dr_005.wav",70
Sample,81891,0,"pd2_023.wav",70
Sample,81891,0,"_ki_034.wav",70
Sample,81953,0,"_dr_006.wav",70
Sample,82021,0,"_dr_007.wav",70
Sample,82027,0,"pi2_119.wav",70
Sample,82027,0,"_kurasshu_020.wav",70
Sample,82156,0,"_dr_008.wav",70
Sample,82162,0,"_ki_034.wav",70
Sample,82162,0,"_sna_001.wav",70
Sample,82297,0,"_dr_009.wav",70
Sample,82297,0,"_kurasshu_020.wav",70
Sample,82432,0,"_ki_034.wav",70
Sample,82432,0,"_dr_010.wav",70
Sample,82432,0,"pd2_024.wav",70
Sample,82556,0,"_dr_011.wav",70
Sample,82567,0,"_kurasshu_020.wav",70
Sample,82697,0,"_dr_012.wav",70
Sample,82702,0,"_ki_034.wav",70
Sample,82702,0,"_sna_000.wav",70
Sample,82837,0,"_dr_013.wav",70
Sample,82837,0,"_kurasshu_020.wav",70
Sample,82972,0,"pd2_010.wav",70
Sample,82972,0,"_dr_014.wav",70
Sample,82972,0,"_ki_034.wav",70
Sample,83034,0,"_dr_015.wav",70
Sample,83108,0,"_kurasshu_020.wav",70
Sample,83108,0,"_dr_016.wav",70
Sample,83170,0,"_dr_017.wav",70
Sample,83237,0,"_dr_018.wav",70
Sample,83243,0,"_sna_001.wav",70
Sample,83243,0,"_ki_034.wav",70
Sample,83310,0,"_dr_019.wav",70
Sample,83378,0,"_kurasshu_020.wav",70
Sample,83378,0,"_dr_020.wav",70
Sample,83434,0,"_dr_021.wav",70
Sample,83513,0,"hue_008.wav",70
Sample,83513,0,"pd2_025.wav",70
Sample,83513,0,"_ki_034.wav",70
Sample,83513,0,"_dr_000.wav",70
Sample,83513,0,"ld4x_096.wav",70
Sample,83648,0,"_dr_001.wav",70
Sample,83648,0,"_kurasshu_020.wav",70
Sample,83710,0,"_dr_002.wav",70
Sample,83778,0,"_dr_003.wav",70
Sample,83783,0,"_ki_034.wav",70
Sample,83783,0,"_sna_000.wav",70
Sample,83918,0,"_dr_004.wav",70
Sample,83918,0,"_kurasshu_020.wav",70
Sample,84048,0,"_dr_005.wav",70
Sample,84054,0,"pd2_010.wav",70
Sample,84054,0,"_ki_034.wav",70
Sample,84115,0,"_dr_006.wav",70
Sample,84183,0,"_dr_007.wav",70
Sample,84189,0,"_kurasshu_020.wav",70
Sample,84318,0,"_dr_008.wav",70
Sample,84324,0,"_ki_034.wav",70
Sample,84324,0,"_sna_001.wav",70
Sample,84459,0,"_dr_009.wav",70
Sample,84459,0,"_kurasshu_020.wav",70
Sample,84594,0,"_ki_034.wav",70
Sample,84594,0,"hue_009.wav",70
Sample,84594,0,"_dr_010.wav",70
Sample,84594,0,"pd2_006.wav",70
Sample,84718,0,"_dr_011.wav",70
Sample,84729,0,"_kurasshu_020.wav",70
Sample,84859,0,"_dr_012.wav",70
Sample,84864,0,"_ki_034.wav",70
Sample,84864,0,"_sna_000.wav",70
Sample,85000,0,"_dr_013.wav",70
Sample,85000,0,"_kurasshu_020.wav",70
Sample,85135,0,"ld4x_096.wav",70
Sample,85135,0,"_dr_014.wav",70
Sample,85135,0,"_ki_034.wav",70
Sample,85135,0,"hue_010.wav",70
Sample,85135,0,"pd2_004.wav",70
Sample,85197,0,"_dr_015.wav",70
Sample,85270,0,"_dr_016.wav",70
Sample,85270,0,"_kurasshu_020.wav",70
Sample,85332,0,"_dr_017.wav",70
Sample,85399,0,"_dr_018.wav",70
Sample,85405,0,"pi2_059.wav",70
Sample,85405,0,"_sna_001.wav",70
Sample,85405,0,"_ki_034.wav",70
Sample,85472,0,"_dr_019.wav",70
Sample,85540,0,"hue_011.wav",70
Sample,85540,0,"_dr_020.wav",70
Sample,85540,0,"_kurasshu_020.wav",70
Sample,85596,0,"_dr_021.wav",70
Sample,85675,0,"_ki_034.wav",70
Sample,85675,0,"pd2_003.wav",70
Sample,85675,0,"_dr_000.wav",70
Sample,85765,0,"pi2_144.wav",70
Sample,85810,0,"_kurasshu_020.wav",70
Sample,85810,0,"_dr_001.wav",70
Sample,85872,0,"_dr_002.wav",70
Sample,85900,0,"pi2_147.wav",70
Sample,85940,0,"_dr_003.wav",70
Sample,85945,0,"_sna_000.wav",70
Sample,85945,0,"_ki_034.wav",70
Sample,86036,0,"pi2_149.wav",70
Sample,86081,0,"_kurasshu_020.wav",70
Sample,86081,0,"_dr_004.wav",70
Sample,86171,0,"pi2_152.wav",70
Sample,86210,0,"_dr_005.wav",70
Sample,86216,0,"_ki_034.wav",70
Sample,86216,0,"pd2_004.wav",70
Sample,86278,0,"_dr_006.wav",70
Sample,86306,0,"pi2_155.wav",70
Sample,86345,0,"_dr_007.wav",70
Sample,86351,0,"_kurasshu_020.wav",70
Sample,86441,0,"pi2_158.wav",70
Sample,86480,0,"_dr_008.wav",70
Sample,86486,0,"_sna_001.wav",70
Sample,86486,0,"_ki_034.wav",70
Sample,86576,0,"pi2_162.wav",70
Sample,86621,0,"_kurasshu_020.wav",70
Sample,86621,0,"_dr_009.wav",70
Sample,86711,0,"pi2_166.wav",70
Sample,86756,0,"pi2_168.wav",70
Sample,86756,0,"pd2_017.wav",70
Sample,86756,0,"pi2_074.wav",70
Sample,86756,0,"_ki_034.wav",70
Sample,86756,0,"pi2_169.wav",70
Sample,86756,0,"hue_012.wav",70
Sample,86756,0,"_dr_010.wav",70
Sample,86756,0,"ld4x_098.wav",70
Sample,86756,0,"pd2_003.wav",70
Sample,86880,0,"_dr_011.wav",70
Sample,86891,0,"_kurasshu_020.wav",70
Sample,87021,0,"_dr_012.wav",70
Sample,87027,0,"_sna_000.wav",70
Sample,87027,0,"_ki_034.wav",70
Sample,87162,0,"pi2_168.wav",70
Sample,87162,0,"_dr_013.wav",70
Sample,87162,0,"_kurasshu_020.wav",70
Sample,87162,0,"pi2_074.wav",70
Sample,87162,0,"pi2_169.wav",70
Sample,87162,0,"pi2_123.wav",70
Sample,87297,0,"pd2_002.wav",70
Sample,87297,0,"_dr_014.wav",70
Sample,87297,0,"hue_013.wav",70
Sample,87297,0,"_ki_034.wav",70
Sample,87359,0,"_dr_015.wav",70
Sample,87432,0,"pi2_123.wav",70
Sample,87432,0,"pi2_074.wav",70
Sample,87432,0,"pi2_169.wav",70
Sample,87432,0,"_dr_016.wav",70
Sample,87432,0,"pi2_168.wav",70
Sample,87432,0,"_kurasshu_020.wav",70
Sample,87494,0,"_dr_017.wav",70
Sample,87561,0,"_dr_018.wav",70
Sample,87567,0,"_sna_001.wav",70
Sample,87567,0,"_ki_034.wav",70
Sample,87635,0,"_dr_019.wav",70
Sample,87702,0,"_kurasshu_020.wav",70
Sample,87702,0,"_dr_020.wav",70
Sample,87759,0,"_dr_021.wav",70
Sample,87837,0,"pd2_026.wav",70
Sample,87837,0,"piarp_031.wav",70
Sample,87837,0,"hue_014.wav",70
Sample,87837,0,"_dr_000.wav",70
Sample,87837,0,"ld4x_051.wav",70
Sample,87837,0,"__kuraaaaaaasshu.wav",70
Sample,87837,0,"vio2_000.wav",70
Sample,87905,0,"piarp_032.wav",70
Sample,87972,0,"_hat_000.wav",70
Sample,87972,0,"piarp_033.wav",70
Sample,87972,0,"_dr_001.wav",70
Sample,88034,0,"_dr_002.wav",70
Sample,88040,0,"piarp_024.wav",70
Sample,88102,0,"_dr_003.wav",70
Sample,88108,0,"piarp_034.wav",70
Sample,88175,0,"piarp_035.wav",70
Sample,88243,0,"_dr_004.wav",70
Sample,88243,0,"piarp_036.wav",70
Sample,88243,0,"_hat_000.wav",70
Sample,88310,0,"piarp_008.wav",70
Sample,88372,0,"_dr_005.wav",70
Sample,88378,0,"piarp_037.wav",70
Sample,88440,0,"_dr_006.wav",70
Sample,88445,0,"piarp_036.wav",70
Sample,88507,0,"_dr_007.wav",70
Sample,88513,0,"piarp_035.wav",70
Sample,88513,0,"_hat_000.wav",70
Sample,88581,0,"piarp_034.wav",70
Sample,88643,0,"_dr_008.wav",70
Sample,88648,0,"ld4x_052.wav",70
Sample,88648,0,"piarp_024.wav",70
Sample,88648,0,"ld4x_054.wav",70
Sample,88716,0,"piarp_033.wav",70
Sample,88783,0,"_dr_009.wav",70
Sample,88783,0,"_hat_001.wav",70
Sample,88783,0,"piarp_001.wav",70
Sample,88851,0,"piarp_031.wav",70
Sample,88918,0,"pd2_027.wav",70
Sample,88918,0,"vio2_001.wav",70
Sample,88918,0,"_dr_010.wav",70
Sample,88918,0,"ld4x_055.wav",70
Sample,88918,0,"piarp_038.wav",70
Sample,88986,0,"piarp_039.wav",70
Sample,89042,0,"_dr_011.wav",70
Sample,89054,0,"piarp_040.wav",70
Sample,89054,0,"_hat_000.wav",70
Sample,89121,0,"piarp_024.wav",70
Sample,89183,0,"_dr_012.wav",70
Sample,89189,0,"piarp_041.wav",70
Sample,89256,0,"piarp_042.wav",70
Sample,89324,0,"_hat_000.wav",70
Sample,89324,0,"piarp_005.wav",70
Sample,89324,0,"ld4x_056.wav",70
Sample,89324,0,"_dr_013.wav",70
Sample,89391,0,"piarp_043.wav",70
Sample,89459,0,"_dr_014.wav",70
Sample,89459,0,"piarp_044.wav",70
Sample,89459,0,"vio2_002.wav",70
Sample,89459,0,"pd2_028.wav",70
Sample,89521,0,"_dr_015.wav",70
Sample,89527,0,"piarp_043.wav",70
Sample,89594,0,"_dr_016.wav",70
Sample,89594,0,"piarp_005.wav",70
Sample,89594,0,"_hat_000.wav",70
Sample,89656,0,"_dr_017.wav",70
Sample,89662,0,"piarp_042.wav",70
Sample,89724,0,"_dr_018.wav",70
Sample,89729,0,"piarp_041.wav",70
Sample,89729,0,"ld4x_010.wav",70
Sample,89797,0,"piarp_024.wav",70
Sample,89797,0,"_dr_019.wav",70
Sample,89864,0,"piarp_040.wav",70
Sample,89864,0,"_dr_020.wav",70
Sample,89864,0,"_hat_001.wav",70
Sample,89921,0,"_dr_021.wav",70
Sample,89932,0,"piarp_039.wav",70
Sample,90000,0,"vio2_003.wav",70
Sample,90000,0,"pd2_029.wav",70
Sample,90000,0,"_dr_000.wav",70
Sample,90000,0,"piarp_000.wav",70
Sample,90000,0,"ld4x_057.wav",70
Sample,90067,0,"piarp_001.wav",70
Sample,90135,0,"_hat_000.wav",70
Sample,90135,0,"piarp_002.wav",70
Sample,90135,0,"_dr_001.wav",70
Sample,90197,0,"_dr_002.wav",70
Sample,90202,0,"piarp_024.wav",70
Sample,90264,0,"_dr_003.wav",70
Sample,90270,0,"piarp_004.wav",70
Sample,90337,0,"piarp_005.wav",70
Sample,90405,0,"_hat_000.wav",70
Sample,90405,0,"piarp_006.wav",70
Sample,90405,0,"_dr_004.wav",70
Sample,90472,0,"piarp_008.wav",70
Sample,90534,0,"_dr_005.wav",70
Sample,90540,0,"vio2_001.wav",70
Sample,90540,0,"pd2_027.wav",70
Sample,90540,0,"piarp_037.wav",70
Sample,90602,0,"_dr_006.wav",70
Sample,90608,0,"piarp_008.wav",70
Sample,90670,0,"_dr_007.wav",70
Sample,90675,0,"piarp_006.wav",70
Sample,90675,0,"_hat_000.wav",70
Sample,90743,0,"piarp_005.wav",70
Sample,90805,0,"_dr_008.wav",70
Sample,90810,0,"piarp_004.wav",70
Sample,90878,0,"piarp_024.wav",70
Sample,90945,0,"piarp_002.wav",70
Sample,90945,0,"_hat_001.wav",70
Sample,90945,0,"_dr_009.wav",70
Sample,91013,0,"piarp_001.wav",70
Sample,91081,0,"_dr_010.wav",70
Sample,91081,0,"ld4x_058.wav",70
Sample,91081,0,"piarp_045.wav",70
Sample,91081,0,"vio2_004.wav",70
Sample,91081,0,"pd2_030.wav",70
Sample,91148,0,"piarp_002.wav",70
Sample,91204,0,"_dr_011.wav",70
Sample,91216,0,"_hat_000.wav",70
Sample,91216,0,"piarp_046.wav",70
Sample,91283,0,"piarp_047.wav",70
Sample,91345,0,"_dr_012.wav",70
Sample,91351,0,"piarp_004.wav",70
Sample,91418,0,"piarp_048.wav",70
Sample,91486,0,"_dr_013.wav",70
Sample,91486,0,"piarp_035.wav",70
Sample,91486,0,"_hat_000.wav",70
Sample,91554,0,"piarp_006.wav",70
Sample,91621,0,"piarp_038.wav",70
Sample,91621,0,"_dr_014.wav",70
Sample,91621,0,"piarp_049.wav",70
Sample,91621,0,"pd2_031.wav",70
Sample,91621,0,"vio2_005.wav",70
Sample,91683,0,"_dr_015.wav",70
Sample,91689,0,"piarp_046.wav",70
Sample,91756,0,"_dr_016.wav",70
Sample,91756,0,"piarp_047.wav",70
Sample,91756,0,"_hat_000.wav",70
Sample,91818,0,"_dr_017.wav",70
Sample,91824,0,"piarp_004.wav",70
Sample,91886,0,"_dr_018.wav",70
Sample,91891,0,"piarp_048.wav",70
Sample,91959,0,"_dr_019.wav",70
Sample,91959,0,"piarp_035.wav",70
Sample,92027,0,"piarp_006.wav",70
Sample,92027,0,"_dr_020.wav",70
Sample,92027,0,"_hat_001.wav",70
Sample,92083,0,"_dr_021.wav",70
Sample,92094,0,"piarp_037.wav",70
Sample,92162,0,"piarp_031.wav",70
Sample,92162,0,"ld4x_059.wav",70
Sample,92162,0,"pd2_032.wav",70
Sample,92162,0,"vio2_006.wav",70
Sample,92162,0,"_dr_000.wav",70
Sample,92229,0,"piarp_032.wav",70
Sample,92297,0,"_hat_000.wav",70
Sample,92297,0,"piarp_033.wav",70
Sample,92297,0,"_dr_001.wav",70
Sample,92359,0,"_dr_002.wav",70
Sample,92364,0,"piarp_024.wav",70
Sample,92426,0,"_dr_003.wav",70
Sample,92432,0,"piarp_034.wav",70
Sample,92500,0,"piarp_035.wav",70
Sample,92567,0,"_hat_000.wav",70
Sample,92567,0,"ld4x_060.wav",70
Sample,92567,0,"piarp_036.wav",70
Sample,92567,0,"_dr_004.wav",70
Sample,92635,0,"piarp_008.wav",70
Sample,92697,0,"_dr_005.wav",70
Sample,92702,0,"piarp_037.wav",70
Sample,92764,0,"_dr_006.wav",70
Sample,92770,0,"piarp_036.wav",70
Sample,92832,0,"_dr_007.wav",70
Sample,92837,0,"piarp_035.wav",70
Sample,92837,0,"_hat_000.wav",70
Sample,92905,0,"piarp_034.wav",70
Sample,92967,0,"_dr_008.wav",70
Sample,92972,0,"ld4x_061.wav",70
Sample,92972,0,"piarp_024.wav",70
Sample,93040,0,"piarp_033.wav",70
Sample,93108,0,"_hat_001.wav",70
Sample,93108,0,"_dr_009.wav",70
Sample,93108,0,"piarp_001.wav",70
Sample,93175,0,"piarp_031.wav",70
Sample,93243,0,"piarp_038.wav",70
Sample,93243,0,"ld4x_053.wav",70
Sample,93243,0,"pd2_028.wav",70
Sample,93243,0,"_dr_010.wav",70
Sample,93243,0,"vio2_002.wav",70
Sample,93310,0,"piarp_039.wav",70
Sample,93367,0,"_dr_011.wav",70
Sample,93378,0,"piarp_040.wav",70
Sample,93378,0,"_hat_000.wav",70
Sample,93445,0,"piarp_024.wav",70
Sample,93445,0,"ld4x_063.wav",70
Sample,93507,0,"_dr_012.wav",70
Sample,93513,0,"piarp_041.wav",70
Sample,93581,0,"piarp_042.wav",70
Sample,93648,0,"_dr_013.wav",70
Sample,93648,0,"_hat_000.wav",70
Sample,93648,0,"ld4x_064.wav",70
Sample,93648,0,"piarp_005.wav",70
Sample,93716,0,"piarp_043.wav",70
Sample,93783,0,"piarp_044.wav",70
Sample,93783,0,"pd2_030.wav",70
Sample,93783,0,"vio2_004.wav",70
Sample,93783,0,"_dr_014.wav",70
Sample,93845,0,"_dr_015.wav",70
Sample,93851,0,"piarp_043.wav",70
Sample,93918,0,"_hat_000.wav",70
Sample,93918,0,"_dr_016.wav",70
Sample,93918,0,"piarp_005.wav",70
Sample,93980,0,"_dr_017.wav",70
Sample,93986,0,"piarp_042.wav",70
Sample,94048,0,"_dr_018.wav",70
Sample,94054,0,"ld4x_056.wav",70
Sample,94054,0,"piarp_041.wav",70
Sample,94121,0,"piarp_024.wav",70
Sample,94121,0,"_dr_019.wav",70
Sample,94189,0,"_dr_020.wav",70
Sample,94189,0,"piarp_040.wav",70
Sample,94189,0,"_hat_001.wav",70
Sample,94245,0,"_dr_021.wav",70
Sample,94256,0,"piarp_039.wav",70
Sample,94324,0,"ld4x_065.wav",70
Sample,94324,0,"piarp_032.wav",70
Sample,94324,0,"pd2_026.wav",70
Sample,94324,0,"_dr_000.wav",70
Sample,94324,0,"vio2_000.wav",70
Sample,94391,0,"piarp_040.wav",70
Sample,94459,0,"_hat_000.wav",70
Sample,94459,0,"_dr_001.wav",70
Sample,94459,0,"piarp_047.wav",70
Sample,94521,0,"_dr_002.wav",70
Sample,94527,0,"piarp_042.wav",70
Sample,94588,0,"_dr_003.wav",70
Sample,94594,0,"piarp_035.wav",70
Sample,94662,0,"piarp_050.wav",70
Sample,94729,0,"piarp_037.wav",70
Sample,94729,0,"_hat_000.wav",70
Sample,94729,0,"_dr_004.wav",70
Sample,94797,0,"piarp_051.wav",70
Sample,94859,0,"_dr_005.wav",70
Sample,94864,0,"piarp_052.wav",70
Sample,94926,0,"_dr_006.wav",70
Sample,94932,0,"piarp_051.wav",70
Sample,94994,0,"_dr_007.wav",70
Sample,95000,0,"piarp_037.wav",70
Sample,95000,0,"_hat_000.wav",70
Sample,95067,0,"piarp_050.wav",70
Sample,95129,0,"_dr_008.wav",70
Sample,95135,0,"piarp_035.wav",70
Sample,95202,0,"piarp_042.wav",70
Sample,95270,0,"_hat_001.wav",70
Sample,95270,0,"piarp_047.wav",70
Sample,95270,0,"_dr_009.wav",70
Sample,95337,0,"piarp_040.wav",70
Sample,95405,0,"ld4x_064.wav",70
Sample,95405,0,"ld4x_056.wav",70
Sample,95405,0,"piarp_052.wav",70
Sample,95405,0,"_dr_010.wav",70
Sample,95405,0,"pd2_033.wav",70
Sample,95405,0,"__hyuooooooooo.wav",70
Sample,95405,0,"vio2_007.wav",70
Sample,95472,0,"piarp_037.wav",70
Sample,95529,0,"_dr_011.wav",70
Sample,95540,0,"_hat_000.wav",70
Sample,95540,0,"piarp_050.wav",70
Sample,95608,0,"piarp_035.wav",70
Sample,95670,0,"_dr_012.wav",70
Sample,95675,0,"piarp_042.wav",70
Sample,95743,0,"piarp_041.wav",70
Sample,95810,0,"_dr_013.wav",70
Sample,95810,0,"ld4x_052.wav",70
Sample,95810,0,"ld4x_064.wav",70
Sample,95810,0,"_hat_000.wav",70
Sample,95810,0,"piarp_047.wav",70
Sample,95878,0,"piarp_040.wav",70
Sample,95945,0,"piarp_052.wav",70
Sample,95945,0,"vio2_003.wav",70
Sample,95945,0,"_dr_014.wav",70
Sample,95945,0,"pd2_029.wav",70
Sample,96007,0,"_dr_015.wav",70
Sample,96013,0,"piarp_037.wav",70
Sample,96081,0,"_dr_016.wav",70
Sample,96081,0,"_hat_000.wav",70
Sample,96081,0,"piarp_050.wav",70
Sample,96143,0,"_dr_017.wav",70
Sample,96148,0,"piarp_035.wav",70
Sample,96210,0,"_dr_018.wav",70
Sample,96216,0,"ld4x_067.wav",70
Sample,96216,0,"piarp_042.wav",70
Sample,96216,0,"ld4x_066.wav",70
Sample,96283,0,"_dr_019.wav",70
Sample,96283,0,"piarp_035.wav",70
Sample,96351,0,"piarp_037.wav",70
Sample,96351,0,"_dr_020.wav",70
Sample,96351,0,"_hat_001.wav",70
Sample,96407,0,"_dr_021.wav",70
Sample,96418,0,"piarp_052.wav",70
Sample,96486,0,"pd2_034.wav",70
Sample,96486,0,"_dr_000.wav",70
Sample,96486,0,"ld4x_069.wav",70
Sample,96486,0,"piarp_031.wav",70
Sample,96486,0,"ld4x_068.wav",70
Sample,96486,0,"_kurasshu_021.wav",70
Sample,96486,0,"vio2_008.wav",70
Sample,96554,0,"piarp_032.wav",70
Sample,96621,0,"_hat_000.wav",70
Sample,96621,0,"piarp_033.wav",70
Sample,96621,0,"_dr_001.wav",70
Sample,96683,0,"_dr_002.wav",70
Sample,96689,0,"piarp_024.wav",70
Sample,96751,0,"_dr_003.wav",70
Sample,96756,0,"piarp_034.wav",70
Sample,96824,0,"piarp_035.wav",70
Sample,96891,0,"_dr_004.wav",70
Sample,96891,0,"piarp_036.wav",70
Sample,96891,0,"_hat_000.wav",70
Sample,96959,0,"piarp_008.wav",70
Sample,97021,0,"_dr_005.wav",70
Sample,97027,0,"piarp_037.wav",70
Sample,97088,0,"_dr_006.wav",70
Sample,97094,0,"piarp_036.wav",70
Sample,97156,0,"_dr_007.wav",70
Sample,97162,0,"piarp_035.wav",70
Sample,97162,0,"_hat_000.wav",70
Sample,97229,0,"piarp_034.wav",70
Sample,97291,0,"_dr_008.wav",70
Sample,97297,0,"piarp_024.wav",70
Sample,97364,0,"piarp_033.wav",70
Sample,97432,0,"piarp_001.wav",70
Sample,97432,0,"_dr_009.wav",70
Sample,97432,0,"_hat_001.wav",70
Sample,97500,0,"piarp_031.wav",70
Sample,97567,0,"piarp_038.wav",70
Sample,97567,0,"ld4x_070.wav",70
Sample,97567,0,"pd2_035.wav",70
Sample,97567,0,"ld4x_071.wav",70
Sample,97567,0,"_dr_010.wav",70
Sample,97567,0,"vio2_009.wav",70
Sample,97635,0,"piarp_039.wav",70
Sample,97691,0,"_dr_011.wav",70
Sample,97702,0,"piarp_040.wav",70
Sample,97702,0,"_hat_000.wav",70
Sample,97770,0,"piarp_024.wav",70
Sample,97832,0,"_dr_012.wav",70
Sample,97837,0,"piarp_041.wav",70
Sample,97905,0,"piarp_042.wav",70
Sample,97972,0,"_dr_013.wav",70
Sample,97972,0,"ld4x_072.wav",70
Sample,97972,0,"piarp_005.wav",70
Sample,97972,0,"_hat_000.wav",70
Sample,97972,0,"ld4x_060.wav",70
Sample,98040,0,"piarp_043.wav",70
Sample,98108,0,"_dr_014.wav",70
Sample,98108,0,"piarp_044.wav",70
Sample,98170,0,"_dr_015.wav",70
Sample,98175,0,"piarp_043.wav",70
Sample,98243,0,"piarp_005.wav",70
Sample,98243,0,"_hat_000.wav",70
Sample,98243,0,"_dr_016.wav",70
Sample,98305,0,"_dr_017.wav",70
Sample,98310,0,"piarp_042.wav",70
Sample,98372,0,"_dr_018.wav",70
Sample,98378,0,"ld4x_073.wav",70
Sample,98378,0,"piarp_041.wav",70
Sample,98378,0,"ld4x_074.wav",70
Sample,98445,0,"_dr_019.wav",70
Sample,98445,0,"piarp_024.wav",70
Sample,98513,0,"_hat_001.wav",70
Sample,98513,0,"piarp_040.wav",70
Sample,98513,0,"_dr_020.wav",70
Sample,98569,0,"_dr_021.wav",70
Sample,98581,0,"piarp_039.wav",70
Sample,98648,0,"piarp_000.wav",70
Sample,98648,0,"_kurasshu_022.wav",70
Sample,98648,0,"ld4x_075.wav",70
Sample,98648,0,"vio2_003.wav",70
Sample,98648,0,"pd2_029.wav",70
Sample,98648,0,"ld4x_076.wav",70
Sample,98648,0,"_dr_000.wav",70
Sample,98716,0,"piarp_001.wav",70
Sample,98783,0,"piarp_002.wav",70
Sample,98783,0,"_hat_000.wav",70
Sample,98783,0,"_dr_001.wav",70
Sample,98845,0,"_dr_002.wav",70
Sample,98851,0,"piarp_024.wav",70
Sample,98913,0,"_dr_003.wav",70
Sample,98918,0,"ld4x_067.wav",70
Sample,98918,0,"piarp_004.wav",70
Sample,98986,0,"piarp_005.wav",70
Sample,99054,0,"piarp_006.wav",70
Sample,99054,0,"_hat_000.wav",70
Sample,99054,0,"_dr_004.wav",70
Sample,99121,0,"piarp_008.wav",70
Sample,99183,0,"_dr_005.wav",70
Sample,99189,0,"_kurasshu_023.wav",70
Sample,99189,0,"ld4x_077.wav",70
Sample,99189,0,"pd2_036.wav",70
Sample,99189,0,"vio2_010.wav",70
Sample,99189,0,"piarp_037.wav",70
Sample,99251,0,"_dr_006.wav",70
Sample,99256,0,"piarp_008.wav",70
Sample,99318,0,"_dr_007.wav",70
Sample,99324,0,"_hat_000.wav",70
Sample,99324,0,"piarp_006.wav",70
Sample,99324,0,"ld4x_078.wav",70
Sample,99391,0,"piarp_005.wav",70
Sample,99453,0,"_dr_008.wav",70
Sample,99459,0,"piarp_004.wav",70
Sample,99527,0,"piarp_024.wav",70
Sample,99594,0,"ld4x_077.wav",70
Sample,99594,0,"_kurasshu_024.wav",70
Sample,99594,0,"piarp_002.wav",70
Sample,99594,0,"_hat_001.wav",70
Sample,99594,0,"_dr_009.wav",70
Sample,99662,0,"piarp_001.wav",70
Sample,99729,0,"ld4x_075.wav",70
Sample,99729,0,"_dr_010.wav",70
Sample,99729,0,"piarp_045.wav",70
Sample,99729,0,"pd2_037.wav",70
Sample,99729,0,"vio2_011.wav",70
Sample,99797,0,"piarp_002.wav",70
Sample,99853,0,"_dr_011.wav",70
Sample,99864,0,"_hat_000.wav",70
Sample,99864,0,"piarp_046.wav",70
Sample,99864,0,"_kurasshu_024.wav",70
Sample,99932,0,"piarp_047.wav",70
Sample,99994,0,"_dr_012.wav",70
Sample,100000,0,"ld4x_079.wav",70
Sample,100000,0,"piarp_004.wav",70
Sample,100067,0,"piarp_048.wav",70
Sample,100135,0,"ld4x_056.wav",70
Sample,100135,0,"_dr_013.wav",70
Sample,100135,0,"_kurasshu_024.wav",70
Sample,100135,0,"piarp_035.wav",70
Sample,100135,0,"_hat_000.wav",70
Sample,100202,0,"ld4x_080.wav",70
Sample,100202,0,"piarp_006.wav",70
Sample,100270,0,"ld4x_081.wav",70
Sample,100270,0,"piarp_049.wav",70
Sample,100270,0,"vio2_007.wav",70
Sample,100270,0,"pd2_033.wav",70
Sample,100270,0,"piarp_038.wav",70
Sample,100270,0,"_kurasshu_024.wav",70
Sample,100270,0,"_dr_014.wav",70
Sample,100332,0,"_dr_015.wav",70
Sample,100337,0,"piarp_046.wav",70
Sample,100405,0,"piarp_047.wav",70
Sample,100405,0,"_hat_000.wav",70
Sample,100405,0,"_dr_016.wav",70
Sample,100405,0,"ld4x_082.wav",70
Sample,100405,0,"_kurasshu_023.wav",70
Sample,100467,0,"_dr_017.wav",70
Sample,100472,0,"piarp_004.wav",70
Sample,100534,0,"_dr_018.wav",70
Sample,100540,0,"ld4x_010.wav",70
Sample,100540,0,"piarp_048.wav",70
Sample,100608,0,"_dr_019.wav",70
Sample,100608,0,"piarp_035.wav",70
Sample,100675,0,"_dr_020.wav",70
Sample,100675,0,"_hat_001.wav",70
Sample,100675,0,"piarp_006.wav",70
Sample,100731,0,"_dr_021.wav",70
Sample,100743,0,"piarp_037.wav",70
Sample,100810,0,"vio2_008.wav",70
Sample,100810,0,"pd2_034.wav",70
Sample,100810,0,"_dr_000.wav",70
Sample,100810,0,"ld4x_083.wav",70
Sample,100810,0,"piarp_031.wav",70
Sample,100878,0,"piarp_032.wav",70
Sample,100945,0,"_hat_000.wav",70
Sample,100945,0,"piarp_033.wav",70
Sample,100945,0,"_dr_001.wav",70
Sample,101007,0,"_dr_002.wav",70
Sample,101013,0,"piarp_024.wav",70
Sample,101075,0,"_dr_003.wav",70
Sample,101081,0,"piarp_034.wav",70
Sample,101148,0,"piarp_035.wav",70
Sample,101216,0,"_hat_000.wav",70
Sample,101216,0,"piarp_036.wav",70
Sample,101216,0,"_dr_004.wav",70
Sample,101283,0,"piarp_008.wav",70
Sample,101345,0,"_dr_005.wav",70
Sample,101351,0,"piarp_037.wav",70
Sample,101413,0,"_dr_006.wav",70
Sample,101418,0,"piarp_036.wav",70
Sample,101480,0,"_dr_007.wav",70
Sample,101486,0,"_hat_000.wav",70
Sample,101486,0,"piarp_035.wav",70
Sample,101554,0,"piarp_034.wav",70
Sample,101615,0,"_dr_008.wav",70
Sample,101621,0,"ld4x_084.wav",70
Sample,101621,0,"piarp_024.wav",70
Sample,101689,0,"piarp_033.wav",70
Sample,101756,0,"_dr_009.wav",70
Sample,101756,0,"_hat_001.wav",70
Sample,101756,0,"piarp_001.wav",70
Sample,101824,0,"piarp_031.wav",70
Sample,101891,0,"piarp_038.wav",70
Sample,101891,0,"ld4x_085.wav",70
Sample,101891,0,"pd2_033.wav",70
Sample,101891,0,"_dr_010.wav",70
Sample,101891,0,"vio2_007.wav",70
Sample,101959,0,"piarp_039.wav",70
Sample,102015,0,"_dr_011.wav",70
Sample,102027,0,"piarp_040.wav",70
Sample,102027,0,"_hat_000.wav",70
Sample,102094,0,"piarp_024.wav",70
Sample,102156,0,"_dr_012.wav",70
Sample,102162,0,"piarp_041.wav",70
Sample,102229,0,"piarp_042.wav",70
Sample,102297,0,"_dr_013.wav",70
Sample,102297,0,"piarp_005.wav",70
Sample,102297,0,"_hat_000.wav",70
Sample,102364,0,"piarp_043.wav",70
Sample,102432,0,"ld4x_086.wav",70
Sample,102432,0,"_dr_014.wav",70
Sample,102432,0,"pd2_030.wav",70
Sample,102432,0,"vio2_001.wav",70
Sample,102432,0,"piarp_044.wav",70
Sample,102494,0,"_dr_015.wav",70
Sample,102500,0,"piarp_043.wav",70
Sample,102567,0,"_hat_000.wav",70
Sample,102567,0,"piarp_005.wav",70
Sample,102567,0,"_dr_016.wav",70
Sample,102629,0,"_dr_017.wav",70
Sample,102635,0,"piarp_042.wav",70
Sample,102697,0,"_dr_018.wav",70
Sample,102702,0,"piarp_041.wav",70
Sample,102770,0,"piarp_024.wav",70
Sample,102770,0,"_dr_019.wav",70
Sample,102837,0,"piarp_040.wav",70
Sample,102837,0,"_dr_020.wav",70
Sample,102837,0,"_hat_001.wav",70
Sample,102894,0,"_dr_021.wav",70
Sample,102905,0,"piarp_039.wav",70
Sample,102972,0,"ld4x_087.wav",70
Sample,102972,0,"piarp_032.wav",70
Sample,102972,0,"ld4x_089.wav",70
Sample,102972,0,"_dr_000.wav",70
Sample,102972,0,"ld4x_088.wav",70
Sample,102972,0,"pd2_038.wav",70
Sample,102972,0,"vio2_012.wav",70
Sample,103040,0,"piarp_040.wav",70
Sample,103108,0,"_dr_001.wav",70
Sample,103108,0,"_hat_000.wav",70
Sample,103108,0,"piarp_047.wav",70
Sample,103170,0,"_dr_002.wav",70
Sample,103175,0,"piarp_042.wav",70
Sample,103237,0,"_dr_003.wav",70
Sample,103243,0,"piarp_035.wav",70
Sample,103310,0,"piarp_050.wav",70
Sample,103378,0,"_hat_000.wav",70
Sample,103378,0,"_dr_004.wav",70
Sample,103378,0,"piarp_037.wav",70
Sample,103445,0,"piarp_051.wav",70
Sample,103507,0,"_dr_005.wav",70
Sample,103513,0,"piarp_052.wav",70
Sample,103575,0,"_dr_006.wav",70
Sample,103581,0,"piarp_051.wav",70
Sample,103643,0,"_dr_007.wav",70
Sample,103648,0,"_hat_000.wav",70
Sample,103648,0,"piarp_037.wav",70
Sample,103716,0,"piarp_050.wav",70
Sample,103778,0,"_dr_008.wav",70
Sample,103783,0,"piarp_035.wav",70
Sample,103851,0,"piarp_042.wav",70
Sample,103918,0,"piarp_047.wav",70
Sample,103918,0,"_hat_001.wav",70
Sample,103918,0,"_dr_009.wav",70
Sample,103986,0,"piarp_040.wav",70
Sample,104054,0,"piarp_045.wav",70
Sample,104054,0,"ld4x_092.wav",70
Sample,104054,0,"ld4x_090.wav",70
Sample,104054,0,"ld4x_091.wav",70
Sample,104054,0,"_dr_010.wav",70
Sample,104121,0,"piarp_002.wav",70
Sample,104177,0,"_dr_011.wav",70
Sample,104189,0,"piarp_046.wav",70
Sample,104189,0,"_hat_000.wav",70
Sample,104256,0,"piarp_047.wav",70
Sample,104318,0,"_dr_012.wav",70
Sample,104324,0,"piarp_004.wav",70
Sample,104391,0,"piarp_048.wav",70
Sample,104459,0,"_hat_000.wav",70
Sample,104459,0,"_dr_013.wav",70
Sample,104459,0,"piarp_035.wav",70
Sample,104527,0,"piarp_006.wav",70
Sample,104594,0,"piarp_053.wav",70
Sample,104594,0,"piarp_042.wav",70
Sample,104594,0,"_dr_014.wav",70
Sample,104656,0,"_dr_015.wav",70
Sample,104662,0,"piarp_049.wav",70
Sample,104729,0,"_hat_000.wav",70
Sample,104729,0,"piarp_037.wav",70
Sample,104729,0,"_dr_016.wav",70
Sample,104791,0,"_dr_017.wav",70
Sample,104797,0,"piarp_051.wav",70
Sample,104859,0,"_dr_018.wav",70
Sample,104864,0,"piarp_054.wav",70
Sample,104932,0,"_dr_019.wav",70
Sample,104932,0,"piarp_055.wav",70
Sample,105000,0,"_dr_020.wav",70
Sample,105000,0,"piarp_056.wav",70
Sample,105000,0,"_hat_001.wav",70
Sample,105056,0,"_dr_021.wav",70
Sample,105067,0,"piarp_057.wav",70
Sample,105135,0,"_dr_000.wav",70
Sample,105135,0,"_kurasshu_000.wav",70
Sample,105135,0,"__kuraaaaaaasshu.wav",70
Sample,105135,0,"pd1_022.wav",70
Sample,105135,0,"_ki_000.wav",70
Sample,105135,0,"bunyu_000.wav",70
Sample,105135,0,"__dohyuuuuuun.wav",70
Sample,105135,0,"ld4x_104.wav",70
Sample,105135,0,"piarp_010.wav",70
Sample,105202,0,"piarp_011.wav",70
Sample,105270,0,"_hat_000.wav",70
Sample,105270,0,"piarp_012.wav",70
Sample,105270,0,"_dr_001.wav",70
Sample,105332,0,"_dr_002.wav",70
Sample,105337,0,"piarp_047.wav",70
Sample,105399,0,"_dr_003.wav",70
Sample,105405,0,"_sna_000.wav",70
Sample,105405,0,"piarp_014.wav",70
Sample,105405,0,"_kurasshu_000.wav",70
Sample,105405,0,"_ki_000.wav",70
Sample,105472,0,"piarp_016.wav",70
Sample,105540,0,"_hat_000.wav",70
Sample,105540,0,"_dr_004.wav",70
Sample,105540,0,"piarp_027.wav",70
Sample,105608,0,"piarp_037.wav",70
Sample,105670,0,"_dr_005.wav",70
Sample,105675,0,"_ki_000.wav",70
Sample,105675,0,"_kurasshu_000.wav",70
Sample,105675,0,"piarp_017.wav",70
Sample,105737,0,"_dr_006.wav",70
Sample,105743,0,"piarp_027.wav",70
Sample,105805,0,"_dr_007.wav",70
Sample,105810,0,"piarp_016.wav",70
Sample,105810,0,"_kurasshu_000.wav",70
Sample,105810,0,"_hat_000.wav",70
Sample,105878,0,"piarp_014.wav",70
Sample,105940,0,"_dr_008.wav",70
Sample,105945,0,"ld4x_064.wav",70
Sample,105945,0,"piarp_047.wav",70
Sample,105945,0,"_sna_001.wav",70
Sample,105945,0,"_ki_000.wav",70
Sample,105945,0,"ld4x_105.wav",70
Sample,106013,0,"piarp_012.wav",70
Sample,106081,0,"_kurasshu_000.wav",70
Sample,106081,0,"_hat_001.wav",70
Sample,106081,0,"_dr_009.wav",70
Sample,106081,0,"piarp_032.wav",70
Sample,106081,0,"_ki_000.wav",70
Sample,106148,0,"piarp_010.wav",70
Sample,106216,0,"bunyu_001.wav",70
Sample,106216,0,"piarp_022.wav",70
Sample,106216,0,"pd1_011.wav",70
Sample,106216,0,"_dr_010.wav",70
Sample,106216,0,"ld4x_035.wav",70
Sample,106283,0,"piarp_019.wav",70
Sample,106340,0,"_dr_011.wav",70
Sample,106351,0,"_ki_000.wav",70
Sample,106351,0,"_kurasshu_000.wav",70
Sample,106351,0,"_hat_000.wav",70
Sample,106351,0,"piarp_023.wav",70
Sample,106418,0,"piarp_047.wav",70
Sample,106480,0,"_dr_012.wav",70
Sample,106486,0,"_sna_000.wav",70
Sample,106486,0,"piarp_020.wav",70
Sample,106554,0,"piarp_025.wav",70
Sample,106621,0,"_ki_000.wav",70
Sample,106621,0,"piarp_035.wav",70
Sample,106621,0,"ld4x_023.wav",70
Sample,106621,0,"_kurasshu_000.wav",70
Sample,106621,0,"_dr_013.wav",70
Sample,106621,0,"_hat_000.wav",70
Sample,106689,0,"piarp_021.wav",70
Sample,106756,0,"_dr_014.wav",70
Sample,106756,0,"piarp_028.wav",70
Sample,106818,0,"_dr_015.wav",70
Sample,106824,0,"piarp_021.wav",70
Sample,106891,0,"piarp_035.wav",70
Sample,106891,0,"_ki_000.wav",70
Sample,106891,0,"_kurasshu_000.wav",70
Sample,106891,0,"_dr_016.wav",70
Sample,106891,0,"_hat_000.wav",70
Sample,106953,0,"_dr_017.wav",70
Sample,106959,0,"piarp_025.wav",70
Sample,107021,0,"_dr_018.wav",70
Sample,107027,0,"ld4x_106.wav",70
Sample,107027,0,"piarp_020.wav",70
Sample,107027,0,"_sna_001.wav",70
Sample,107094,0,"_dr_019.wav",70
Sample,107094,0,"piarp_047.wav",70
Sample,107162,0,"_hat_001.wav",70
Sample,107162,0,"piarp_023.wav",70
Sample,107162,0,"_dr_020.wav",70
Sample,107162,0,"_kurasshu_001.wav",70
Sample,107162,0,"_ki_001.wav",70
Sample,107218,0,"_dr_021.wav",70
Sample,107229,0,"_ki_001.wav",70
Sample,107229,0,"piarp_019.wav",70
Sample,107229,0,"_kurasshu_001.wav",70
Sample,107263,0,"_ki_001.wav",70
Sample,107263,0,"_kurasshu_001.wav",70
Sample,107297,0,"_kurasshu_002.wav",70
Sample,107297,0,"pd1_023.wav",70
Sample,107297,0,"_ki_000.wav",70
Sample,107297,0,"bunyu_002.wav",70
Sample,107297,0,"piarp_031.wav",70
Sample,107297,0,"ld4x_048.wav",70
Sample,107297,0,"_dr_000.wav",70
Sample,107364,0,"piarp_032.wav",70
Sample,107432,0,"_dr_001.wav",70
Sample,107432,0,"_hat_000.wav",70
Sample,107432,0,"piarp_033.wav",70
Sample,107494,0,"_dr_002.wav",70
Sample,107500,0,"piarp_047.wav",70
Sample,107561,0,"_dr_003.wav",70
Sample,107567,0,"_ki_000.wav",70
Sample,107567,0,"_sna_000.wav",70
Sample,107567,0,"piarp_034.wav",70
Sample,107567,0,"_kurasshu_002.wav",70
Sample,107635,0,"piarp_035.wav",70
Sample,107702,0,"_dr_004.wav",70
Sample,107702,0,"_hat_000.wav",70
Sample,107702,0,"piarp_036.wav",70
Sample,107770,0,"piarp_037.wav",70
Sample,107832,0,"_dr_005.wav",70
Sample,107837,0,"_ki_000.wav",70
Sample,107837,0,"piarp_017.wav",70
Sample,107899,0,"_dr_006.wav",70
Sample,107905,0,"piarp_037.wav",70
Sample,107967,0,"_dr_007.wav",70
Sample,107972,0,"piarp_036.wav",70
Sample,107972,0,"_kurasshu_000.wav",70
Sample,107972,0,"_hat_000.wav",70
Sample,108040,0,"piarp_035.wav",70
Sample,108102,0,"_dr_008.wav",70
Sample,108108,0,"_sna_001.wav",70
Sample,108108,0,"_ki_000.wav",70
Sample,108108,0,"piarp_034.wav",70
Sample,108175,0,"piarp_047.wav",70
Sample,108243,0,"_kurasshu_000.wav",70
Sample,108243,0,"piarp_033.wav",70
Sample,108243,0,"_dr_009.wav",70
Sample,108243,0,"_hat_001.wav",70
Sample,108310,0,"piarp_032.wav",70
Sample,108378,0,"bunyu_003.wav",70
Sample,108378,0,"_ki_000.wav",70
Sample,108378,0,"ld4x_107.wav",70
Sample,108378,0,"pd1_024.wav",70
Sample,108378,0,"_dr_010.wav",70
Sample,108378,0,"piarp_009.wav",70
Sample,108378,0,"_kurasshu_000.wav",70
Sample,108445,0,"piarp_033.wav",70
Sample,108502,0,"_dr_011.wav",70
Sample,108513,0,"_ki_000.wav",70
Sample,108513,0,"piarp_003.wav",70
Sample,108513,0,"_kurasshu_000.wav",70
Sample,108513,0,"_hat_000.wav",70
Sample,108581,0,"piarp_013.wav",70
Sample,108643,0,"_dr_012.wav",70
Sample,108648,0,"piarp_034.wav",70
Sample,108648,0,"_sna_000.wav",70
Sample,108716,0,"piarp_015.wav",70
Sample,108783,0,"_kurasshu_000.wav",70
Sample,108783,0,"_ki_000.wav",70
Sample,108783,0,"_dr_013.wav",70
Sample,108783,0,"piarp_016.wav",70
Sample,108783,0,"_hat_000.wav",70
Sample,108851,0,"piarp_036.wav",70
Sample,108918,0,"piarp_007.wav",70
Sample,108918,0,"bunyu_004.wav",70
Sample,108918,0,"pd1_025.wav",70
Sample,108918,0,"_dr_014.wav",70
Sample,108918,0,"piarp_022.wav",70
Sample,108980,0,"_dr_015.wav",70
Sample,108986,0,"piarp_003.wav",70
Sample,109054,0,"_hat_000.wav",70
Sample,109054,0,"_ki_000.wav",70
Sample,109054,0,"_dr_016.wav",70
Sample,109054,0,"piarp_013.wav",70
Sample,109054,0,"_kurasshu_000.wav",70
Sample,109115,0,"_dr_017.wav",70
Sample,109121,0,"piarp_034.wav",70
Sample,109183,0,"_dr_018.wav",70
Sample,109189,0,"_sna_001.wav",70
Sample,109189,0,"piarp_015.wav",70
Sample,109189,0,"_ki_000.wav",70
Sample,109256,0,"piarp_016.wav",70
Sample,109256,0,"_dr_019.wav",70
Sample,109324,0,"piarp_036.wav",70
Sample,109324,0,"_dr_020.wav",70
Sample,109324,0,"_hat_001.wav",70
Sample,109324,0,"_kurasshu_000.wav",70
Sample,109380,0,"_dr_021.wav",70
Sample,109391,0,"piarp_017.wav",70
Sample,109459,0,"_ki_000.wav",70
Sample,109459,0,"piarp_010.wav",70
Sample,109459,0,"bunyu_005.wav",70
Sample,109459,0,"_kurasshu_000.wav",70
Sample,109459,0,"pd1_026.wav",70
Sample,109459,0,"_dr_000.wav",70
Sample,109459,0,"ld4x_108.wav",70
Sample,109527,0,"piarp_011.wav",70
Sample,109594,0,"_hat_000.wav",70
Sample,109594,0,"piarp_012.wav",70
Sample,109594,0,"_dr_001.wav",70
Sample,109656,0,"_dr_002.wav",70
Sample,109662,0,"piarp_047.wav",70
Sample,109724,0,"_dr_003.wav",70
Sample,109729,0,"piarp_014.wav",70
Sample,109729,0,"_ki_000.wav",70
Sample,109729,0,"_sna_000.wav",70
Sample,109797,0,"piarp_016.wav",70
Sample,109864,0,"_hat_000.wav",70
Sample,109864,0,"piarp_027.wav",70
Sample,109864,0,"ld4x_109.wav",70
Sample,109864,0,"_dr_004.wav",70
Sample,109864,0,"_kurasshu_000.wav",70
Sample,109864,0,"_ki_000.wav",70
Sample,109932,0,"piarp_037.wav",70
Sample,109994,0,"_dr_005.wav",70
Sample,110000,0,"piarp_017.wav",70
Sample,110061,0,"_dr_006.wav",70
Sample,110067,0,"piarp_027.wav",70
Sample,110129,0,"_dr_007.wav",70
Sample,110135,0,"_hat_000.wav",70
Sample,110135,0,"_ki_000.wav",70
Sample,110135,0,"piarp_016.wav",70
Sample,110202,0,"piarp_014.wav",70
Sample,110264,0,"_dr_008.wav",70
Sample,110270,0,"_ki_000.wav",70
Sample,110270,0,"ld4x_042.wav",70
Sample,110270,0,"_kurasshu_000.wav",70
Sample,110270,0,"_sna_001.wav",70
Sample,110270,0,"piarp_047.wav",70
Sample,110337,0,"piarp_012.wav",70
Sample,110405,0,"piarp_032.wav",70
Sample,110405,0,"_hat_001.wav",70
Sample,110405,0,"_dr_009.wav",70
Sample,110472,0,"piarp_010.wav",70
Sample,110540,0,"bunyu_004.wav",70
Sample,110540,0,"piarp_022.wav",70
Sample,110540,0,"_ki_000.wav",70
Sample,110540,0,"ld4x_110.wav",70
Sample,110540,0,"_kurasshu_000.wav",70
Sample,110540,0,"_dr_010.wav",70
Sample,110540,0,"pd1_027.wav",70
Sample,110608,0,"piarp_019.wav",70
Sample,110664,0,"_dr_011.wav",70
Sample,110675,0,"_hat_000.wav",70
Sample,110675,0,"piarp_023.wav",70
Sample,110743,0,"ld4x_111.wav",70
Sample,110743,0,"piarp_047.wav",70
Sample,110805,0,"_dr_012.wav",70
Sample,110810,0,"_sna_000.wav",70
Sample,110810,0,"piarp_020.wav",70
Sample,110878,0,"piarp_025.wav",70
Sample,110945,0,"_kurasshu_000.wav",70
Sample,110945,0,"_ki_000.wav",70
Sample,110945,0,"piarp_035.wav",70
Sample,110945,0,"_dr_013.wav",70
Sample,110945,0,"_hat_000.wav",70
Sample,110945,0,"ld4x_039.wav",70
Sample,111013,0,"piarp_021.wav",70
Sample,111081,0,"_dr_014.wav",70
Sample,111081,0,"bunyu_006.wav",70
Sample,111081,0,"piarp_028.wav",70
Sample,111143,0,"_dr_015.wav",70
Sample,111148,0,"piarp_021.wav",70
Sample,111216,0,"piarp_035.wav",70
Sample,111216,0,"_ki_035.wav",70
Sample,111216,0,"_dr_016.wav",70
Sample,111216,0,"_hat_000.wav",70
Sample,111278,0,"_dr_017.wav",70
Sample,111283,0,"piarp_025.wav",70
Sample,111283,0,"_ki_035.wav",70
Sample,111345,0,"_dr_018.wav",70
Sample,111351,0,"ld4x_023.wav",70
Sample,111351,0,"piarp_020.wav",70
Sample,111351,0,"_kurasshu_000.wav",70
Sample,111351,0,"_ki_000.wav",70
Sample,111351,0,"_sna_001.wav",70
Sample,111418,0,"_dr_019.wav",70
Sample,111418,0,"piarp_047.wav",70
Sample,111486,0,"_dr_020.wav",70
Sample,111486,0,"_hat_001.wav",70
Sample,111486,0,"piarp_023.wav",70
Sample,111542,0,"_dr_021.wav",70
Sample,111554,0,"piarp_019.wav",70
Sample,111621,0,"_kurasshu_003.wav",70
Sample,111621,0,"piarp_011.wav",70
Sample,111621,0,"bunyu_000.wav",70
Sample,111621,0,"_ki_000.wav",70
Sample,111621,0,"pd1_022.wav",70
Sample,111621,0,"_dr_000.wav",70
Sample,111621,0,"ld4x_112.wav",70
Sample,111689,0,"piarp_023.wav",70
Sample,111756,0,"_dr_001.wav",70
Sample,111756,0,"piarp_013.wav",70
Sample,111756,0,"_hat_000.wav",70
Sample,111818,0,"_dr_002.wav",70
Sample,111824,0,"piarp_025.wav",70
Sample,111886,0,"_dr_003.wav",70
Sample,111891,0,"_ki_000.wav",70
Sample,111891,0,"piarp_016.wav",70
Sample,111891,0,"_sna_000.wav",70
Sample,111959,0,"piarp_026.wav",70
Sample,112027,0,"_hat_000.wav",70
Sample,112027,0,"piarp_017.wav",70
Sample,112027,0,"_dr_004.wav",70
Sample,112027,0,"_kurasshu_000.wav",70
Sample,112094,0,"piarp_058.wav",70
Sample,112156,0,"_dr_005.wav",70
Sample,112162,0,"piarp_059.wav",70
Sample,112162,0,"_ki_000.wav",70
Sample,112224,0,"_dr_006.wav",70
Sample,112229,0,"piarp_058.wav",70
Sample,112291,0,"_dr_007.wav",70
Sample,112297,0,"_kurasshu_000.wav",70
Sample,112297,0,"_hat_000.wav",70
Sample,112297,0,"piarp_017.wav",70
Sample,112364,0,"piarp_026.wav",70
Sample,112426,0,"_dr_008.wav",70
Sample,112432,0,"_ki_000.wav",70
Sample,112432,0,"piarp_016.wav",70
Sample,112432,0,"_sna_001.wav",70
Sample,112500,0,"piarp_025.wav",70
Sample,112567,0,"piarp_013.wav",70
Sample,112567,0,"_hat_001.wav",70
Sample,112567,0,"_kurasshu_000.wav",70
Sample,112567,0,"_dr_009.wav",70
Sample,112635,0,"piarp_023.wav",70
Sample,112702,0,"piarp_059.wav",70
Sample,112702,0,"bunyu_007.wav",70
Sample,112702,0,"pd1_016.wav",70
Sample,112702,0,"ld4x_023.wav",70
Sample,112702,0,"_ki_000.wav",70
Sample,112702,0,"ld4x_039.wav",70
Sample,112702,0,"_kurasshu_000.wav",70
Sample,112702,0,"__hyuooooooooo.wav",70
Sample,112702,0,"_dr_010.wav",70
Sample,112770,0,"piarp_017.wav",70
Sample,112826,0,"_dr_011.wav",70
Sample,112837,0,"piarp_026.wav",70
Sample,112837,0,"_kurasshu_000.wav",70
Sample,112837,0,"_ki_000.wav",70
Sample,112837,0,"_hat_000.wav",70
Sample,112905,0,"piarp_016.wav",70
Sample,112967,0,"_dr_012.wav",70
Sample,112972,0,"_sna_000.wav",70
Sample,112972,0,"piarp_025.wav",70
Sample,113040,0,"piarp_020.wav",70
Sample,113108,0,"_hat_000.wav",70
Sample,113108,0,"_dr_013.wav",70
Sample,113108,0,"_kurasshu_000.wav",70
Sample,113108,0,"_ki_000.wav",70
Sample,113108,0,"ld4x_105.wav",70
Sample,113108,0,"ld4x_039.wav",70
Sample,113108,0,"piarp_013.wav",70
Sample,113175,0,"piarp_023.wav",70
Sample,113243,0,"piarp_059.wav",70
Sample,113243,0,"_dr_014.wav",70
Sample,113305,0,"_dr_015.wav",70
Sample,113310,0,"piarp_017.wav",70
Sample,113378,0,"_dr_016.wav",70
Sample,113378,0,"piarp_026.wav",70
Sample,113378,0,"_hat_000.wav",70
Sample,113378,0,"_kurasshu_000.wav",70
Sample,113378,0,"_ki_000.wav",70
Sample,113440,0,"_dr_017.wav",70
Sample,113445,0,"piarp_016.wav",70
Sample,113507,0,"_dr_018.wav",70
Sample,113513,0,"ld4x_113.wav",70
Sample,113513,0,"_sna_001.wav",70
Sample,113513,0,"ld4x_114.wav",70
Sample,113581,0,"_dr_019.wav",70
Sample,113648,0,"_dr_020.wav",70
Sample,113648,0,"_hat_001.wav",70
Sample,113648,0,"_kurasshu_001.wav",70
Sample,113648,0,"_ki_001.wav",70
Sample,113682,0,"_ki_001.wav",70
Sample,113682,0,"_kurasshu_001.wav",70
Sample,113704,0,"_dr_021.wav",70
Sample,113716,0,"_ki_001.wav",70
Sample,113716,0,"_kurasshu_001.wav",70
Sample,113750,0,"_kurasshu_001.wav",70
Sample,113750,0,"_ki_001.wav",70
Sample,113783,0,"bunyu_008.wav",70
Sample,113783,0,"_dr_000.wav",70
Sample,113783,0,"ld4x_115.wav",70
Sample,113783,0,"_ki_000.wav",70
Sample,113783,0,"ld4x_016.wav",70
Sample,113783,0,"pd1_006.wav",70
Sample,113918,0,"_hat_000.wav",70
Sample,113918,0,"_dr_001.wav",70
Sample,113918,0,"_kurasshu_000.wav",70
Sample,113980,0,"_dr_002.wav",70
Sample,114048,0,"_dr_003.wav",70
Sample,114054,0,"_ki_000.wav",70
Sample,114054,0,"_kurasshu_003.wav",70
Sample,114054,0,"_sna_000.wav",70
Sample,114189,0,"_hat_000.wav",70
Sample,114189,0,"_dr_004.wav",70
Sample,114318,0,"_dr_005.wav",70
Sample,114324,0,"_ki_000.wav",70
Sample,114386,0,"_dr_006.wav",70
Sample,114453,0,"_dr_007.wav",70
Sample,114459,0,"_kurasshu_000.wav",70
Sample,114459,0,"_hat_000.wav",70
Sample,114588,0,"_dr_008.wav",70
Sample,114594,0,"_kurasshu_000.wav",70
Sample,114594,0,"_sna_001.wav",70
Sample,114594,0,"_ki_000.wav",70
Sample,114729,0,"_dr_009.wav",70
Sample,114729,0,"_hat_001.wav",70
Sample,114729,0,"_kurasshu_001.wav",70
Sample,114729,0,"_ki_001.wav",70
Sample,114797,0,"_kurasshu_001.wav",70
Sample,114797,0,"_ki_001.wav",70
Sample,114864,0,"_ki_000.wav",70
Sample,114864,0,"_kurasshu_000.wav",70
Sample,114864,0,"ld4x_116.wav",70
Sample,114864,0,"bunyu_001.wav",70
Sample,114864,0,"_dr_010.wav",70
Sample,114864,0,"pd1_011.wav",70
Sample,114864,0,"ld4x_036.wav",70
Sample,114988,0,"_dr_011.wav",70
Sample,115000,0,"_hat_000.wav",70
Sample,115000,0,"_kurasshu_000.wav",70
Sample,115000,0,"_ki_000.wav",70
Sample,115129,0,"_dr_012.wav",70
Sample,115135,0,"_sna_000.wav",70
Sample,115270,0,"_dr_013.wav",70
Sample,115270,0,"_ki_000.wav",70
Sample,115270,0,"_hat_000.wav",70
Sample,115270,0,"ld4x_117.wav",70
Sample,115270,0,"_kurasshu_000.wav",70
Sample,115270,0,"ld4x_109.wav",70
Sample,115405,0,"_ki_000.wav",70
Sample,115405,0,"_kurasshu_000.wav",70
Sample,115405,0,"_dr_014.wav",70
Sample,115467,0,"_dr_015.wav",70
Sample,115540,0,"_hat_000.wav",70
Sample,115540,0,"_dr_016.wav",70
Sample,115602,0,"_dr_017.wav",70
Sample,115670,0,"_dr_018.wav",70
Sample,115675,0,"_ki_000.wav",70
Sample,115675,0,"ld4x_118.wav",70
Sample,115675,0,"_kurasshu_000.wav",70
Sample,115675,0,"ld4x_027.wav",70
Sample,115675,0,"_sna_001.wav",70
Sample,115743,0,"_dr_019.wav",70
Sample,115810,0,"_kurasshu_001.wav",70
Sample,115810,0,"_ki_001.wav",70
Sample,115810,0,"_hat_001.wav",70
Sample,115810,0,"_dr_020.wav",70
Sample,115867,0,"_dr_021.wav",70
Sample,115878,0,"_kurasshu_001.wav",70
Sample,115878,0,"_ki_001.wav",70
Sample,115912,0,"_kurasshu_001.wav",70
Sample,115912,0,"_ki_001.wav",70
Sample,115945,0,"_kurasshu_003.wav",70
Sample,115945,0,"_dr_000.wav",70
Sample,115945,0,"ld4x_119.wav",70
Sample,115945,0,"pd1_016.wav",70
Sample,115945,0,"_ki_000.wav",70
Sample,115945,0,"bunyu_009.wav",70
Sample,115945,0,"ld4x_073.wav",70
Sample,116081,0,"_hat_000.wav",70
Sample,116081,0,"_dr_001.wav",70
Sample,116143,0,"_dr_002.wav",70
Sample,116210,0,"_dr_003.wav",70
Sample,116216,0,"_ki_000.wav",70
Sample,116216,0,"_sna_000.wav",70
Sample,116216,0,"ld4x_114.wav",70
Sample,116351,0,"_dr_004.wav",70
Sample,116351,0,"_kurasshu_000.wav",70
Sample,116351,0,"_hat_000.wav",70
Sample,116480,0,"_dr_005.wav",70
Sample,116486,0,"bunyu_010.wav",70
Sample,116486,0,"_ki_000.wav",70
Sample,116486,0,"ld4x_120.wav",70
Sample,116548,0,"_dr_006.wav",70
Sample,116615,0,"_dr_007.wav",70
Sample,116621,0,"_kurasshu_002.wav",70
Sample,116621,0,"_hat_000.wav",70
Sample,116621,0,"ld4x_077.wav",70
Sample,116751,0,"_dr_008.wav",70
Sample,116756,0,"_sna_001.wav",70
Sample,116756,0,"_ki_000.wav",70
Sample,116891,0,"_ki_035.wav",70
Sample,116891,0,"_hat_001.wav",70
Sample,116891,0,"ld4x_120.wav",70
Sample,116891,0,"_dr_009.wav",70
Sample,116959,0,"_ki_035.wav",70
Sample,117027,0,"bunyu_011.wav",70
Sample,117027,0,"_ki_000.wav",70
Sample,117027,0,"ld4x_073.wav",70
Sample,117027,0,"_kurasshu_004.wav",70
Sample,117027,0,"pd1_028.wav",70
Sample,117027,0,"_dr_010.wav",70
Sample,117094,0,"piarp_033.wav",70
Sample,117150,0,"_dr_011.wav",70
Sample,117162,0,"_hat_000.wav",70
Sample,117291,0,"_dr_012.wav",70
Sample,117297,0,"_ki_035.wav",70
Sample,117297,0,"_sna_000.wav",70
Sample,117297,0,"ld4x_121.wav",70
Sample,117432,0,"_kurasshu_000.wav",70
Sample,117432,0,"_hat_000.wav",70
Sample,117432,0,"_ki_000.wav",70
Sample,117432,0,"ld4x_023.wav",70
Sample,117432,0,"_dr_013.wav",70
Sample,117500,0,"piarp_036.wav",70
Sample,117500,0,"ld4x_122.wav",70
Sample,117567,0,"ld4x_123.wav",70
Sample,117567,0,"piarp_007.wav",70
Sample,117567,0,"_dr_014.wav",70
Sample,117567,0,"pd1_003.wav",70
Sample,117567,0,"bunyu_012.wav",70
Sample,117629,0,"_dr_015.wav",70
Sample,117702,0,"_hat_000.wav",70
Sample,117702,0,"_dr_016.wav",70
Sample,117702,0,"ld4x_124.wav",70
Sample,117764,0,"_dr_017.wav",70
Sample,117832,0,"_dr_018.wav",70
Sample,117837,0,"_ki_000.wav",70
Sample,117837,0,"pi4_037.wav",70
Sample,117837,0,"ld4x_106.wav",70
Sample,117837,0,"_kurasshu_000.wav",70
Sample,117837,0,"piarp_015.wav",70
Sample,117837,0,"_sna_001.wav",70
Sample,117905,0,"piarp_016.wav",70
Sample,117905,0,"_dr_019.wav",70
Sample,117972,0,"_dr_020.wav",70
Sample,117972,0,"piarp_036.wav",70
Sample,117972,0,"_ki_000.wav",70
Sample,117972,0,"_kurasshu_000.wav",70
Sample,117972,0,"_hat_001.wav",70
Sample,118029,0,"_dr_021.wav",70
Sample,118040,0,"piarp_017.wav",70
Sample,118108,0,"pi4_085.wav",70
Sample,118108,0,"pi4_046.wav",70
Sample,118108,0,"piarp_010.wav",70
Sample,118108,0,"pd1_006.wav",70
Sample,118108,0,"pi4_086.wav",70
Sample,118108,0,"_dr_000.wav",70
Sample,118108,0,"bunyu_008.wav",70
Sample,118108,0,"_ki_000.wav",70
Sample,118108,0,"pi4_087.wav",70
Sample,118175,0,"piarp_011.wav",70
Sample,118243,0,"_kurasshu_000.wav",70
Sample,118243,0,"piarp_012.wav",70
Sample,118243,0,"_hat_000.wav",70
Sample,118243,0,"_dr_001.wav",70
Sample,118305,0,"_dr_002.wav",70
Sample,118310,0,"piarp_047.wav",70
Sample,118372,0,"_dr_003.wav",70
Sample,118378,0,"pi4_074.wav",70
Sample,118378,0,"piarp_014.wav",70
Sample,118378,0,"_ki_000.wav",70
Sample,118378,0,"_sna_000.wav",70
Sample,118378,0,"pi4_089.wav",70
Sample,118378,0,"pi4_040.wav",70
Sample,118445,0,"piarp_016.wav",70
Sample,118513,0,"_dr_004.wav",70
Sample,118513,0,"piarp_027.wav",70
Sample,118513,0,"_kurasshu_000.wav",70
Sample,118513,0,"_hat_000.wav",70
Sample,118581,0,"piarp_037.wav",70
Sample,118643,0,"_dr_005.wav",70
Sample,118648,0,"pi4_090.wav",70
Sample,118648,0,"_ki_000.wav",70
Sample,118648,0,"piarp_017.wav",70
Sample,118710,0,"_dr_006.wav",70
Sample,118716,0,"piarp_027.wav",70
Sample,118778,0,"_dr_007.wav",70
Sample,118783,0,"piarp_016.wav",70
Sample,118783,0,"_kurasshu_000.wav",70
Sample,118783,0,"pi4_052.wav",70
Sample,118783,0,"_hat_000.wav",70
Sample,118851,0,"piarp_014.wav",70
Sample,118913,0,"_dr_008.wav",70
Sample,118918,0,"pi4_006.wav",70
Sample,118918,0,"_kurasshu_003.wav",70
Sample,118918,0,"_ki_000.wav",70
Sample,118918,0,"pi4_091.wav",70
Sample,118918,0,"pi4_004.wav",70
Sample,118918,0,"_sna_001.wav",70
Sample,118918,0,"piarp_047.wav",70
Sample,118986,0,"piarp_012.wav",70
Sample,119054,0,"_hat_001.wav",70
Sample,119054,0,"_dr_009.wav",70
Sample,119054,0,"piarp_032.wav",70
Sample,119121,0,"piarp_010.wav",70
Sample,119189,0,"bunyu_013.wav",70
Sample,119189,0,"pi4_094.wav",70
Sample,119189,0,"pi4_092.wav",70
Sample,119189,0,"_ki_000.wav",70
Sample,119189,0,"piarp_022.wav",70
Sample,119189,0,"pd1_027.wav",70
Sample,119189,0,"pi4_095.wav",70
Sample,119189,0,"_dr_010.wav",70
Sample,119256,0,"piarp_019.wav",70
Sample,119313,0,"_dr_011.wav",70
Sample,119324,0,"_kurasshu_000.wav",70
Sample,119324,0,"_hat_000.wav",70
Sample,119324,0,"piarp_023.wav",70
Sample,119391,0,"piarp_047.wav",70
Sample,119453,0,"_dr_012.wav",70
Sample,119459,0,"_kurasshu_003.wav",70
Sample,119459,0,"piarp_020.wav",70
Sample,119459,0,"_ki_000.wav",70
Sample,119459,0,"_sna_000.wav",70
Sample,119527,0,"piarp_025.wav",70
Sample,119594,0,"_hat_000.wav",70
Sample,119594,0,"_ki_000.wav",70
Sample,119594,0,"piarp_035.wav",70
Sample,119594,0,"pi4_059.wav",70
Sample,119594,0,"_dr_013.wav",70
Sample,119662,0,"piarp_021.wav",70
Sample,119729,0,"_dr_014.wav",70
Sample,119729,0,"piarp_028.wav",70
Sample,119791,0,"_dr_015.wav",70
Sample,119797,0,"piarp_021.wav",70
Sample,119864,0,"_dr_016.wav",70
Sample,119864,0,"_kurasshu_002.wav",70
Sample,119864,0,"_hat_000.wav",70
Sample,119864,0,"_ki_000.wav",70
Sample,119864,0,"piarp_035.wav",70
Sample,119926,0,"_dr_017.wav",70
Sample,119932,0,"piarp_025.wav",70
Sample,119994,0,"_dr_018.wav",70
Sample,120000,0,"piarp_020.wav",70
Sample,120000,0,"_sna_001.wav",70
Sample,120000,0,"pi4_051.wav",70
Sample,120000,0,"pi4_097.wav",70
Sample,120067,0,"_dr_019.wav",70
Sample,120067,0,"piarp_047.wav",70
Sample,120135,0,"_hat_001.wav",70
Sample,120135,0,"_kurasshu_001.wav",70
Sample,120135,0,"piarp_023.wav",70
Sample,120135,0,"_ki_001.wav",70
Sample,120135,0,"_dr_020.wav",70
Sample,120191,0,"_dr_021.wav",70
Sample,120202,0,"_kurasshu_001.wav",70
Sample,120202,0,"_ki_001.wav",70
Sample,120202,0,"piarp_019.wav",70
Sample,120270,0,"pd1_029.wav",70
Sample,120270,0,"pi4_101.wav",70
Sample,120270,0,"_dr_000.wav",70
Sample,120270,0,"ld4x_131.wav",70
Sample,120270,0,"pi4_100.wav",70
Sample,120270,0,"ld4x_129.wav",70
Sample,120270,0,"pi4_099.wav",70
Sample,120270,0,"piarp_011.wav",70
Sample,120270,0,"pi4_098.wav",70
Sample,120270,0,"bunyu_014.wav",70
Sample,120270,0,"ld4x_130.wav",70
Sample,120337,0,"piarp_023.wav",70
Sample,120405,0,"_dr_001.wav",70
Sample,120405,0,"_sna_002.wav",70
Sample,120405,0,"piarp_013.wav",70
Sample,120405,0,"_hat_000.wav",70
Sample,120467,0,"_dr_002.wav",70
Sample,120472,0,"piarp_025.wav",70
Sample,120534,0,"_dr_003.wav",70
Sample,120540,0,"pi4_041.wav",70
Sample,120540,0,"piarp_016.wav",70
Sample,120608,0,"piarp_026.wav",70
Sample,120675,0,"piarp_017.wav",70
Sample,120675,0,"_hat_000.wav",70
Sample,120675,0,"_dr_004.wav",70
Sample,120743,0,"piarp_058.wav",70
Sample,120805,0,"_dr_005.wav",70
Sample,120810,0,"_sna_002.wav",70
Sample,120810,0,"piarp_059.wav",70
Sample,120872,0,"_dr_006.wav",70
Sample,120878,0,"piarp_058.wav",70
Sample,120940,0,"_dr_007.wav",70
Sample,120945,0,"piarp_017.wav",70
Sample,120945,0,"_hat_000.wav",70
Sample,120945,0,"pi4_048.wav",70
Sample,121013,0,"piarp_026.wav",70
Sample,121075,0,"_dr_008.wav",70
Sample,121081,0,"piarp_016.wav",70
Sample,121148,0,"piarp_025.wav",70
Sample,121216,0,"_hat_001.wav",70
Sample,121216,0,"_sna_002.wav",70
Sample,121216,0,"_dr_009.wav",70
Sample,121216,0,"piarp_013.wav",70
Sample,121216,0,"pi4_102.wav",70
Sample,121283,0,"piarp_023.wav",70
Sample,121351,0,"ld4x_132.wav",70
Sample,121351,0,"_dr_010.wav",70
Sample,121351,0,"ld4x_014.wav",70
Sample,121351,0,"piarp_009.wav",70
Sample,121351,0,"ld4x_133.wav",70
Sample,121418,0,"piarp_033.wav",70
Sample,121475,0,"_dr_011.wav",70
Sample,121486,0,"piarp_003.wav",70
Sample,121486,0,"_sna_002.wav",70
Sample,121486,0,"_hat_000.wav",70
Sample,121554,0,"piarp_013.wav",70
Sample,121615,0,"_dr_012.wav",70
Sample,121621,0,"_ki_022.wav",70
Sample,121621,0,"_kurasshu_001.wav",70
Sample,121621,0,"piarp_034.wav",70
Sample,121689,0,"piarp_015.wav",70
Sample,121689,0,"_ki_023.wav",70
Sample,121689,0,"_kurasshu_001.wav",70
Sample,121756,0,"_dr_013.wav",70
Sample,121756,0,"_ki_024.wav",70
Sample,121756,0,"piarp_016.wav",70
Sample,121756,0,"_hat_000.wav",70
Sample,121756,0,"_kurasshu_015.wav",70
Sample,121824,0,"piarp_036.wav",70
Sample,121824,0,"_kurasshu_015.wav",70
Sample,121824,0,"_ki_025.wav",70
Sample,121891,0,"_dr_014.wav",70
Sample,121891,0,"piarp_060.wav",70
Sample,121891,0,"piarp_025.wav",70
Sample,121891,0,"_ki_026.wav",70
Sample,121891,0,"_kurasshu_015.wav",70
Sample,121953,0,"_dr_015.wav",70
Sample,121959,0,"_ki_027.wav",70
Sample,121959,0,"piarp_007.wav",70
Sample,121959,0,"_kurasshu_016.wav",70
Sample,122027,0,"piarp_017.wav",70
Sample,122027,0,"_hat_000.wav",70
Sample,122027,0,"_ki_028.wav",70
Sample,122027,0,"_kurasshu_016.wav",70
Sample,122027,0,"_dr_016.wav",70
Sample,122088,0,"_dr_017.wav",70
Sample,122094,0,"_kurasshu_017.wav",70
Sample,122094,0,"piarp_058.wav",70
Sample,122094,0,"_ki_029.wav",70
Sample,122156,0,"_dr_018.wav",70
Sample,122162,0,"_ki_030.wav",70
Sample,122162,0,"_kurasshu_017.wav",70
Sample,122162,0,"piarp_061.wav",70
Sample,122229,0,"_kurasshu_018.wav",70
Sample,122229,0,"_dr_019.wav",70
Sample,122229,0,"piarp_062.wav",70
Sample,122229,0,"_ki_031.wav",70
Sample,122297,0,"piarp_063.wav",70
Sample,122297,0,"_dr_020.wav",70
Sample,122297,0,"_kurasshu_018.wav",70
Sample,122297,0,"_hat_001.wav",70
Sample,122297,0,"_ki_032.wav",70
Sample,122353,0,"_dr_021.wav",70
Sample,122364,0,"_kurasshu_019.wav",70
Sample,122364,0,"_ki_033.wav",70
Sample,122364,0,"piarp_064.wav",70
Sample,122432,0,"__sugokuiioto.wav",70
Sample,122432,0,"__outr.wav",70
Sample,122432,0,"__kuraaaaaaasshu.wav",70

[TimingPoints]
1114,270.27027027027,4,2,1,50,1,0
53276,270.27027027027,4,1,1,60,1,1
53276,-100,4,2,1,60,0,1
59762,-66.6666666666667,4,2,1,60,0,1
60843,-100,4,2,1,60,0,1
87870,-100,4,2,1,40,0,0
96451,-200,4,2,1,40,0,0
102938,-100,4,2,1,50,0,0
105168,-100,4,2,1,60,0,1
122532,-100,4,2,1,15,0,0

[Colours]
Combo1 : 27,240,252
Combo2 : 5,240,5
Combo3 : 5,5,240
Combo4 : 240,5,5

[HitObjects]
156,152,1114,6,0,P|144:200|156:248,1,95,12|0,0:0|0:0,0:0:0:0:
256,196,1384,1,2,0:0:0:0:
256,196,1519,1,0,0:0:0:0:
358,243,1654,2,0,P|367:197|356:152,1,95,2|0,0:0|0:0,0:0:0:0:
256,24,1924,1,2,0:0:0:0:
256,24,2059,1,0,0:0:0:0:
156,152,2195,6,0,L|48:144,1,95,2|0,0:0|0:0,0:0:0:0:
356,152,2465,2,0,L|464:144,1,95,2|0,0:0|0:0,0:0:0:0:
508,296,2735,1,2,0:0:0:0:
436,360,2870,1,0,0:0:0:0:
340,356,3005,1,2,0:0:0:0:
260,300,3141,1,0,0:0:0:0:
256,204,3276,6,0,L|256:92,1,95,2|0,0:0|0:0,0:0:0:0:
332,24,3546,1,2,0:0:0:0:
332,24,3681,1,0,0:0:0:0:
180,24,3816,1,2,0:0:0:0:
180,24,3951,1,0,0:0:0:0:
180,360,4222,5,0,0:0:0:0:
332,360,4357,2,0,L|328:248,1,95,2|0,0:0|0:0,0:0:0:0:
396,176,4627,1,2,0:0:0:0:
396,176,4762,1,0,0:0:0:0:
180,360,4897,2,0,L|184:248,1,95,2|0,0:0|0:0,0:0:0:0:
116,176,5167,1,2,0:0:0:0:
116,176,5302,1,0,0:0:0:0:
328,265,5438,6,0,P|440:280|496:236,1,190,0|2,0:0|0:0,0:0:0:0:
492,124,5843,1,0,0:0:0:0:
236,216,5978,2,0,P|224:264|236:312,1,95,2|0,0:0|0:0,0:0:0:0:
396,176,6249,2,0,P|408:128|396:80,1,95,2|0,0:0|0:0,0:0:0:0:
256,12,6519,5,2,0:0:0:0:
160,8,6654,1,0,0:0:0:0:
76,48,6789,1,2,0:0:0:0:
44,136,6924,1,0,0:0:0:0:
72,228,7059,2,0,L|188:224,1,95,2|0,0:0|0:0,0:0:0:0:
256,152,7330,1,2,0:0:0:0:
256,152,7465,1,0,0:0:0:0:
124,344,7600,6,0,L|240:340,1,95,2|0,0:0|0:0,0:0:0:0:
400,280,7870,1,2,0:0:0:0:
256,152,8005,1,0,0:0:0:0:
336,368,8141,1,2,0:0:0:0:
320,64,8276,1,2,0:0:0:0:
320,64,8546,5,0,0:0:0:0:
340,224,8681,2,0,L|440:220,1,95,2|0,0:0|0:0,0:0:0:0:
256,328,8951,1,2,0:0:0:0:
256,328,9086,1,0,0:0:0:0:
172,224,9222,2,0,L|176:116,1,95,2|0,0:0|0:0,0:0:0:0:
256,24,9492,1,2,0:0:0:0:
256,24,9627,1,0,0:0:0:0:
336,128,9762,6,0,P|420:168|504:132,1,190,0|2,0:0|0:0,0:0:0:0:
420,52,10168,1,0,0:0:0:0:
328,236,10303,2,0,L|336:344,1,95,2|0,0:0|0:0,0:0:0:0:
444,364,10573,1,2,0:0:0:0:
444,364,10708,1,0,0:0:0:0:
184,236,10843,6,0,L|176:344,1,95,2|0,0:0|0:0,0:0:0:0:
68,364,11113,1,2,0:0:0:0:
68,364,11248,1,0,0:0:0:0:
12,180,11384,2,0,L|108:176,1,95,2|0,0:0|0:0,0:0:0:0:
271,334,11654,2,0,L|175:330,1,95,2|0,0:0|0:0,0:0:0:0:
344,152,11924,6,0,L|348:276,1,95,2|0,0:0|0:0,0:0:0:0:
400,348,12195,1,2,0:0:0:0:
400,348,12330,1,0,0:0:0:0:
496,288,12465,1,2,0:0:0:0:
496,288,12600,1,0,0:0:0:0:
112,348,12870,1,0,0:0:0:0:
16,288,13005,6,0,L|24:172,1,95,2|0,0:0|0:0,0:0:0:0:
136,76,13276,2,0,L|142:170,1,95,2|0,0:0|0:0,0:0:0:0:
256,336,13546,2,0,L|256:232,1,95,2|0,0:0|0:0,0:0:0:0:
376,76,13816,2,0,L|369:170,1,95,2|0,0:0|0:0,0:0:0:0:
496,288,14086,6,0,L|508:96,1,190,2|0,0:0|0:0,0:0:0:0:
267,51,14492,2,0,L|255:240,1,190,2|0,0:0|0:0,0:0:0:0:
364,356,14897,2,0,L|376:236,1,95,2|0,0:0|0:0,0:0:0:0:
4,98,15168,6,0,L|16:288,1,190,2|0,0:0|0:0,0:0:0:0:
256,240,15573,2,0,L|245:51,1,190,2|0,0:0|0:0,0:0:0:0:
84,28,15978,1,2,0:0:0:0:
84,28,16113,1,0,0:0:0:0:
56,188,16249,5,0,0:0:0:0:
57,197,16316,1,0,0:0:0:0:
58,206,16384,1,0,0:0:0:0:
59,215,16451,1,0,0:0:0:0:
60,224,16519,1,0,0:0:0:0:
61,233,16586,1,0,0:0:0:0:
63,242,16654,1,0,0:0:0:0:
65,251,16722,1,0,0:0:0:0:
66,260,16789,1,0,0:0:0:0:
67,269,16857,1,0,0:0:0:0:
69,278,16924,1,0,0:0:0:0:
71,287,16992,1,0,0:0:0:0:
73,296,17059,1,0,0:0:0:0:
75,305,17127,1,0,0:0:0:0:
76,314,17195,1,0,0:0:0:0:
78,323,17262,1,0,0:0:0:0:
80,332,17330,5,2,0:0:0:0:
116,352,17397,1,0,0:0:0:0:
160,356,17465,1,0,0:0:0:0:
200,344,17532,1,0,0:0:0:0:
236,324,17600,1,0,0:0:0:0:
264,292,17668,1,0,0:0:0:0:
280,252,17735,1,0,0:0:0:0:
288,208,17803,1,0,0:0:0:0:
284,164,17870,1,0,0:0:0:0:
272,124,17938,1,0,0:0:0:0:
244,92,18005,1,0,0:0:0:0:
208,68,18073,1,0,0:0:0:0:
168,56,18141,1,0,0:0:0:0:
124,56,18208,1,0,0:0:0:0:
80,60,18276,1,0,0:0:0:0:
40,76,18343,1,0,0:0:0:0:
12,108,18411,6,0,L|20:224,1,95,12|0,0:0|0:0,0:0:0:0:
124,324,18681,1,10,0:0:0:0:
160,348,18749,1,0,0:0:0:0:
200,356,18816,1,0,0:0:0:0:
244,352,18884,1,0,0:0:0:0:
288,332,18951,1,10,0:0:0:0:
328,312,19019,1,0,0:0:0:0:
368,308,19086,1,0,0:0:0:0:
412,312,19154,1,0,0:0:0:0:
452,332,19222,2,8,L|456:200,1,95,10|12,0:0|0:0,0:0:0:0:
316,108,19492,5,2,0:0:0:0:
316,108,19627,2,0,L|318:202,1,95,12|0,0:0|0:0,0:0:0:0:
200,356,19897,2,0,L|204:224,1,95,14|0,0:0|0:0,0:0:0:0:
64,132,20168,2,0,L|66:226,1,95,12|2,0:0|0:0,0:0:0:0:
312,356,20438,5,8,0:0:0:0:
312,356,20505,1,8,0:0:0:0:
312,356,20573,2,0,L|304:148,1,190,14|8,0:0|0:0,0:0:0:0:
400,36,20978,1,0,0:0:0:0:
468,184,21113,2,0,L|472:304,1,95,8|0,0:0|0:0,0:0:0:0:
200,356,21384,2,0,L|204:224,1,95,8|0,0:0|0:0,0:0:0:0:
256,28,21654,5,14,0:0:0:0:
256,28,21789,1,12,0:0:0:0:
312,356,22059,1,12,0:0:0:0:
164,28,22330,1,12,0:0:0:0:
348,28,22465,2,0,L|452:24,1,95,8|0,0:0|0:0,0:0:0:0:
196,280,22735,6,0,P|144:200|168:112,1,190,14|0,0:0|0:0,0:0:0:0:
345,113,23141,2,0,P|367:203|316:280,1,190,14|0,0:0|0:0,0:0:0:0:
196,364,23546,2,0,L|80:356,1,95,14|0,0:0|0:0,0:0:0:0:
315,280,23816,6,0,L|519:272,1,190,14|0,0:0|0:0,0:0:0:0:
196,184,24222,2,0,L|-8:176,1,190,14|0,0:0|0:0,0:0:0:0:
316,80,24627,2,0,L|432:72,1,95,14|0,0:0|0:0,0:0:0:0:
504,272,24897,5,14,0:0:0:0:
492,312,24965,1,0,0:0:0:0:
464,344,25032,1,0,0:0:0:0:
428,364,25100,1,0,0:0:0:0:
384,368,25168,1,10,0:0:0:0:
340,364,25235,1,0,0:0:0:0:
300,344,25303,1,0,0:0:0:0:
272,316,25370,1,0,0:0:0:0:
256,276,25438,5,10,0:0:0:0:
240,316,25505,1,0,0:0:0:0:
208,344,25573,1,0,0:0:0:0:
172,364,25641,1,0,0:0:0:0:
128,368,25708,1,10,0:0:0:0:
84,364,25776,1,0,0:0:0:0:
48,344,25843,1,0,0:0:0:0:
20,312,25911,1,0,0:0:0:0:
8,272,25978,1,14,0:0:0:0:
128,160,26113,6,0,P|140:208|128:260,1,95,14|0,0:0|0:0,0:0:0:0:
66,41,26384,2,0,L|274:33,1,190,14|8,0:0|0:0,0:0:0:0:
384,160,26789,2,0,L|384:272,1,95,2|8,0:0|0:0,0:0:0:0:
350,329,26992,1,8,0:0:0:0:
350,329,27059,2,0,P|302:337|254:329,1,95,10|0,0:0|0:0,0:0:0:0:
100,288,27330,1,10,0:0:0:0:
140,280,27397,1,0,0:0:0:0:
172,252,27465,1,0,0:0:0:0:
192,216,27532,1,0,0:0:0:0:
196,168,27600,1,10,0:0:0:0:
180,128,27668,1,0,0:0:0:0:
152,96,27735,1,0,0:0:0:0:
112,84,27803,1,0,0:0:0:0:
68,84,27870,1,10,0:0:0:0:
28,96,27938,1,0,0:0:0:0:
0,132,28005,5,8,0:0:0:0:
0,132,28073,1,8,0:0:0:0:
0,132,28141,2,0,L|8:240,1,95,14|0,0:0|0:0,0:0:0:0:
112,348,28411,1,0,0:0:0:0:
256,272,28546,1,12,0:0:0:0:
256,272,28681,2,0,L|256:148,1,95,12|0,0:0|0:0,0:0:0:0:
164,44,28951,1,14,0:0:0:0:
348,120,29086,5,8,0:0:0:0:
348,120,29154,1,8,0:0:0:0:
348,120,29222,2,0,L|476:116,1,95,14|0,0:0|0:0,0:0:0:0:
512,264,29492,2,0,P|452:348|372:344,1,190,8|8,0:0|0:0,0:0:0:0:
256,236,29897,1,0,0:0:0:0:
136,344,30032,2,0,P|88:356|44:344,1,95,10|0,0:0|0:0,0:0:0:0:
168,144,30303,2,0,P|256:112|344:144,1,190,14|8,0:0|0:0,0:0:0:0:
72,232,30708,2,0,P|40:144|72:56,1,190,2|8,0:0|0:0,0:0:0:0:
256,236,31113,2,0,P|264:284|256:332,1,95,2|0,0:0|0:0,0:0:0:0:
184,368,31316,5,0,0:0:0:0:
184,368,31384,2,0,L|68:364,1,95,10|0,0:0|0:0,0:0:0:0:
8,224,31654,1,10,0:0:0:0:
52,232,31722,1,0,0:0:0:0:
92,224,31789,1,0,0:0:0:0:
128,200,31857,1,0,0:0:0:0:
152,164,31924,1,10,0:0:0:0:
164,124,31992,1,0,0:0:0:0:
164,80,32059,1,0,0:0:0:0:
144,40,32127,1,0,0:0:0:0:
108,12,32195,2,0,L|52:8,3,47.5,10|0|0|0,0:0|0:0|0:0|0:0,0:0:0:0:
24,112,32465,5,10,0:0:0:0:
42,110,32532,1,0,0:0:0:0:
61,108,32600,1,0,0:0:0:0:
80,106,32668,1,0,0:0:0:0:
98,104,32735,1,2,0:0:0:0:
117,102,32803,1,0,0:0:0:0:
135,100,32870,1,8,0:0:0:0:
154,98,32938,1,0,0:0:0:0:
172,96,33005,1,2,0:0:0:0:
191,94,33073,1,0,0:0:0:0:
210,92,33141,1,8,0:0:0:0:
228,90,33208,1,0,0:0:0:0:
247,89,33276,2,0,L|306:83,3,47.5,2|0|8|8,0:0|0:0|0:0|0:0,0:0:0:0:
392,128,33546,5,10,0:0:0:0:
436,148,33613,1,8,0:0:0:0:
468,184,33681,1,8,0:0:0:0:
480,232,33749,1,8,0:0:0:0:
476,280,33816,1,8,0:0:0:0:
452,320,33884,1,8,0:0:0:0:
416,348,33951,1,8,0:0:0:0:
368,360,34019,1,8,0:0:0:0:
320,356,34086,1,8,0:0:0:0:
280,328,34154,1,8,0:0:0:0:
252,288,34222,1,8,0:0:0:0:
248,240,34289,1,8,0:0:0:0:
260,196,34357,1,8,0:0:0:0:
272,152,34424,1,8,0:0:0:0:
268,104,34492,1,8,0:0:0:0:
240,68,34559,1,8,0:0:0:0:
196,48,34627,5,8,0:0:0:0:
148,48,34695,1,8,0:0:0:0:
108,72,34762,1,8,0:0:0:0:
80,112,34830,1,8,0:0:0:0:
76,160,34897,1,8,0:0:0:0:
96,204,34965,1,8,0:0:0:0:
136,232,35032,1,8,0:0:0:0:
184,236,35100,1,8,0:0:0:0:
232,228,35168,1,8,0:0:0:0:
268,196,35235,1,8,0:0:0:0:
312,176,35303,1,8,0:0:0:0:
360,176,35370,1,8,0:0:0:0:
404,192,35438,1,8,0:0:0:0:
440,224,35505,1,8,0:0:0:0:
456,268,35573,1,8,0:0:0:0:
452,316,35641,1,8,0:0:0:0:
432,356,35708,6,0,L|312:348,1,95,14|0,0:0|0:0,0:0:0:0:
176,364,35978,1,10,0:0:0:0:
204,332,36046,1,0,0:0:0:0:
216,292,36113,1,0,0:0:0:0:
212,248,36181,1,0,0:0:0:0:
192,212,36249,2,0,L|72:204,1,95,10|0,0:0|0:0,0:0:0:0:
360,248,36519,1,10,0:0:0:0:
332,216,36587,1,0,0:0:0:0:
320,176,36654,1,8,0:0:0:0:
324,132,36722,1,0,0:0:0:0:
344,96,36790,6,0,L|464:88,1,95,10|8,0:0|0:0,0:0:0:0:
452,304,37059,1,2,0:0:0:0:
424,336,37127,1,0,0:0:0:0:
384,352,37195,1,10,0:0:0:0:
340,352,37262,1,0,0:0:0:0:
300,340,37330,1,2,0:0:0:0:
268,316,37397,1,0,0:0:0:0:
256,276,37465,1,8,0:0:0:0:
256,88,37600,1,2,0:0:0:0:
152,248,37735,5,8,0:0:0:0:
152,248,37803,1,8,0:0:0:0:
152,248,37870,2,0,L|24:244,1,95,10|0,0:0|0:0,0:0:0:0:
360,248,38141,2,0,L|488:244,1,95,8|0,0:0|0:0,0:0:0:0:
508,184,38343,1,0,0:0:0:0:
508,184,38411,2,0,L|512:128,3,47.5,10|0|0|0,0:0|0:0|0:0|0:0,0:0:0:0:
476,64,38681,2,0,L|360:60,1,95,10|0,0:0|0:0,0:0:0:0:
256,320,38951,5,14,0:0:0:0:
168,68,39086,1,12,0:0:0:0:
388,220,39222,1,12,0:0:0:0:
124,224,39357,1,12,0:0:0:0:
124,224,39627,1,12,0:0:0:0:
340,68,39762,2,0,L|440:72,1,95,12|0,0:0|0:0,0:0:0:0:
468,148,39965,1,0,0:0:0:0:
468,148,40032,6,0,P|484:248|436:320,1,190,14|0,0:0|0:0,0:0:0:0:
74,318,40438,2,0,P|26:239|44:148,1,190,14|0,0:0|0:0,0:0:0:0:
256,192,40843,2,0,L|256:312,1,95,14|0,0:0|0:0,0:0:0:0:
320,80,41113,6,0,L|512:72,1,190,14|0,0:0|0:0,0:0:0:0:
192,148,41519,2,0,L|0:140,1,190,14|0,0:0|0:0,0:0:0:0:
368,220,41924,2,0,L|476:216,1,95,14|0,0:0|0:0,0:0:0:0:
144,288,42195,5,14,0:0:0:0:
108,264,42262,1,0,0:0:0:0:
88,224,42330,1,0,0:0:0:0:
88,180,42397,1,0,0:0:0:0:
100,140,42465,1,10,0:0:0:0:
132,112,42532,1,0,0:0:0:0:
172,100,42600,1,0,0:0:0:0:
216,96,42668,1,0,0:0:0:0:
256,116,42735,1,10,0:0:0:0:
296,96,42803,1,0,0:0:0:0:
340,100,42871,1,0,0:0:0:0:
380,112,42939,1,0,0:0:0:0:
412,140,43005,1,10,0:0:0:0:
424,180,43074,1,0,0:0:0:0:
424,224,43141,1,0,0:0:0:0:
404,264,43209,1,0,0:0:0:0:
368,288,43276,6,0,L|256:284,1,95,14|0,0:0|0:0,0:0:0:0:
256,172,43546,1,0,0:0:0:0:
412,376,43681,2,0,L|184:368,1,190,14|8,0:0|0:0,0:0:0:0:
256,172,44086,2,0,L|376:176,1,95,14|8,0:0|0:0,0:0:0:0:
424,208,44289,1,8,0:0:0:0:
424,208,44357,6,0,P|432:252|420:304,1,95,10|0,0:0|0:0,0:0:0:0:
256,88,44627,2,0,L|476:96,1,190,8|0,0:0|0:0,0:0:0:0:
328,260,45032,1,0,0:0:0:0:
192,20,45168,2,0,L|72:24,1,95,8|8,0:0|0:0,0:0:0:0:
36,76,45370,1,8,0:0:0:0:
36,76,45438,6,0,P|24:124|36:172,1,95,14|0,0:0|0:0,0:0:0:0:
152,276,45708,1,14,0:0:0:0:
344,148,45843,2,0,P|256:116|168:148,1,190,14|0,0:0|0:0,0:0:0:0:
360,276,46249,2,0,L|464:272,1,95,14|8,0:0|0:0,0:0:0:0:
512,216,46451,1,8,0:0:0:0:
512,216,46519,6,0,P|520:168|512:120,1,95,14|0,0:0|0:0,0:0:0:0:
256,228,46789,2,0,P|248:274|256:321,1,95,10|0,0:0|0:0,0:0:0:0:
412,364,47059,1,10,0:0:0:0:
412,136,47195,1,2,0:0:0:0:
412,136,47262,1,0,0:0:0:0:
412,136,47330,2,0,L|312:132,1,95,8|2,0:0|0:0,0:0:0:0:
96,328,47600,6,0,L|196:324,1,95,14|0,0:0|0:0,0:0:0:0:
256,276,47803,1,0,0:0:0:0:
256,276,47870,2,0,L|360:280,1,95,10|0,0:0|0:0,0:0:0:0:
416,328,48073,1,0,0:0:0:0:
416,328,48141,1,2,0:0:0:0:
507,136,48276,2,0,L|387:136,1,95,14|12,0:0|0:0,0:0:0:0:
256,20,48546,1,10,0:0:0:0:
100,136,48681,6,0,L|104:248,1,95,14|0,0:0|0:0,0:0:0:0:
256,352,48951,1,10,0:0:0:0:
275,350,49019,1,0,0:0:0:0:
293,348,49086,1,0,0:0:0:0:
312,346,49154,1,0,0:0:0:0:
331,344,49222,1,2,0:0:0:0:
349,342,49289,1,0,0:0:0:0:
368,341,49357,1,0,0:0:0:0:
386,340,49424,1,0,0:0:0:0:
405,339,49492,2,0,L|459:336,3,47.5,2|0|0|0,0:0|0:0|0:0|0:0,0:0:0:0:
512,248,49762,5,10,0:0:0:0:
508,204,49830,1,0,0:0:0:0:
480,172,49897,1,0,0:0:0:0:
440,156,49965,1,0,0:0:0:0:
396,156,50032,1,10,0:0:0:0:
360,176,50100,1,0,0:0:0:0:
340,212,50168,1,8,0:0:0:0:
328,252,50235,1,0,0:0:0:0:
296,280,50303,1,2,0:0:0:0:
256,288,50370,1,0,0:0:0:0:
216,280,50438,1,8,0:0:0:0:
184,252,50505,1,0,0:0:0:0:
168,212,50573,2,0,L|168:152,3,47.5,10|0|8|8,0:0|0:0|0:0|0:0,0:0:0:0:
256,100,50843,5,10,0:0:0:0:
280,96,50911,1,8,0:0:0:0:
304,92,50978,1,8,0:0:0:0:
328,88,51046,1,8,0:0:0:0:
352,84,51113,1,8,0:0:0:0:
376,80,51181,1,8,0:0:0:0:
400,76,51249,1,8,0:0:0:0:
424,72,51316,1,8,0:0:0:0:
448,68,51384,5,8,0:0:0:0:
492,88,51451,1,8,0:0:0:0:
508,132,51519,1,8,0:0:0:0:
500,180,51586,1,8,0:0:0:0:
460,208,51654,1,8,0:0:0:0:
412,208,51722,1,8,0:0:0:0:
372,180,51789,1,8,0:0:0:0:
360,132,51857,1,8,0:0:0:0:
344,88,51924,5,8,0:0:0:0:
304,60,51992,1,8,0:0:0:0:
256,52,52059,1,8,0:0:0:0:
208,60,52127,1,8,0:0:0:0:
168,88,52195,1,8,0:0:0:0:
152,132,52262,1,8,0:0:0:0:
140,180,52330,1,8,0:0:0:0:
100,208,52397,1,8,0:0:0:0:
52,208,52465,1,8,0:0:0:0:
12,180,52533,1,8,0:0:0:0:
4,132,52600,1,8,0:0:0:0:
20,88,52668,1,8,0:0:0:0:
64,68,52735,5,8,0:0:0:0:
76,88,52803,1,8,0:0:0:0:
84,108,52870,1,8,0:0:0:0:
96,128,52938,1,8,0:0:0:0:
108,148,53005,1,8,0:0:0:0:
404,148,53276,5,4,0:0:0:0:
416,128,53343,1,0,0:0:0:0:
428,108,53411,1,0,0:0:0:0:
436,88,53478,1,0,0:0:0:0:
448,68,53546,5,2,0:0:0:0:
416,76,53613,1,0,0:0:0:0:
384,76,53681,1,0,0:0:0:0:
352,68,53749,1,0,0:0:0:0:
324,48,53816,1,2,0:0:0:0:
296,32,53884,1,0,0:0:0:0:
264,20,53951,1,0,0:0:0:0:
232,20,54019,1,0,0:0:0:0:
200,28,54086,1,2,0:0:0:0:
172,44,54154,1,0,0:0:0:0:
148,68,54222,1,0,0:0:0:0:
136,100,54289,1,0,0:0:0:0:
136,132,54357,1,2,0:0:0:0:
148,168,54424,1,0,0:0:0:0:
168,192,54492,1,0,0:0:0:0:
192,212,54559,1,0,0:0:0:0:
224,224,54627,1,2,0:0:0:0:
256,224,54695,1,0,0:0:0:0:
288,216,54762,1,0,0:0:0:0:
316,200,54830,1,0,0:0:0:0:
336,176,54897,5,2,0:0:0:0:
348,208,54965,1,0,0:0:0:0:
364,236,55032,1,0,0:0:0:0:
376,268,55100,1,0,0:0:0:0:
392,300,55168,2,0,L|388:356,3,47.5,2|0|0|0,0:0|0:0|0:0|0:0,0:0:0:0:
305,372,55438,5,2,0:0:0:0:
278,346,55505,1,0,0:0:0:0:
241,332,55573,1,0,0:0:0:0:
203,333,55641,1,0,0:0:0:0:
168,345,55708,1,2,0:0:0:0:
133,364,55776,1,0,0:0:0:0:
94,370,55843,1,0,0:0:0:0:
56,356,55911,1,0,0:0:0:0:
26,333,55978,1,2,0:0:0:0:
10,300,56046,1,0,0:0:0:0:
4,261,56113,1,0,0:0:0:0:
20,227,56181,1,0,0:0:0:0:
44,197,56249,1,2,0:0:0:0:
80,184,56316,1,0,0:0:0:0:
120,184,56384,1,0,0:0:0:0:
156,200,56451,1,0,0:0:0:0:
192,216,56519,5,2,0:0:0:0:
188,180,56586,1,0,0:0:0:0:
192,144,56653,1,0,0:0:0:0:
212,112,56721,1,0,0:0:0:0:
240,88,56788,1,2,0:0:0:0:
276,76,56856,1,0,0:0:0:0:
316,76,56924,1,0,0:0:0:0:
352,88,56991,1,0,0:0:0:0:
380,116,57059,1,2,0:0:0:0:
396,152,57126,1,0,0:0:0:0:
396,192,57194,1,0,0:0:0:0:
376,224,57261,1,0,0:0:0:0:
344,244,57329,1,2,0:0:0:0:
316,272,57396,1,0,0:0:0:0:
300,308,57464,1,0,0:0:0:0:
304,348,57532,1,0,0:0:0:0:
328,380,57600,6,0,L|392:372,3,47.5,2|0|0|0,0:0|0:0|0:0|0:0,0:0:0:0:
424,320,57870,2,0,L|488:312,3,47.5,2|0|0|0,0:0|0:0|0:0|0:0,0:0:0:0:
500,248,58141,5,2,0:0:0:0:
496,224,58208,1,0,0:0:0:0:
492,200,58276,2,0,L|440:192,1,47.5
348,120,58411,1,2,0:0:0:0:
348,120,58478,1,0,0:0:0:0:
348,120,58546,2,0,L|296:128,1,47.5
264,244,58681,5,2,0:0:0:0:
264,244,58748,1,0,0:0:0:0:
264,244,58816,2,0,L|212:236,1,47.5
120,164,58951,1,2,0:0:0:0:
120,164,59018,1,0,0:0:0:0:
120,164,59086,2,0,L|68:172,1,47.5
8,300,59222,5,2,0:0:0:0:
32,340,59289,1,0,0:0:0:0:
72,368,59357,1,0,0:0:0:0:
120,376,59424,1,0,0:0:0:0:
168,372,59492,1,2,0:0:0:0:
212,356,59559,1,0,0:0:0:0:
248,320,59627,1,0,0:0:0:0:
260,272,59695,1,0,0:0:0:0:
256,224,59762,5,6,0:0:0:0:
232,216,59830,1,2,0:0:0:0:
208,208,59897,2,0,L|120:212,1,71.2500027179719,2|0,0:0|0:0,0:0:0:0:
344,324,60032,1,2,0:0:0:0:
352,300,60100,1,2,0:0:0:0:
360,276,60167,2,0,L|356:188,1,71.2500027179719,2|0,0:0|0:0,0:0:0:0:
340,40,60303,5,2,0:0:0:0:
316,32,60371,1,2,0:0:0:0:
292,24,60438,2,0,L|204:28,1,71.2500027179719,2|0,0:0|0:0,0:0:0:0:
428,140,60573,1,2,0:0:0:0:
436,116,60641,1,2,0:0:0:0:
444,92,60708,2,0,L|440:4,1,71.2500027179719,2|0,0:0|0:0,0:0:0:0:
256,172,60843,5,2,0:0:0:0:
264,196,60911,1,0,0:0:0:0:
272,220,60978,1,0,0:0:0:0:
280,244,61046,1,0,0:0:0:0:
288,268,61113,1,2,0:0:0:0:
296,292,61181,1,0,0:0:0:0:
304,316,61249,1,0,0:0:0:0:
312,340,61316,1,0,0:0:0:0:
320,364,61384,5,2,0:0:0:0:
356,376,61451,1,0,0:0:0:0:
392,372,61519,1,0,0:0:0:0:
420,348,61586,1,0,0:0:0:0:
432,312,61654,1,2,0:0:0:0:
424,276,61722,1,0,0:0:0:0:
396,248,61789,1,0,0:0:0:0:
360,240,61857,1,0,0:0:0:0:
324,248,61924,5,2,0:0:0:0:
300,276,61992,1,0,0:0:0:0:
284,308,62059,1,0,0:0:0:0:
260,336,62127,1,0,0:0:0:0:
224,348,62195,1,2,0:0:0:0:
188,352,62262,1,0,0:0:0:0:
152,340,62330,1,0,0:0:0:0:
120,316,62397,1,0,0:0:0:0:
100,284,62465,1,2,0:0:0:0:
96,248,62532,1,0,0:0:0:0:
104,212,62600,1,0,0:0:0:0:
124,180,62668,1,0,0:0:0:0:
156,156,62735,1,2,0:0:0:0:
192,148,62803,1,0,0:0:0:0:
228,152,62870,1,0,0:0:0:0:
264,168,62938,1,0,0:0:0:0:
292,200,63005,5,2,0:0:0:0:
252,216,63073,1,0,0:0:0:0:
208,216,63141,1,0,0:0:0:0:
168,204,63208,1,0,0:0:0:0:
136,176,63276,1,2,0:0:0:0:
116,140,63343,1,0,0:0:0:0:
112,96,63411,1,0,0:0:0:0:
128,56,63478,1,0,0:0:0:0:
156,24,63546,1,2,0:0:0:0:
196,8,63613,1,0,0:0:0:0:
240,4,63681,1,0,0:0:0:0:
280,12,63749,1,0,0:0:0:0:
316,36,63816,1,2,0:0:0:0:
340,72,63884,1,0,0:0:0:0:
348,112,63951,1,0,0:0:0:0:
340,156,64019,1,0,0:0:0:0:
320,192,64086,5,2,0:0:0:0:
288,172,64154,1,0,0:0:0:0:
248,160,64222,1,0,0:0:0:0:
212,156,64289,1,0,0:0:0:0:
176,164,64357,1,2,0:0:0:0:
144,184,64424,1,0,0:0:0:0:
124,216,64492,1,0,0:0:0:0:
88,232,64559,1,0,0:0:0:0:
48,232,64627,1,2,0:0:0:0:
16,212,64695,1,0,0:0:0:0:
0,176,64762,1,0,0:0:0:0:
4,136,64830,1,0,0:0:0:0:
28,108,64897,1,2,0:0:0:0:
64,96,64965,1,0,0:0:0:0:
100,100,65032,1,0,0:0:0:0:
132,124,65100,1,0,0:0:0:0:
144,160,65168,5,2,0:0:0:0:
140,180,65235,1,0,0:0:0:0:
136,200,65303,2,0,L|140:256,1,47.5
256,340,65438,1,2,0:0:0:0:
260,320,65505,1,0,0:0:0:0:
264,300,65573,2,0,L|260:244,1,47.5
332,128,65708,5,2,0:0:0:0:
352,124,65776,1,0,0:0:0:0:
372,120,65843,1,0,0:0:0:0:
392,116,65911,1,0,0:0:0:0:
412,112,65978,1,2,0:0:0:0:
432,108,66046,1,0,0:0:0:0:
452,104,66113,1,0,0:0:0:0:
472,100,66181,1,0,0:0:0:0:
492,96,66249,5,2,0:0:0:0:
504,132,66316,1,0,0:0:0:0:
504,172,66384,1,0,0:0:0:0:
488,208,66451,1,0,0:0:0:0:
456,228,66519,1,2,0:0:0:0:
420,236,66586,1,0,0:0:0:0:
384,228,66654,1,0,0:0:0:0:
356,204,66722,1,0,0:0:0:0:
340,168,66789,1,2,0:0:0:0:
328,132,66857,1,0,0:0:0:0:
304,104,66924,1,0,0:0:0:0:
272,80,66992,1,0,0:0:0:0:
240,64,67059,1,2,0:0:0:0:
204,52,67127,1,0,0:0:0:0:
164,52,67195,1,0,0:0:0:0:
128,60,67262,1,0,0:0:0:0:
92,76,67330,5,2,0:0:0:0:
64,100,67397,1,0,0:0:0:0:
44,132,67465,1,0,0:0:0:0:
32,168,67532,1,0,0:0:0:0:
32,208,67600,1,2,0:0:0:0:
36,244,67668,1,0,0:0:0:0:
48,280,67735,1,0,0:0:0:0:
68,312,67803,1,0,0:0:0:0:
96,336,67870,1,2,0:0:0:0:
132,348,67938,1,0,0:0:0:0:
168,352,68005,1,0,0:0:0:0:
208,352,68073,1,0,0:0:0:0:
244,340,68141,5,2,0:0:0:0:
246,321,68208,1,0,0:0:0:0:
249,302,68276,1,0,0:0:0:0:
252,283,68343,1,0,0:0:0:0:
256,264,68411,6,0,L|256:200,3,47.5,6|2|2|0,0:0|0:0|0:0|0:0,0:0:0:0:
212,160,68681,2,0,L|100:156,1,95,2|0,0:0|0:0,0:0:0:0:
300,44,68951,1,2,0:0:0:0:
319,43,69019,1,0,0:0:0:0:
337,41,69086,1,0,0:0:0:0:
356,39,69154,1,0,0:0:0:0:
375,38,69222,1,2,0:0:0:0:
393,37,69289,1,0,0:0:0:0:
412,35,69357,1,0,0:0:0:0:
430,35,69424,1,0,0:0:0:0:
449,33,69492,5,2,0:0:0:0:
476,64,69559,1,0,0:0:0:0:
480,108,69627,1,0,0:0:0:0:
464,148,69695,1,0,0:0:0:0:
428,168,69762,2,0,L|360:164,3,47.5,2|0|0|0,0:0|0:0|0:0|0:0,0:0:0:0:
312,188,70032,5,2,0:0:0:0:
296,228,70100,1,0,0:0:0:0:
300,272,70168,1,0,0:0:0:0:
324,308,70235,1,0,0:0:0:0:
364,324,70303,2,0,L|428:320,3,47.5,2|0|0|0,0:0|0:0|0:0|0:0,0:0:0:0:
460,268,70573,5,6,0:0:0:0:
204,356,70708,1,0,0:0:0:0:
164,356,70776,1,0,0:0:0:0:
128,348,70843,1,2,0:0:0:0:
96,328,70911,1,0,0:0:0:0:
80,296,70978,1,0,0:0:0:0:
72,260,71046,1,0,0:0:0:0:
76,224,71113,1,2,0:0:0:0:
96,192,71181,1,0,0:0:0:0:
128,176,71249,1,0,0:0:0:0:
164,168,71316,1,0,0:0:0:0:
200,172,71384,1,2,0:0:0:0:
236,188,71451,1,0,0:0:0:0:
260,216,71519,1,0,0:0:0:0:
272,252,71586,1,0,0:0:0:0:
268,292,71654,5,2,0:0:0:0:
276,328,71722,1,0,0:0:0:0:
300,356,71789,1,0,0:0:0:0:
332,376,71857,1,0,0:0:0:0:
368,380,71924,1,2,0:0:0:0:
408,376,71992,1,0,0:0:0:0:
444,364,72059,1,0,0:0:0:0:
468,332,72127,1,0,0:0:0:0:
476,296,72195,1,6,0:0:0:0:
472,260,72262,1,0,0:0:0:0:
456,224,72330,1,0,0:0:0:0:
428,196,72397,1,0,0:0:0:0:
392,184,72465,1,2,0:0:0:0:
356,184,72532,1,0,0:0:0:0:
320,196,72600,1,0,0:0:0:0:
292,220,72668,1,0,0:0:0:0:
276,256,72735,5,2,0:0:0:0:
256,288,72803,1,0,0:0:0:0:
220,304,72870,1,0,0:0:0:0:
184,308,72938,1,0,0:0:0:0:
148,304,73005,1,2,0:0:0:0:
112,292,73073,1,0,0:0:0:0:
84,264,73141,1,0,0:0:0:0:
68,228,73208,1,0,0:0:0:0:
60,192,73276,1,2,0:0:0:0:
64,156,73343,1,0,0:0:0:0:
84,124,73411,1,0,0:0:0:0:
112,100,73478,1,0,0:0:0:0:
148,84,73546,1,2,0:0:0:0:
184,80,73613,1,0,0:0:0:0:
220,84,73681,1,0,0:0:0:0:
256,96,73749,1,0,0:0:0:0:
284,120,73816,5,6,0:0:0:0:
304,116,73884,1,2,0:0:0:0:
324,112,73951,1,2,0:0:0:0:
344,108,74019,1,0,0:0:0:0:
364,104,74086,5,2,0:0:0:0:
360,132,74154,1,2,0:0:0:0:
352,160,74222,1,2,0:0:0:0:
344,188,74289,1,0,0:0:0:0:
336,216,74357,5,2,0:0:0:0:
372,208,74424,1,2,0:0:0:0:
408,200,74492,1,2,0:0:0:0:
444,192,74559,1,0,0:0:0:0:
480,184,74627,5,2,0:0:0:0:
472,232,74695,1,2,0:0:0:0:
464,280,74762,1,2,0:0:0:0:
452,324,74830,1,0,0:0:0:0:
436,368,74897,6,0,L|376:364,3,47.5,6|0|0|0,0:0|0:0|0:0|0:0,0:0:0:0:
336,312,75168,2,0,L|276:308,3,47.5,2|0|0|0,0:0|0:0|0:0|0:0,0:0:0:0:
220,336,75438,1,2,0:0:0:0:
184,348,75505,1,0,0:0:0:0:
144,348,75573,1,0,0:0:0:0:
116,324,75641,1,0,0:0:0:0:
104,288,75708,1,2,0:0:0:0:
112,252,75776,1,0,0:0:0:0:
140,228,75843,1,0,0:0:0:0:
176,220,75911,1,0,0:0:0:0:
212,228,75978,5,2,0:0:0:0:
252,228,76046,1,0,0:0:0:0:
288,216,76113,1,0,0:0:0:0:
320,192,76181,1,0,0:0:0:0:
336,156,76249,1,2,0:0:0:0:
340,120,76316,1,0,0:0:0:0:
328,84,76384,1,0,0:0:0:0:
304,56,76451,1,0,0:0:0:0:
268,40,76519,5,6,0:0:0:0:
260,72,76586,1,0,0:0:0:0:
252,104,76654,1,0,0:0:0:0:
244,136,76722,1,0,0:0:0:0:
236,168,76789,1,2,0:0:0:0:
228,200,76857,1,0,0:0:0:0:
220,232,76924,1,0,0:0:0:0:
212,264,76992,1,0,0:0:0:0:
200,296,77059,5,2,0:0:0:0:
164,284,77127,1,0,0:0:0:0:
136,260,77195,1,0,0:0:0:0:
116,228,77262,1,0,0:0:0:0:
112,188,77330,1,2,0:0:0:0:
120,152,77397,1,0,0:0:0:0:
140,120,77465,1,0,0:0:0:0:
168,96,77532,1,0,0:0:0:0:
204,84,77600,1,2,0:0:0:0:
244,84,77668,1,0,0:0:0:0:
280,88,77735,1,0,0:0:0:0:
316,104,77803,1,0,0:0:0:0:
340,132,77870,1,2,0:0:0:0:
356,168,77938,1,0,0:0:0:0:
360,204,78005,1,0,0:0:0:0:
356,244,78073,1,0,0:0:0:0:
336,276,78141,6,0,L|280:272,3,47.5,6|0|0|0,0:0|0:0|0:0|0:0,0:0:0:0:
236,320,78411,1,2,0:0:0:0:
192,336,78478,1,0,0:0:0:0:
144,340,78546,1,0,0:0:0:0:
100,328,78613,1,0,0:0:0:0:
64,296,78681,1,2,0:0:0:0:
48,252,78749,1,0,0:0:0:0:
48,204,78816,1,0,0:0:0:0:
72,160,78884,1,0,0:0:0:0:
112,136,78951,1,2,0:0:0:0:
160,132,79019,1,0,0:0:0:0:
208,136,79086,1,0,0:0:0:0:
248,164,79154,1,0,0:0:0:0:
272,208,79221,6,0,L|268:312,1,95,6|0,0:0|0:0,0:0:0:0:
132,352,79492,2,0,L|76:348,3,47.5,2|0|0|0,0:0|0:0|0:0|0:0,0:0:0:0:
76,276,79762,2,0,L|20:272,3,47.5,2|0|0|0,0:0|0:0|0:0|0:0,0:0:0:0:
20,200,80032,5,2,0:0:0:0:
8,160,80100,1,0,0:0:0:0:
12,116,80168,1,0,0:0:0:0:
32,80,80235,1,0,0:0:0:0:
68,56,80303,1,2,0:0:0:0:
108,48,80370,1,0,0:0:0:0:
152,52,80438,1,0,0:0:0:0:
192,72,80505,1,0,0:0:0:0:
220,104,80573,1,2,0:0:0:0:
228,148,80641,1,0,0:0:0:0:
228,192,80708,1,0,0:0:0:0:
204,228,80776,1,0,0:0:0:0:
164,248,80843,5,2,0:0:0:0:
156,232,80911,1,0,0:0:0:0:
148,216,80978,1,0,0:0:0:0:
140,200,81046,1,0,0:0:0:0:
132,184,81113,1,2,0:0:0:0:
124,168,81181,1,0,0:0:0:0:
116,152,81249,1,0,0:0:0:0:
108,136,81316,1,0,0:0:0:0:
100,116,81384,5,2,0:0:0:0:
60,132,81451,1,0,0:0:0:0:
36,168,81519,1,0,0:0:0:0:
36,212,81586,1,0,0:0:0:0:
60,248,81654,1,2,0:0:0:0:
96,268,81722,1,0,0:0:0:0:
140,268,81789,1,0,0:0:0:0:
180,252,81857,1,0,0:0:0:0:
204,220,81924,1,2,0:0:0:0:
212,176,81992,1,0,0:0:0:0:
196,136,82059,1,0,0:0:0:0:
180,96,82127,1,0,0:0:0:0:
184,52,82195,1,2,0:0:0:0:
212,20,82262,1,0,0:0:0:0:
256,12,82330,1,0,0:0:0:0:
296,20,82397,1,0,0:0:0:0:
328,52,82465,5,2,0:0:0:0:
332,96,82532,1,0,0:0:0:0:
316,136,82600,1,0,0:0:0:0:
300,176,82667,1,0,0:0:0:0:
308,220,82735,1,2,0:0:0:0:
332,252,82802,1,0,0:0:0:0:
372,268,82870,1,0,0:0:0:0:
416,268,82937,1,0,0:0:0:0:
452,248,83005,5,2,0:0:0:0:
448,228,83073,1,2,0:0:0:0:
444,208,83141,2,0,L|448:128,1,47.5,2|0,0:0|0:0,0:0:0:0:
294,88,83276,1,2,0:0:0:0:
298,108,83344,1,2,0:0:0:0:
302,128,83412,2,0,L|298:208,1,47.5,2|0,0:0|0:0,0:0:0:0:
256,332,83546,6,0,L|144:328,1,95,6|0,0:0|0:0,0:0:0:0:
12,212,83816,1,2,0:0:0:0:
48,220,83884,1,0,0:0:0:0:
84,220,83951,1,2,0:0:0:0:
120,212,84019,1,0,0:0:0:0:
156,196,84086,1,2,0:0:0:0:
68,24,84222,1,2,0:0:0:0:
68,24,84289,1,0,0:0:0:0:
68,24,84357,2,0,P|60:68|72:116,1,95
184,268,84627,5,2,0:0:0:0:
220,280,84695,1,0,0:0:0:0:
256,284,84762,1,0,0:0:0:0:
296,280,84830,1,0,0:0:0:0:
332,272,84897,1,2,0:0:0:0:
364,248,84965,1,0,0:0:0:0:
388,220,85032,1,0,0:0:0:0:
404,184,85100,1,0,0:0:0:0:
412,148,85168,5,2,0:0:0:0:
396,136,85235,1,0,0:0:0:0:
380,124,85303,2,0,L|328:128,1,47.5
256,36,85438,1,2,0:0:0:0:
240,48,85505,1,0,0:0:0:0:
224,60,85573,2,0,L|172:56,1,47.5
76,128,85708,6,0,L|80:168,4,31.6666666666667,2|0|0|0|0,0:0|0:0|0:0|0:0|0:0,0:0:0:0:
124,224,85978,2,0,P|172:236|220:224,1,95,2|0,0:0|0:0,0:0:0:0:
256,156,86181,1,0,0:0:0:0:
256,156,86249,2,0,L|252:40,1,95,2|0,0:0|0:0,0:0:0:0:
180,24,86451,1,0,0:0:0:0:
180,24,86519,2,0,L|72:20,1,95,2|0,0:0|0:0,0:0:0:0:
256,296,86789,6,0,L|364:292,1,95,2|0,0:0|0:0,0:0:0:0:
417,244,86992,1,0,0:0:0:0:
417,244,87059,1,0,0:0:0:0:
94,244,87195,2,0,P|82:289|92:336,1,95,2|0,0:0|0:0,0:0:0:0:
420,336,87465,2,0,P|429:289|417:244,1,95,2|0,0:0|0:0,0:0:0:0:
256,96,87735,5,0,0:0:0:0:
256,96,87803,1,0,0:0:0:0:
256,96,87870,1,4,0:0:0:0:
160,72,96519,6,0,L|372:60,1,190,4|0,0:0|0:0,0:0:0:0:
352,312,97600,2,0,L|140:324,1,190
160,324,98681,6,0,L|156:264,1,47.5,4|0,0:0|0:0,0:0:0:0:
148,152,98951,2,0,P|124:148|96:152,1,47.5
352,324,99222,2,0,L|356:264,1,47.5,4|0,0:0|0:0,0:0:0:0:
364,152,99492,2,0,P|388:148|416:152,1,47.5
256,256,99762,5,2,0:0:0:0:
232,252,99830,1,0,0:0:0:0:
208,248,99897,1,0,0:0:0:0:
184,244,99965,1,0,0:0:0:0:
160,240,100032,1,2,0:0:0:0:
136,236,100100,1,0,0:0:0:0:
112,232,100168,1,0,0:0:0:0:
88,228,100235,1,0,0:0:0:0:
64,224,100303,2,0,L|32:220,7,23.75,2|0|0|0|2|0|0|0,0:0|0:0|0:0|0:0|0:0|0:0|0:0|0:0,0:0:0:0:
16,148,100843,5,6,0:0:0:0:
44,152,100911,1,0,0:0:0:0:
72,152,100978,1,0,0:0:0:0:
100,148,101046,1,0,0:0:0:0:
128,140,101113,1,2,0:0:0:0:
152,128,101181,1,0,0:0:0:0:
176,112,101249,1,0,0:0:0:0:
196,92,101316,1,0,0:0:0:0:
208,68,101384,2,0,L|212:32,7,23.75,2|0|0|0|2|0|0|0,0:0|0:0|0:0|0:0|0:0|0:0|0:0|0:0,0:0:0:0:
301,44,101924,5,6,0:0:0:0:
304,68,101992,1,0,0:0:0:0:
316,92,102059,1,0,0:0:0:0:
336,112,102126,1,0,0:0:0:0:
360,128,102194,1,2,0:0:0:0:
384,140,102262,1,0,0:0:0:0:
412,148,102329,1,0,0:0:0:0:
440,152,102397,1,0,0:0:0:0:
468,152,102465,2,0,L|500:148,7,23.75,2|0|0|0|2|0|0|0,0:0|0:0|0:0|0:0|0:0|0:0|0:0|0:0,0:0:0:0:
472,240,103005,5,6,0:0:0:0:
468,287,103073,1,0,0:0:0:0:
444,327,103141,1,0,0:0:0:0:
400,339,103208,1,0,0:0:0:0:
352,335,103276,1,2,0:0:0:0:
312,308,103343,1,0,0:0:0:0:
296,264,103411,1,0,0:0:0:0:
296,216,103478,1,0,0:0:0:0:
324,176,103546,1,2,0:0:0:0:
368,156,103613,1,0,0:0:0:0:
408,128,103681,1,0,0:0:0:0:
420,80,103749,1,0,0:0:0:0:
404,36,103816,1,2,0:0:0:0:
364,8,103884,1,0,0:0:0:0:
316,8,103951,1,0,0:0:0:0:
276,32,104019,1,0,0:0:0:0:
256,72,104086,5,6,0:0:0:0:
236,32,104154,1,0,0:0:0:0:
196,8,104222,1,0,0:0:0:0:
148,8,104289,1,0,0:0:0:0:
108,36,104357,1,2,0:0:0:0:
92,80,104424,1,0,0:0:0:0:
104,128,104492,1,0,0:0:0:0:
144,156,104560,1,0,0:0:0:0:
188,176,104627,1,2,0:0:0:0:
216,216,104695,1,0,0:0:0:0:
216,264,104762,1,0,0:0:0:0:
200,308,104830,1,0,0:0:0:0:
160,335,104897,1,2,0:0:0:0:
112,339,104965,1,0,0:0:0:0:
68,327,105032,1,0,0:0:0:0:
44,287,105100,1,0,0:0:0:0:
40,240,105168,6,0,L|44:140,1,95,12|0,0:0|0:0,0:0:0:0:
68,68,105370,1,0,0:0:0:0:
68,68,105438,2,0,P|112:60|164:68,1,95,8|2,0:0|0:0,0:0:0:0:
304,256,105708,2,0,P|260:264|208:256,1,95,10|0,0:0|0:0,0:0:0:0:
152,200,105911,1,0,0:0:0:0:
152,200,105978,1,10,0:0:0:0:
256,40,106113,1,8,0:0:0:0:
416,144,106249,6,0,L|412:264,1,95,2|8,0:0|0:0,0:0:0:0:
155,294,106519,1,0,0:0:0:0:
155,294,106654,2,0,L|151:199,1,95,10|0,0:0|0:0,0:0:0:0:
256,40,106924,1,10,0:0:0:0:
316,220,107059,1,10,0:0:0:0:
76,100,107195,5,8,0:0:0:0:
76,100,107262,1,8,0:0:0:0:
76,100,107330,2,0,L|64:208,1,95,14|0,0:0|0:0,0:0:0:0:
204,324,107600,1,10,0:0:0:0:
256,344,107668,1,0,0:0:0:0:
312,344,107735,1,0,0:0:0:0:
368,328,107803,1,0,0:0:0:0:
404,284,107870,2,0,L|400:212,1,47.5,10|0,0:0|0:0,0:0:0:0:
276,144,108005,2,0,L|273:191,1,47.5
472,88,108141,2,0,L|352:84,1,95,10|0,0:0|0:0,0:0:0:0:
64,328,108411,5,14,0:0:0:0:
64,328,108546,2,0,L|184:324,1,95,12|0,0:0|0:0,0:0:0:0:
440,320,108816,2,0,P|448:276|440:224,1,95,14|0,0:0|0:0,0:0:0:0:
308,92,109086,1,12,0:0:0:0:
256,276,109221,2,0,L|359:273,1,95,14|0,0:0|0:0,0:0:0:0:
496,104,109492,6,0,L|393:101,1,95,14|0,0:0|0:0,0:0:0:0:
212,80,109762,1,10,0:0:0:0:
160,56,109830,1,0,0:0:0:0:
104,60,109897,1,8,0:0:0:0:
52,88,109965,1,0,0:0:0:0:
28,140,110032,2,0,L|32:212,1,47.5,2|0,0:0|0:0,0:0:0:0:
152,320,110168,2,0,L|156:256,1,47.5,8|0,0:0|0:0,0:0:0:0:
256,140,110303,2,0,L|260:208,1,47.5,10|0,0:0|0:0,0:0:0:0:
360,320,110438,5,0,0:0:0:0:
360,320,110505,1,0,0:0:0:0:
360,320,110573,2,0,P|408:328|456:320,1,95,10|0,0:0|0:0,0:0:0:0:
492,280,110776,1,0,0:0:0:0:
508,224,110843,1,2,0:0:0:0:
476,176,110911,1,0,0:0:0:0:
420,160,110978,1,8,0:0:0:0:
368,184,111046,1,0,0:0:0:0:
336,228,111113,1,2,0:0:0:0:
284,248,111181,1,0,0:0:0:0:
228,248,111249,1,8,0:0:0:0:
176,228,111316,1,0,0:0:0:0:
144,184,111384,2,0,L|148:68,1,95,10|0,0:0|0:0,0:0:0:0:
364,20,111654,5,10,0:0:0:0:
419,38,111722,1,0,0:0:0:0:
455,82,111789,1,0,0:0:0:0:
459,138,111857,1,0,0:0:0:0:
435,190,111924,1,10,0:0:0:0:
383,218,111992,1,0,0:0:0:0:
327,218,112059,1,0,0:0:0:0:
279,186,112127,1,0,0:0:0:0:
255,134,112195,2,0,L|260:44,1,47.5,10|0,0:0|0:0,0:0:0:0:
508,192,112330,2,0,L|504:268,1,47.5
356,320,112465,1,10,0:0:0:0:
312,356,112532,1,0,0:0:0:0:
256,368,112600,1,0,0:0:0:0:
200,356,112668,1,0,0:0:0:0:
156,320,112735,6,0,L|152:216,1,95,10|10,0:0|0:0,0:0:0:0:
356,64,113005,2,0,L|360:168,1,95,0|8,0:0|0:0,0:0:0:0:
400,232,113208,1,0,0:0:0:0:
400,232,113276,2,0,L|504:228,1,95,0|8,0:0|0:0,0:0:0:0:
112,152,113546,2,0,L|8:156,1,95,10|0,0:0|0:0,0:0:0:0:
0,192,113726,6,8,L|4:240,2,31.6666666666667
192,368,113951,1,0,0:0:0:0:
192,368,114019,1,0,0:0:0:0:
192,368,114086,2,0,L|252:360,1,47.5,8|0,0:0|0:0,0:0:0:0:
288,280,114222,2,0,L|348:288,1,47.5,2|0,0:0|0:0,0:0:0:0:
428,304,114357,2,0,L|432:184,1,95,10|0,0:0|0:0,0:0:0:0:
256,48,114627,1,2,0:0:0:0:
80,208,114762,5,10,0:0:0:0:
80,208,114830,1,8,0:0:0:0:
80,208,114897,2,0,L|83:302,1,95,14|8,0:0|0:0,0:0:0:0:
304,148,115168,1,0,0:0:0:0:
304,148,115303,2,0,P|256:136|208:148,1,95,10|8,0:0|0:0,0:0:0:0:
256,328,115573,1,2,0:0:0:0:
428,304,115708,2,0,L|431:209,1,95,10|8,0:0|0:0,0:0:0:0:
428,128,115911,1,8,0:0:0:0:
428,128,115978,6,0,P|476:120|524:128,1,95,14|0,0:0|0:0,0:0:0:0:
256,328,116249,1,10,0:0:0:0:
200,344,116316,1,0,0:0:0:0:
144,340,116384,1,0,0:0:0:0:
92,320,116451,1,0,0:0:0:0:
64,272,116519,2,0,L|60:200,1,47.5,10|0,0:0|0:0,0:0:0:0:
148,80,116654,2,0,L|145:127,1,47.5
256,252,116789,2,0,L|256:192,1,47.5,10|0,0:0|0:0,0:0:0:0:
364,80,116924,5,8,0:0:0:0:
364,80,116992,1,8,0:0:0:0:
364,80,117059,2,0,L|488:76,1,95,14|0,0:0|0:0,0:0:0:0:
256,336,117330,1,12,0:0:0:0:
148,80,117465,2,0,L|24:76,1,95,14|0,0:0|0:0,0:0:0:0:
16,120,117668,1,0,0:0:0:0:
0,176,117735,1,0,0:0:0:0:
16,232,117803,1,0,0:0:0:0:
52,276,117870,2,0,L|152:272,1,95,14|8,0:0|0:0,0:0:0:0:
364,80,118141,5,14,0:0:0:0:
424,88,118208,1,0,0:0:0:0:
476,124,118276,1,0,0:0:0:0:
504,180,118343,1,0,0:0:0:0:
508,240,118411,1,10,0:0:0:0:
488,300,118478,1,0,0:0:0:0:
444,344,118546,1,0,0:0:0:0:
384,356,118613,1,0,0:0:0:0:
324,344,118681,1,10,0:0:0:0:
272,312,118749,1,0,0:0:0:0:
244,260,118816,1,0,0:0:0:0:
240,200,118884,1,0,0:0:0:0:
256,140,118951,2,0,L|368:140,1,95,10|0,0:0|0:0,0:0:0:0:
208,360,119222,5,14,0:0:0:0:
148,368,119289,1,0,0:0:0:0:
88,348,119357,1,0,0:0:0:0:
52,300,119424,1,0,0:0:0:0:
52,236,119492,1,10,0:0:0:0:
92,188,119559,1,0,0:0:0:0:
152,168,119627,1,8,0:0:0:0:
212,184,119695,1,0,0:0:0:0:
252,228,119762,1,2,0:0:0:0:
312,244,119830,1,0,0:0:0:0:
372,232,119897,1,8,0:0:0:0:
424,200,119965,1,0,0:0:0:0:
440,140,120032,2,0,L|436:40,1,95,10|8,0:0|0:0,0:0:0:0:
75,45,120303,5,8,0:0:0:0:
32,88,120370,1,8,0:0:0:0:
8,144,120438,1,8,0:0:0:0:
4,204,120505,1,8,0:0:0:0:
16,264,120573,1,8,0:0:0:0:
48,316,120641,1,8,0:0:0:0:
100,348,120708,1,8,0:0:0:0:
160,364,120776,1,8,0:0:0:0:
220,364,120843,1,8,0:0:0:0:
280,356,120911,1,8,0:0:0:0:
336,328,120978,1,8,0:0:0:0:
372,276,121046,1,8,0:0:0:0:
388,216,121113,1,8,0:0:0:0:
384,152,121181,1,8,0:0:0:0:
364,92,121249,1,8,0:0:0:0:
316,52,121316,1,8,0:0:0:0:
256,32,121384,5,8,0:0:0:0:
196,52,121451,1,8,0:0:0:0:
148,92,121518,1,8,0:0:0:0:
128,152,121586,1,8,0:0:0:0:
124,216,121654,1,8,0:0:0:0:
140,276,121721,1,8,0:0:0:0:
176,328,121789,1,8,0:0:0:0:
232,356,121856,1,8,0:0:0:0:
292,364,121924,1,8,0:0:0:0:
352,364,121991,1,8,0:0:0:0:
412,348,122059,1,8,0:0:0:0:
464,316,122126,1,8,0:0:0:0:
496,264,122194,1,8,0:0:0:0:
508,204,122262,1,8,0:0:0:0:
504,144,122329,1,8,0:0:0:0:
480,88,122397,1,8,0:0:0:0:
436,45,122464,5,12,0:0:0:0:
256,192,122532,12,0,128951,0:0:0:0:
