osu file format v14

[General]
AudioFilename: Grand Finale.mp3
AudioLeadIn: 1500
PreviewTime: -1
Countdown: 0
SampleSet: Soft
StackLeniency: 0.7
Mode: 0
LetterboxInBreaks: 0
WidescreenStoryboard: 0

[Editor]
Bookmarks: 18411,35978,53276,54897,57600,59762,61924,63005,64086,65168,66249,68411,70573,72195,74897,78141,79222,82465,87870,96519,105168,119222,120168,122465
DistanceSpacing: 1.2
BeatDivisor: 4
GridSize: 8
TimelineZoom: 1

[Metadata]
Title:Firmament Castle "Velier"
TitleUnicode:天空の城ヴェリエル
Artist:Uetsu Shi
ArtistUnicode:うえつ氏
Creator:Cherry Blossom
Version:Grand Finale 2013
Source:BMS
Tags:bof2012 ein neuer heiliger krieg PeaceCast.bms
BeatmapID:267052
BeatmapSetID:96366

[Difficulty]
HPDrainRate:6
CircleSize:4
OverallDifficulty:8
ApproachRate:10
SliderMultiplier:1.9
SliderTickRate:1

[Events]
//Background and Video events
0,0,"#stagefile.jpg",0,0
//Break Periods
2,88070,96069
//Storyboard Layer 0 (Background)
//Storyboard Layer 1 (Fail)
//Storyboard Layer 2 (Pass)
//Storyboard Layer 3 (Foreground)
//Storyboard Sound Samples
Sample,1081,0,"__dohyuuuuuun.wav",70
Sample,1081,0,"__kuraaaaaaasshu.wav",70
Sample,1081,0,"vio1_000.wav",70
Sample,4324,0,"vio1_001.wav",70
Sample,5405,0,"vio1_002.wav",70
Sample,7567,0,"vio1_003.wav",70
Sample,8648,0,"__hyuooooooooo.wav",70
Sample,8648,0,"vio1_004.wav",70
Sample,9729,0,"vio1_005.wav",70
Sample,9729,0,"ld4x_fil.wav",70
Sample,17297,0,"__itumonofiru.wav",70
Sample,18378,0,"_kurasshu_000.wav",70
Sample,18378,0,"__kuraaaaaaasshu.wav",70
Sample,18378,0,"pd1_000.wav",70
Sample,18378,0,"ld4x_015.wav",70
Sample,18378,0,"_ki_000.wav",70
Sample,18378,0,"ld4x_016.wav",70
Sample,18378,0,"__dohyuuuuuun.wav",70
Sample,18513,0,"_hat_000.wav",70
Sample,18648,0,"_kurasshu_000.wav",70
Sample,18648,0,"_ki_000.wav",70
Sample,18783,0,"_hat_000.wav",70
Sample,18918,0,"_kurasshu_000.wav",70
Sample,18918,0,"_ki_000.wav",70
Sample,19054,0,"_hat_000.wav",70
Sample,19054,0,"_kurasshu_000.wav",70
Sample,19189,0,"_ki_000.wav",70
Sample,19189,0,"ld4x_017.wav",70
Sample,19324,0,"_hat_001.wav",70
Sample,19324,0,"_kurasshu_000.wav",70
Sample,19324,0,"_ki_000.wav",70
Sample,19459,0,"pd1_001.wav",70
Sample,19459,0,"ld4x_004.wav",70
Sample,19594,0,"_hat_000.wav",70
Sample,19594,0,"_kurasshu_000.wav",70
Sample,19594,0,"_ki_000.wav",70
Sample,19864,0,"_ki_000.wav",70
Sample,19864,0,"ld4x_018.wav",70
Sample,19864,0,"_kurasshu_000.wav",70
Sample,19864,0,"_hat_000.wav",70
Sample,20135,0,"_kurasshu_000.wav",70
Sample,20135,0,"_ki_000.wav",70
Sample,20135,0,"_hat_000.wav",70
Sample,20270,0,"ld4x_019.wav",70
Sample,20405,0,"_ki_001.wav",70
Sample,20405,0,"_kurasshu_001.wav",70
Sample,20405,0,"_hat_001.wav",70
Sample,20472,0,"_kurasshu_001.wav",70
Sample,20472,0,"_ki_001.wav",70
Sample,20506,0,"_ki_001.wav",70
Sample,20506,0,"_kurasshu_001.wav",70
Sample,20540,0,"pd1_002.wav",70
Sample,20540,0,"_kurasshu_002.wav",70
Sample,20540,0,"_ki_000.wav",70
Sample,20540,0,"ld4x_007.wav",70
Sample,20675,0,"_hat_000.wav",70
Sample,20810,0,"_ki_000.wav",70
Sample,20810,0,"_kurasshu_002.wav",70
Sample,20945,0,"_hat_000.wav",70
Sample,21081,0,"_ki_000.wav",70
Sample,21216,0,"_hat_000.wav",70
Sample,21216,0,"_kurasshu_000.wav",70
Sample,21351,0,"_ki_000.wav",70
Sample,21486,0,"_kurasshu_000.wav",70
Sample,21486,0,"_hat_001.wav",70
Sample,21621,0,"pd1_003.wav",70
Sample,21621,0,"ld4x_020.wav",70
Sample,21621,0,"_kurasshu_000.wav",70
Sample,21621,0,"_ki_000.wav",70
Sample,21756,0,"_hat_000.wav",70
Sample,21756,0,"_kurasshu_000.wav",70
Sample,21756,0,"_ki_000.wav",70
Sample,22027,0,"_ki_000.wav",70
Sample,22027,0,"_kurasshu_000.wav",70
Sample,22027,0,"_hat_000.wav",70
Sample,22162,0,"pd1_004.wav",70
Sample,22297,0,"_hat_000.wav",70
Sample,22297,0,"_kurasshu_000.wav",70
Sample,22297,0,"_ki_000.wav",70
Sample,22432,0,"_ki_000.wav",70
Sample,22567,0,"_kurasshu_000.wav",70
Sample,22567,0,"_hat_001.wav",70
Sample,22702,0,"_kurasshu_000.wav",70
Sample,22702,0,"ld4x_005.wav",70
Sample,22702,0,"pd1_005.wav",70
Sample,22702,0,"_ki_000.wav",70
Sample,22837,0,"_hat_000.wav",70
Sample,23108,0,"_hat_000.wav",70
Sample,23108,0,"_ki_000.wav",70
Sample,23108,0,"_kurasshu_000.wav",70
Sample,23108,0,"ld4x_003.wav",70
Sample,23378,0,"_hat_000.wav",70
Sample,23513,0,"_ki_000.wav",70
Sample,23513,0,"ld4x_002.wav",70
Sample,23513,0,"_kurasshu_000.wav",70
Sample,23648,0,"_hat_001.wav",70
Sample,23783,0,"_kurasshu_000.wav",70
Sample,23783,0,"ld4x_021.wav",70
Sample,23783,0,"pd1_006.wav",70
Sample,23783,0,"_ki_000.wav",70
Sample,23783,0,"ld4x_022.wav",70
Sample,23918,0,"_hat_000.wav",70
Sample,24189,0,"_ki_000.wav",70
Sample,24189,0,"_hat_000.wav",70
Sample,24189,0,"ld4x_011.wav",70
Sample,24189,0,"_kurasshu_000.wav",70
Sample,24459,0,"_hat_000.wav",70
Sample,24594,0,"ld4x_002.wav",70
Sample,24594,0,"ld4x_023.wav",70
Sample,24594,0,"_kurasshu_000.wav",70
Sample,24594,0,"_ki_000.wav",70
Sample,24729,0,"_hat_001.wav",70
Sample,24864,0,"_ki_000.wav",70
Sample,24864,0,"ld4x_024.wav",70
Sample,24864,0,"pd1_000.wav",70
Sample,24864,0,"_kurasshu_003.wav",70
Sample,24864,0,"ld4x_025.wav",70
Sample,24864,0,"ld4x_026.wav",70
Sample,25000,0,"_hat_000.wav",70
Sample,25135,0,"_ki_000.wav",70
Sample,25270,0,"_hat_000.wav",70
Sample,25270,0,"_kurasshu_000.wav",70
Sample,25405,0,"_ki_000.wav",70
Sample,25540,0,"_kurasshu_000.wav",70
Sample,25540,0,"_hat_000.wav",70
Sample,25675,0,"_ki_000.wav",70
Sample,25810,0,"_kurasshu_000.wav",70
Sample,25810,0,"_hat_001.wav",70
Sample,25945,0,"_ki_000.wav",70
Sample,25945,0,"ld4x_027.wav",70
Sample,25945,0,"pd1_007.wav",70
Sample,25945,0,"_kurasshu_000.wav",70
Sample,25945,0,"ld4x_028.wav",70
Sample,26081,0,"_kurasshu_000.wav",70
Sample,26081,0,"_hat_000.wav",70
Sample,26081,0,"_ki_000.wav",70
Sample,26351,0,"_hat_000.wav",70
Sample,26351,0,"ld4x_030.wav",70
Sample,26351,0,"_kurasshu_000.wav",70
Sample,26351,0,"ld4x_029.wav",70
Sample,26351,0,"_ki_000.wav",70
Sample,26621,0,"_kurasshu_000.wav",70
Sample,26621,0,"_hat_000.wav",70
Sample,26621,0,"_ki_000.wav",70
Sample,26756,0,"ld4x_019.wav",70
Sample,26756,0,"ld4x_031.wav",70
Sample,26891,0,"_kurasshu_001.wav",70
Sample,26891,0,"_hat_001.wav",70
Sample,26891,0,"_ki_001.wav",70
Sample,26925,0,"_ki_001.wav",70
Sample,26925,0,"_kurasshu_001.wav",70
Sample,26959,0,"_ki_001.wav",70
Sample,26959,0,"_kurasshu_001.wav",70
Sample,26993,0,"_ki_001.wav",70
Sample,26993,0,"_kurasshu_001.wav",70
Sample,27027,0,"pd1_008.wav",70
Sample,27027,0,"ld4x_032.wav",70
Sample,27027,0,"ld4x_016.wav",70
Sample,27027,0,"_ki_000.wav",70
Sample,27162,0,"_kurasshu_000.wav",70
Sample,27162,0,"_hat_000.wav",70
Sample,27297,0,"_kurasshu_003.wav",70
Sample,27297,0,"_ki_000.wav",70
Sample,27432,0,"_hat_000.wav",70
Sample,27567,0,"_ki_000.wav",70
Sample,27702,0,"_kurasshu_000.wav",70
Sample,27702,0,"_hat_000.wav",70
Sample,27837,0,"_ki_000.wav",70
Sample,27837,0,"_kurasshu_000.wav",70
Sample,27972,0,"_hat_001.wav",70
Sample,27972,0,"ld4x_033.wav",70
Sample,27972,0,"_kurasshu_001.wav",70
Sample,27972,0,"_ki_001.wav",70
Sample,28040,0,"_ki_001.wav",70
Sample,28040,0,"_kurasshu_001.wav",70
Sample,28040,0,"ld4x_034.wav",70
Sample,28108,0,"_ki_000.wav",70
Sample,28108,0,"ld4x_004.wav",70
Sample,28108,0,"pd1_001.wav",70
Sample,28108,0,"_kurasshu_000.wav",70
Sample,28108,0,"ld4x_035.wav",70
Sample,28243,0,"_ki_000.wav",70
Sample,28243,0,"_hat_000.wav",70
Sample,28243,0,"_kurasshu_000.wav",70
Sample,28513,0,"_ki_000.wav",70
Sample,28513,0,"ld4x_037.wav",70
Sample,28513,0,"_kurasshu_000.wav",70
Sample,28513,0,"ld4x_036.wav",70
Sample,28513,0,"_hat_000.wav",70
Sample,28648,0,"_ki_000.wav",70
Sample,28648,0,"_kurasshu_000.wav",70
Sample,28783,0,"_hat_000.wav",70
Sample,28918,0,"_ki_000.wav",70
Sample,28918,0,"ld4x_038.wav",70
Sample,28918,0,"_kurasshu_000.wav",70
Sample,28918,0,"ld4x_039.wav",70
Sample,29054,0,"_hat_001.wav",70
Sample,29054,0,"_kurasshu_001.wav",70
Sample,29054,0,"_ki_001.wav",70
Sample,29121,0,"_kurasshu_001.wav",70
Sample,29121,0,"_ki_001.wav",70
Sample,29155,0,"_ki_001.wav",70
Sample,29155,0,"_kurasshu_001.wav",70
Sample,29189,0,"ld4x_040.wav",70
Sample,29189,0,"ld4x_041.wav",70
Sample,29189,0,"_kurasshu_003.wav",70
Sample,29189,0,"pd1_007.wav",70
Sample,29189,0,"_ki_000.wav",70
Sample,29324,0,"_hat_000.wav",70
Sample,29459,0,"_ki_000.wav",70
Sample,29594,0,"_hat_000.wav",70
Sample,29594,0,"_kurasshu_000.wav",70
Sample,29729,0,"_ki_000.wav",70
Sample,29864,0,"_hat_000.wav",70
Sample,29864,0,"_kurasshu_002.wav",70
Sample,30000,0,"_ki_000.wav",70
Sample,30000,0,"ld4x_042.wav",70
Sample,30135,0,"_hat_001.wav",70
Sample,30270,0,"pd1_009.wav",70
Sample,30270,0,"ld4x_043.wav",70
Sample,30270,0,"_kurasshu_004.wav",70
Sample,30270,0,"_ki_000.wav",70
Sample,30405,0,"_hat_000.wav",70
Sample,30540,0,"_ki_000.wav",70
Sample,30675,0,"_hat_000.wav",70
Sample,30675,0,"_kurasshu_000.wav",70
Sample,30675,0,"ld4x_011.wav",70
Sample,30810,0,"pd1_010.wav",70
Sample,30945,0,"_ki_000.wav",70
Sample,30945,0,"_hat_000.wav",70
Sample,31081,0,"_kurasshu_000.wav",70
Sample,31081,0,"ld4x_027.wav",70
Sample,31216,0,"_ki_000.wav",70
Sample,31216,0,"_hat_001.wav",70
Sample,31351,0,"_ki_000.wav",70
Sample,31351,0,"ld4x_044.wav",70
Sample,31351,0,"pd1_008.wav",70
Sample,31486,0,"_kurasshu_000.wav",70
Sample,31486,0,"_hat_000.wav",70
Sample,31621,0,"_ki_000.wav",70
Sample,31756,0,"_hat_000.wav",70
Sample,31756,0,"_kurasshu_000.wav",70
Sample,31891,0,"_ki_000.wav",70
Sample,32027,0,"_kurasshu_000.wav",70
Sample,32027,0,"_hat_000.wav",70
Sample,32162,0,"_ki_000.wav",70
Sample,32162,0,"_kurasshu_003.wav",70
Sample,32162,0,"ld4x_045.wav",70
Sample,32297,0,"_hat_001.wav",70
Sample,32432,0,"pd1_006.wav",70
Sample,32432,0,"_ki_000.wav",70
Sample,32432,0,"ld4x_046.wav",70
Sample,32567,0,"_kurasshu_000.wav",70
Sample,32567,0,"_hat_000.wav",70
Sample,32702,0,"_kurasshu_003.wav",70
Sample,32837,0,"_ki_000.wav",70
Sample,32837,0,"_hat_000.wav",70
Sample,32972,0,"ld4x_047.wav",70
Sample,33108,0,"_kurasshu_002.wav",70
Sample,33108,0,"_hat_000.wav",70
Sample,33108,0,"_ki_000.wav",70
Sample,33378,0,"_kurasshu_001.wav",70
Sample,33378,0,"_hat_001.wav",70
Sample,33378,0,"_ki_001.wav",70
Sample,33445,0,"_ki_001.wav",70
Sample,33445,0,"_kurasshu_001.wav",70
Sample,33513,0,"_ki_002.wav",70
Sample,33513,0,"ld4x_007.wav",70
Sample,33513,0,"pd1_000.wav",70
Sample,33513,0,"_kurasshu_005.wav",70
Sample,33513,0,"ld4x_048.wav",70
Sample,33581,0,"_ki_003.wav",70
Sample,33581,0,"_kurasshu_006.wav",70
Sample,33648,0,"_ki_004.wav",70
Sample,33648,0,"_hat_000.wav",70
Sample,33648,0,"_kurasshu_006.wav",70
Sample,33716,0,"_ki_005.wav",70
Sample,33716,0,"_kurasshu_007.wav",70
Sample,33783,0,"_ki_006.wav",70
Sample,33783,0,"_kurasshu_007.wav",70
Sample,33851,0,"_ki_007.wav",70
Sample,33851,0,"_kurasshu_008.wav",70
Sample,33918,0,"_kurasshu_008.wav",70
Sample,33918,0,"_hat_000.wav",70
Sample,33918,0,"_ki_008.wav",70
Sample,33986,0,"_kurasshu_008.wav",70
Sample,33986,0,"_ki_009.wav",70
Sample,34054,0,"_ki_010.wav",70
Sample,34054,0,"_kurasshu_009.wav",70
Sample,34121,0,"_ki_011.wav",70
Sample,34121,0,"_kurasshu_009.wav",70
Sample,34189,0,"_hat_000.wav",70
Sample,34189,0,"_ki_012.wav",70
Sample,34189,0,"_kurasshu_010.wav",70
Sample,34256,0,"_ki_013.wav",70
Sample,34256,0,"_kurasshu_010.wav",70
Sample,34324,0,"_ki_014.wav",70
Sample,34324,0,"_kurasshu_011.wav",70
Sample,34391,0,"_ki_015.wav",70
Sample,34391,0,"_kurasshu_011.wav",70
Sample,34459,0,"_ki_016.wav",70
Sample,34459,0,"_kurasshu_012.wav",70
Sample,34459,0,"_hat_001.wav",70
Sample,34527,0,"_ki_017.wav",70
Sample,34527,0,"_kurasshu_012.wav",70
Sample,34594,0,"_kurasshu_013.wav",70
Sample,34594,0,"ld4x_049.wav",70
Sample,34594,0,"pi3_040.wav",70
Sample,34594,0,"_ki_018.wav",70
Sample,34594,0,"pd1_011.wav",70
Sample,34594,0,"ld4x_050.wav",70
Sample,34662,0,"_ki_019.wav",70
Sample,34662,0,"_kurasshu_013.wav",70
Sample,34729,0,"_hat_000.wav",70
Sample,34729,0,"_kurasshu_014.wav",70
Sample,34729,0,"_ki_020.wav",70
Sample,34797,0,"_kurasshu_014.wav",70
Sample,34797,0,"_ki_021.wav",70
Sample,34864,0,"_kurasshu_001.wav",70
Sample,34864,0,"_ki_022.wav",70
Sample,34932,0,"_kurasshu_001.wav",70
Sample,34932,0,"_ki_023.wav",70
Sample,35000,0,"_hat_000.wav",70
Sample,35000,0,"_ki_024.wav",70
Sample,35000,0,"_kurasshu_015.wav",70
Sample,35000,0,"pi3_041.wav",70
Sample,35067,0,"_kurasshu_015.wav",70
Sample,35067,0,"_ki_025.wav",70
Sample,35135,0,"_kurasshu_015.wav",70
Sample,35135,0,"_ki_026.wav",70
Sample,35202,0,"_kurasshu_016.wav",70
Sample,35202,0,"_ki_027.wav",70
Sample,35270,0,"_ki_028.wav",70
Sample,35270,0,"_hat_000.wav",70
Sample,35270,0,"_kurasshu_016.wav",70
Sample,35337,0,"_ki_029.wav",70
Sample,35337,0,"_kurasshu_017.wav",70
Sample,35405,0,"_ki_030.wav",70
Sample,35405,0,"pi3_017.wav",70
Sample,35405,0,"_kurasshu_017.wav",70
Sample,35472,0,"_ki_031.wav",70
Sample,35472,0,"_kurasshu_018.wav",70
Sample,35540,0,"_kurasshu_018.wav",70
Sample,35540,0,"_ki_032.wav",70
Sample,35540,0,"_hat_001.wav",70
Sample,35608,0,"_ki_033.wav",70
Sample,35608,0,"_kurasshu_019.wav",70
Sample,35675,0,"pi3_042.wav",70
Sample,35675,0,"_kurasshu_000.wav",70
Sample,35675,0,"_dr_000.wav",70
Sample,35675,0,"__dohyuuuuuun.wav",70
Sample,35675,0,"__kuraaaaaaasshu.wav",70
Sample,35675,0,"_ki_000.wav",70
Sample,35675,0,"ld4x_051.wav",70
Sample,35675,0,"pd1_012.wav",70
Sample,35810,0,"_dr_001.wav",70
Sample,35810,0,"_hat_000.wav",70
Sample,35872,0,"_dr_002.wav",70
Sample,35940,0,"_dr_003.wav",70
Sample,35945,0,"_sna_000.wav",70
Sample,35945,0,"_kurasshu_000.wav",70
Sample,35945,0,"_ki_000.wav",70
Sample,36081,0,"_hat_000.wav",70
Sample,36081,0,"_dr_004.wav",70
Sample,36210,0,"_dr_005.wav",70
Sample,36216,0,"_kurasshu_000.wav",70
Sample,36216,0,"_ki_000.wav",70
Sample,36278,0,"_dr_006.wav",70
Sample,36345,0,"_dr_007.wav",70
Sample,36351,0,"_hat_000.wav",70
Sample,36351,0,"_kurasshu_000.wav",70
Sample,36480,0,"_dr_008.wav",70
Sample,36486,0,"pi3_043.wav",70
Sample,36486,0,"pi3_044.wav",70
Sample,36486,0,"_sna_001.wav",70
Sample,36486,0,"_ki_000.wav",70
Sample,36486,0,"ld4x_052.wav",70
Sample,36486,0,"ld4x_054.wav",70
Sample,36621,0,"_hat_001.wav",70
Sample,36621,0,"_dr_009.wav",70
Sample,36621,0,"_kurasshu_000.wav",70
Sample,36621,0,"_ki_000.wav",70
Sample,36756,0,"pd1_013.wav",70
Sample,36756,0,"_dr_010.wav",70
Sample,36756,0,"pi3_045.wav",70
Sample,36756,0,"ld4x_055.wav",70
Sample,36880,0,"_dr_011.wav",70
Sample,36891,0,"_hat_000.wav",70
Sample,36891,0,"_kurasshu_000.wav",70
Sample,36891,0,"_ki_000.wav",70
Sample,37021,0,"_dr_012.wav",70
Sample,37027,0,"_sna_000.wav",70
Sample,37162,0,"_ki_000.wav",70
Sample,37162,0,"_dr_013.wav",70
Sample,37162,0,"_kurasshu_000.wav",70
Sample,37162,0,"_hat_000.wav",70
Sample,37162,0,"pi3_046.wav",70
Sample,37162,0,"ld4x_056.wav",70
Sample,37297,0,"_dr_014.wav",70
Sample,37359,0,"_dr_015.wav",70
Sample,37432,0,"_ki_000.wav",70
Sample,37432,0,"_kurasshu_000.wav",70
Sample,37432,0,"_hat_000.wav",70
Sample,37432,0,"_dr_016.wav",70
Sample,37494,0,"_dr_017.wav",70
Sample,37561,0,"_dr_018.wav",70
Sample,37567,0,"pi3_010.wav",70
Sample,37567,0,"_sna_001.wav",70
Sample,37567,0,"ld4x_021.wav",70
Sample,37635,0,"_dr_019.wav",70
Sample,37702,0,"_dr_020.wav",70
Sample,37702,0,"_ki_001.wav",70
Sample,37702,0,"_hat_001.wav",70
Sample,37702,0,"_kurasshu_001.wav",70
Sample,37759,0,"_dr_021.wav",70
Sample,37770,0,"_kurasshu_001.wav",70
Sample,37770,0,"_ki_001.wav",70
Sample,37804,0,"_ki_001.wav",70
Sample,37804,0,"_kurasshu_001.wav",70
Sample,37837,0,"_dr_000.wav",70
Sample,37837,0,"pi3_047.wav",70
Sample,37837,0,"ld4x_057.wav",70
Sample,37837,0,"_kurasshu_002.wav",70
Sample,37837,0,"pd1_000.wav",70
Sample,37837,0,"_ki_000.wav",70
Sample,37972,0,"_dr_001.wav",70
Sample,37972,0,"_hat_000.wav",70
Sample,38034,0,"_dr_002.wav",70
Sample,38102,0,"_dr_003.wav",70
Sample,38108,0,"_ki_000.wav",70
Sample,38108,0,"_kurasshu_002.wav",70
Sample,38108,0,"_sna_000.wav",70
Sample,38243,0,"_dr_004.wav",70
Sample,38243,0,"_hat_000.wav",70
Sample,38372,0,"_dr_005.wav",70
Sample,38378,0,"_ki_000.wav",70
Sample,38440,0,"_dr_006.wav",70
Sample,38507,0,"_dr_007.wav",70
Sample,38513,0,"_kurasshu_000.wav",70
Sample,38513,0,"_hat_000.wav",70
Sample,38643,0,"_dr_008.wav",70
Sample,38648,0,"_ki_000.wav",70
Sample,38648,0,"_sna_001.wav",70
Sample,38783,0,"_dr_009.wav",70
Sample,38783,0,"_kurasshu_000.wav",70
Sample,38783,0,"_hat_001.wav",70
Sample,38918,0,"_ki_000.wav",70
Sample,38918,0,"pd1_014.wav",70
Sample,38918,0,"_kurasshu_000.wav",70
Sample,38918,0,"_dr_010.wav",70
Sample,38918,0,"pi3_048.wav",70
Sample,38918,0,"ld4x_058.wav",70
Sample,39042,0,"_dr_011.wav",70
Sample,39054,0,"_hat_000.wav",70
Sample,39054,0,"_kurasshu_000.wav",70
Sample,39054,0,"_ki_000.wav",70
Sample,39183,0,"_dr_012.wav",70
Sample,39189,0,"_sna_000.wav",70
Sample,39324,0,"_kurasshu_000.wav",70
Sample,39324,0,"_hat_000.wav",70
Sample,39324,0,"_ki_000.wav",70
Sample,39324,0,"_dr_013.wav",70
Sample,39459,0,"piarp_049.wav",70
Sample,39459,0,"_dr_014.wav",70
Sample,39459,0,"pd1_015.wav",70
Sample,39521,0,"_dr_015.wav",70
Sample,39560,0,"piarp_049.wav",70
Sample,39594,0,"_hat_000.wav",70
Sample,39594,0,"_dr_016.wav",70
Sample,39594,0,"_kurasshu_000.wav",70
Sample,39594,0,"_ki_000.wav",70
Sample,39656,0,"_dr_017.wav",70
Sample,39724,0,"_dr_018.wav",70
Sample,39729,0,"_sna_001.wav",70
Sample,39729,0,"_ki_000.wav",70
Sample,39797,0,"_dr_019.wav",70
Sample,39864,0,"_kurasshu_000.wav",70
Sample,39864,0,"_hat_001.wav",70
Sample,39864,0,"_dr_020.wav",70
Sample,39921,0,"_dr_021.wav",70
Sample,40000,0,"_ki_000.wav",70
Sample,40000,0,"pd1_016.wav",70
Sample,40000,0,"ld4x_059.wav",70
Sample,40000,0,"_dr_000.wav",70
Sample,40000,0,"pi3_049.wav",70
Sample,40000,0,"_kurasshu_000.wav",70
Sample,40135,0,"_dr_001.wav",70
Sample,40135,0,"_hat_000.wav",70
Sample,40197,0,"_dr_002.wav",70
Sample,40264,0,"_dr_003.wav",70
Sample,40270,0,"_sna_000.wav",70
Sample,40405,0,"pi3_050.wav",70
Sample,40405,0,"_kurasshu_000.wav",70
Sample,40405,0,"ld4x_060.wav",70
Sample,40405,0,"_ki_000.wav",70
Sample,40405,0,"_dr_004.wav",70
Sample,40405,0,"_hat_000.wav",70
Sample,40534,0,"_dr_005.wav",70
Sample,40602,0,"_dr_006.wav",70
Sample,40670,0,"_dr_007.wav",70
Sample,40675,0,"_hat_000.wav",70
Sample,40805,0,"_dr_008.wav",70
Sample,40810,0,"pi3_051.wav",70
Sample,40810,0,"_ki_000.wav",70
Sample,40810,0,"_kurasshu_000.wav",70
Sample,40810,0,"_sna_001.wav",70
Sample,40810,0,"ld4x_061.wav",70
Sample,40945,0,"_hat_001.wav",70
Sample,40945,0,"_dr_009.wav",70
Sample,41081,0,"pi3_052.wav",70
Sample,41081,0,"pd1_017.wav",70
Sample,41081,0,"_dr_010.wav",70
Sample,41081,0,"_kurasshu_000.wav",70
Sample,41081,0,"_ki_000.wav",70
Sample,41081,0,"ld4x_062.wav",70
Sample,41204,0,"_dr_011.wav",70
Sample,41216,0,"_hat_000.wav",70
Sample,41283,0,"ld4x_063.wav",70
Sample,41283,0,"pi3_053.wav",70
Sample,41345,0,"_dr_012.wav",70
Sample,41351,0,"_sna_000.wav",70
Sample,41486,0,"_dr_013.wav",70
Sample,41486,0,"pi3_054.wav",70
Sample,41486,0,"_ki_000.wav",70
Sample,41486,0,"_hat_000.wav",70
Sample,41486,0,"_kurasshu_000.wav",70
Sample,41486,0,"ld4x_064.wav",70
Sample,41621,0,"_dr_014.wav",70
Sample,41683,0,"_dr_015.wav",70
Sample,41756,0,"_hat_000.wav",70
Sample,41756,0,"_dr_016.wav",70
Sample,41818,0,"_dr_017.wav",70
Sample,41886,0,"_dr_018.wav",70
Sample,41891,0,"_ki_000.wav",70
Sample,41891,0,"ld4x_056.wav",70
Sample,41891,0,"_sna_001.wav",70
Sample,41891,0,"_kurasshu_000.wav",70
Sample,41891,0,"pi3_046.wav",70
Sample,41959,0,"_dr_019.wav",70
Sample,42027,0,"_dr_020.wav",70
Sample,42027,0,"_hat_001.wav",70
Sample,42083,0,"_dr_021.wav",70
Sample,42162,0,"_kurasshu_003.wav",70
Sample,42162,0,"pd1_012.wav",70
Sample,42162,0,"ld4x_065.wav",70
Sample,42162,0,"_dr_000.wav",70
Sample,42162,0,"pi3_055.wav",70
Sample,42162,0,"_ki_000.wav",70
Sample,42297,0,"_hat_000.wav",70
Sample,42297,0,"_dr_001.wav",70
Sample,42359,0,"_dr_002.wav",70
Sample,42426,0,"_dr_003.wav",70
Sample,42432,0,"_ki_000.wav",70
Sample,42432,0,"_sna_000.wav",70
Sample,42567,0,"_hat_000.wav",70
Sample,42567,0,"_dr_004.wav",70
Sample,42567,0,"_kurasshu_000.wav",70
Sample,42697,0,"_dr_005.wav",70
Sample,42702,0,"_ki_000.wav",70
Sample,42764,0,"_dr_006.wav",70
Sample,42832,0,"_dr_007.wav",70
Sample,42837,0,"_kurasshu_000.wav",70
Sample,42837,0,"_hat_000.wav",70
Sample,42967,0,"_dr_008.wav",70
Sample,42972,0,"_ki_000.wav",70
Sample,42972,0,"_sna_001.wav",70
Sample,43108,0,"_hat_001.wav",70
Sample,43108,0,"_kurasshu_000.wav",70
Sample,43108,0,"_dr_009.wav",70
Sample,43243,0,"__hyuooooooooo.wav",70
Sample,43243,0,"ld4x_064.wav",70
Sample,43243,0,"pi3_046.wav",70
Sample,43243,0,"_kurasshu_000.wav",70
Sample,43243,0,"pd1_008.wav",70
Sample,43243,0,"ld4x_056.wav",70
Sample,43243,0,"pi3_054.wav",70
Sample,43243,0,"_ki_000.wav",70
Sample,43243,0,"_dr_010.wav",70
Sample,43367,0,"_dr_011.wav",70
Sample,43378,0,"_ki_000.wav",70
Sample,43378,0,"_hat_000.wav",70
Sample,43378,0,"_kurasshu_000.wav",70
Sample,43507,0,"_dr_012.wav",70
Sample,43513,0,"_sna_000.wav",70
Sample,43648,0,"pi3_056.wav",70
Sample,43648,0,"_hat_000.wav",70
Sample,43648,0,"_kurasshu_000.wav",70
Sample,43648,0,"_dr_013.wav",70
Sample,43648,0,"pi3_043.wav",70
Sample,43648,0,"_ki_000.wav",70
Sample,43648,0,"ld4x_052.wav",70
Sample,43648,0,"ld4x_064.wav",70
Sample,43783,0,"_dr_014.wav",70
Sample,43845,0,"_dr_015.wav",70
Sample,43918,0,"_ki_000.wav",70
Sample,43918,0,"_kurasshu_000.wav",70
Sample,43918,0,"_dr_016.wav",70
Sample,43918,0,"_hat_000.wav",70
Sample,43980,0,"_dr_017.wav",70
Sample,44048,0,"_dr_018.wav",70
Sample,44054,0,"_sna_001.wav",70
Sample,44054,0,"ld4x_066.wav",70
Sample,44054,0,"pi3_058.wav",70
Sample,44054,0,"pi3_057.wav",70
Sample,44054,0,"ld4x_067.wav",70
Sample,44121,0,"_dr_019.wav",70
Sample,44189,0,"_dr_020.wav",70
Sample,44189,0,"_hat_001.wav",70
Sample,44189,0,"_ki_001.wav",70
Sample,44189,0,"_kurasshu_001.wav",70
Sample,44222,0,"_ki_001.wav",70
Sample,44222,0,"_kurasshu_001.wav",70
Sample,44245,0,"_dr_021.wav",70
Sample,44256,0,"_kurasshu_001.wav",70
Sample,44256,0,"_ki_001.wav",70
Sample,44290,0,"_ki_001.wav",70
Sample,44290,0,"_kurasshu_001.wav",70
Sample,44324,0,"_dr_000.wav",70
Sample,44324,0,"_ki_000.wav",70
Sample,44324,0,"pi3_059.wav",70
Sample,44324,0,"pi3_060.wav",70
Sample,44324,0,"pd1_018.wav",70
Sample,44324,0,"ld4x_068.wav",70
Sample,44324,0,"ld4x_069.wav",70
Sample,44459,0,"_dr_001.wav",70
Sample,44459,0,"_kurasshu_000.wav",70
Sample,44459,0,"_hat_000.wav",70
Sample,44521,0,"_dr_002.wav",70
Sample,44588,0,"_dr_003.wav",70
Sample,44594,0,"_kurasshu_003.wav",70
Sample,44594,0,"_sna_000.wav",70
Sample,44594,0,"_ki_000.wav",70
Sample,44729,0,"_dr_004.wav",70
Sample,44729,0,"_hat_000.wav",70
Sample,44859,0,"_dr_005.wav",70
Sample,44864,0,"_ki_000.wav",70
Sample,44926,0,"_dr_006.wav",70
Sample,44994,0,"_dr_007.wav",70
Sample,45000,0,"_kurasshu_000.wav",70
Sample,45000,0,"_hat_000.wav",70
Sample,45129,0,"_dr_008.wav",70
Sample,45135,0,"_kurasshu_000.wav",70
Sample,45135,0,"_ki_000.wav",70
Sample,45135,0,"_sna_001.wav",70
Sample,45270,0,"_kurasshu_001.wav",70
Sample,45270,0,"_hat_001.wav",70
Sample,45270,0,"_dr_009.wav",70
Sample,45270,0,"_ki_001.wav",70
Sample,45337,0,"_ki_001.wav",70
Sample,45337,0,"_kurasshu_001.wav",70
Sample,45405,0,"pd1_013.wav",70
Sample,45405,0,"_ki_000.wav",70
Sample,45405,0,"_dr_010.wav",70
Sample,45405,0,"pi3_062.wav",70
Sample,45405,0,"pi3_061.wav",70
Sample,45405,0,"_kurasshu_000.wav",70
Sample,45405,0,"ld4x_071.wav",70
Sample,45405,0,"ld4x_070.wav",70
Sample,45529,0,"_dr_011.wav",70
Sample,45540,0,"_hat_000.wav",70
Sample,45540,0,"_ki_000.wav",70
Sample,45540,0,"_kurasshu_000.wav",70
Sample,45670,0,"_dr_012.wav",70
Sample,45675,0,"_sna_000.wav",70
Sample,45810,0,"_hat_000.wav",70
Sample,45810,0,"_dr_013.wav",70
Sample,45810,0,"pi3_063.wav",70
Sample,45810,0,"_ki_000.wav",70
Sample,45810,0,"pi3_064.wav",70
Sample,45810,0,"_kurasshu_000.wav",70
Sample,45810,0,"ld4x_072.wav",70
Sample,45810,0,"ld4x_060.wav",70
Sample,45945,0,"_ki_000.wav",70
Sample,45945,0,"_dr_014.wav",70
Sample,45945,0,"_kurasshu_000.wav",70
Sample,46007,0,"_dr_015.wav",70
Sample,46081,0,"_hat_000.wav",70
Sample,46081,0,"_dr_016.wav",70
Sample,46143,0,"_dr_017.wav",70
Sample,46210,0,"_dr_018.wav",70
Sample,46216,0,"pi3_066.wav",70
Sample,46216,0,"_sna_001.wav",70
Sample,46216,0,"_ki_000.wav",70
Sample,46216,0,"_kurasshu_000.wav",70
Sample,46216,0,"pi3_065.wav",70
Sample,46216,0,"ld4x_073.wav",70
Sample,46216,0,"ld4x_074.wav",70
Sample,46283,0,"_dr_019.wav",70
Sample,46351,0,"_dr_020.wav",70
Sample,46351,0,"_ki_001.wav",70
Sample,46351,0,"_hat_001.wav",70
Sample,46351,0,"_kurasshu_001.wav",70
Sample,46407,0,"_dr_021.wav",70
Sample,46418,0,"_kurasshu_001.wav",70
Sample,46418,0,"_ki_001.wav",70
Sample,46452,0,"_ki_001.wav",70
Sample,46452,0,"_kurasshu_001.wav",70
Sample,46486,0,"_ki_000.wav",70
Sample,46486,0,"_dr_000.wav",70
Sample,46486,0,"_kurasshu_003.wav",70
Sample,46486,0,"pi3_067.wav",70
Sample,46486,0,"pi3_068.wav",70
Sample,46486,0,"pd1_008.wav",70
Sample,46486,0,"ld4x_075.wav",70
Sample,46486,0,"ld4x_076.wav",70
Sample,46621,0,"_hat_000.wav",70
Sample,46621,0,"_dr_001.wav",70
Sample,46683,0,"_dr_002.wav",70
Sample,46751,0,"_dr_003.wav",70
Sample,46756,0,"_ki_000.wav",70
Sample,46756,0,"_sna_000.wav",70
Sample,46756,0,"ld4x_067.wav",70
Sample,46756,0,"pi3_058.wav",70
Sample,46891,0,"_kurasshu_000.wav",70
Sample,46891,0,"_dr_004.wav",70
Sample,46891,0,"_hat_000.wav",70
Sample,47021,0,"_dr_005.wav",70
Sample,47027,0,"pi3_069.wav",70
Sample,47027,0,"_ki_000.wav",70
Sample,47027,0,"ld4x_077.wav",70
Sample,47088,0,"_dr_006.wav",70
Sample,47156,0,"_dr_007.wav",70
Sample,47162,0,"pi3_070.wav",70
Sample,47162,0,"_kurasshu_002.wav",70
Sample,47162,0,"ld4x_078.wav",70
Sample,47162,0,"_hat_000.wav",70
Sample,47291,0,"_dr_008.wav",70
Sample,47297,0,"_ki_000.wav",70
Sample,47297,0,"_sna_001.wav",70
Sample,47432,0,"ld4x_077.wav",70
Sample,47432,0,"_dr_009.wav",70
Sample,47432,0,"pi3_069.wav",70
Sample,47432,0,"_hat_001.wav",70
Sample,47567,0,"_ki_000.wav",70
Sample,47567,0,"pd1_019.wav",70
Sample,47567,0,"ld4x_075.wav",70
Sample,47567,0,"_dr_010.wav",70
Sample,47567,0,"pi3_071.wav",70
Sample,47567,0,"_kurasshu_004.wav",70
Sample,47691,0,"_dr_011.wav",70
Sample,47702,0,"_hat_000.wav",70
Sample,47832,0,"_dr_012.wav",70
Sample,47837,0,"pi3_072.wav",70
Sample,47837,0,"_sna_000.wav",70
Sample,47837,0,"_ki_000.wav",70
Sample,47837,0,"ld4x_079.wav",70
Sample,47972,0,"pi3_046.wav",70
Sample,47972,0,"ld4x_056.wav",70
Sample,47972,0,"_dr_013.wav",70
Sample,47972,0,"_kurasshu_000.wav",70
Sample,47972,0,"_hat_000.wav",70
Sample,48040,0,"pi3_073.wav",70
Sample,48040,0,"ld4x_080.wav",70
Sample,48108,0,"pd1_020.wav",70
Sample,48108,0,"ld4x_081.wav",70
Sample,48108,0,"_dr_014.wav",70
Sample,48108,0,"pi3_074.wav",70
Sample,48108,0,"piarp_049.wav",70
Sample,48170,0,"_dr_015.wav",70
Sample,48243,0,"pi3_075.wav",70
Sample,48243,0,"_dr_016.wav",70
Sample,48243,0,"piarp_049.wav",70
Sample,48243,0,"_hat_000.wav",70
Sample,48243,0,"_ki_000.wav",70
Sample,48243,0,"ld4x_082.wav",70
Sample,48305,0,"_dr_017.wav",70
Sample,48372,0,"_dr_018.wav",70
Sample,48378,0,"_sna_001.wav",70
Sample,48378,0,"ld4x_010.wav",70
Sample,48378,0,"_kurasshu_000.wav",70
Sample,48378,0,"pi3_010.wav",70
Sample,48445,0,"_dr_019.wav",70
Sample,48513,0,"_ki_000.wav",70
Sample,48513,0,"_hat_001.wav",70
Sample,48513,0,"_dr_020.wav",70
Sample,48569,0,"_dr_021.wav",70
Sample,48648,0,"_dr_000.wav",70
Sample,48648,0,"ld4x_083.wav",70
Sample,48648,0,"_ki_000.wav",70
Sample,48648,0,"pi3_076.wav",70
Sample,48648,0,"pd1_018.wav",70
Sample,48783,0,"_kurasshu_000.wav",70
Sample,48783,0,"_hat_000.wav",70
Sample,48783,0,"_dr_001.wav",70
Sample,48845,0,"_dr_002.wav",70
Sample,48913,0,"_dr_003.wav",70
Sample,48918,0,"_ki_000.wav",70
Sample,48918,0,"_sna_000.wav",70
Sample,49054,0,"_dr_004.wav",70
Sample,49054,0,"_kurasshu_000.wav",70
Sample,49054,0,"_hat_000.wav",70
Sample,49183,0,"_dr_005.wav",70
Sample,49189,0,"_ki_000.wav",70
Sample,49251,0,"_dr_006.wav",70
Sample,49318,0,"_dr_007.wav",70
Sample,49324,0,"_kurasshu_000.wav",70
Sample,49324,0,"_hat_000.wav",70
Sample,49453,0,"_dr_008.wav",70
Sample,49459,0,"_ki_000.wav",70
Sample,49459,0,"pi3_077.wav",70
Sample,49459,0,"_kurasshu_003.wav",70
Sample,49459,0,"_sna_001.wav",70
Sample,49459,0,"ld4x_084.wav",70
Sample,49594,0,"_hat_001.wav",70
Sample,49594,0,"_dr_009.wav",70
Sample,49729,0,"pi3_078.wav",70
Sample,49729,0,"pd1_017.wav",70
Sample,49729,0,"_ki_000.wav",70
Sample,49729,0,"_dr_010.wav",70
Sample,49729,0,"ld4x_085.wav",70
Sample,49853,0,"_dr_011.wav",70
Sample,49864,0,"_hat_000.wav",70
Sample,49864,0,"_kurasshu_000.wav",70
Sample,49994,0,"_dr_012.wav",70
Sample,50000,0,"_sna_000.wav",70
Sample,50000,0,"_kurasshu_003.wav",70
Sample,50135,0,"_ki_000.wav",70
Sample,50135,0,"_hat_000.wav",70
Sample,50135,0,"_dr_013.wav",70
Sample,50270,0,"ld4x_086.wav",70
Sample,50270,0,"_dr_014.wav",70
Sample,50270,0,"pi3_079.wav",70
Sample,50332,0,"_dr_015.wav",70
Sample,50405,0,"_dr_016.wav",70
Sample,50405,0,"_ki_000.wav",70
Sample,50405,0,"_hat_000.wav",70
Sample,50405,0,"_kurasshu_002.wav",70
Sample,50467,0,"_dr_017.wav",70
Sample,50534,0,"_dr_018.wav",70
Sample,50540,0,"_sna_001.wav",70
Sample,50608,0,"_dr_019.wav",70
Sample,50675,0,"_kurasshu_001.wav",70
Sample,50675,0,"_ki_001.wav",70
Sample,50675,0,"_dr_020.wav",70
Sample,50675,0,"_hat_001.wav",70
Sample,50731,0,"_dr_021.wav",70
Sample,50743,0,"_ki_001.wav",70
Sample,50743,0,"_kurasshu_001.wav",70
Sample,50810,0,"ld4x_089.wav",70
Sample,50810,0,"_dr_000.wav",70
Sample,50810,0,"_kurasshu_005.wav",70
Sample,50810,0,"pd1_021.wav",70
Sample,50810,0,"pi3_081.wav",70
Sample,50810,0,"pi3_082.wav",70
Sample,50810,0,"pi3_080.wav",70
Sample,50810,0,"ld4x_087.wav",70
Sample,50810,0,"ld4x_088.wav",70
Sample,50810,0,"_ki_002.wav",70
Sample,50878,0,"_kurasshu_006.wav",70
Sample,50878,0,"_ki_003.wav",70
Sample,50945,0,"_ki_004.wav",70
Sample,50945,0,"_sna_002.wav",70
Sample,50945,0,"_dr_001.wav",70
Sample,50945,0,"_hat_000.wav",70
Sample,50945,0,"_kurasshu_006.wav",70
Sample,51007,0,"_dr_002.wav",70
Sample,51013,0,"_ki_005.wav",70
Sample,51013,0,"_kurasshu_007.wav",70
Sample,51075,0,"_dr_003.wav",70
Sample,51081,0,"_kurasshu_007.wav",70
Sample,51081,0,"_ki_006.wav",70
Sample,51148,0,"_kurasshu_008.wav",70
Sample,51148,0,"_ki_007.wav",70
Sample,51216,0,"_ki_008.wav",70
Sample,51216,0,"_dr_004.wav",70
Sample,51216,0,"_kurasshu_008.wav",70
Sample,51216,0,"_hat_000.wav",70
Sample,51283,0,"_kurasshu_008.wav",70
Sample,51283,0,"_ki_009.wav",70
Sample,51345,0,"_dr_005.wav",70
Sample,51351,0,"_sna_002.wav",70
Sample,51351,0,"_kurasshu_009.wav",70
Sample,51351,0,"_ki_010.wav",70
Sample,51413,0,"_dr_006.wav",70
Sample,51418,0,"_ki_011.wav",70
Sample,51418,0,"_kurasshu_009.wav",70
Sample,51480,0,"_dr_007.wav",70
Sample,51486,0,"_hat_000.wav",70
Sample,51486,0,"_kurasshu_010.wav",70
Sample,51486,0,"_ki_012.wav",70
Sample,51554,0,"_ki_013.wav",70
Sample,51554,0,"_kurasshu_010.wav",70
Sample,51615,0,"_dr_008.wav",70
Sample,51621,0,"_kurasshu_011.wav",70
Sample,51621,0,"_ki_014.wav",70
Sample,51689,0,"_kurasshu_011.wav",70
Sample,51689,0,"_ki_015.wav",70
Sample,51756,0,"_kurasshu_012.wav",70
Sample,51756,0,"_dr_009.wav",70
Sample,51756,0,"_hat_001.wav",70
Sample,51756,0,"_ki_016.wav",70
Sample,51756,0,"_sna_002.wav",70
Sample,51824,0,"_ki_017.wav",70
Sample,51824,0,"_kurasshu_012.wav",70
Sample,51891,0,"_ki_018.wav",70
Sample,51891,0,"_dr_010.wav",70
Sample,51891,0,"_kurasshu_013.wav",70
Sample,51891,0,"pi3_083.wav",70
Sample,51891,0,"pi3_084.wav",70
Sample,51891,0,"ld4x_090.wav",70
Sample,51891,0,"ld4x_091.wav",70
Sample,51891,0,"ld4x_092.wav",70
Sample,51959,0,"_ki_019.wav",70
Sample,51959,0,"_kurasshu_013.wav",70
Sample,52015,0,"_dr_011.wav",70
Sample,52027,0,"_kurasshu_014.wav",70
Sample,52027,0,"_ki_020.wav",70
Sample,52027,0,"_hat_000.wav",70
Sample,52027,0,"_sna_002.wav",70
Sample,52094,0,"_kurasshu_014.wav",70
Sample,52094,0,"_ki_021.wav",70
Sample,52156,0,"_dr_012.wav",70
Sample,52162,0,"_sna_003.wav",70
Sample,52162,0,"_ki_022.wav",70
Sample,52162,0,"_kurasshu_001.wav",70
Sample,52195,0,"_sna_004.wav",70
Sample,52229,0,"_kurasshu_001.wav",70
Sample,52229,0,"_sna_005.wav",70
Sample,52229,0,"_ki_023.wav",70
Sample,52263,0,"_sna_006.wav",70
Sample,52297,0,"_dr_013.wav",70
Sample,52297,0,"_kurasshu_015.wav",70
Sample,52297,0,"_hat_000.wav",70
Sample,52297,0,"_ki_024.wav",70
Sample,52297,0,"_sna_007.wav",70
Sample,52331,0,"_sna_008.wav",70
Sample,52364,0,"_kurasshu_015.wav",70
Sample,52364,0,"_ki_025.wav",70
Sample,52364,0,"_sna_009.wav",70
Sample,52398,0,"_sna_010.wav",70
Sample,52432,0,"_sna_011.wav",70
Sample,52432,0,"_ki_026.wav",70
Sample,52432,0,"piarp_042.wav",70
Sample,52432,0,"_dr_014.wav",70
Sample,52432,0,"_kurasshu_015.wav",70
Sample,52466,0,"_sna_012.wav",70
Sample,52494,0,"_dr_015.wav",70
Sample,52500,0,"_sna_013.wav",70
Sample,52500,0,"_kurasshu_016.wav",70
Sample,52500,0,"_ki_027.wav",70
Sample,52533,0,"piarp_042.wav",70
Sample,52533,0,"_sna_014.wav",70
Sample,52567,0,"_dr_016.wav",70
Sample,52567,0,"_hat_000.wav",70
Sample,52567,0,"_kurasshu_016.wav",70
Sample,52567,0,"_sna_015.wav",70
Sample,52567,0,"_ki_028.wav",70
Sample,52601,0,"_sna_016.wav",70
Sample,52629,0,"_dr_017.wav",70
Sample,52635,0,"_kurasshu_017.wav",70
Sample,52635,0,"_sna_017.wav",70
Sample,52635,0,"_ki_029.wav",70
Sample,52668,0,"_sna_018.wav",70
Sample,52697,0,"_dr_018.wav",70
Sample,52702,0,"_kurasshu_017.wav",70
Sample,52702,0,"_ki_030.wav",70
Sample,52702,0,"_sna_019.wav",70
Sample,52736,0,"_sna_020.wav",70
Sample,52770,0,"_dr_019.wav",70
Sample,52770,0,"_sna_021.wav",70
Sample,52770,0,"_ki_031.wav",70
Sample,52770,0,"_kurasshu_018.wav",70
Sample,52804,0,"_sna_022.wav",70
Sample,52837,0,"_dr_020.wav",70
Sample,52837,0,"_kurasshu_018.wav",70
Sample,52837,0,"_ki_032.wav",70
Sample,52837,0,"_sna_023.wav",70
Sample,52837,0,"_hat_001.wav",70
Sample,52871,0,"_sna_024.wav",70
Sample,52894,0,"_dr_021.wav",70
Sample,52905,0,"_kurasshu_019.wav",70
Sample,52905,0,"_ki_033.wav",70
Sample,52905,0,"_sna_025.wav",70
Sample,52939,0,"_sna_026.wav",70
Sample,53243,0,"_dr_000.wav",70
Sample,53243,0,"ld4x_093.wav",70
Sample,53243,0,"__sugokuiioto.wav",70
Sample,53243,0,"pi2_000.wav",70
Sample,53243,0,"ld4x_094.wav",70
Sample,53310,0,"pi2_005.wav",70
Sample,53378,0,"pi2_006.wav",70
Sample,53378,0,"_kurasshu_020.wav",70
Sample,53378,0,"_dr_001.wav",70
Sample,53440,0,"_dr_002.wav",70
Sample,53445,0,"pi2_007.wav",70
Sample,53507,0,"_dr_003.wav",70
Sample,53513,0,"pi2_008.wav",70
Sample,53581,0,"pi2_009.wav",70
Sample,53648,0,"_kurasshu_020.wav",70
Sample,53648,0,"pi2_010.wav",70
Sample,53648,0,"_dr_004.wav",70
Sample,53716,0,"pi2_011.wav",70
Sample,53778,0,"_dr_005.wav",70
Sample,53783,0,"pi2_012.wav",70
Sample,53845,0,"_dr_006.wav",70
Sample,53851,0,"pi2_013.wav",70
Sample,53913,0,"_dr_007.wav",70
Sample,53918,0,"pi2_014.wav",70
Sample,53918,0,"_kurasshu_020.wav",70
Sample,53986,0,"pi2_015.wav",70
Sample,54048,0,"_dr_008.wav",70
Sample,54054,0,"pi2_016.wav",70
Sample,54121,0,"pi2_017.wav",70
Sample,54189,0,"pi2_018.wav",70
Sample,54189,0,"_dr_009.wav",70
Sample,54189,0,"_kurasshu_020.wav",70
Sample,54256,0,"pi2_019.wav",70
Sample,54324,0,"pi2_020.wav",70
Sample,54324,0,"_dr_010.wav",70
Sample,54391,0,"pi2_019.wav",70
Sample,54448,0,"_dr_011.wav",70
Sample,54459,0,"pi2_017.wav",70
Sample,54459,0,"_kurasshu_020.wav",70
Sample,54527,0,"pi2_015.wav",70
Sample,54588,0,"_dr_012.wav",70
Sample,54594,0,"pi2_014.wav",70
Sample,54662,0,"pi2_021.wav",70
Sample,54729,0,"pi2_011.wav",70
Sample,54729,0,"_dr_013.wav",70
Sample,54729,0,"_kurasshu_020.wav",70
Sample,54797,0,"pi2_022.wav",70
Sample,54864,0,"pi2_021.wav",70
Sample,54864,0,"_dr_014.wav",70
Sample,54926,0,"_dr_015.wav",70
Sample,54932,0,"pi2_011.wav",70
Sample,55000,0,"pi2_022.wav",70
Sample,55000,0,"_kurasshu_020.wav",70
Sample,55000,0,"_dr_016.wav",70
Sample,55061,0,"_dr_017.wav",70
Sample,55067,0,"pi2_010.wav",70
Sample,55129,0,"_dr_018.wav",70
Sample,55135,0,"pi2_023.wav",70
Sample,55202,0,"pi2_009.wav",70
Sample,55202,0,"_dr_019.wav",70
Sample,55270,0,"_kurasshu_020.wav",70
Sample,55270,0,"pi2_024.wav",70
Sample,55270,0,"_dr_020.wav",70
Sample,55326,0,"_dr_021.wav",70
Sample,55337,0,"pi2_008.wav",70
Sample,55405,0,"pi2_025.wav",70
Sample,55405,0,"pi2_028.wav",70
Sample,55405,0,"pi2_026.wav",70
Sample,55405,0,"_dr_000.wav",70
Sample,55405,0,"pi2_027.wav",70
Sample,55472,0,"pi2_017.wav",70
Sample,55540,0,"_kurasshu_020.wav",70
Sample,55540,0,"_dr_001.wav",70
Sample,55540,0,"pi2_015.wav",70
Sample,55602,0,"_dr_002.wav",70
Sample,55608,0,"pi2_016.wav",70
Sample,55670,0,"_dr_003.wav",70
Sample,55675,0,"pi2_029.wav",70
Sample,55743,0,"pi2_015.wav",70
Sample,55810,0,"pi2_014.wav",70
Sample,55810,0,"_dr_004.wav",70
Sample,55810,0,"_kurasshu_020.wav",70
Sample,55878,0,"pi2_029.wav",70
Sample,55940,0,"_dr_005.wav",70
Sample,55945,0,"pi2_021.wav",70
Sample,56007,0,"_dr_006.wav",70
Sample,56013,0,"pi2_013.wav",70
Sample,56075,0,"_dr_007.wav",70
Sample,56081,0,"_kurasshu_020.wav",70
Sample,56081,0,"pi2_012.wav",70
Sample,56148,0,"pi2_021.wav",70
Sample,56210,0,"_dr_008.wav",70
Sample,56216,0,"pi2_010.wav",70
Sample,56283,0,"pi2_011.wav",70
Sample,56351,0,"_dr_009.wav",70
Sample,56351,0,"_kurasshu_020.wav",70
Sample,56351,0,"pi2_030.wav",70
Sample,56418,0,"pi2_010.wav",70
Sample,56486,0,"_dr_010.wav",70
Sample,56486,0,"pi2_033.wav",70
Sample,56486,0,"pi2_032.wav",70
Sample,56486,0,"pi2_031.wav",70
Sample,56486,0,"ld4x_095.wav",70
Sample,56554,0,"pi2_030.wav",70
Sample,56610,0,"_dr_011.wav",70
Sample,56621,0,"pi2_008.wav",70
Sample,56621,0,"_kurasshu_020.wav",70
Sample,56689,0,"pi2_009.wav",70
Sample,56751,0,"_dr_012.wav",70
Sample,56756,0,"pi2_007.wav",70
Sample,56824,0,"pi2_008.wav",70
Sample,56891,0,"_kurasshu_020.wav",70
Sample,56891,0,"pi2_005.wav",70
Sample,56891,0,"_dr_013.wav",70
Sample,56959,0,"pi2_006.wav",70
Sample,57027,0,"_dr_014.wav",70
Sample,57027,0,"pi2_034.wav",70
Sample,57088,0,"_dr_015.wav",70
Sample,57094,0,"pi2_035.wav",70
Sample,57162,0,"_dr_016.wav",70
Sample,57162,0,"pi2_036.wav",70
Sample,57162,0,"_kurasshu_020.wav",70
Sample,57224,0,"_dr_017.wav",70
Sample,57229,0,"pi2_005.wav",70
Sample,57291,0,"_dr_018.wav",70
Sample,57297,0,"pi2_000.wav",70
Sample,57364,0,"pi2_005.wav",70
Sample,57364,0,"_dr_019.wav",70
Sample,57432,0,"_kurasshu_020.wav",70
Sample,57432,0,"pi2_034.wav",70
Sample,57432,0,"_dr_020.wav",70
Sample,57488,0,"_dr_021.wav",70
Sample,57500,0,"pi2_006.wav",70
Sample,57567,0,"pi2_037.wav",70
Sample,57567,0,"ld4x_096.wav",70
Sample,57567,0,"pi2_038.wav",70
Sample,57567,0,"_dr_000.wav",70
Sample,57567,0,"pi2_039.wav",70
Sample,57635,0,"pi2_034.wav",70
Sample,57702,0,"pi2_005.wav",70
Sample,57702,0,"_dr_001.wav",70
Sample,57764,0,"_dr_002.wav",70
Sample,57770,0,"pi2_035.wav",70
Sample,57832,0,"_dr_003.wav",70
Sample,57837,0,"pi2_005.wav",70
Sample,57905,0,"pi2_034.wav",70
Sample,57972,0,"pi2_035.wav",70
Sample,57972,0,"_dr_004.wav",70
Sample,58040,0,"pi2_007.wav",70
Sample,58102,0,"_dr_005.wav",70
Sample,58108,0,"pi2_006.wav",70
Sample,58170,0,"_dr_006.wav",70
Sample,58175,0,"pi2_005.wav",70
Sample,58237,0,"_dr_007.wav",70
Sample,58243,0,"pi2_035.wav",70
Sample,58310,0,"pi2_007.wav",70
Sample,58372,0,"_dr_008.wav",70
Sample,58378,0,"pi2_040.wav",70
Sample,58445,0,"pi2_007.wav",70
Sample,58513,0,"_dr_009.wav",70
Sample,58513,0,"pi2_008.wav",70
Sample,58581,0,"pi2_009.wav",70
Sample,58648,0,"pi2_023.wav",70
Sample,58648,0,"_dr_010.wav",70
Sample,58716,0,"pi2_030.wav",70
Sample,58772,0,"_dr_011.wav",70
Sample,58783,0,"pi2_023.wav",70
Sample,58851,0,"pi2_010.wav",70
Sample,58913,0,"_dr_012.wav",70
Sample,58918,0,"pi2_022.wav",70
Sample,58986,0,"pi2_011.wav",70
Sample,59054,0,"_dr_013.wav",70
Sample,59054,0,"pi2_010.wav",70
Sample,59121,0,"pi2_022.wav",70
Sample,59189,0,"pi2_012.wav",70
Sample,59189,0,"_dr_014.wav",70
Sample,59189,0,"ld4x_097.wav",70
Sample,59251,0,"_dr_015.wav",70
Sample,59256,0,"pi2_011.wav",70
Sample,59324,0,"_dr_016.wav",70
Sample,59324,0,"pi2_012.wav",70
Sample,59386,0,"_dr_017.wav",70
Sample,59391,0,"pi2_021.wav",70
Sample,59453,0,"_dr_018.wav",70
Sample,59459,0,"pi2_013.wav",70
Sample,59527,0,"_dr_019.wav",70
Sample,59527,0,"pi2_014.wav",70
Sample,59594,0,"pi2_016.wav",70
Sample,59594,0,"_dr_020.wav",70
Sample,59650,0,"_dr_021.wav",70
Sample,59662,0,"pi2_017.wav",70
Sample,59729,0,"pi2_023.wav",70
Sample,59729,0,"pi2_016.wav",70
Sample,59729,0,"pi2_039.wav",70
Sample,59729,0,"pi2_041.wav",70
Sample,59729,0,"pi2_042.wav",70
Sample,59729,0,"_dr_000.wav",70
Sample,59797,0,"pi2_017.wav",70
Sample,59864,0,"pi2_016.wav",70
Sample,59864,0,"_dr_001.wav",70
Sample,59926,0,"_dr_002.wav",70
Sample,59932,0,"pi2_029.wav",70
Sample,59994,0,"_dr_003.wav",70
Sample,60000,0,"pi2_023.wav",70
Sample,60000,0,"pi2_013.wav",70
Sample,60000,0,"pi2_016.wav",70
Sample,60067,0,"pi2_021.wav",70
Sample,60067,0,"pi2_017.wav",70
Sample,60135,0,"_dr_004.wav",70
Sample,60135,0,"pi2_011.wav",70
Sample,60135,0,"pi2_016.wav",70
Sample,60202,0,"pi2_010.wav",70
Sample,60202,0,"pi2_029.wav",70
Sample,60264,0,"_dr_005.wav",70
Sample,60270,0,"pi2_013.wav",70
Sample,60270,0,"pi2_023.wav",70
Sample,60270,0,"pi2_016.wav",70
Sample,60332,0,"_dr_006.wav",70
Sample,60337,0,"pi2_021.wav",70
Sample,60337,0,"pi2_017.wav",70
Sample,60399,0,"_dr_007.wav",70
Sample,60405,0,"pi2_016.wav",70
Sample,60405,0,"pi2_011.wav",70
Sample,60472,0,"pi2_010.wav",70
Sample,60472,0,"pi2_029.wav",70
Sample,60534,0,"_dr_008.wav",70
Sample,60540,0,"pi2_023.wav",70
Sample,60540,0,"pi2_013.wav",70
Sample,60540,0,"pi2_019.wav",70
Sample,60608,0,"pi2_021.wav",70
Sample,60608,0,"pi2_017.wav",70
Sample,60675,0,"_dr_009.wav",70
Sample,60675,0,"pi2_011.wav",70
Sample,60675,0,"pi2_016.wav",70
Sample,60743,0,"pi2_010.wav",70
Sample,60743,0,"pi2_029.wav",70
Sample,60810,0,"pi2_021.wav",70
Sample,60810,0,"_dr_010.wav",70
Sample,60810,0,"ld4x_098.wav",70
Sample,60878,0,"pi2_011.wav",70
Sample,60934,0,"_dr_011.wav",70
Sample,60945,0,"pi2_010.wav",70
Sample,61013,0,"pi2_009.wav",70
Sample,61075,0,"_dr_012.wav",70
Sample,61081,0,"pi2_008.wav",70
Sample,61148,0,"pi2_040.wav",70
Sample,61216,0,"pi2_007.wav",70
Sample,61216,0,"_dr_013.wav",70
Sample,61283,0,"pi2_006.wav",70
Sample,61351,0,"_dr_014.wav",70
Sample,61351,0,"pi2_035.wav",70
Sample,61413,0,"_dr_015.wav",70
Sample,61418,0,"pi2_005.wav",70
Sample,61486,0,"pi2_036.wav",70
Sample,61486,0,"_dr_016.wav",70
Sample,61548,0,"_dr_017.wav",70
Sample,61554,0,"pi2_000.wav",70
Sample,61615,0,"_dr_018.wav",70
Sample,61621,0,"pi2_043.wav",70
Sample,61689,0,"_dr_019.wav",70
Sample,61689,0,"pi2_044.wav",70
Sample,61756,0,"pi2_045.wav",70
Sample,61756,0,"_dr_020.wav",70
Sample,61813,0,"_dr_021.wav",70
Sample,61824,0,"pi2_046.wav",70
Sample,61891,0,"pi2_047.wav",70
Sample,61891,0,"pi2_037.wav",70
Sample,61891,0,"ld4x_099.wav",70
Sample,61959,0,"pi2_044.wav",70
Sample,62027,0,"pi2_048.wav",70
Sample,62027,0,"_kurasshu_020.wav",70
Sample,62088,0,"_dr_002.wav",70
Sample,62094,0,"pi2_036.wav",70
Sample,62162,0,"pi2_034.wav",70
Sample,62229,0,"pi2_048.wav",70
Sample,62297,0,"pi2_005.wav",70
Sample,62297,0,"_kurasshu_020.wav",70
Sample,62364,0,"pi2_035.wav",70
Sample,62432,0,"pi2_006.wav",70
Sample,62494,0,"_dr_006.wav",70
Sample,62500,0,"pi2_007.wav",70
Sample,62567,0,"pi2_049.wav",70
Sample,62567,0,"_kurasshu_020.wav",70
Sample,62635,0,"pi2_040.wav",70
Sample,62702,0,"pi2_024.wav",70
Sample,62770,0,"pi2_009.wav",70
Sample,62837,0,"_kurasshu_020.wav",70
Sample,62837,0,"pi2_030.wav",70
Sample,62905,0,"pi2_024.wav",70
Sample,62972,0,"pi2_023.wav",70
Sample,63040,0,"pi2_030.wav",70
Sample,63108,0,"pi2_022.wav",70
Sample,63108,0,"_kurasshu_020.wav",70
Sample,63175,0,"pi2_011.wav",70
Sample,63243,0,"pi2_012.wav",70
Sample,63310,0,"pi2_021.wav",70
Sample,63378,0,"_kurasshu_020.wav",70
Sample,63378,0,"pi2_013.wav",70
Sample,63445,0,"pi2_029.wav",70
Sample,63513,0,"pi2_014.wav",70
Sample,63581,0,"pi2_015.wav",70
Sample,63648,0,"pi2_016.wav",70
Sample,63648,0,"_kurasshu_020.wav",70
Sample,63716,0,"pi2_050.wav",70
Sample,63783,0,"pi2_017.wav",70
Sample,63851,0,"pi2_050.wav",70
Sample,63918,0,"_kurasshu_020.wav",70
Sample,63918,0,"pi2_018.wav",70
Sample,63986,0,"pi2_050.wav",70
Sample,64054,0,"pi2_017.wav",70
Sample,64121,0,"pi2_015.wav",70
Sample,64189,0,"pi2_016.wav",70
Sample,64251,0,"_dr_002.wav",70
Sample,64256,0,"pi2_014.wav",70
Sample,64324,0,"pi2_050.wav",70
Sample,64391,0,"pi2_014.wav",70
Sample,64459,0,"pi2_016.wav",70
Sample,64527,0,"pi2_021.wav",70
Sample,64594,0,"pi2_014.wav",70
Sample,64656,0,"_dr_006.wav",70
Sample,64662,0,"pi2_021.wav",70
Sample,64729,0,"pi2_013.wav",70
Sample,64797,0,"pi2_022.wav",70
Sample,64864,0,"pi2_012.wav",70
Sample,64932,0,"pi2_013.wav",70
Sample,65000,0,"pi2_014.wav",70
Sample,65067,0,"pi2_013.wav",70
Sample,65135,0,"pi2_012.wav",70
Sample,65202,0,"pi2_011.wav",70
Sample,65270,0,"pi2_030.wav",70
Sample,65337,0,"pi2_023.wav",70
Sample,65405,0,"pi2_024.wav",70
Sample,65405,0,"pi2_006.wav",70
Sample,65472,0,"pi2_035.wav",70
Sample,65472,0,"pi2_008.wav",70
Sample,65540,0,"pi2_040.wav",70
Sample,65540,0,"pi2_005.wav",70
Sample,65608,0,"pi2_034.wav",70
Sample,65608,0,"pi2_007.wav",70
Sample,65675,0,"pi2_006.wav",70
Sample,65675,0,"pi2_036.wav",70
Sample,65743,0,"pi2_048.wav",70
Sample,65743,0,"pi2_035.wav",70
Sample,65810,0,"pi2_005.wav",70
Sample,65810,0,"pi2_000.wav",70
Sample,65878,0,"pi2_043.wav",70
Sample,65878,0,"pi2_034.wav",70
Sample,65945,0,"pi2_044.wav",70
Sample,65945,0,"pi2_036.wav",70
Sample,66013,0,"pi2_034.wav",70
Sample,66013,0,"pi2_045.wav",70
Sample,66081,0,"pi2_046.wav",70
Sample,66081,0,"pi2_048.wav",70
Sample,66148,0,"pi2_034.wav",70
Sample,66148,0,"pi2_051.wav",70
Sample,66216,0,"pi2_036.wav",70
Sample,66216,0,"ld4x_100.wav",70
Sample,66216,0,"pi2_052.wav",70
Sample,66216,0,"pd2_006.wav",70
Sample,66216,0,"pd2_016.wav",70
Sample,66283,0,"pi2_005.wav",70
Sample,66351,0,"pi2_034.wav",70
Sample,66418,0,"pi2_035.wav",70
Sample,66486,0,"_sna_000.wav",70
Sample,66486,0,"pi2_006.wav",70
Sample,66554,0,"pi2_007.wav",70
Sample,66621,0,"pi2_008.wav",70
Sample,66689,0,"pi2_007.wav",70
Sample,66756,0,"pi2_024.wav",70
Sample,66756,0,"pd2_004.wav",70
Sample,66824,0,"pi2_008.wav",70
Sample,66891,0,"pi2_023.wav",70
Sample,66959,0,"pi2_024.wav",70
Sample,67027,0,"pi2_009.wav",70
Sample,67027,0,"_sna_001.wav",70
Sample,67094,0,"pi2_023.wav",70
Sample,67162,0,"pi2_008.wav",70
Sample,67229,0,"pi2_010.wav",70
Sample,67297,0,"pd2_009.wav",70
Sample,67297,0,"pi2_030.wav",70
Sample,67364,0,"pi2_023.wav",70
Sample,67432,0,"pi2_010.wav",70
Sample,67500,0,"pi2_022.wav",70
Sample,67567,0,"pi2_011.wav",70
Sample,67567,0,"_sna_000.wav",70
Sample,67635,0,"pi2_022.wav",70
Sample,67702,0,"pi2_012.wav",70
Sample,67770,0,"pi2_021.wav",70
Sample,67837,0,"pi2_013.wav",70
Sample,67837,0,"pd2_002.wav",70
Sample,67837,0,"_ki_034.wav",70
Sample,67905,0,"pi2_014.wav",70
Sample,67972,0,"pi2_021.wav",70
Sample,67972,0,"_kurasshu_020.wav",70
Sample,68040,0,"pi2_013.wav",70
Sample,68108,0,"_sna_001.wav",70
Sample,68108,0,"_ki_034.wav",70
Sample,68108,0,"pi2_014.wav",70
Sample,68175,0,"pi2_029.wav",70
Sample,68243,0,"pi2_015.wav",70
Sample,68243,0,"_kurasshu_020.wav",70
Sample,68310,0,"pi2_016.wav",70
Sample,68378,0,"pd2_009.wav",70
Sample,68378,0,"pd2_017.wav",70
Sample,68378,0,"pi2_053.wav",70
Sample,68378,0,"pi2_050.wav",70
Sample,68378,0,"pd2_018.wav",70
Sample,68412,0,"pi2_054.wav",70
Sample,68445,0,"pi2_055.wav",70
Sample,68479,0,"pi2_056.wav",70
Sample,68513,0,"pi2_057.wav",70
Sample,68547,0,"pi2_058.wav",70
Sample,68581,0,"pi2_059.wav",70
Sample,68614,0,"pi2_060.wav",70
Sample,68648,0,"pi2_062.wav",70
Sample,68648,0,"pi2_061.wav",70
Sample,68648,0,"pi2_063.wav",70
Sample,68648,0,"pi2_064.wav",70
Sample,68648,0,"pi2_065.wav",70
Sample,68648,0,"_sna_000.wav",70
Sample,68918,0,"pi2_009.wav",70
Sample,68918,0,"pi2_021.wav",70
Sample,68918,0,"pi2_030.wav",70
Sample,68918,0,"pd2_002.wav",70
Sample,68918,0,"pi2_017.wav",70
Sample,68986,0,"pi2_016.wav",70
Sample,69054,0,"pi2_029.wav",70
Sample,69121,0,"pi2_013.wav",70
Sample,69189,0,"_sna_001.wav",70
Sample,69189,0,"pi2_021.wav",70
Sample,69256,0,"pi2_011.wav",70
Sample,69324,0,"pi2_010.wav",70
Sample,69391,0,"pi2_009.wav",70
Sample,69459,0,"pd2_020.wav",70
Sample,69459,0,"pd2_019.wav",70
Sample,69459,0,"pi2_024.wav",70
Sample,69459,0,"pd2_018.wav",70
Sample,69527,0,"pi2_008.wav",70
Sample,69594,0,"pi2_007.wav",70
Sample,69662,0,"pi2_006.wav",70
Sample,69729,0,"pi2_005.wav",70
Sample,69729,0,"_sna_000.wav",70
Sample,69797,0,"pi2_036.wav",70
Sample,69864,0,"pi2_048.wav",70
Sample,69932,0,"pi2_043.wav",70
Sample,70000,0,"pd2_021.wav",70
Sample,70000,0,"pi2_007.wav",70
Sample,70067,0,"pi2_035.wav",70
Sample,70135,0,"pi2_034.wav",70
Sample,70202,0,"pi2_036.wav",70
Sample,70270,0,"_sna_001.wav",70
Sample,70270,0,"pi2_048.wav",70
Sample,70337,0,"pi2_000.wav",70
Sample,70405,0,"pi2_043.wav",70
Sample,70472,0,"pi2_045.wav",70
Sample,70540,0,"pd2_000.wav",70
Sample,70540,0,"hue_000.wav",70
Sample,70540,0,"_ki_034.wav",70
Sample,70540,0,"_dr_000.wav",70
Sample,70540,0,"ld4x_097.wav",70
Sample,70675,0,"_kurasshu_020.wav",70
Sample,70675,0,"_dr_001.wav",70
Sample,70737,0,"_dr_002.wav",70
Sample,70805,0,"_dr_003.wav",70
Sample,70810,0,"_sna_000.wav",70
Sample,70810,0,"_ki_034.wav",70
Sample,70945,0,"_kurasshu_020.wav",70
Sample,70945,0,"_dr_004.wav",70
Sample,71075,0,"_dr_005.wav",70
Sample,71081,0,"_ki_034.wav",70
Sample,71081,0,"pd2_001.wav",70
Sample,71143,0,"_dr_006.wav",70
Sample,71210,0,"_dr_007.wav",70
Sample,71216,0,"_kurasshu_020.wav",70
Sample,71345,0,"_dr_008.wav",70
Sample,71351,0,"_sna_001.wav",70
Sample,71351,0,"_ki_034.wav",70
Sample,71486,0,"_kurasshu_020.wav",70
Sample,71486,0,"_dr_009.wav",70
Sample,71621,0,"pd2_005.wav",70
Sample,71621,0,"_dr_010.wav",70
Sample,71621,0,"_ki_034.wav",70
Sample,71745,0,"_dr_011.wav",70
Sample,71756,0,"_kurasshu_020.wav",70
Sample,71886,0,"_dr_012.wav",70
Sample,71891,0,"_ki_034.wav",70
Sample,71891,0,"_sna_000.wav",70
Sample,72027,0,"_kurasshu_020.wav",70
Sample,72027,0,"_dr_013.wav",70
Sample,72162,0,"_dr_014.wav",70
Sample,72162,0,"pd2_002.wav",70
Sample,72162,0,"pi2_074.wav",70
Sample,72162,0,"_ki_034.wav",70
Sample,72162,0,"pi2_075.wav",70
Sample,72162,0,"ld4x_096.wav",70
Sample,72162,0,"hue_001.wav",70
Sample,72224,0,"_dr_015.wav",70
Sample,72297,0,"_kurasshu_020.wav",70
Sample,72297,0,"_dr_016.wav",70
Sample,72359,0,"_dr_017.wav",70
Sample,72426,0,"_dr_018.wav",70
Sample,72432,0,"pi2_073.wav",70
Sample,72432,0,"pi2_074.wav",70
Sample,72432,0,"_sna_001.wav",70
Sample,72432,0,"_ki_034.wav",70
Sample,72500,0,"_dr_019.wav",70
Sample,72567,0,"_dr_020.wav",70
Sample,72567,0,"_kurasshu_020.wav",70
Sample,72623,0,"_dr_021.wav",70
Sample,72702,0,"pd2_003.wav",70
Sample,72702,0,"_dr_000.wav",70
Sample,72702,0,"_ki_034.wav",70
Sample,72837,0,"_kurasshu_020.wav",70
Sample,72837,0,"_dr_001.wav",70
Sample,72899,0,"_dr_002.wav",70
Sample,72967,0,"_dr_003.wav",70
Sample,72972,0,"_sna_000.wav",70
Sample,72972,0,"_ki_034.wav",70
Sample,73108,0,"_kurasshu_020.wav",70
Sample,73108,0,"_dr_004.wav",70
Sample,73237,0,"_dr_005.wav",70
Sample,73243,0,"_ki_034.wav",70
Sample,73243,0,"pd2_002.wav",70
Sample,73305,0,"_dr_006.wav",70
Sample,73372,0,"_dr_007.wav",70
Sample,73378,0,"_kurasshu_020.wav",70
Sample,73507,0,"_dr_008.wav",70
Sample,73513,0,"_ki_034.wav",70
Sample,73513,0,"_sna_001.wav",70
Sample,73648,0,"_kurasshu_020.wav",70
Sample,73648,0,"_dr_009.wav",70
Sample,73783,0,"pd2_004.wav",70
Sample,73783,0,"hue_002.wav",70
Sample,73783,0,"_ki_034.wav",70
Sample,73783,0,"_dr_010.wav",70
Sample,73783,0,"ld4x_095.wav",70
Sample,73907,0,"_dr_011.wav",70
Sample,73918,0,"_kurasshu_020.wav",70
Sample,74048,0,"_dr_012.wav",70
Sample,74054,0,"_sna_000.wav",70
Sample,74054,0,"_ki_034.wav",70
Sample,74189,0,"_dr_013.wav",70
Sample,74189,0,"_kurasshu_020.wav",70
Sample,74324,0,"_dr_014.wav",70
Sample,74324,0,"_ki_034.wav",70
Sample,74324,0,"pd2_001.wav",70
Sample,74386,0,"_dr_015.wav",70
Sample,74459,0,"_dr_016.wav",70
Sample,74459,0,"_kurasshu_020.wav",70
Sample,74521,0,"_dr_017.wav",70
Sample,74588,0,"_dr_018.wav",70
Sample,74594,0,"_sna_001.wav",70
Sample,74594,0,"_ki_034.wav",70
Sample,74662,0,"_dr_019.wav",70
Sample,74729,0,"_kurasshu_020.wav",70
Sample,74729,0,"_dr_020.wav",70
Sample,74786,0,"_dr_021.wav",70
Sample,74864,0,"pd2_022.wav",70
Sample,74864,0,"hue_003.wav",70
Sample,74864,0,"_ki_034.wav",70
Sample,74864,0,"_dr_000.wav",70
Sample,74864,0,"ld4x_101.wav",70
Sample,75000,0,"_kurasshu_020.wav",70
Sample,75000,0,"_dr_001.wav",70
Sample,75061,0,"_dr_002.wav",70
Sample,75129,0,"_dr_003.wav",70
Sample,75135,0,"_sna_000.wav",70
Sample,75135,0,"_ki_034.wav",70
Sample,75270,0,"_kurasshu_020.wav",70
Sample,75270,0,"_dr_004.wav",70
Sample,75399,0,"_dr_005.wav",70
Sample,75405,0,"_ki_034.wav",70
Sample,75405,0,"pd2_008.wav",70
Sample,75467,0,"_dr_006.wav",70
Sample,75534,0,"_dr_007.wav",70
Sample,75540,0,"_kurasshu_020.wav",70
Sample,75670,0,"_dr_008.wav",70
Sample,75675,0,"_ki_034.wav",70
Sample,75675,0,"_sna_001.wav",70
Sample,75810,0,"_kurasshu_020.wav",70
Sample,75810,0,"_dr_009.wav",70
Sample,75945,0,"pd2_004.wav",70
Sample,75945,0,"_dr_010.wav",70
Sample,75945,0,"_ki_034.wav",70
Sample,76069,0,"_dr_011.wav",70
Sample,76081,0,"_kurasshu_020.wav",70
Sample,76210,0,"_dr_012.wav",70
Sample,76216,0,"_sna_000.wav",70
Sample,76216,0,"_ki_034.wav",70
Sample,76351,0,"_kurasshu_020.wav",70
Sample,76351,0,"_dr_013.wav",70
Sample,76486,0,"_ki_034.wav",70
Sample,76486,0,"hue_004.wav",70
Sample,76486,0,"pd2_003.wav",70
Sample,76486,0,"_dr_014.wav",70
Sample,76486,0,"ld4x_102.wav",70
Sample,76548,0,"_dr_015.wav",70
Sample,76621,0,"_dr_016.wav",70
Sample,76621,0,"_kurasshu_020.wav",70
Sample,76683,0,"_dr_017.wav",70
Sample,76751,0,"_dr_018.wav",70
Sample,76756,0,"_ki_034.wav",70
Sample,76756,0,"_sna_001.wav",70
Sample,76824,0,"_dr_019.wav",70
Sample,76891,0,"_kurasshu_020.wav",70
Sample,76891,0,"_dr_020.wav",70
Sample,76948,0,"_dr_021.wav",70
Sample,77027,0,"pd2_011.wav",70
Sample,77027,0,"pd2_017.wav",70
Sample,77027,0,"_ki_034.wav",70
Sample,77027,0,"_dr_000.wav",70
Sample,77162,0,"_kurasshu_020.wav",70
Sample,77162,0,"_dr_001.wav",70
Sample,77224,0,"_dr_002.wav",70
Sample,77291,0,"_dr_003.wav",70
Sample,77297,0,"_sna_000.wav",70
Sample,77297,0,"_ki_034.wav",70
Sample,77432,0,"_kurasshu_020.wav",70
Sample,77432,0,"_dr_004.wav",70
Sample,77561,0,"_dr_005.wav",70
Sample,77567,0,"_ki_034.wav",70
Sample,77567,0,"pd2_002.wav",70
Sample,77629,0,"_dr_006.wav",70
Sample,77697,0,"_dr_007.wav",70
Sample,77702,0,"_kurasshu_020.wav",70
Sample,77832,0,"_dr_008.wav",70
Sample,77837,0,"_sna_001.wav",70
Sample,77837,0,"_ki_034.wav",70
Sample,77972,0,"_kurasshu_020.wav",70
Sample,77972,0,"_dr_009.wav",70
Sample,78108,0,"ld4x_095.wav",70
Sample,78108,0,"_ki_034.wav",70
Sample,78108,0,"pd2_003.wav",70
Sample,78108,0,"hue_005.wav",70
Sample,78108,0,"pd2_020.wav",70
Sample,78108,0,"_dr_010.wav",70
Sample,78108,0,"__hyuooooooooo.wav",70
Sample,78108,0,"ld4x_098.wav",70
Sample,78231,0,"_dr_011.wav",70
Sample,78243,0,"_kurasshu_020.wav",70
Sample,78372,0,"_dr_012.wav",70
Sample,78378,0,"_sna_000.wav",70
Sample,78378,0,"_ki_034.wav",70
Sample,78513,0,"_dr_013.wav",70
Sample,78513,0,"_kurasshu_020.wav",70
Sample,78648,0,"_ki_034.wav",70
Sample,78648,0,"pd2_004.wav",70
Sample,78648,0,"_dr_014.wav",70
Sample,78710,0,"_dr_015.wav",70
Sample,78783,0,"_dr_016.wav",70
Sample,78783,0,"_kurasshu_020.wav",70
Sample,78845,0,"_dr_017.wav",70
Sample,78913,0,"_dr_018.wav",70
Sample,78918,0,"_sna_001.wav",70
Sample,78918,0,"_ki_034.wav",70
Sample,78986,0,"_dr_019.wav",70
Sample,79054,0,"_dr_020.wav",70
Sample,79054,0,"_kurasshu_020.wav",70
Sample,79110,0,"_dr_021.wav",70
Sample,79189,0,"pd2_015.wav",70
Sample,79189,0,"hue_007.wav",70
Sample,79189,0,"ld4x_103.wav",70
Sample,79189,0,"_dr_000.wav",70
Sample,79189,0,"ld4x_099.wav",70
Sample,79189,0,"_ki_034.wav",70
Sample,79324,0,"_dr_001.wav",70
Sample,79324,0,"_kurasshu_020.wav",70
Sample,79386,0,"_dr_002.wav",70
Sample,79453,0,"_dr_003.wav",70
Sample,79459,0,"_ki_034.wav",70
Sample,79459,0,"_sna_000.wav",70
Sample,79594,0,"_dr_004.wav",70
Sample,79594,0,"_kurasshu_020.wav",70
Sample,79724,0,"_dr_005.wav",70
Sample,79729,0,"_ki_034.wav",70
Sample,79729,0,"pd2_010.wav",70
Sample,79791,0,"_dr_006.wav",70
Sample,79859,0,"_dr_007.wav",70
Sample,79864,0,"_kurasshu_020.wav",70
Sample,79994,0,"_dr_008.wav",70
Sample,80000,0,"_ki_034.wav",70
Sample,80000,0,"_sna_001.wav",70
Sample,80135,0,"_kurasshu_020.wav",70
Sample,80135,0,"_dr_009.wav",70
Sample,80270,0,"_ki_034.wav",70
Sample,80270,0,"pd2_006.wav",70
Sample,80270,0,"_dr_010.wav",70
Sample,80394,0,"_dr_011.wav",70
Sample,80405,0,"_kurasshu_020.wav",70
Sample,80534,0,"_dr_012.wav",70
Sample,80540,0,"_ki_034.wav",70
Sample,80540,0,"_sna_000.wav",70
Sample,80675,0,"_dr_013.wav",70
Sample,80675,0,"_kurasshu_020.wav",70
Sample,80810,0,"_dr_014.wav",70
Sample,80810,0,"_ki_034.wav",70
Sample,80810,0,"pi2_117.wav",70
Sample,80810,0,"pd2_003.wav",70
Sample,80872,0,"_dr_015.wav",70
Sample,80945,0,"_dr_016.wav",70
Sample,80945,0,"_kurasshu_020.wav",70
Sample,81007,0,"_dr_017.wav",70
Sample,81075,0,"_dr_018.wav",70
Sample,81081,0,"_sna_001.wav",70
Sample,81081,0,"_ki_034.wav",70
Sample,81148,0,"_dr_019.wav",70
Sample,81216,0,"_dr_020.wav",70
Sample,81216,0,"_kurasshu_020.wav",70
Sample,81272,0,"_dr_021.wav",70
Sample,81351,0,"pi2_117.wav",70
Sample,81351,0,"_dr_000.wav",70
Sample,81351,0,"_ki_034.wav",70
Sample,81351,0,"pd2_011.wav",70
Sample,81486,0,"_kurasshu_020.wav",70
Sample,81486,0,"_dr_001.wav",70
Sample,81548,0,"_dr_002.wav",70
Sample,81615,0,"_dr_003.wav",70
Sample,81621,0,"_sna_000.wav",70
Sample,81621,0,"_ki_034.wav",70
Sample,81756,0,"_kurasshu_020.wav",70
Sample,81756,0,"pi2_118.wav",70
Sample,81756,0,"_dr_004.wav",70
Sample,81886,0,"_dr_005.wav",70
Sample,81891,0,"pd2_023.wav",70
Sample,81891,0,"_ki_034.wav",70
Sample,81953,0,"_dr_006.wav",70
Sample,82021,0,"_dr_007.wav",70
Sample,82027,0,"pi2_119.wav",70
Sample,82027,0,"_kurasshu_020.wav",70
Sample,82156,0,"_dr_008.wav",70
Sample,82162,0,"_sna_001.wav",70
Sample,82162,0,"_ki_034.wav",70
Sample,82297,0,"_kurasshu_020.wav",70
Sample,82297,0,"_dr_009.wav",70
Sample,82432,0,"_dr_010.wav",70
Sample,82432,0,"_ki_034.wav",70
Sample,82432,0,"pd2_024.wav",70
Sample,82556,0,"_dr_011.wav",70
Sample,82567,0,"_kurasshu_020.wav",70
Sample,82697,0,"_dr_012.wav",70
Sample,82702,0,"_sna_000.wav",70
Sample,82702,0,"_ki_034.wav",70
Sample,82837,0,"_kurasshu_020.wav",70
Sample,82837,0,"_dr_013.wav",70
Sample,82972,0,"_dr_014.wav",70
Sample,82972,0,"pd2_010.wav",70
Sample,82972,0,"_ki_034.wav",70
Sample,83034,0,"_dr_015.wav",70
Sample,83108,0,"_dr_016.wav",70
Sample,83108,0,"_kurasshu_020.wav",70
Sample,83170,0,"_dr_017.wav",70
Sample,83237,0,"_dr_018.wav",70
Sample,83243,0,"_ki_034.wav",70
Sample,83243,0,"_sna_001.wav",70
Sample,83310,0,"_dr_019.wav",70
Sample,83378,0,"_kurasshu_020.wav",70
Sample,83378,0,"_dr_020.wav",70
Sample,83434,0,"_dr_021.wav",70
Sample,83513,0,"_dr_000.wav",70
Sample,83513,0,"hue_008.wav",70
Sample,83513,0,"_ki_034.wav",70
Sample,83513,0,"pd2_025.wav",70
Sample,83513,0,"ld4x_096.wav",70
Sample,83648,0,"_dr_001.wav",70
Sample,83648,0,"_kurasshu_020.wav",70
Sample,83710,0,"_dr_002.wav",70
Sample,83778,0,"_dr_003.wav",70
Sample,83783,0,"_ki_034.wav",70
Sample,83783,0,"_sna_000.wav",70
Sample,83918,0,"_dr_004.wav",70
Sample,83918,0,"_kurasshu_020.wav",70
Sample,84048,0,"_dr_005.wav",70
Sample,84054,0,"_ki_034.wav",70
Sample,84054,0,"pd2_010.wav",70
Sample,84115,0,"_dr_006.wav",70
Sample,84183,0,"_dr_007.wav",70
Sample,84189,0,"_kurasshu_020.wav",70
Sample,84318,0,"_dr_008.wav",70
Sample,84324,0,"_sna_001.wav",70
Sample,84324,0,"_ki_034.wav",70
Sample,84459,0,"_kurasshu_020.wav",70
Sample,84459,0,"_dr_009.wav",70
Sample,84594,0,"pd2_006.wav",70
Sample,84594,0,"_ki_034.wav",70
Sample,84594,0,"_dr_010.wav",70
Sample,84594,0,"hue_009.wav",70
Sample,84718,0,"_dr_011.wav",70
Sample,84729,0,"_kurasshu_020.wav",70
Sample,84859,0,"_dr_012.wav",70
Sample,84864,0,"_ki_034.wav",70
Sample,84864,0,"_sna_000.wav",70
Sample,85000,0,"_dr_013.wav",70
Sample,85000,0,"_kurasshu_020.wav",70
Sample,85135,0,"ld4x_096.wav",70
Sample,85135,0,"hue_010.wav",70
Sample,85135,0,"_ki_034.wav",70
Sample,85135,0,"pd2_004.wav",70
Sample,85135,0,"_dr_014.wav",70
Sample,85197,0,"_dr_015.wav",70
Sample,85270,0,"_dr_016.wav",70
Sample,85270,0,"_kurasshu_020.wav",70
Sample,85332,0,"_dr_017.wav",70
Sample,85399,0,"_dr_018.wav",70
Sample,85405,0,"_sna_001.wav",70
Sample,85405,0,"_ki_034.wav",70
Sample,85405,0,"pi2_059.wav",70
Sample,85472,0,"_dr_019.wav",70
Sample,85540,0,"_dr_020.wav",70
Sample,85540,0,"_kurasshu_020.wav",70
Sample,85540,0,"hue_011.wav",70
Sample,85596,0,"_dr_021.wav",70
Sample,85675,0,"pd2_003.wav",70
Sample,85675,0,"_dr_000.wav",70
Sample,85675,0,"_ki_034.wav",70
Sample,85765,0,"pi2_144.wav",70
Sample,85810,0,"_kurasshu_020.wav",70
Sample,85810,0,"_dr_001.wav",70
Sample,85872,0,"_dr_002.wav",70
Sample,85900,0,"pi2_147.wav",70
Sample,85940,0,"_dr_003.wav",70
Sample,85945,0,"_ki_034.wav",70
Sample,85945,0,"_sna_000.wav",70
Sample,86036,0,"pi2_149.wav",70
Sample,86081,0,"_kurasshu_020.wav",70
Sample,86081,0,"_dr_004.wav",70
Sample,86171,0,"pi2_152.wav",70
Sample,86210,0,"_dr_005.wav",70
Sample,86216,0,"_ki_034.wav",70
Sample,86216,0,"pd2_004.wav",70
Sample,86278,0,"_dr_006.wav",70
Sample,86306,0,"pi2_155.wav",70
Sample,86345,0,"_dr_007.wav",70
Sample,86351,0,"_kurasshu_020.wav",70
Sample,86441,0,"pi2_158.wav",70
Sample,86480,0,"_dr_008.wav",70
Sample,86486,0,"_sna_001.wav",70
Sample,86486,0,"_ki_034.wav",70
Sample,86576,0,"pi2_162.wav",70
Sample,86621,0,"_dr_009.wav",70
Sample,86621,0,"_kurasshu_020.wav",70
Sample,86711,0,"pi2_166.wav",70
Sample,86756,0,"pi2_168.wav",70
Sample,86756,0,"hue_012.wav",70
Sample,86756,0,"pi2_169.wav",70
Sample,86756,0,"_dr_010.wav",70
Sample,86756,0,"pd2_017.wav",70
Sample,86756,0,"ld4x_098.wav",70
Sample,86756,0,"_ki_034.wav",70
Sample,86756,0,"pd2_003.wav",70
Sample,86756,0,"pi2_074.wav",70
Sample,86880,0,"_dr_011.wav",70
Sample,86891,0,"_kurasshu_020.wav",70
Sample,87021,0,"_dr_012.wav",70
Sample,87027,0,"_sna_000.wav",70
Sample,87027,0,"_ki_034.wav",70
Sample,87162,0,"pi2_168.wav",70
Sample,87162,0,"pi2_074.wav",70
Sample,87162,0,"_kurasshu_020.wav",70
Sample,87162,0,"pi2_169.wav",70
Sample,87162,0,"_dr_013.wav",70
Sample,87162,0,"pi2_123.wav",70
Sample,87297,0,"_dr_014.wav",70
Sample,87297,0,"hue_013.wav",70
Sample,87297,0,"pd2_002.wav",70
Sample,87297,0,"_ki_034.wav",70
Sample,87359,0,"_dr_015.wav",70
Sample,87432,0,"_dr_016.wav",70
Sample,87432,0,"pi2_123.wav",70
Sample,87432,0,"_kurasshu_020.wav",70
Sample,87432,0,"pi2_074.wav",70
Sample,87432,0,"pi2_168.wav",70
Sample,87432,0,"pi2_169.wav",70
Sample,87494,0,"_dr_017.wav",70
Sample,87561,0,"_dr_018.wav",70
Sample,87567,0,"_ki_034.wav",70
Sample,87567,0,"_sna_001.wav",70
Sample,87635,0,"_dr_019.wav",70
Sample,87702,0,"_kurasshu_020.wav",70
Sample,87702,0,"_dr_020.wav",70
Sample,87759,0,"_dr_021.wav",70
Sample,87837,0,"_dr_000.wav",70
Sample,87837,0,"pd2_026.wav",70
Sample,87837,0,"__kuraaaaaaasshu.wav",70
Sample,87837,0,"piarp_031.wav",70
Sample,87837,0,"ld4x_051.wav",70
Sample,87837,0,"hue_014.wav",70
Sample,87837,0,"vio2_000.wav",70
Sample,87905,0,"piarp_032.wav",70
Sample,87972,0,"piarp_033.wav",70
Sample,87972,0,"_hat_000.wav",70
Sample,87972,0,"_dr_001.wav",70
Sample,88034,0,"_dr_002.wav",70
Sample,88040,0,"piarp_024.wav",70
Sample,88102,0,"_dr_003.wav",70
Sample,88108,0,"piarp_034.wav",70
Sample,88175,0,"piarp_035.wav",70
Sample,88243,0,"piarp_036.wav",70
Sample,88243,0,"_dr_004.wav",70
Sample,88243,0,"_hat_000.wav",70
Sample,88310,0,"piarp_008.wav",70
Sample,88372,0,"_dr_005.wav",70
Sample,88378,0,"piarp_037.wav",70
Sample,88440,0,"_dr_006.wav",70
Sample,88445,0,"piarp_036.wav",70
Sample,88507,0,"_dr_007.wav",70
Sample,88513,0,"piarp_035.wav",70
Sample,88513,0,"_hat_000.wav",70
Sample,88581,0,"piarp_034.wav",70
Sample,88643,0,"_dr_008.wav",70
Sample,88648,0,"piarp_024.wav",70
Sample,88648,0,"ld4x_054.wav",70
Sample,88648,0,"ld4x_052.wav",70
Sample,88716,0,"piarp_033.wav",70
Sample,88783,0,"_hat_001.wav",70
Sample,88783,0,"piarp_001.wav",70
Sample,88783,0,"_dr_009.wav",70
Sample,88851,0,"piarp_031.wav",70
Sample,88918,0,"pd2_027.wav",70
Sample,88918,0,"ld4x_055.wav",70
Sample,88918,0,"_dr_010.wav",70
Sample,88918,0,"piarp_038.wav",70
Sample,88918,0,"vio2_001.wav",70
Sample,88986,0,"piarp_039.wav",70
Sample,89042,0,"_dr_011.wav",70
Sample,89054,0,"_hat_000.wav",70
Sample,89054,0,"piarp_040.wav",70
Sample,89121,0,"piarp_024.wav",70
Sample,89183,0,"_dr_012.wav",70
Sample,89189,0,"piarp_041.wav",70
Sample,89256,0,"piarp_042.wav",70
Sample,89324,0,"_dr_013.wav",70
Sample,89324,0,"_hat_000.wav",70
Sample,89324,0,"ld4x_056.wav",70
Sample,89324,0,"piarp_005.wav",70
Sample,89391,0,"piarp_043.wav",70
Sample,89459,0,"piarp_044.wav",70
Sample,89459,0,"vio2_002.wav",70
Sample,89459,0,"_dr_014.wav",70
Sample,89459,0,"pd2_028.wav",70
Sample,89521,0,"_dr_015.wav",70
Sample,89527,0,"piarp_043.wav",70
Sample,89594,0,"piarp_005.wav",70
Sample,89594,0,"_hat_000.wav",70
Sample,89594,0,"_dr_016.wav",70
Sample,89656,0,"_dr_017.wav",70
Sample,89662,0,"piarp_042.wav",70
Sample,89724,0,"_dr_018.wav",70
Sample,89729,0,"piarp_041.wav",70
Sample,89729,0,"ld4x_010.wav",70
Sample,89797,0,"piarp_024.wav",70
Sample,89797,0,"_dr_019.wav",70
Sample,89864,0,"_dr_020.wav",70
Sample,89864,0,"_hat_001.wav",70
Sample,89864,0,"piarp_040.wav",70
Sample,89921,0,"_dr_021.wav",70
Sample,89932,0,"piarp_039.wav",70
Sample,90000,0,"piarp_000.wav",70
Sample,90000,0,"vio2_003.wav",70
Sample,90000,0,"_dr_000.wav",70
Sample,90000,0,"pd2_029.wav",70
Sample,90000,0,"ld4x_057.wav",70
Sample,90067,0,"piarp_001.wav",70
Sample,90135,0,"piarp_002.wav",70
Sample,90135,0,"_hat_000.wav",70
Sample,90135,0,"_dr_001.wav",70
Sample,90197,0,"_dr_002.wav",70
Sample,90202,0,"piarp_024.wav",70
Sample,90264,0,"_dr_003.wav",70
Sample,90270,0,"piarp_004.wav",70
Sample,90337,0,"piarp_005.wav",70
Sample,90405,0,"piarp_006.wav",70
Sample,90405,0,"_hat_000.wav",70
Sample,90405,0,"_dr_004.wav",70
Sample,90472,0,"piarp_008.wav",70
Sample,90534,0,"_dr_005.wav",70
Sample,90540,0,"pd2_027.wav",70
Sample,90540,0,"piarp_037.wav",70
Sample,90540,0,"vio2_001.wav",70
Sample,90602,0,"_dr_006.wav",70
Sample,90608,0,"piarp_008.wav",70
Sample,90670,0,"_dr_007.wav",70
Sample,90675,0,"piarp_006.wav",70
Sample,90675,0,"_hat_000.wav",70
Sample,90743,0,"piarp_005.wav",70
Sample,90805,0,"_dr_008.wav",70
Sample,90810,0,"piarp_004.wav",70
Sample,90878,0,"piarp_024.wav",70
Sample,90945,0,"_hat_001.wav",70
Sample,90945,0,"_dr_009.wav",70
Sample,90945,0,"piarp_002.wav",70
Sample,91013,0,"piarp_001.wav",70
Sample,91081,0,"_dr_010.wav",70
Sample,91081,0,"vio2_004.wav",70
Sample,91081,0,"piarp_045.wav",70
Sample,91081,0,"pd2_030.wav",70
Sample,91081,0,"ld4x_058.wav",70
Sample,91148,0,"piarp_002.wav",70
Sample,91204,0,"_dr_011.wav",70
Sample,91216,0,"piarp_046.wav",70
Sample,91216,0,"_hat_000.wav",70
Sample,91283,0,"piarp_047.wav",70
Sample,91345,0,"_dr_012.wav",70
Sample,91351,0,"piarp_004.wav",70
Sample,91418,0,"piarp_048.wav",70
Sample,91486,0,"piarp_035.wav",70
Sample,91486,0,"_dr_013.wav",70
Sample,91486,0,"_hat_000.wav",70
Sample,91554,0,"piarp_006.wav",70
Sample,91621,0,"pd2_031.wav",70
Sample,91621,0,"piarp_038.wav",70
Sample,91621,0,"piarp_049.wav",70
Sample,91621,0,"_dr_014.wav",70
Sample,91621,0,"vio2_005.wav",70
Sample,91683,0,"_dr_015.wav",70
Sample,91689,0,"piarp_046.wav",70
Sample,91756,0,"piarp_047.wav",70
Sample,91756,0,"_hat_000.wav",70
Sample,91756,0,"_dr_016.wav",70
Sample,91818,0,"_dr_017.wav",70
Sample,91824,0,"piarp_004.wav",70
Sample,91886,0,"_dr_018.wav",70
Sample,91891,0,"piarp_048.wav",70
Sample,91959,0,"piarp_035.wav",70
Sample,91959,0,"_dr_019.wav",70
Sample,92027,0,"_dr_020.wav",70
Sample,92027,0,"piarp_006.wav",70
Sample,92027,0,"_hat_001.wav",70
Sample,92083,0,"_dr_021.wav",70
Sample,92094,0,"piarp_037.wav",70
Sample,92162,0,"piarp_031.wav",70
Sample,92162,0,"vio2_006.wav",70
Sample,92162,0,"pd2_032.wav",70
Sample,92162,0,"_dr_000.wav",70
Sample,92162,0,"ld4x_059.wav",70
Sample,92229,0,"piarp_032.wav",70
Sample,92297,0,"piarp_033.wav",70
Sample,92297,0,"_dr_001.wav",70
Sample,92297,0,"_hat_000.wav",70
Sample,92359,0,"_dr_002.wav",70
Sample,92364,0,"piarp_024.wav",70
Sample,92426,0,"_dr_003.wav",70
Sample,92432,0,"piarp_034.wav",70
Sample,92500,0,"piarp_035.wav",70
Sample,92567,0,"ld4x_060.wav",70
Sample,92567,0,"piarp_036.wav",70
Sample,92567,0,"_hat_000.wav",70
Sample,92567,0,"_dr_004.wav",70
Sample,92635,0,"piarp_008.wav",70
Sample,92697,0,"_dr_005.wav",70
Sample,92702,0,"piarp_037.wav",70
Sample,92764,0,"_dr_006.wav",70
Sample,92770,0,"piarp_036.wav",70
Sample,92832,0,"_dr_007.wav",70
Sample,92837,0,"piarp_035.wav",70
Sample,92837,0,"_hat_000.wav",70
Sample,92905,0,"piarp_034.wav",70
Sample,92967,0,"_dr_008.wav",70
Sample,92972,0,"ld4x_061.wav",70
Sample,92972,0,"piarp_024.wav",70
Sample,93040,0,"piarp_033.wav",70
Sample,93108,0,"_dr_009.wav",70
Sample,93108,0,"_hat_001.wav",70
Sample,93108,0,"piarp_001.wav",70
Sample,93175,0,"piarp_031.wav",70
Sample,93243,0,"_dr_010.wav",70
Sample,93243,0,"piarp_038.wav",70
Sample,93243,0,"pd2_028.wav",70
Sample,93243,0,"ld4x_053.wav",70
Sample,93243,0,"vio2_002.wav",70
Sample,93310,0,"piarp_039.wav",70
Sample,93367,0,"_dr_011.wav",70
Sample,93378,0,"piarp_040.wav",70
Sample,93378,0,"_hat_000.wav",70
Sample,93445,0,"piarp_024.wav",70
Sample,93445,0,"ld4x_063.wav",70
Sample,93507,0,"_dr_012.wav",70
Sample,93513,0,"piarp_041.wav",70
Sample,93581,0,"piarp_042.wav",70
Sample,93648,0,"piarp_005.wav",70
Sample,93648,0,"_dr_013.wav",70
Sample,93648,0,"ld4x_064.wav",70
Sample,93648,0,"_hat_000.wav",70
Sample,93716,0,"piarp_043.wav",70
Sample,93783,0,"pd2_030.wav",70
Sample,93783,0,"vio2_004.wav",70
Sample,93783,0,"piarp_044.wav",70
Sample,93783,0,"_dr_014.wav",70
Sample,93845,0,"_dr_015.wav",70
Sample,93851,0,"piarp_043.wav",70
Sample,93918,0,"_dr_016.wav",70
Sample,93918,0,"piarp_005.wav",70
Sample,93918,0,"_hat_000.wav",70
Sample,93980,0,"_dr_017.wav",70
Sample,93986,0,"piarp_042.wav",70
Sample,94048,0,"_dr_018.wav",70
Sample,94054,0,"ld4x_056.wav",70
Sample,94054,0,"piarp_041.wav",70
Sample,94121,0,"piarp_024.wav",70
Sample,94121,0,"_dr_019.wav",70
Sample,94189,0,"piarp_040.wav",70
Sample,94189,0,"_hat_001.wav",70
Sample,94189,0,"_dr_020.wav",70
Sample,94245,0,"_dr_021.wav",70
Sample,94256,0,"piarp_039.wav",70
Sample,94324,0,"_dr_000.wav",70
Sample,94324,0,"ld4x_065.wav",70
Sample,94324,0,"pd2_026.wav",70
Sample,94324,0,"piarp_032.wav",70
Sample,94324,0,"vio2_000.wav",70
Sample,94391,0,"piarp_040.wav",70
Sample,94459,0,"_dr_001.wav",70
Sample,94459,0,"_hat_000.wav",70
Sample,94459,0,"piarp_047.wav",70
Sample,94521,0,"_dr_002.wav",70
Sample,94527,0,"piarp_042.wav",70
Sample,94588,0,"_dr_003.wav",70
Sample,94594,0,"piarp_035.wav",70
Sample,94662,0,"piarp_050.wav",70
Sample,94729,0,"_hat_000.wav",70
Sample,94729,0,"piarp_037.wav",70
Sample,94729,0,"_dr_004.wav",70
Sample,94797,0,"piarp_051.wav",70
Sample,94859,0,"_dr_005.wav",70
Sample,94864,0,"piarp_052.wav",70
Sample,94926,0,"_dr_006.wav",70
Sample,94932,0,"piarp_051.wav",70
Sample,94994,0,"_dr_007.wav",70
Sample,95000,0,"piarp_037.wav",70
Sample,95000,0,"_hat_000.wav",70
Sample,95067,0,"piarp_050.wav",70
Sample,95129,0,"_dr_008.wav",70
Sample,95135,0,"piarp_035.wav",70
Sample,95202,0,"piarp_042.wav",70
Sample,95270,0,"piarp_047.wav",70
Sample,95270,0,"_dr_009.wav",70
Sample,95270,0,"_hat_001.wav",70
Sample,95337,0,"piarp_040.wav",70
Sample,95405,0,"pd2_033.wav",70
Sample,95405,0,"piarp_052.wav",70
Sample,95405,0,"vio2_007.wav",70
Sample,95405,0,"ld4x_064.wav",70
Sample,95405,0,"ld4x_056.wav",70
Sample,95405,0,"_dr_010.wav",70
Sample,95405,0,"__hyuooooooooo.wav",70
Sample,95472,0,"piarp_037.wav",70
Sample,95529,0,"_dr_011.wav",70
Sample,95540,0,"piarp_050.wav",70
Sample,95540,0,"_hat_000.wav",70
Sample,95608,0,"piarp_035.wav",70
Sample,95670,0,"_dr_012.wav",70
Sample,95675,0,"piarp_042.wav",70
Sample,95743,0,"piarp_041.wav",70
Sample,95810,0,"_hat_000.wav",70
Sample,95810,0,"_dr_013.wav",70
Sample,95810,0,"ld4x_064.wav",70
Sample,95810,0,"ld4x_052.wav",70
Sample,95810,0,"piarp_047.wav",70
Sample,95878,0,"piarp_040.wav",70
Sample,95945,0,"pd2_029.wav",70
Sample,95945,0,"piarp_052.wav",70
Sample,95945,0,"_dr_014.wav",70
Sample,95945,0,"vio2_003.wav",70
Sample,96007,0,"_dr_015.wav",70
Sample,96013,0,"piarp_037.wav",70
Sample,96081,0,"_hat_000.wav",70
Sample,96081,0,"_dr_016.wav",70
Sample,96081,0,"piarp_050.wav",70
Sample,96143,0,"_dr_017.wav",70
Sample,96148,0,"piarp_035.wav",70
Sample,96210,0,"_dr_018.wav",70
Sample,96216,0,"piarp_042.wav",70
Sample,96216,0,"ld4x_067.wav",70
Sample,96216,0,"ld4x_066.wav",70
Sample,96283,0,"_dr_019.wav",70
Sample,96283,0,"piarp_035.wav",70
Sample,96351,0,"_dr_020.wav",70
Sample,96351,0,"_hat_001.wav",70
Sample,96351,0,"piarp_037.wav",70
Sample,96407,0,"_dr_021.wav",70
Sample,96418,0,"piarp_052.wav",70
Sample,96486,0,"piarp_031.wav",70
Sample,96486,0,"pd2_034.wav",70
Sample,96486,0,"_kurasshu_021.wav",70
Sample,96486,0,"_dr_000.wav",70
Sample,96486,0,"ld4x_068.wav",70
Sample,96486,0,"ld4x_069.wav",70
Sample,96486,0,"vio2_008.wav",70
Sample,96554,0,"piarp_032.wav",70
Sample,96621,0,"piarp_033.wav",70
Sample,96621,0,"_hat_000.wav",70
Sample,96621,0,"_dr_001.wav",70
Sample,96683,0,"_dr_002.wav",70
Sample,96689,0,"piarp_024.wav",70
Sample,96751,0,"_dr_003.wav",70
Sample,96756,0,"piarp_034.wav",70
Sample,96824,0,"piarp_035.wav",70
Sample,96891,0,"piarp_036.wav",70
Sample,96891,0,"_dr_004.wav",70
Sample,96891,0,"_hat_000.wav",70
Sample,96959,0,"piarp_008.wav",70
Sample,97021,0,"_dr_005.wav",70
Sample,97027,0,"piarp_037.wav",70
Sample,97088,0,"_dr_006.wav",70
Sample,97094,0,"piarp_036.wav",70
Sample,97156,0,"_dr_007.wav",70
Sample,97162,0,"piarp_035.wav",70
Sample,97162,0,"_hat_000.wav",70
Sample,97229,0,"piarp_034.wav",70
Sample,97291,0,"_dr_008.wav",70
Sample,97297,0,"piarp_024.wav",70
Sample,97364,0,"piarp_033.wav",70
Sample,97432,0,"_dr_009.wav",70
Sample,97432,0,"_hat_001.wav",70
Sample,97432,0,"piarp_001.wav",70
Sample,97500,0,"piarp_031.wav",70
Sample,97567,0,"piarp_038.wav",70
Sample,97567,0,"ld4x_071.wav",70
Sample,97567,0,"pd2_035.wav",70
Sample,97567,0,"_dr_010.wav",70
Sample,97567,0,"ld4x_070.wav",70
Sample,97567,0,"vio2_009.wav",70
Sample,97635,0,"piarp_039.wav",70
Sample,97691,0,"_dr_011.wav",70
Sample,97702,0,"piarp_040.wav",70
Sample,97702,0,"_hat_000.wav",70
Sample,97770,0,"piarp_024.wav",70
Sample,97832,0,"_dr_012.wav",70
Sample,97837,0,"piarp_041.wav",70
Sample,97905,0,"piarp_042.wav",70
Sample,97972,0,"_dr_013.wav",70
Sample,97972,0,"_hat_000.wav",70
Sample,97972,0,"piarp_005.wav",70
Sample,97972,0,"ld4x_060.wav",70
Sample,97972,0,"ld4x_072.wav",70
Sample,98040,0,"piarp_043.wav",70
Sample,98108,0,"_dr_014.wav",70
Sample,98108,0,"piarp_044.wav",70
Sample,98170,0,"_dr_015.wav",70
Sample,98175,0,"piarp_043.wav",70
Sample,98243,0,"_hat_000.wav",70
Sample,98243,0,"_dr_016.wav",70
Sample,98243,0,"piarp_005.wav",70
Sample,98305,0,"_dr_017.wav",70
Sample,98310,0,"piarp_042.wav",70
Sample,98372,0,"_dr_018.wav",70
Sample,98378,0,"piarp_041.wav",70
Sample,98378,0,"ld4x_074.wav",70
Sample,98378,0,"ld4x_073.wav",70
Sample,98445,0,"piarp_024.wav",70
Sample,98445,0,"_dr_019.wav",70
Sample,98513,0,"piarp_040.wav",70
Sample,98513,0,"_hat_001.wav",70
Sample,98513,0,"_dr_020.wav",70
Sample,98569,0,"_dr_021.wav",70
Sample,98581,0,"piarp_039.wav",70
Sample,98648,0,"pd2_029.wav",70
Sample,98648,0,"ld4x_075.wav",70
Sample,98648,0,"_dr_000.wav",70
Sample,98648,0,"piarp_000.wav",70
Sample,98648,0,"_kurasshu_022.wav",70
Sample,98648,0,"vio2_003.wav",70
Sample,98648,0,"ld4x_076.wav",70
Sample,98716,0,"piarp_001.wav",70
Sample,98783,0,"_hat_000.wav",70
Sample,98783,0,"_dr_001.wav",70
Sample,98783,0,"piarp_002.wav",70
Sample,98845,0,"_dr_002.wav",70
Sample,98851,0,"piarp_024.wav",70
Sample,98913,0,"_dr_003.wav",70
Sample,98918,0,"ld4x_067.wav",70
Sample,98918,0,"piarp_004.wav",70
Sample,98986,0,"piarp_005.wav",70
Sample,99054,0,"_hat_000.wav",70
Sample,99054,0,"piarp_006.wav",70
Sample,99054,0,"_dr_004.wav",70
Sample,99121,0,"piarp_008.wav",70
Sample,99183,0,"_dr_005.wav",70
Sample,99189,0,"_kurasshu_023.wav",70
Sample,99189,0,"vio2_010.wav",70
Sample,99189,0,"pd2_036.wav",70
Sample,99189,0,"piarp_037.wav",70
Sample,99189,0,"ld4x_077.wav",70
Sample,99251,0,"_dr_006.wav",70
Sample,99256,0,"piarp_008.wav",70
Sample,99318,0,"_dr_007.wav",70
Sample,99324,0,"piarp_006.wav",70
Sample,99324,0,"ld4x_078.wav",70
Sample,99324,0,"_hat_000.wav",70
Sample,99391,0,"piarp_005.wav",70
Sample,99453,0,"_dr_008.wav",70
Sample,99459,0,"piarp_004.wav",70
Sample,99527,0,"piarp_024.wav",70
Sample,99594,0,"_hat_001.wav",70
Sample,99594,0,"ld4x_077.wav",70
Sample,99594,0,"piarp_002.wav",70
Sample,99594,0,"_kurasshu_024.wav",70
Sample,99594,0,"_dr_009.wav",70
Sample,99662,0,"piarp_001.wav",70
Sample,99729,0,"pd2_037.wav",70
Sample,99729,0,"ld4x_075.wav",70
Sample,99729,0,"piarp_045.wav",70
Sample,99729,0,"_dr_010.wav",70
Sample,99729,0,"vio2_011.wav",70
Sample,99797,0,"piarp_002.wav",70
Sample,99853,0,"_dr_011.wav",70
Sample,99864,0,"piarp_046.wav",70
Sample,99864,0,"_kurasshu_024.wav",70
Sample,99864,0,"_hat_000.wav",70
Sample,99932,0,"piarp_047.wav",70
Sample,99994,0,"_dr_012.wav",70
Sample,100000,0,"piarp_004.wav",70
Sample,100000,0,"ld4x_079.wav",70
Sample,100067,0,"piarp_048.wav",70
Sample,100135,0,"ld4x_056.wav",70
Sample,100135,0,"piarp_035.wav",70
Sample,100135,0,"_kurasshu_024.wav",70
Sample,100135,0,"_hat_000.wav",70
Sample,100135,0,"_dr_013.wav",70
Sample,100202,0,"piarp_006.wav",70
Sample,100202,0,"ld4x_080.wav",70
Sample,100270,0,"pd2_033.wav",70
Sample,100270,0,"ld4x_081.wav",70
Sample,100270,0,"_kurasshu_024.wav",70
Sample,100270,0,"piarp_049.wav",70
Sample,100270,0,"piarp_038.wav",70
Sample,100270,0,"vio2_007.wav",70
Sample,100270,0,"_dr_014.wav",70
Sample,100332,0,"_dr_015.wav",70
Sample,100337,0,"piarp_046.wav",70
Sample,100405,0,"piarp_047.wav",70
Sample,100405,0,"ld4x_082.wav",70
Sample,100405,0,"_dr_016.wav",70
Sample,100405,0,"_kurasshu_023.wav",70
Sample,100405,0,"_hat_000.wav",70
Sample,100467,0,"_dr_017.wav",70
Sample,100472,0,"piarp_004.wav",70
Sample,100534,0,"_dr_018.wav",70
Sample,100540,0,"ld4x_010.wav",70
Sample,100540,0,"piarp_048.wav",70
Sample,100608,0,"_dr_019.wav",70
Sample,100608,0,"piarp_035.wav",70
Sample,100675,0,"_hat_001.wav",70
Sample,100675,0,"piarp_006.wav",70
Sample,100675,0,"_dr_020.wav",70
Sample,100731,0,"_dr_021.wav",70
Sample,100743,0,"piarp_037.wav",70
Sample,100810,0,"ld4x_083.wav",70
Sample,100810,0,"vio2_008.wav",70
Sample,100810,0,"_dr_000.wav",70
Sample,100810,0,"pd2_034.wav",70
Sample,100810,0,"piarp_031.wav",70
Sample,100878,0,"piarp_032.wav",70
Sample,100945,0,"piarp_033.wav",70
Sample,100945,0,"_hat_000.wav",70
Sample,100945,0,"_dr_001.wav",70
Sample,101007,0,"_dr_002.wav",70
Sample,101013,0,"piarp_024.wav",70
Sample,101075,0,"_dr_003.wav",70
Sample,101081,0,"piarp_034.wav",70
Sample,101148,0,"piarp_035.wav",70
Sample,101216,0,"piarp_036.wav",70
Sample,101216,0,"_hat_000.wav",70
Sample,101216,0,"_dr_004.wav",70
Sample,101283,0,"piarp_008.wav",70
Sample,101345,0,"_dr_005.wav",70
Sample,101351,0,"piarp_037.wav",70
Sample,101413,0,"_dr_006.wav",70
Sample,101418,0,"piarp_036.wav",70
Sample,101480,0,"_dr_007.wav",70
Sample,101486,0,"_hat_000.wav",70
Sample,101486,0,"piarp_035.wav",70
Sample,101554,0,"piarp_034.wav",70
Sample,101615,0,"_dr_008.wav",70
Sample,101621,0,"ld4x_084.wav",70
Sample,101621,0,"piarp_024.wav",70
Sample,101689,0,"piarp_033.wav",70
Sample,101756,0,"_hat_001.wav",70
Sample,101756,0,"_dr_009.wav",70
Sample,101756,0,"piarp_001.wav",70
Sample,101824,0,"piarp_031.wav",70
Sample,101891,0,"_dr_010.wav",70
Sample,101891,0,"piarp_038.wav",70
Sample,101891,0,"pd2_033.wav",70
Sample,101891,0,"ld4x_085.wav",70
Sample,101891,0,"vio2_007.wav",70
Sample,101959,0,"piarp_039.wav",70
Sample,102015,0,"_dr_011.wav",70
Sample,102027,0,"piarp_040.wav",70
Sample,102027,0,"_hat_000.wav",70
Sample,102094,0,"piarp_024.wav",70
Sample,102156,0,"_dr_012.wav",70
Sample,102162,0,"piarp_041.wav",70
Sample,102229,0,"piarp_042.wav",70
Sample,102297,0,"piarp_005.wav",70
Sample,102297,0,"_hat_000.wav",70
Sample,102297,0,"_dr_013.wav",70
Sample,102364,0,"piarp_043.wav",70
Sample,102432,0,"ld4x_086.wav",70
Sample,102432,0,"vio2_001.wav",70
Sample,102432,0,"pd2_030.wav",70
Sample,102432,0,"piarp_044.wav",70
Sample,102432,0,"_dr_014.wav",70
Sample,102494,0,"_dr_015.wav",70
Sample,102500,0,"piarp_043.wav",70
Sample,102567,0,"piarp_005.wav",70
Sample,102567,0,"_hat_000.wav",70
Sample,102567,0,"_dr_016.wav",70
Sample,102629,0,"_dr_017.wav",70
Sample,102635,0,"piarp_042.wav",70
Sample,102697,0,"_dr_018.wav",70
Sample,102702,0,"piarp_041.wav",70
Sample,102770,0,"piarp_024.wav",70
Sample,102770,0,"_dr_019.wav",70
Sample,102837,0,"_dr_020.wav",70
Sample,102837,0,"_hat_001.wav",70
Sample,102837,0,"piarp_040.wav",70
Sample,102894,0,"_dr_021.wav",70
Sample,102905,0,"piarp_039.wav",70
Sample,102972,0,"_dr_000.wav",70
Sample,102972,0,"ld4x_087.wav",70
Sample,102972,0,"pd2_038.wav",70
Sample,102972,0,"piarp_032.wav",70
Sample,102972,0,"ld4x_088.wav",70
Sample,102972,0,"ld4x_089.wav",70
Sample,102972,0,"vio2_012.wav",70
Sample,103040,0,"piarp_040.wav",70
Sample,103108,0,"_hat_000.wav",70
Sample,103108,0,"_dr_001.wav",70
Sample,103108,0,"piarp_047.wav",70
Sample,103170,0,"_dr_002.wav",70
Sample,103175,0,"piarp_042.wav",70
Sample,103237,0,"_dr_003.wav",70
Sample,103243,0,"piarp_035.wav",70
Sample,103310,0,"piarp_050.wav",70
Sample,103378,0,"_dr_004.wav",70
Sample,103378,0,"_hat_000.wav",70
Sample,103378,0,"piarp_037.wav",70
Sample,103445,0,"piarp_051.wav",70
Sample,103507,0,"_dr_005.wav",70
Sample,103513,0,"piarp_052.wav",70
Sample,103575,0,"_dr_006.wav",70
Sample,103581,0,"piarp_051.wav",70
Sample,103643,0,"_dr_007.wav",70
Sample,103648,0,"_hat_000.wav",70
Sample,103648,0,"piarp_037.wav",70
Sample,103716,0,"piarp_050.wav",70
Sample,103778,0,"_dr_008.wav",70
Sample,103783,0,"piarp_035.wav",70
Sample,103851,0,"piarp_042.wav",70
Sample,103918,0,"_hat_001.wav",70
Sample,103918,0,"_dr_009.wav",70
Sample,103918,0,"piarp_047.wav",70
Sample,103986,0,"piarp_040.wav",70
Sample,104054,0,"piarp_045.wav",70
Sample,104054,0,"ld4x_091.wav",70
Sample,104054,0,"ld4x_090.wav",70
Sample,104054,0,"_dr_010.wav",70
Sample,104054,0,"ld4x_092.wav",70
Sample,104121,0,"piarp_002.wav",70
Sample,104177,0,"_dr_011.wav",70
Sample,104189,0,"_hat_000.wav",70
Sample,104189,0,"piarp_046.wav",70
Sample,104256,0,"piarp_047.wav",70
Sample,104318,0,"_dr_012.wav",70
Sample,104324,0,"piarp_004.wav",70
Sample,104391,0,"piarp_048.wav",70
Sample,104459,0,"_dr_013.wav",70
Sample,104459,0,"_hat_000.wav",70
Sample,104459,0,"piarp_035.wav",70
Sample,104527,0,"piarp_006.wav",70
Sample,104594,0,"piarp_042.wav",70
Sample,104594,0,"piarp_053.wav",70
Sample,104594,0,"_dr_014.wav",70
Sample,104656,0,"_dr_015.wav",70
Sample,104662,0,"piarp_049.wav",70
Sample,104729,0,"piarp_037.wav",70
Sample,104729,0,"_dr_016.wav",70
Sample,104729,0,"_hat_000.wav",70
Sample,104791,0,"_dr_017.wav",70
Sample,104797,0,"piarp_051.wav",70
Sample,104859,0,"_dr_018.wav",70
Sample,104864,0,"piarp_054.wav",70
Sample,104932,0,"piarp_055.wav",70
Sample,104932,0,"_dr_019.wav",70
Sample,105000,0,"piarp_056.wav",70
Sample,105000,0,"_dr_020.wav",70
Sample,105000,0,"_hat_001.wav",70
Sample,105056,0,"_dr_021.wav",70
Sample,105067,0,"piarp_057.wav",70
Sample,105135,0,"_dr_000.wav",70
Sample,105135,0,"bunyu_000.wav",70
Sample,105135,0,"_ki_000.wav",70
Sample,105135,0,"__dohyuuuuuun.wav",70
Sample,105135,0,"_kurasshu_000.wav",70
Sample,105135,0,"ld4x_104.wav",70
Sample,105135,0,"pd1_022.wav",70
Sample,105135,0,"piarp_010.wav",70
Sample,105135,0,"__kuraaaaaaasshu.wav",70
Sample,105202,0,"piarp_011.wav",70
Sample,105270,0,"piarp_012.wav",70
Sample,105270,0,"_dr_001.wav",70
Sample,105270,0,"_hat_000.wav",70
Sample,105332,0,"_dr_002.wav",70
Sample,105337,0,"piarp_047.wav",70
Sample,105399,0,"_dr_003.wav",70
Sample,105405,0,"piarp_014.wav",70
Sample,105405,0,"_kurasshu_000.wav",70
Sample,105405,0,"_sna_000.wav",70
Sample,105405,0,"_ki_000.wav",70
Sample,105472,0,"piarp_016.wav",70
Sample,105540,0,"_dr_004.wav",70
Sample,105540,0,"_hat_000.wav",70
Sample,105540,0,"piarp_027.wav",70
Sample,105608,0,"piarp_037.wav",70
Sample,105670,0,"_dr_005.wav",70
Sample,105675,0,"_kurasshu_000.wav",70
Sample,105675,0,"piarp_017.wav",70
Sample,105675,0,"_ki_000.wav",70
Sample,105737,0,"_dr_006.wav",70
Sample,105743,0,"piarp_027.wav",70
Sample,105805,0,"_dr_007.wav",70
Sample,105810,0,"_kurasshu_000.wav",70
Sample,105810,0,"_hat_000.wav",70
Sample,105810,0,"piarp_016.wav",70
Sample,105878,0,"piarp_014.wav",70
Sample,105940,0,"_dr_008.wav",70
Sample,105945,0,"_ki_000.wav",70
Sample,105945,0,"ld4x_064.wav",70
Sample,105945,0,"_sna_001.wav",70
Sample,105945,0,"piarp_047.wav",70
Sample,105945,0,"ld4x_105.wav",70
Sample,106013,0,"piarp_012.wav",70
Sample,106081,0,"piarp_032.wav",70
Sample,106081,0,"_kurasshu_000.wav",70
Sample,106081,0,"_dr_009.wav",70
Sample,106081,0,"_hat_001.wav",70
Sample,106081,0,"_ki_000.wav",70
Sample,106148,0,"piarp_010.wav",70
Sample,106216,0,"_dr_010.wav",70
Sample,106216,0,"bunyu_001.wav",70
Sample,106216,0,"pd1_011.wav",70
Sample,106216,0,"piarp_022.wav",70
Sample,106216,0,"ld4x_035.wav",70
Sample,106283,0,"piarp_019.wav",70
Sample,106340,0,"_dr_011.wav",70
Sample,106351,0,"_kurasshu_000.wav",70
Sample,106351,0,"_hat_000.wav",70
Sample,106351,0,"_ki_000.wav",70
Sample,106351,0,"piarp_023.wav",70
Sample,106418,0,"piarp_047.wav",70
Sample,106480,0,"_dr_012.wav",70
Sample,106486,0,"_sna_000.wav",70
Sample,106486,0,"piarp_020.wav",70
Sample,106554,0,"piarp_025.wav",70
Sample,106621,0,"_kurasshu_000.wav",70
Sample,106621,0,"_ki_000.wav",70
Sample,106621,0,"_hat_000.wav",70
Sample,106621,0,"piarp_035.wav",70
Sample,106621,0,"_dr_013.wav",70
Sample,106621,0,"ld4x_023.wav",70
Sample,106689,0,"piarp_021.wav",70
Sample,106756,0,"_dr_014.wav",70
Sample,106756,0,"piarp_028.wav",70
Sample,106818,0,"_dr_015.wav",70
Sample,106824,0,"piarp_021.wav",70
Sample,106891,0,"piarp_035.wav",70
Sample,106891,0,"_dr_016.wav",70
Sample,106891,0,"_kurasshu_000.wav",70
Sample,106891,0,"_hat_000.wav",70
Sample,106891,0,"_ki_000.wav",70
Sample,106953,0,"_dr_017.wav",70
Sample,106959,0,"piarp_025.wav",70
Sample,107021,0,"_dr_018.wav",70
Sample,107027,0,"piarp_020.wav",70
Sample,107027,0,"_sna_001.wav",70
Sample,107027,0,"ld4x_106.wav",70
Sample,107094,0,"piarp_047.wav",70
Sample,107094,0,"_dr_019.wav",70
Sample,107162,0,"_kurasshu_001.wav",70
Sample,107162,0,"_hat_001.wav",70
Sample,107162,0,"_dr_020.wav",70
Sample,107162,0,"piarp_023.wav",70
Sample,107162,0,"_ki_001.wav",70
Sample,107218,0,"_dr_021.wav",70
Sample,107229,0,"piarp_019.wav",70
Sample,107229,0,"_ki_001.wav",70
Sample,107229,0,"_kurasshu_001.wav",70
Sample,107263,0,"_ki_001.wav",70
Sample,107263,0,"_kurasshu_001.wav",70
Sample,107297,0,"piarp_031.wav",70
Sample,107297,0,"_ki_000.wav",70
Sample,107297,0,"_dr_000.wav",70
Sample,107297,0,"_kurasshu_002.wav",70
Sample,107297,0,"pd1_023.wav",70
Sample,107297,0,"bunyu_002.wav",70
Sample,107297,0,"ld4x_048.wav",70
Sample,107364,0,"piarp_032.wav",70
Sample,107432,0,"_hat_000.wav",70
Sample,107432,0,"piarp_033.wav",70
Sample,107432,0,"_dr_001.wav",70
Sample,107494,0,"_dr_002.wav",70
Sample,107500,0,"piarp_047.wav",70
Sample,107561,0,"_dr_003.wav",70
Sample,107567,0,"_sna_000.wav",70
Sample,107567,0,"piarp_034.wav",70
Sample,107567,0,"_ki_000.wav",70
Sample,107567,0,"_kurasshu_002.wav",70
Sample,107635,0,"piarp_035.wav",70
Sample,107702,0,"_hat_000.wav",70
Sample,107702,0,"_dr_004.wav",70
Sample,107702,0,"piarp_036.wav",70
Sample,107770,0,"piarp_037.wav",70
Sample,107832,0,"_dr_005.wav",70
Sample,107837,0,"_ki_000.wav",70
Sample,107837,0,"piarp_017.wav",70
Sample,107899,0,"_dr_006.wav",70
Sample,107905,0,"piarp_037.wav",70
Sample,107967,0,"_dr_007.wav",70
Sample,107972,0,"_kurasshu_000.wav",70
Sample,107972,0,"piarp_036.wav",70
Sample,107972,0,"_hat_000.wav",70
Sample,108040,0,"piarp_035.wav",70
Sample,108102,0,"_dr_008.wav",70
Sample,108108,0,"_ki_000.wav",70
Sample,108108,0,"piarp_034.wav",70
Sample,108108,0,"_sna_001.wav",70
Sample,108175,0,"piarp_047.wav",70
Sample,108243,0,"piarp_033.wav",70
Sample,108243,0,"_dr_009.wav",70
Sample,108243,0,"_kurasshu_000.wav",70
Sample,108243,0,"_hat_001.wav",70
Sample,108310,0,"piarp_032.wav",70
Sample,108378,0,"pd1_024.wav",70
Sample,108378,0,"bunyu_003.wav",70
Sample,108378,0,"piarp_009.wav",70
Sample,108378,0,"_ki_000.wav",70
Sample,108378,0,"_dr_010.wav",70
Sample,108378,0,"ld4x_107.wav",70
Sample,108378,0,"_kurasshu_000.wav",70
Sample,108445,0,"piarp_033.wav",70
Sample,108502,0,"_dr_011.wav",70
Sample,108513,0,"piarp_003.wav",70
Sample,108513,0,"_kurasshu_000.wav",70
Sample,108513,0,"_ki_000.wav",70
Sample,108513,0,"_hat_000.wav",70
Sample,108581,0,"piarp_013.wav",70
Sample,108643,0,"_dr_012.wav",70
Sample,108648,0,"piarp_034.wav",70
Sample,108648,0,"_sna_000.wav",70
Sample,108716,0,"piarp_015.wav",70
Sample,108783,0,"piarp_016.wav",70
Sample,108783,0,"_kurasshu_000.wav",70
Sample,108783,0,"_dr_013.wav",70
Sample,108783,0,"_ki_000.wav",70
Sample,108783,0,"_hat_000.wav",70
Sample,108851,0,"piarp_036.wav",70
Sample,108918,0,"_dr_014.wav",70
Sample,108918,0,"piarp_007.wav",70
Sample,108918,0,"pd1_025.wav",70
Sample,108918,0,"bunyu_004.wav",70
Sample,108918,0,"piarp_022.wav",70
Sample,108980,0,"_dr_015.wav",70
Sample,108986,0,"piarp_003.wav",70
Sample,109054,0,"_hat_000.wav",70
Sample,109054,0,"piarp_013.wav",70
Sample,109054,0,"_dr_016.wav",70
Sample,109054,0,"_kurasshu_000.wav",70
Sample,109054,0,"_ki_000.wav",70
Sample,109115,0,"_dr_017.wav",70
Sample,109121,0,"piarp_034.wav",70
Sample,109183,0,"_dr_018.wav",70
Sample,109189,0,"piarp_015.wav",70
Sample,109189,0,"_ki_000.wav",70
Sample,109189,0,"_sna_001.wav",70
Sample,109256,0,"_dr_019.wav",70
Sample,109256,0,"piarp_016.wav",70
Sample,109324,0,"_kurasshu_000.wav",70
Sample,109324,0,"piarp_036.wav",70
Sample,109324,0,"_hat_001.wav",70
Sample,109324,0,"_dr_020.wav",70
Sample,109380,0,"_dr_021.wav",70
Sample,109391,0,"piarp_017.wav",70
Sample,109459,0,"_kurasshu_000.wav",70
Sample,109459,0,"_ki_000.wav",70
Sample,109459,0,"_dr_000.wav",70
Sample,109459,0,"piarp_010.wav",70
Sample,109459,0,"pd1_026.wav",70
Sample,109459,0,"bunyu_005.wav",70
Sample,109459,0,"ld4x_108.wav",70
Sample,109527,0,"piarp_011.wav",70
Sample,109594,0,"piarp_012.wav",70
Sample,109594,0,"_hat_000.wav",70
Sample,109594,0,"_dr_001.wav",70
Sample,109656,0,"_dr_002.wav",70
Sample,109662,0,"piarp_047.wav",70
Sample,109724,0,"_dr_003.wav",70
Sample,109729,0,"_ki_000.wav",70
Sample,109729,0,"piarp_014.wav",70
Sample,109729,0,"_sna_000.wav",70
Sample,109797,0,"piarp_016.wav",70
Sample,109864,0,"_dr_004.wav",70
Sample,109864,0,"_hat_000.wav",70
Sample,109864,0,"_ki_000.wav",70
Sample,109864,0,"piarp_027.wav",70
Sample,109864,0,"_kurasshu_000.wav",70
Sample,109864,0,"ld4x_109.wav",70
Sample,109932,0,"piarp_037.wav",70
Sample,109994,0,"_dr_005.wav",70
Sample,110000,0,"piarp_017.wav",70
Sample,110061,0,"_dr_006.wav",70
Sample,110067,0,"piarp_027.wav",70
Sample,110129,0,"_dr_007.wav",70
Sample,110135,0,"_ki_000.wav",70
Sample,110135,0,"_hat_000.wav",70
Sample,110135,0,"piarp_016.wav",70
Sample,110202,0,"piarp_014.wav",70
Sample,110264,0,"_dr_008.wav",70
Sample,110270,0,"_ki_000.wav",70
Sample,110270,0,"_sna_001.wav",70
Sample,110270,0,"_kurasshu_000.wav",70
Sample,110270,0,"piarp_047.wav",70
Sample,110270,0,"ld4x_042.wav",70
Sample,110337,0,"piarp_012.wav",70
Sample,110405,0,"_hat_001.wav",70
Sample,110405,0,"_dr_009.wav",70
Sample,110405,0,"piarp_032.wav",70
Sample,110472,0,"piarp_010.wav",70
Sample,110540,0,"_kurasshu_000.wav",70
Sample,110540,0,"_ki_000.wav",70
Sample,110540,0,"pd1_027.wav",70
Sample,110540,0,"bunyu_004.wav",70
Sample,110540,0,"piarp_022.wav",70
Sample,110540,0,"ld4x_110.wav",70
Sample,110540,0,"_dr_010.wav",70
Sample,110608,0,"piarp_019.wav",70
Sample,110664,0,"_dr_011.wav",70
Sample,110675,0,"piarp_023.wav",70
Sample,110675,0,"_hat_000.wav",70
Sample,110743,0,"piarp_047.wav",70
Sample,110743,0,"ld4x_111.wav",70
Sample,110805,0,"_dr_012.wav",70
Sample,110810,0,"_sna_000.wav",70
Sample,110810,0,"piarp_020.wav",70
Sample,110878,0,"piarp_025.wav",70
Sample,110945,0,"_dr_013.wav",70
Sample,110945,0,"_kurasshu_000.wav",70
Sample,110945,0,"ld4x_039.wav",70
Sample,110945,0,"_ki_000.wav",70
Sample,110945,0,"_hat_000.wav",70
Sample,110945,0,"piarp_035.wav",70
Sample,111013,0,"piarp_021.wav",70
Sample,111081,0,"bunyu_006.wav",70
Sample,111081,0,"piarp_028.wav",70
Sample,111081,0,"_dr_014.wav",70
Sample,111143,0,"_dr_015.wav",70
Sample,111148,0,"piarp_021.wav",70
Sample,111216,0,"_hat_000.wav",70
Sample,111216,0,"piarp_035.wav",70
Sample,111216,0,"_dr_016.wav",70
Sample,111216,0,"_ki_035.wav",70
Sample,111278,0,"_dr_017.wav",70
Sample,111283,0,"piarp_025.wav",70
Sample,111283,0,"_ki_035.wav",70
Sample,111345,0,"_dr_018.wav",70
Sample,111351,0,"_ki_000.wav",70
Sample,111351,0,"ld4x_023.wav",70
Sample,111351,0,"_kurasshu_000.wav",70
Sample,111351,0,"piarp_020.wav",70
Sample,111351,0,"_sna_001.wav",70
Sample,111418,0,"_dr_019.wav",70
Sample,111418,0,"piarp_047.wav",70
Sample,111486,0,"_hat_001.wav",70
Sample,111486,0,"piarp_023.wav",70
Sample,111486,0,"_dr_020.wav",70
Sample,111542,0,"_dr_021.wav",70
Sample,111554,0,"piarp_019.wav",70
Sample,111621,0,"_ki_000.wav",70
Sample,111621,0,"_kurasshu_003.wav",70
Sample,111621,0,"_dr_000.wav",70
Sample,111621,0,"piarp_011.wav",70
Sample,111621,0,"pd1_022.wav",70
Sample,111621,0,"bunyu_000.wav",70
Sample,111621,0,"ld4x_112.wav",70
Sample,111689,0,"piarp_023.wav",70
Sample,111756,0,"piarp_013.wav",70
Sample,111756,0,"_dr_001.wav",70
Sample,111756,0,"_hat_000.wav",70
Sample,111818,0,"_dr_002.wav",70
Sample,111824,0,"piarp_025.wav",70
Sample,111886,0,"_dr_003.wav",70
Sample,111891,0,"piarp_016.wav",70
Sample,111891,0,"_ki_000.wav",70
Sample,111891,0,"_sna_000.wav",70
Sample,111959,0,"piarp_026.wav",70
Sample,112027,0,"_kurasshu_000.wav",70
Sample,112027,0,"_hat_000.wav",70
Sample,112027,0,"_dr_004.wav",70
Sample,112027,0,"piarp_017.wav",70
Sample,112094,0,"piarp_058.wav",70
Sample,112156,0,"_dr_005.wav",70
Sample,112162,0,"_ki_000.wav",70
Sample,112162,0,"piarp_059.wav",70
Sample,112224,0,"_dr_006.wav",70
Sample,112229,0,"piarp_058.wav",70
Sample,112291,0,"_dr_007.wav",70
Sample,112297,0,"_hat_000.wav",70
Sample,112297,0,"piarp_017.wav",70
Sample,112297,0,"_kurasshu_000.wav",70
Sample,112364,0,"piarp_026.wav",70
Sample,112426,0,"_dr_008.wav",70
Sample,112432,0,"piarp_016.wav",70
Sample,112432,0,"_ki_000.wav",70
Sample,112432,0,"_sna_001.wav",70
Sample,112500,0,"piarp_025.wav",70
Sample,112567,0,"_dr_009.wav",70
Sample,112567,0,"piarp_013.wav",70
Sample,112567,0,"_kurasshu_000.wav",70
Sample,112567,0,"_hat_001.wav",70
Sample,112635,0,"piarp_023.wav",70
Sample,112702,0,"piarp_059.wav",70
Sample,112702,0,"ld4x_039.wav",70
Sample,112702,0,"_ki_000.wav",70
Sample,112702,0,"_kurasshu_000.wav",70
Sample,112702,0,"bunyu_007.wav",70
Sample,112702,0,"__hyuooooooooo.wav",70
Sample,112702,0,"ld4x_023.wav",70
Sample,112702,0,"_dr_010.wav",70
Sample,112702,0,"pd1_016.wav",70
Sample,112770,0,"piarp_017.wav",70
Sample,112826,0,"_dr_011.wav",70
Sample,112837,0,"_hat_000.wav",70
Sample,112837,0,"piarp_026.wav",70
Sample,112837,0,"_ki_000.wav",70
Sample,112837,0,"_kurasshu_000.wav",70
Sample,112905,0,"piarp_016.wav",70
Sample,112967,0,"_dr_012.wav",70
Sample,112972,0,"piarp_025.wav",70
Sample,112972,0,"_sna_000.wav",70
Sample,113040,0,"piarp_020.wav",70
Sample,113108,0,"ld4x_105.wav",70
Sample,113108,0,"_kurasshu_000.wav",70
Sample,113108,0,"piarp_013.wav",70
Sample,113108,0,"_hat_000.wav",70
Sample,113108,0,"_dr_013.wav",70
Sample,113108,0,"_ki_000.wav",70
Sample,113108,0,"ld4x_039.wav",70
Sample,113175,0,"piarp_023.wav",70
Sample,113243,0,"piarp_059.wav",70
Sample,113243,0,"_dr_014.wav",70
Sample,113305,0,"_dr_015.wav",70
Sample,113310,0,"piarp_017.wav",70
Sample,113378,0,"_dr_016.wav",70
Sample,113378,0,"_kurasshu_000.wav",70
Sample,113378,0,"_hat_000.wav",70
Sample,113378,0,"_ki_000.wav",70
Sample,113378,0,"piarp_026.wav",70
Sample,113440,0,"_dr_017.wav",70
Sample,113445,0,"piarp_016.wav",70
Sample,113507,0,"_dr_018.wav",70
Sample,113513,0,"_sna_001.wav",70
Sample,113513,0,"ld4x_114.wav",70
Sample,113513,0,"ld4x_113.wav",70
Sample,113581,0,"_dr_019.wav",70
Sample,113648,0,"_hat_001.wav",70
Sample,113648,0,"_kurasshu_001.wav",70
Sample,113648,0,"_dr_020.wav",70
Sample,113648,0,"_ki_001.wav",70
Sample,113682,0,"_ki_001.wav",70
Sample,113682,0,"_kurasshu_001.wav",70
Sample,113704,0,"_dr_021.wav",70
Sample,113716,0,"_kurasshu_001.wav",70
Sample,113716,0,"_ki_001.wav",70
Sample,113750,0,"_ki_001.wav",70
Sample,113750,0,"_kurasshu_001.wav",70
Sample,113783,0,"_ki_000.wav",70
Sample,113783,0,"bunyu_008.wav",70
Sample,113783,0,"pd1_006.wav",70
Sample,113783,0,"_dr_000.wav",70
Sample,113783,0,"ld4x_016.wav",70
Sample,113783,0,"ld4x_115.wav",70
Sample,113918,0,"_dr_001.wav",70
Sample,113918,0,"_hat_000.wav",70
Sample,113918,0,"_kurasshu_000.wav",70
Sample,113980,0,"_dr_002.wav",70
Sample,114048,0,"_dr_003.wav",70
Sample,114054,0,"_kurasshu_003.wav",70
Sample,114054,0,"_sna_000.wav",70
Sample,114054,0,"_ki_000.wav",70
Sample,114189,0,"_dr_004.wav",70
Sample,114189,0,"_hat_000.wav",70
Sample,114318,0,"_dr_005.wav",70
Sample,114324,0,"_ki_000.wav",70
Sample,114386,0,"_dr_006.wav",70
Sample,114453,0,"_dr_007.wav",70
Sample,114459,0,"_hat_000.wav",70
Sample,114459,0,"_kurasshu_000.wav",70
Sample,114588,0,"_dr_008.wav",70
Sample,114594,0,"_sna_001.wav",70
Sample,114594,0,"_ki_000.wav",70
Sample,114594,0,"_kurasshu_000.wav",70
Sample,114729,0,"_ki_001.wav",70
Sample,114729,0,"_dr_009.wav",70
Sample,114729,0,"_kurasshu_001.wav",70
Sample,114729,0,"_hat_001.wav",70
Sample,114797,0,"_ki_001.wav",70
Sample,114797,0,"_kurasshu_001.wav",70
Sample,114864,0,"bunyu_001.wav",70
Sample,114864,0,"_ki_000.wav",70
Sample,114864,0,"pd1_011.wav",70
Sample,114864,0,"_kurasshu_000.wav",70
Sample,114864,0,"_dr_010.wav",70
Sample,114864,0,"ld4x_116.wav",70
Sample,114864,0,"ld4x_036.wav",70
Sample,114988,0,"_dr_011.wav",70
Sample,115000,0,"_kurasshu_000.wav",70
Sample,115000,0,"_hat_000.wav",70
Sample,115000,0,"_ki_000.wav",70
Sample,115129,0,"_dr_012.wav",70
Sample,115135,0,"_sna_000.wav",70
Sample,115270,0,"_dr_013.wav",70
Sample,115270,0,"ld4x_117.wav",70
Sample,115270,0,"_hat_000.wav",70
Sample,115270,0,"_kurasshu_000.wav",70
Sample,115270,0,"_ki_000.wav",70
Sample,115270,0,"ld4x_109.wav",70
Sample,115405,0,"_kurasshu_000.wav",70
Sample,115405,0,"_dr_014.wav",70
Sample,115405,0,"_ki_000.wav",70
Sample,115467,0,"_dr_015.wav",70
Sample,115540,0,"_hat_000.wav",70
Sample,115540,0,"_dr_016.wav",70
Sample,115602,0,"_dr_017.wav",70
Sample,115670,0,"_dr_018.wav",70
Sample,115675,0,"_ki_000.wav",70
Sample,115675,0,"ld4x_027.wav",70
Sample,115675,0,"_kurasshu_000.wav",70
Sample,115675,0,"_sna_001.wav",70
Sample,115675,0,"ld4x_118.wav",70
Sample,115743,0,"_dr_019.wav",70
Sample,115810,0,"_ki_001.wav",70
Sample,115810,0,"_hat_001.wav",70
Sample,115810,0,"_kurasshu_001.wav",70
Sample,115810,0,"_dr_020.wav",70
Sample,115867,0,"_dr_021.wav",70
Sample,115878,0,"_ki_001.wav",70
Sample,115878,0,"_kurasshu_001.wav",70
Sample,115912,0,"_ki_001.wav",70
Sample,115912,0,"_kurasshu_001.wav",70
Sample,115945,0,"pd1_016.wav",70
Sample,115945,0,"_kurasshu_003.wav",70
Sample,115945,0,"bunyu_009.wav",70
Sample,115945,0,"_dr_000.wav",70
Sample,115945,0,"_ki_000.wav",70
Sample,115945,0,"ld4x_119.wav",70
Sample,115945,0,"ld4x_073.wav",70
Sample,116081,0,"_hat_000.wav",70
Sample,116081,0,"_dr_001.wav",70
Sample,116143,0,"_dr_002.wav",70
Sample,116210,0,"_dr_003.wav",70
Sample,116216,0,"_sna_000.wav",70
Sample,116216,0,"ld4x_114.wav",70
Sample,116216,0,"_ki_000.wav",70
Sample,116351,0,"_kurasshu_000.wav",70
Sample,116351,0,"_dr_004.wav",70
Sample,116351,0,"_hat_000.wav",70
Sample,116480,0,"_dr_005.wav",70
Sample,116486,0,"_ki_000.wav",70
Sample,116486,0,"bunyu_010.wav",70
Sample,116486,0,"ld4x_120.wav",70
Sample,116548,0,"_dr_006.wav",70
Sample,116615,0,"_dr_007.wav",70
Sample,116621,0,"_hat_000.wav",70
Sample,116621,0,"ld4x_077.wav",70
Sample,116621,0,"_kurasshu_002.wav",70
Sample,116751,0,"_dr_008.wav",70
Sample,116756,0,"_sna_001.wav",70
Sample,116756,0,"_ki_000.wav",70
Sample,116891,0,"_hat_001.wav",70
Sample,116891,0,"ld4x_120.wav",70
Sample,116891,0,"_ki_035.wav",70
Sample,116891,0,"_dr_009.wav",70
Sample,116959,0,"_ki_035.wav",70
Sample,117027,0,"_kurasshu_004.wav",70
Sample,117027,0,"bunyu_011.wav",70
Sample,117027,0,"_dr_010.wav",70
Sample,117027,0,"_ki_000.wav",70
Sample,117027,0,"pd1_028.wav",70
Sample,117027,0,"ld4x_073.wav",70
Sample,117094,0,"piarp_033.wav",70
Sample,117150,0,"_dr_011.wav",70
Sample,117162,0,"_hat_000.wav",70
Sample,117291,0,"_dr_012.wav",70
Sample,117297,0,"_sna_000.wav",70
Sample,117297,0,"_ki_035.wav",70
Sample,117297,0,"ld4x_121.wav",70
Sample,117432,0,"_kurasshu_000.wav",70
Sample,117432,0,"ld4x_023.wav",70
Sample,117432,0,"_ki_000.wav",70
Sample,117432,0,"_dr_013.wav",70
Sample,117432,0,"_hat_000.wav",70
Sample,117500,0,"ld4x_122.wav",70
Sample,117500,0,"piarp_036.wav",70
Sample,117567,0,"pd1_003.wav",70
Sample,117567,0,"ld4x_123.wav",70
Sample,117567,0,"_dr_014.wav",70
Sample,117567,0,"piarp_007.wav",70
Sample,117567,0,"bunyu_012.wav",70
Sample,117629,0,"_dr_015.wav",70
Sample,117702,0,"_dr_016.wav",70
Sample,117702,0,"_hat_000.wav",70
Sample,117702,0,"ld4x_124.wav",70
Sample,117764,0,"_dr_017.wav",70
Sample,117832,0,"_dr_018.wav",70
Sample,117837,0,"_ki_000.wav",70
Sample,117837,0,"_kurasshu_000.wav",70
Sample,117837,0,"ld4x_106.wav",70
Sample,117837,0,"piarp_015.wav",70
Sample,117837,0,"pi4_037.wav",70
Sample,117837,0,"_sna_001.wav",70
Sample,117905,0,"piarp_016.wav",70
Sample,117905,0,"_dr_019.wav",70
Sample,117972,0,"_dr_020.wav",70
Sample,117972,0,"_kurasshu_000.wav",70
Sample,117972,0,"_ki_000.wav",70
Sample,117972,0,"_hat_001.wav",70
Sample,117972,0,"piarp_036.wav",70
Sample,118029,0,"_dr_021.wav",70
Sample,118040,0,"piarp_017.wav",70
Sample,118108,0,"pd1_006.wav",70
Sample,118108,0,"pi4_046.wav",70
Sample,118108,0,"_ki_000.wav",70
Sample,118108,0,"_dr_000.wav",70
Sample,118108,0,"piarp_010.wav",70
Sample,118108,0,"pi4_086.wav",70
Sample,118108,0,"pi4_085.wav",70
Sample,118108,0,"bunyu_008.wav",70
Sample,118108,0,"pi4_087.wav",70
Sample,118175,0,"piarp_011.wav",70
Sample,118243,0,"_dr_001.wav",70
Sample,118243,0,"_kurasshu_000.wav",70
Sample,118243,0,"_hat_000.wav",70
Sample,118243,0,"piarp_012.wav",70
Sample,118305,0,"_dr_002.wav",70
Sample,118310,0,"piarp_047.wav",70
Sample,118372,0,"_dr_003.wav",70
Sample,118378,0,"pi4_074.wav",70
Sample,118378,0,"_sna_000.wav",70
Sample,118378,0,"_ki_000.wav",70
Sample,118378,0,"pi4_089.wav",70
Sample,118378,0,"piarp_014.wav",70
Sample,118378,0,"pi4_040.wav",70
Sample,118445,0,"piarp_016.wav",70
Sample,118513,0,"_hat_000.wav",70
Sample,118513,0,"_dr_004.wav",70
Sample,118513,0,"_kurasshu_000.wav",70
Sample,118513,0,"piarp_027.wav",70
Sample,118581,0,"piarp_037.wav",70
Sample,118643,0,"_dr_005.wav",70
Sample,118648,0,"_ki_000.wav",70
Sample,118648,0,"pi4_090.wav",70
Sample,118648,0,"piarp_017.wav",70
Sample,118710,0,"_dr_006.wav",70
Sample,118716,0,"piarp_027.wav",70
Sample,118778,0,"_dr_007.wav",70
Sample,118783,0,"_hat_000.wav",70
Sample,118783,0,"piarp_016.wav",70
Sample,118783,0,"pi4_052.wav",70
Sample,118783,0,"_kurasshu_000.wav",70
Sample,118851,0,"piarp_014.wav",70
Sample,118913,0,"_dr_008.wav",70
Sample,118918,0,"pi4_091.wav",70
Sample,118918,0,"pi4_006.wav",70
Sample,118918,0,"_sna_001.wav",70
Sample,118918,0,"_kurasshu_003.wav",70
Sample,118918,0,"pi4_004.wav",70
Sample,118918,0,"_ki_000.wav",70
Sample,118918,0,"piarp_047.wav",70
Sample,118986,0,"piarp_012.wav",70
Sample,119054,0,"_dr_009.wav",70
Sample,119054,0,"_hat_001.wav",70
Sample,119054,0,"piarp_032.wav",70
Sample,119121,0,"piarp_010.wav",70
Sample,119189,0,"_ki_000.wav",70
Sample,119189,0,"pi4_094.wav",70
Sample,119189,0,"_dr_010.wav",70
Sample,119189,0,"pd1_027.wav",70
Sample,119189,0,"pi4_092.wav",70
Sample,119189,0,"piarp_022.wav",70
Sample,119189,0,"bunyu_013.wav",70
Sample,119189,0,"pi4_095.wav",70
Sample,119256,0,"piarp_019.wav",70
Sample,119313,0,"_dr_011.wav",70
Sample,119324,0,"_hat_000.wav",70
Sample,119324,0,"_kurasshu_000.wav",70
Sample,119324,0,"piarp_023.wav",70
Sample,119391,0,"piarp_047.wav",70
Sample,119453,0,"_dr_012.wav",70
Sample,119459,0,"piarp_020.wav",70
Sample,119459,0,"_ki_000.wav",70
Sample,119459,0,"_kurasshu_003.wav",70
Sample,119459,0,"_sna_000.wav",70
Sample,119527,0,"piarp_025.wav",70
Sample,119594,0,"pi4_059.wav",70
Sample,119594,0,"_hat_000.wav",70
Sample,119594,0,"piarp_035.wav",70
Sample,119594,0,"_ki_000.wav",70
Sample,119594,0,"_dr_013.wav",70
Sample,119662,0,"piarp_021.wav",70
Sample,119729,0,"piarp_028.wav",70
Sample,119729,0,"_dr_014.wav",70
Sample,119791,0,"_dr_015.wav",70
Sample,119797,0,"piarp_021.wav",70
Sample,119864,0,"_ki_000.wav",70
Sample,119864,0,"_dr_016.wav",70
Sample,119864,0,"_hat_000.wav",70
Sample,119864,0,"_kurasshu_002.wav",70
Sample,119864,0,"piarp_035.wav",70
Sample,119926,0,"_dr_017.wav",70
Sample,119932,0,"piarp_025.wav",70
Sample,119994,0,"_dr_018.wav",70
Sample,120000,0,"pi4_097.wav",70
Sample,120000,0,"piarp_020.wav",70
Sample,120000,0,"pi4_051.wav",70
Sample,120000,0,"_sna_001.wav",70
Sample,120067,0,"piarp_047.wav",70
Sample,120067,0,"_dr_019.wav",70
Sample,120135,0,"_ki_001.wav",70
Sample,120135,0,"_hat_001.wav",70
Sample,120135,0,"piarp_023.wav",70
Sample,120135,0,"_kurasshu_001.wav",70
Sample,120135,0,"_dr_020.wav",70
Sample,120191,0,"_dr_021.wav",70
Sample,120202,0,"_ki_001.wav",70
Sample,120202,0,"_kurasshu_001.wav",70
Sample,120202,0,"piarp_019.wav",70
Sample,120270,0,"pi4_101.wav",70
Sample,120270,0,"pi4_099.wav",70
Sample,120270,0,"_dr_000.wav",70
Sample,120270,0,"ld4x_130.wav",70
Sample,120270,0,"ld4x_129.wav",70
Sample,120270,0,"pi4_098.wav",70
Sample,120270,0,"pi4_100.wav",70
Sample,120270,0,"ld4x_131.wav",70
Sample,120270,0,"pd1_029.wav",70
Sample,120270,0,"piarp_011.wav",70
Sample,120270,0,"bunyu_014.wav",70
Sample,120337,0,"piarp_023.wav",70
Sample,120405,0,"_sna_002.wav",70
Sample,120405,0,"piarp_013.wav",70
Sample,120405,0,"_dr_001.wav",70
Sample,120405,0,"_hat_000.wav",70
Sample,120467,0,"_dr_002.wav",70
Sample,120472,0,"piarp_025.wav",70
Sample,120534,0,"_dr_003.wav",70
Sample,120540,0,"piarp_016.wav",70
Sample,120540,0,"pi4_041.wav",70
Sample,120608,0,"piarp_026.wav",70
Sample,120675,0,"_hat_000.wav",70
Sample,120675,0,"_dr_004.wav",70
Sample,120675,0,"piarp_017.wav",70
Sample,120743,0,"piarp_058.wav",70
Sample,120805,0,"_dr_005.wav",70
Sample,120810,0,"piarp_059.wav",70
Sample,120810,0,"_sna_002.wav",70
Sample,120872,0,"_dr_006.wav",70
Sample,120878,0,"piarp_058.wav",70
Sample,120940,0,"_dr_007.wav",70
Sample,120945,0,"_hat_000.wav",70
Sample,120945,0,"pi4_048.wav",70
Sample,120945,0,"piarp_017.wav",70
Sample,121013,0,"piarp_026.wav",70
Sample,121075,0,"_dr_008.wav",70
Sample,121081,0,"piarp_016.wav",70
Sample,121148,0,"piarp_025.wav",70
Sample,121216,0,"piarp_013.wav",70
Sample,121216,0,"_hat_001.wav",70
Sample,121216,0,"_dr_009.wav",70
Sample,121216,0,"_sna_002.wav",70
Sample,121216,0,"pi4_102.wav",70
Sample,121283,0,"piarp_023.wav",70
Sample,121351,0,"piarp_009.wav",70
Sample,121351,0,"ld4x_132.wav",70
Sample,121351,0,"ld4x_014.wav",70
Sample,121351,0,"_dr_010.wav",70
Sample,121351,0,"ld4x_133.wav",70
Sample,121418,0,"piarp_033.wav",70
Sample,121475,0,"_dr_011.wav",70
Sample,121486,0,"_sna_002.wav",70
Sample,121486,0,"_hat_000.wav",70
Sample,121486,0,"piarp_003.wav",70
Sample,121554,0,"piarp_013.wav",70
Sample,121615,0,"_dr_012.wav",70
Sample,121621,0,"_kurasshu_001.wav",70
Sample,121621,0,"_ki_022.wav",70
Sample,121621,0,"piarp_034.wav",70
Sample,121689,0,"_ki_023.wav",70
Sample,121689,0,"_kurasshu_001.wav",70
Sample,121689,0,"piarp_015.wav",70
Sample,121756,0,"_hat_000.wav",70
Sample,121756,0,"_dr_013.wav",70
Sample,121756,0,"piarp_016.wav",70
Sample,121756,0,"_ki_024.wav",70
Sample,121756,0,"_kurasshu_015.wav",70
Sample,121824,0,"_kurasshu_015.wav",70
Sample,121824,0,"_ki_025.wav",70
Sample,121824,0,"piarp_036.wav",70
Sample,121891,0,"_ki_026.wav",70
Sample,121891,0,"_dr_014.wav",70
Sample,121891,0,"piarp_025.wav",70
Sample,121891,0,"piarp_060.wav",70
Sample,121891,0,"_kurasshu_015.wav",70
Sample,121953,0,"_dr_015.wav",70
Sample,121959,0,"piarp_007.wav",70
Sample,121959,0,"_ki_027.wav",70
Sample,121959,0,"_kurasshu_016.wav",70
Sample,122027,0,"piarp_017.wav",70
Sample,122027,0,"_kurasshu_016.wav",70
Sample,122027,0,"_ki_028.wav",70
Sample,122027,0,"_dr_016.wav",70
Sample,122027,0,"_hat_000.wav",70
Sample,122088,0,"_dr_017.wav",70
Sample,122094,0,"piarp_058.wav",70
Sample,122094,0,"_ki_029.wav",70
Sample,122094,0,"_kurasshu_017.wav",70
Sample,122156,0,"_dr_018.wav",70
Sample,122162,0,"_kurasshu_017.wav",70
Sample,122162,0,"piarp_061.wav",70
Sample,122162,0,"_ki_030.wav",70
Sample,122229,0,"_ki_031.wav",70
Sample,122229,0,"_kurasshu_018.wav",70
Sample,122229,0,"piarp_062.wav",70
Sample,122229,0,"_dr_019.wav",70
Sample,122297,0,"_hat_001.wav",70
Sample,122297,0,"piarp_063.wav",70
Sample,122297,0,"_kurasshu_018.wav",70
Sample,122297,0,"_dr_020.wav",70
Sample,122297,0,"_ki_032.wav",70
Sample,122353,0,"_dr_021.wav",70
Sample,122364,0,"_ki_033.wav",70
Sample,122364,0,"_kurasshu_019.wav",70
Sample,122364,0,"piarp_064.wav",70
Sample,122432,0,"__outr.wav",70
Sample,122432,0,"__kuraaaaaaasshu.wav",70
Sample,122432,0,"__sugokuiioto.wav",70

[TimingPoints]
1114,270.27027027027,4,2,1,80,1,0
18411,-100,4,1,1,80,0,0
24830,-100,4,2,1,80,0,0
25978,-100,4,1,1,80,0,0
27938,-100,4,2,1,80,0,0
28951,-100,4,1,1,80,0,0
33343,-100,4,2,1,80,0,0
37870,-100,4,1,1,80,0,0
42127,-100,4,2,1,80,0,0
43276,-100,4,1,1,80,0,0
48749,-100,4,2,1,80,0,0
53276,-100,4,1,1,80,0,1
53343,-100,4,2,1,80,0,1
87870,-100,4,2,1,80,0,0
96451,-200,4,2,1,80,0,0
102938,-100,4,2,1,80,0,0
105168,-100,4,1,1,80,0,1
120168,-100,4,2,1,20,0,1
120843,-100,4,2,1,40,0,1
121113,-100,4,2,1,50,0,1
121384,-100,4,2,1,60,0,1
121654,-100,4,2,1,65,0,1
121924,-100,4,2,1,80,0,1
122735,-100,4,2,1,70,0,0
123005,-100,4,2,1,60,0,0
123546,-100,4,2,1,50,0,0
124357,-100,4,2,1,40,0,0
125708,-100,4,2,1,30,0,0
128141,-100,4,2,1,20,0,0

[HitObjects]
64,64,1114,5,4,0:0:0:0:
144,120,1249,1,2,0:0:0:0:
240,136,1384,1,0,0:0:0:0:
328,112,1519,1,2,0:0:0:0:
400,56,1654,2,0,L|464:128,1,95,0|2,0:0|0:0,0:0:0:0:
352,280,1924,2,0,L|288:208,1,95,0|2,0:0|0:0,0:0:0:0:
384,192,2195,2,0,L|448:264,1,95,0|2,0:0|0:0,0:0:0:0:
288,368,2465,2,0,L|224:296,1,95,0|2,0:0|0:0,0:0:0:0:
128,192,2735,5,2,0:0:0:0:
64,40,2870,1,0,0:0:0:0:
120,288,3005,1,2,0:0:0:0:
56,136,3141,1,0,0:0:0:0:
136,96,3276,5,2,0:0:0:0:
48,232,3411,1,0,0:0:0:0:
120,288,3546,2,0,P|168:296|216:288,1,95,2|0,0:0|0:0,0:0:0:0:
392,232,3816,1,2,0:0:0:0:
392,232,3951,2,0,P|344:224|296:232,1,95,2|0,0:0|0:0,0:0:0:0:
344,312,4222,1,2,0:0:0:0:
440,144,4357,6,0,P|456:96|488:48,1,95,2|0,0:0|0:0,0:0:0:0:
344,120,4627,2,0,L|360:24,1,95,2|0,0:0|0:0,0:0:0:0:
152,26,4897,2,0,L|168:120,1,95,2|0,0:0|0:0,0:0:0:0:
32,58,5168,2,0,P|56:96|72:144,1,95,2|0,0:0|0:0,0:0:0:0:
48,336,5438,6,0,P|144:320|240:336,1,190,0|0,0:0|0:0,0:0:0:0:
328,312,5843,1,2,0:0:0:0:
416,280,5978,2,0,L|504:208,1,95,0|2,0:0|0:0,0:0:0:0:
304,184,6249,2,0,L|216:256,1,95,0|2,0:0|0:0,0:0:0:0:
400,168,6519,1,2,0:0:0:0:
464,40,6654,1,0,0:0:0:0:
336,104,6789,1,0,0:0:0:0:
480,128,6924,1,2,0:0:0:0:
376,24,7059,6,0,P|280:32|240:112,1,190,2|0,0:0|0:0,0:0:0:0:
304,184,7465,1,0,0:0:0:0:
376,248,7600,2,0,P|280:272|216:216,1,190,2|0,0:0|0:0,0:0:0:0:
160,88,8005,1,0,0:0:0:0:
136,232,8141,1,2,0:0:0:0:
240,136,8276,1,2,0:0:0:0:
96,344,8546,5,0,0:0:0:0:
208,256,8681,2,0,P|256:248|304:256,1,95,2|0,0:0|0:0,0:0:0:0:
352,336,8951,2,0,P|304:344|256:336,1,95,2|0,0:0|0:0,0:0:0:0:
344,168,9222,1,0,0:0:0:0:
424,48,9357,1,2,0:0:0:0:
424,48,9492,1,2,0:0:0:0:
424,192,9627,1,2,0:0:0:0:
424,192,9762,6,0,P|352:248|272:208,1,190,0|2,0:0|0:0,0:0:0:0:
160,120,10168,1,0,0:0:0:0:
128,32,10303,1,2,0:0:0:0:
106,192,10438,1,0,0:0:0:0:
32,136,10573,1,2,0:0:0:0:
160,264,10708,1,0,0:0:0:0:
128,352,10843,1,2,0:0:0:0:
160,264,10978,2,0,P|200:296|224:336,1,95,0|2,0:0|0:0,0:0:0:0:
352,120,11249,2,0,P|312:88|288:48,1,95,0|2,0:0|0:0,0:0:0:0:
384,40,11519,1,0,0:0:0:0:
440,112,11654,2,0,P|424:160|392:200,1,95,2|0,0:0|0:0,0:0:0:0:
456,328,11924,5,0,0:0:0:0:
328,264,12059,1,2,0:0:0:0:
192,232,12195,1,0,0:0:0:0:
56,280,12330,1,2,0:0:0:0:
168,360,12465,1,0,0:0:0:0:
192,232,12600,2,0,L|104:192,1,95,2|0,0:0|0:0,0:0:0:0:
168,360,12870,5,0,0:0:0:0:
208,144,13005,2,0,L|120:104,1,95,2|0,0:0|0:0,0:0:0:0:
304,144,13276,2,0,L|344:56,1,95,2|0,0:0|0:0,0:0:0:0:
304,240,13546,2,0,L|392:280,1,95,2|0,0:0|0:0,0:0:0:0:
208,240,13816,2,0,L|168:328,1,95,2|0,0:0|0:0,0:0:0:0:
64,168,14086,5,0,0:0:0:0:
64,168,14154,1,0,0:0:0:0:
64,168,14222,2,0,L|32:128,2,47.5
256,160,14492,1,0,0:0:0:0:
256,160,14559,1,0,0:0:0:0:
256,160,14627,2,0,L|256:112,2,47.5
256,304,14897,5,0,0:0:0:0:
288,320,14965,1,0,0:0:0:0:
320,328,15032,1,0,0:0:0:0:
352,328,15100,1,0,0:0:0:0:
384,328,15168,2,0,L|440:312,4,47.5
400,184,15573,2,0,L|464:168,4,47.5
264,224,15978,2,0,L|160:256,1,95,2|2,0:0|0:0,0:0:0:0:
56,336,16249,1,0,0:0:0:0:
48,320,16316,1,0,0:0:0:0:
56,304,16384,1,0,0:0:0:0:
48,288,16451,1,0,0:0:0:0:
56,272,16519,1,0,0:0:0:0:
48,256,16586,1,0,0:0:0:0:
56,240,16654,1,0,0:0:0:0:
48,224,16722,1,0,0:0:0:0:
56,208,16789,1,0,0:0:0:0:
48,192,16857,1,0,0:0:0:0:
56,176,16924,1,0,0:0:0:0:
48,160,16992,1,0,0:0:0:0:
56,144,17059,1,0,0:0:0:0:
48,128,17127,1,0,0:0:0:0:
56,112,17195,1,0,0:0:0:0:
48,96,17262,1,0,0:0:0:0:
56,80,17330,5,2,0:0:0:0:
88,96,17397,1,0,0:0:0:0:
128,104,17465,1,0,0:0:0:0:
168,104,17532,1,0,0:0:0:0:
208,96,17600,1,0,0:0:0:0:
240,72,17668,1,0,0:0:0:0:
272,56,17735,1,0,0:0:0:0:
312,48,17803,1,0,0:0:0:0:
352,48,17870,1,0,0:0:0:0:
392,64,17938,1,0,0:0:0:0:
424,88,18005,1,0,0:0:0:0:
440,120,18073,1,0,0:0:0:0:
424,152,18141,5,0,0:0:0:0:
408,184,18208,1,0,0:0:0:0:
400,224,18276,1,0,0:0:0:0:
408,264,18343,1,0,0:0:0:0:
424,296,18411,6,0,P|360:352|256:336,1,190,0|0,1:0|0:0,0:0:0:0:
216,320,18749,2,0,L|152:304,3,47.5,0|0|0|0,0:0|0:0|0:0|0:0,0:0:0:0:
128,296,19019,2,0,P|80:288|-8:336,1,142.5,0|2,0:0|1:0,0:0:0:0:
152,216,19357,1,0,0:0:0:0:
224,160,19492,2,0,P|176:136|120:128,1,95,2|0,1:0|1:0,0:0:0:0:
40,120,19762,1,0,0:0:0:0:
208,40,19897,1,2,0:0:0:0:
256,320,20168,5,0,1:0:0:0:
344,288,20303,1,2,0:0:0:0:
368,280,20370,1,2,0:0:0:0:
392,280,20438,1,0,1:0:0:0:
416,288,20505,1,0,1:0:0:0:
432,304,20573,2,0,B|480:312|480:312|456:232|520:184,1,190,2|0,0:0|1:0,0:0:0:0:
464,56,20978,1,0,0:0:0:0:
464,56,21113,2,0,P|432:136|344:184,1,190,0|0,1:0|1:0,0:0:0:0:
208,48,21519,1,0,0:0:0:0:
208,48,21654,2,0,P|256:40|304:48,1,95,2|0,1:0|1:0,0:0:0:0:
168,184,21924,1,0,0:0:0:0:
168,184,22059,2,0,P|80:136|48:56,1,190,0|0,1:0|1:0,0:0:0:0:
96,240,22465,5,0,1:0:0:0:
136,256,22532,1,0,0:0:0:0:
184,272,22600,1,0,0:0:0:0:
232,288,22668,1,0,0:0:0:0:
280,304,22735,2,0,B|344:304|344:304|376:336|432:336|464:304,1,190,2|0,0:0|0:0,0:0:0:0:
232,80,23141,2,0,B|168:80|168:80|136:48|80:48|48:80,1,190,2|0,1:0|0:0,1:0:0:0:
400,232,23546,1,8,1:0:0:0:
400,232,23816,2,0,B|384:176|400:136|400:136|416:96|392:40,1,190,2|0,1:0|0:0,0:0:0:0:
112,152,24222,2,0,B|128:208|112:248|112:248|96:288|120:344,1,190,2|0,0:0|0:0,0:0:0:0:
48,112,24627,2,0,P|88:80|136:80,1,95,8|0,1:0|0:0,0:0:0:0:
264,128,24897,5,0,1:0:0:0:
296,136,24965,1,0,0:0:0:0:
328,136,25032,1,2,0:0:0:0:
360,128,25100,1,0,0:0:0:0:
388,108,25168,1,0,0:0:0:0:
472,64,25303,1,2,0:0:0:0:
464,96,25370,1,0,0:0:0:0:
464,128,25438,1,0,0:0:0:0:
472,160,25505,1,0,0:0:0:0:
488,192,25573,1,2,0:0:0:0:
496,224,25641,1,0,0:0:0:0:
488,256,25708,1,0,0:0:0:0:
472,280,25776,1,0,0:0:0:0:
440,296,25843,1,2,0:0:0:0:
408,296,25911,1,0,0:0:0:0:
376,280,25978,6,0,P|280:280|216:344,1,190,2|0,1:0|0:0,0:0:0:0:
65,154,26384,2,0,P|96:232|120:336,1,190,2|0,0:0|1:0,0:0:0:0:
32,312,26789,1,8,1:0:0:0:
160,176,26924,1,0,1:0:0:0:
160,176,26992,1,0,1:0:0:0:
160,176,27059,2,0,P|128:96|32:72,1,190,2|0,1:0|0:0,0:0:0:0:
176,32,27465,1,0,0:0:0:0:
224,48,27532,1,0,0:0:0:0:
272,56,27600,2,0,B|320:72|368:64|368:64|416:56|464:64,1,190,0|0,1:0|0:0,0:0:0:0:
416,200,28005,5,2,0:0:0:0:
408,232,28073,1,0,0:0:0:0:
408,264,28141,1,2,0:0:0:0:
416,296,28208,1,0,0:0:0:0:
432,328,28276,1,2,0:0:0:0:
440,136,28411,2,0,L|488:88,3,47.5
392,144,28681,1,0,0:0:0:0:
344,136,28749,1,0,0:0:0:0:
304,120,28816,1,0,0:0:0:0:
264,88,28884,1,0,0:0:0:0:
232,48,28951,6,0,P|184:40|136:48,1,95,2|0,0:0|1:0,0:0:0:0:
96,72,29154,1,0,1:0:0:0:
64,112,29222,2,0,B|56:160|56:160|64:160|64:160|56:208,1,95,8|0,1:0|0:0,0:0:0:0:
48,336,29492,6,0,L|8:368,2,47.5,0|0|0,1:0|0:0|0:0,0:0:0:0:
128,216,29762,1,0,1:0:0:0:
176,352,29897,1,0,0:0:0:0:
208,216,30032,1,2,0:0:0:0:
256,352,30168,1,0,0:0:0:0:
288,216,30303,2,0,P|224:288|144:264,1,190,8|0,1:0|0:0,0:0:0:0:
232,152,30708,2,0,P|320:144|376:224,1,190,2|0,0:0|0:0,0:0:0:0:
448,344,31113,2,0,L|520:320,3,47.5,8|0|0|0,1:0|0:0|0:0|0:0,0:0:0:0:
448,344,31384,6,0,B|392:336|352:344|352:344|304:360|256:352,1,190,2|0,0:0|1:0,0:0:0:0:
80,280,31789,1,0,0:0:0:0:
80,280,31924,2,0,L|48:152,1,95,0|0,1:0|0:0,0:0:0:0:
128,64,32195,2,0,L|151:156,1,95,8|0,1:0|0:0,0:0:0:0:
176,296,32465,2,0,P|104:368|16:344,1,190,2|0,0:0|0:0,0:0:0:0:
336,296,32870,2,0,P|408:368|496:344,1,190,2|0,1:0|1:0,0:0:0:0:
432,272,33276,1,0,0:0:0:0:
360,208,33411,5,8,0:0:0:0:
336,200,33478,1,8,0:0:0:0:
312,192,33546,2,8,L|264:176,5,47.5
312,120,33951,2,8,L|248:96,5,47.5
224,88,34357,5,8,0:0:0:0:
192,72,34424,1,8,0:0:0:0:
160,72,34492,1,8,0:0:0:0:
128,88,34559,1,8,0:0:0:0:
112,112,34627,1,8,0:0:0:0:
112,144,34695,1,8,0:0:0:0:
128,176,34762,1,8,0:0:0:0:
152,192,34830,1,8,0:0:0:0:
184,208,34897,1,8,0:0:0:0:
208,232,34965,1,8,0:0:0:0:
224,264,35032,1,8,0:0:0:0:
224,296,35100,1,8,0:0:0:0:
216,328,35168,1,8,0:0:0:0:
200,352,35235,1,8,0:0:0:0:
168,368,35303,1,8,0:0:0:0:
136,376,35370,1,8,0:0:0:0:
104,368,35438,1,8,0:0:0:0:
80,352,35505,1,8,0:0:0:0:
56,328,35573,1,8,0:0:0:0:
48,296,35641,1,8,0:0:0:0:
48,264,35708,2,0,P|48:216|32:168,1,95,2|0,2:0|0:0,0:0:0:0:
0,32,35978,5,2,0:0:0:0:
40,56,36046,1,0,0:0:0:0:
88,72,36113,1,2,0:0:0:0:
136,72,36181,1,0,0:0:0:0:
184,56,36249,2,0,L|240:40,1,47.5,2|0,0:0|0:0,0:0:0:0:
328,32,36384,5,2,0:0:0:0:
360,16,36451,1,0,0:0:0:0:
392,16,36519,1,2,0:0:0:0:
424,24,36586,1,0,0:0:0:0:
448,48,36654,1,2,0:0:0:0:
456,80,36722,1,0,0:0:0:0:
448,112,36789,1,2,0:0:0:0:
424,136,36857,1,0,0:0:0:0:
400,160,36924,1,2,0:0:0:0:
384,192,36992,1,0,0:0:0:0:
376,224,37059,2,0,L|368:272,1,47.5,2|0,0:0|0:0,0:0:0:0:
352,344,37195,5,2,0:0:0:0:
320,344,37262,1,0,0:0:0:0:
288,336,37330,1,2,0:0:0:0:
256,312,37397,1,0,0:0:0:0:
232,336,37465,1,2,0:0:0:0:
200,344,37532,1,0,0:0:0:0:
168,344,37600,2,0,L|104:336,1,47.5,2|0,0:0|0:0,0:0:0:0:
48,328,37735,5,0,1:0:0:0:
48,328,37803,1,0,1:0:0:0:
48,328,37870,2,0,P|80:240|64:144,1,190,2|0,1:0|0:0,0:0:0:0:
256,184,38276,1,0,0:0:0:0:
446,146,38411,2,0,P|432:240|464:328,1,190,0|2,1:0|0:0,0:0:0:0:
352,176,38816,1,0,0:0:0:0:
352,176,38951,2,0,P|328:128|288:96,1,95,2|0,1:0|1:0,0:0:0:0:
160,208,39222,1,0,0:0:0:0:
160,208,39357,2,0,P|184:256|224:288,1,95,8|0,1:0|0:0,0:0:0:0:
296,328,39627,1,8,1:0:0:0:
160,208,39762,5,0,1:0:0:0:
136,184,39830,1,0,0:0:0:0:
112,168,39897,1,0,0:0:0:0:
80,160,39965,1,0,0:0:0:0:
48,160,40032,2,0,B|56:112|56:112|88:80|136:80|192:104,1,190,2|0,1:0|0:0,0:0:0:0:
280,120,40438,2,0,B|328:112|376:120|376:120|424:128|472:120,1,190,2|0,0:0|0:0,0:0:0:0:
416,40,40843,2,0,P|368:32|320:32,1,95,8|0,1:0|0:0,0:0:0:0:
392,208,41113,2,0,B|440:216|488:216|488:216|448:256|456:304,1,190,2|0,0:0|0:0,0:0:0:0:
464,320,41451,1,0,0:0:0:0:
472,344,41519,2,0,B|416:352|416:352|368:344|368:344|328:328|280:344,1,190,2|0,1:0|0:0,0:0:0:0:
192,352,41924,2,0,L|144:360,2,47.5,2|0|0,0:0|0:0|0:0,0:0:0:0:
256,176,42195,5,0,1:0:0:0:
280,152,42262,1,0,0:0:0:0:
312,136,42330,1,2,0:0:0:0:
344,136,42397,1,0,0:0:0:0:
376,152,42465,1,2,0:0:0:0:
400,176,42532,1,0,0:0:0:0:
408,208,42600,1,2,0:0:0:0:
400,240,42668,1,2,0:0:0:0:
384,264,42735,1,2,0:0:0:0:
360,280,42803,1,0,0:0:0:0:
328,288,42870,1,2,0:0:0:0:
296,280,42938,1,0,0:0:0:0:
264,272,43005,1,2,0:0:0:0:
232,264,43073,1,0,0:0:0:0:
200,256,43141,1,0,0:0:0:0:
168,256,43208,1,0,0:0:0:0:
136,264,43276,6,0,B|104:264|80:280|80:280|96:240|88:192|48:152,1,190,8|0,1:0|1:0,0:0:0:0:
32,16,43681,2,0,P|104:80|160:160,1,190,8|0,1:0|0:0,0:0:0:0:
256,320,44086,1,2,0:0:0:0:
272,304,44154,1,0,0:0:0:0:
296,296,44222,1,0,1:0:0:0:
320,296,44289,1,0,1:0:0:0:
344,304,44357,6,0,P|432:304|456:216,1,190,2|0,1:0|0:0,0:0:0:0:
464,80,44762,2,0,L|488:32,3,47.5
424,72,45032,1,0,0:0:0:0:
392,72,45100,1,0,0:0:0:0:
360,80,45168,1,0,0:0:0:0:
328,88,45235,1,0,0:0:0:0:
296,96,45303,1,0,1:0:0:0:
264,96,45370,1,0,1:0:0:0:
232,88,45438,6,0,B|184:80|136:96|136:96|96:112|40:104,1,190,2|0,1:0|0:0,0:0:0:0:
88,16,45843,2,0,P|120:88|88:192,1,190,2|0,0:0|0:0,0:0:0:0:
16,312,46249,2,0,B|56:336|56:336|112:336,1,95,8|0,1:0|1:0,0:0:0:0:
152,336,46451,1,0,1:0:0:0:
200,320,46519,2,0,P|288:304|392:320,1,190,0|2,1:0|0:0,0:0:0:0:
480,208,46924,1,0,0:0:0:0:
448,224,46992,1,0,0:0:0:0:
416,224,47059,1,0,0:0:0:0:
384,208,47127,1,0,0:0:0:0:
368,184,47195,1,0,0:0:0:0:
368,152,47262,1,0,0:0:0:0:
384,120,47330,2,0,L|416:80,2,47.5,2|0|2,0:0|0:0|0:0,0:0:0:0:
208,48,47600,6,0,B|144:48|80:32|80:32|80:56|56:88,1,190,0|8,1:0|1:0,0:0:0:0:
40,128,47938,1,0,0:0:0:0:
24,176,48005,2,0,P|24:224|8:272,1,95,2|2,0:0|0:0,0:0:0:0:
0,312,48208,1,0,0:0:0:0:
0,360,48276,2,0,P|88:344|184:360,1,142.5,8|0,1:0|1:0,0:0:0:0:
224,352,48613,2,0,L|272:352,1,47.5,0|2,1:0|0:0,0:0:0:0:
392,272,48816,5,2,0:0:0:0:
360,280,48884,1,0,0:0:0:0:
328,280,48951,1,0,0:0:0:0:
296,272,49019,1,0,0:0:0:0:
272,256,49086,1,2,0:0:0:0:
256,232,49154,1,0,0:0:0:0:
248,200,49222,1,0,0:0:0:0:
248,168,49289,1,0,0:0:0:0:
264,136,49357,1,2,0:0:0:0:
288,112,49424,1,0,0:0:0:0:
320,96,49492,1,0,0:0:0:0:
352,96,49559,1,0,0:0:0:0:
384,104,49627,2,0,L|432:136,1,47.5,2|0,0:0|0:0,0:0:0:0:
488,168,49762,5,2,0:0:0:0:
472,200,49830,1,0,0:0:0:0:
464,232,49897,1,0,0:0:0:0:
464,264,49965,1,0,0:0:0:0:
472,296,50032,1,2,0:0:0:0:
488,328,50100,1,0,0:0:0:0:
504,360,50168,1,0,0:0:0:0:
472,360,50235,1,0,0:0:0:0:
440,344,50303,1,2,0:0:0:0:
408,336,50370,1,0,0:0:0:0:
376,336,50438,1,0,0:0:0:0:
344,336,50505,1,0,0:0:0:0:
312,344,50573,1,2,0:0:0:0:
280,352,50641,1,0,0:0:0:0:
248,352,50708,2,0,L|176:344,1,47.5
104,328,50843,6,0,L|48:316,7,47.5,8|8|8|8|8|8|8|8,0:0|0:0|0:0|0:0|0:0|0:0|0:0|0:0,0:0:0:0:
136,256,51384,2,8,L|80:244,7,47.5
40,232,51924,5,8,0:0:0:0:
32,200,51992,1,8,0:0:0:0:
40,168,52059,1,8,0:0:0:0:
56,136,52127,1,8,0:0:0:0:
56,104,52195,1,8,0:0:0:0:
48,72,52262,1,8,0:0:0:0:
32,40,52330,1,8,0:0:0:0:
64,48,52397,1,8,0:0:0:0:
96,56,52465,1,8,0:0:0:0:
128,64,52532,1,8,0:0:0:0:
160,64,52600,1,8,0:0:0:0:
192,64,52668,1,8,0:0:0:0:
224,56,52735,1,8,0:0:0:0:
256,40,52803,1,8,0:0:0:0:
288,24,52870,1,12,0:0:0:0:
472,344,53276,5,0,0:0:0:0:
448,328,53343,1,0,0:0:0:0:
416,312,53411,1,0,0:0:0:0:
384,312,53478,1,0,0:0:0:0:
352,328,53546,1,2,0:0:0:0:
328,344,53613,1,0,0:0:0:0:
296,360,53681,1,0,0:0:0:0:
264,360,53749,1,0,0:0:0:0:
232,344,53816,1,2,0:0:0:0:
208,320,53884,1,0,0:0:0:0:
208,288,53951,1,0,0:0:0:0:
216,256,54019,1,0,0:0:0:0:
240,232,54086,1,2,0:0:0:0:
272,224,54154,1,0,0:0:0:0:
304,224,54222,1,0,0:0:0:0:
336,216,54289,1,0,0:0:0:0:
360,200,54357,1,2,0:0:0:0:
376,168,54424,1,0,0:0:0:0:
376,136,54492,1,0,0:0:0:0:
368,104,54559,1,0,0:0:0:0:
344,80,54627,1,2,0:0:0:0:
312,72,54695,1,0,0:0:0:0:
280,72,54762,1,0,0:0:0:0:
248,88,54830,1,0,0:0:0:0:
216,80,54897,5,2,0:0:0:0:
184,72,54965,1,0,0:0:0:0:
152,72,55032,1,0,0:0:0:0:
120,80,55100,1,0,0:0:0:0:
88,96,55168,1,2,0:0:0:0:
64,120,55235,1,0,0:0:0:0:
48,152,55303,1,0,0:0:0:0:
40,184,55370,1,0,0:0:0:0:
48,216,55438,6,0,L|56:272,7,47.5,2|0|0|0|2|0|0|0,0:0|0:0|0:0|0:0|0:0|0:0|0:0|0:0,0:0:0:0:
128,264,55978,2,0,L|136:328,7,47.5,2|0|0|0|2|0|0|0,0:0|0:0|0:0|0:0|0:0|0:0|0:0|0:0,0:0:0:0:
176,336,56519,5,2,0:0:0:0:
208,344,56586,1,0,0:0:0:0:
240,352,56654,1,0,0:0:0:0:
272,352,56722,1,0,0:0:0:0:
304,344,56789,1,0,0:0:0:0:
336,328,56857,1,0,0:0:0:0:
360,304,56924,1,0,0:0:0:0:
376,272,56992,1,0,0:0:0:0:
384,240,57059,1,2,0:0:0:0:
376,208,57127,1,0,0:0:0:0:
368,176,57195,1,0,0:0:0:0:
360,144,57262,1,0,0:0:0:0:
360,112,57330,1,0,0:0:0:0:
376,88,57397,1,0,0:0:0:0:
400,72,57465,1,0,0:0:0:0:
432,72,57532,1,0,0:0:0:0:
464,88,57600,5,2,0:0:0:0:
480,120,57668,1,0,0:0:0:0:
480,152,57735,1,0,0:0:0:0:
464,176,57803,1,0,0:0:0:0:
432,192,57870,1,2,0:0:0:0:
400,192,57938,1,0,0:0:0:0:
368,176,58005,1,0,0:0:0:0:
336,160,58073,1,0,0:0:0:0:
304,152,58141,1,2,0:0:0:0:
272,144,58208,1,0,0:0:0:0:
240,144,58276,1,0,0:0:0:0:
208,152,58343,1,0,0:0:0:0:
176,168,58411,1,2,0:0:0:0:
152,192,58478,1,0,0:0:0:0:
136,216,58546,1,0,0:0:0:0:
128,248,58613,1,0,0:0:0:0:
128,280,58681,5,2,0:0:0:0:
136,312,58749,1,0,0:0:0:0:
152,344,58816,1,0,0:0:0:0:
176,368,58884,1,0,0:0:0:0:
208,376,58951,1,2,0:0:0:0:
240,368,59019,1,0,0:0:0:0:
264,352,59086,1,0,0:0:0:0:
296,336,59154,1,0,0:0:0:0:
328,328,59222,1,2,0:0:0:0:
360,328,59289,1,0,0:0:0:0:
392,336,59357,1,0,0:0:0:0:
424,344,59424,1,0,0:0:0:0:
456,344,59492,1,2,0:0:0:0:
488,336,59559,1,0,0:0:0:0:
512,312,59627,1,2,0:0:0:0:
424,200,59762,6,8,L|416:152,3,47.5,12|8|10|8,0:0|0:0|0:0|0:0,0:0:0:0:
352,184,60032,2,8,L|344:128,3,47.5,12|8|10|8,0:0|0:0|0:0|0:0,0:0:0:0:
280,168,60303,2,8,L|272:112,3,47.5,12|8|10|8,0:0|0:0|0:0|0:0,0:0:0:0:
208,152,60573,2,8,L|200:96,3,47.5,12|8|10|8,0:0|0:0|0:0|0:0,0:0:0:0:
200,56,60843,1,2,0:0:0:0:
176,40,60911,1,0,0:0:0:0:
144,32,60978,1,2,0:0:0:0:
112,32,61046,1,0,0:0:0:0:
80,40,61113,1,2,0:0:0:0:
56,56,61181,1,0,0:0:0:0:
32,80,61249,1,2,0:0:0:0:
24,112,61316,1,0,0:0:0:0:
56,128,61384,5,2,0:0:0:0:
72,152,61451,1,0,0:0:0:0:
88,184,61519,1,0,0:0:0:0:
96,216,61586,1,0,0:0:0:0:
96,248,61654,1,2,0:0:0:0:
88,280,61722,1,0,0:0:0:0:
72,312,61789,1,0,0:0:0:0:
48,336,61857,1,0,0:0:0:0:
80,352,61924,5,2,0:0:0:0:
112,352,61992,1,0,0:0:0:0:
144,352,62059,1,0,0:0:0:0:
176,344,62127,1,0,0:0:0:0:
208,328,62195,1,2,0:0:0:0:
232,304,62262,1,0,0:0:0:0:
248,272,62330,1,0,0:0:0:0:
256,240,62397,1,0,0:0:0:0:
248,208,62465,1,2,0:0:0:0:
232,176,62532,1,0,0:0:0:0:
224,144,62600,1,0,0:0:0:0:
232,112,62668,1,0,0:0:0:0:
256,88,62735,1,2,0:0:0:0:
288,80,62803,1,0,0:0:0:0:
320,80,62870,1,0,0:0:0:0:
352,96,62938,1,0,0:0:0:0:
368,120,63005,5,2,0:0:0:0:
352,152,63073,1,0,0:0:0:0:
344,184,63141,1,0,0:0:0:0:
336,216,63208,1,0,0:0:0:0:
336,248,63276,1,2,0:0:0:0:
344,280,63343,1,0,0:0:0:0:
360,312,63411,1,0,0:0:0:0:
384,336,63478,1,0,0:0:0:0:
416,344,63546,1,2,0:0:0:0:
448,344,63613,1,0,0:0:0:0:
480,328,63681,1,0,0:0:0:0:
496,296,63749,1,0,0:0:0:0:
496,264,63816,1,2,0:0:0:0:
480,232,63884,1,0,0:0:0:0:
456,216,63951,1,0,0:0:0:0:
424,208,64019,1,0,0:0:0:0:
392,216,64086,5,2,0:0:0:0:
360,232,64154,1,0,0:0:0:0:
336,248,64222,1,2,0:0:0:0:
304,264,64289,1,0,0:0:0:0:
272,272,64357,1,2,0:0:0:0:
240,280,64424,1,0,0:0:0:0:
208,280,64492,1,2,0:0:0:0:
176,280,64559,1,0,0:0:0:0:
144,272,64627,1,2,0:0:0:0:
112,256,64695,1,0,0:0:0:0:
88,232,64762,1,2,0:0:0:0:
64,208,64830,1,0,0:0:0:0:
48,176,64897,1,2,0:0:0:0:
40,144,64965,1,0,0:0:0:0:
40,112,65032,1,2,0:0:0:0:
48,80,65100,1,0,0:0:0:0:
64,48,65168,5,2,0:0:0:0:
96,56,65235,1,0,0:0:0:0:
128,64,65303,1,2,0:0:0:0:
160,64,65370,1,0,0:0:0:0:
192,64,65438,1,2,0:0:0:0:
224,56,65505,1,0,0:0:0:0:
256,40,65573,1,2,0:0:0:0:
288,32,65641,1,0,0:0:0:0:
320,24,65708,1,2,0:0:0:0:
352,24,65776,1,0,0:0:0:0:
384,24,65843,1,2,0:0:0:0:
416,32,65911,1,0,0:0:0:0:
448,48,65978,1,2,0:0:0:0:
472,72,66046,1,0,0:0:0:0:
488,104,66113,1,2,0:0:0:0:
496,136,66181,1,0,0:0:0:0:
480,168,66249,5,2,0:0:0:0:
448,160,66316,1,0,0:0:0:0:
416,152,66384,1,0,0:0:0:0:
384,152,66451,1,0,0:0:0:0:
352,160,66519,1,2,0:0:0:0:
320,176,66586,1,0,0:0:0:0:
296,200,66654,1,0,0:0:0:0:
280,232,66722,1,0,0:0:0:0:
272,264,66789,1,2,0:0:0:0:
280,296,66857,1,0,0:0:0:0:
296,328,66924,1,0,0:0:0:0:
320,352,66992,1,0,0:0:0:0:
352,368,67059,1,2,0:0:0:0:
384,368,67127,1,0,0:0:0:0:
416,360,67195,1,0,0:0:0:0:
440,336,67262,1,0,0:0:0:0:
452,304,67330,5,2,0:0:0:0:
448,272,67397,1,0,0:0:0:0:
432,240,67465,1,0,0:0:0:0:
400,224,67532,1,0,0:0:0:0:
368,216,67600,1,2,0:0:0:0:
336,224,67668,1,0,0:0:0:0:
312,240,67735,1,0,0:0:0:0:
272,264,67803,1,0,0:0:0:0:
240,272,67870,1,2,0:0:0:0:
208,272,67938,1,0,0:0:0:0:
176,264,68005,1,0,0:0:0:0:
144,248,68073,1,0,0:0:0:0:
120,224,68141,1,2,0:0:0:0:
104,192,68208,1,0,0:0:0:0:
96,160,68276,1,0,0:0:0:0:
104,128,68343,1,0,0:0:0:0:
120,96,68411,6,8,L|144:48,3,47.5,10|8|8|8,0:0|0:0|0:0|0:0,0:0:0:0:
184,40,68681,2,0,B|232:32|280:40|280:40|328:48|376:40,1,190,12|2,0:0|0:0,0:0:0:0:
424,32,69019,1,0,0:0:0:0:
472,40,69086,1,2,0:0:0:0:
496,80,69154,1,0,0:0:0:0:
488,128,69222,1,2,0:0:0:0:
448,152,69289,1,0,0:0:0:0:
400,144,69357,1,2,0:0:0:0:
352,128,69424,1,0,0:0:0:0:
304,128,69492,2,0,L|240:136,7,47.5,2|0|0|0|0|0|0|0,0:0|0:0|0:0|0:0|0:0|0:0|0:0|0:0,0:0:0:0:
280,200,70032,2,0,L|216:208,7,47.5,2|0|0|0|0|0|0|0,0:0|0:0|0:0|0:0|0:0|0:0|0:0|0:0,0:0:0:0:
160,216,70573,5,4,0:0:0:0:
320,312,70708,2,0,L|376:304,2,47.5,2|0|0,0:0|0:0|0:0,0:0:0:0:
224,296,70978,1,2,0:0:0:0:
192,304,71046,1,0,0:0:0:0:
160,312,71113,1,2,0:0:0:0:
128,320,71181,1,0,0:0:0:0:
96,328,71249,1,2,0:0:0:0:
24,232,71384,1,2,0:0:0:0:
16,264,71451,1,0,0:0:0:0:
8,296,71519,1,2,0:0:0:0:
48,144,71654,1,2,0:0:0:0:
72,120,71722,1,0,0:0:0:0:
104,104,71789,1,2,0:0:0:0:
136,96,71857,1,0,0:0:0:0:
168,96,71924,1,2,0:0:0:0:
200,104,71992,1,0,0:0:0:0:
232,104,72059,1,2,0:0:0:0:
264,96,72127,1,0,0:0:0:0:
296,80,72195,6,0,L|344:32,7,47.5,4|0|0|0|0|0|0|0,0:0|0:0|0:0|0:0|0:0|0:0|0:0|0:0,0:0:0:0:
368,112,72735,2,0,L|408:72,7,47.5,2|0|0|0|0|0|0|0,0:0|0:0|0:0|0:0|0:0|0:0|0:0|0:0,0:0:0:0:
440,144,73276,2,0,L|480:104,7,47.5,2|0|0|0|0|0|0|0,0:0|0:0|0:0|0:0|0:0|0:0|0:0|0:0,0:0:0:0:
488,64,73816,5,4,0:0:0:0:
464,40,73884,1,0,0:0:0:0:
432,32,73951,1,0,0:0:0:0:
400,32,74019,1,0,0:0:0:0:
368,40,74086,1,2,0:0:0:0:
344,64,74154,1,0,0:0:0:0:
320,40,74222,1,0,0:0:0:0:
288,32,74289,1,0,0:0:0:0:
256,32,74357,1,2,0:0:0:0:
224,40,74424,1,0,0:0:0:0:
200,64,74492,2,0,L|144:72,2,47.5,0|0|2,0:0|0:0|0:0,0:0:0:0:
272,120,74762,1,0,0:0:0:0:
80,136,74897,5,4,0:0:0:0:
112,152,74965,1,0,0:0:0:0:
144,168,75032,1,0,0:0:0:0:
176,184,75100,1,0,0:0:0:0:
208,200,75168,5,2,0:0:0:0:
176,216,75235,1,0,0:0:0:0:
152,240,75303,1,0,0:0:0:0:
144,272,75370,1,0,0:0:0:0:
144,304,75438,1,2,0:0:0:0:
160,336,75505,1,0,0:0:0:0:
184,360,75573,1,0,0:0:0:0:
216,368,75641,1,0,0:0:0:0:
248,368,75708,1,2,0:0:0:0:
280,360,75776,1,0,0:0:0:0:
304,336,75843,1,0,0:0:0:0:
320,304,75911,1,0,0:0:0:0:
320,272,75978,1,2,0:0:0:0:
312,240,76046,1,0,0:0:0:0:
312,208,76113,1,0,0:0:0:0:
312,176,76181,1,0,0:0:0:0:
320,144,76249,1,2,0:0:0:0:
336,112,76316,1,0,0:0:0:0:
360,88,76384,1,0,0:0:0:0:
384,72,76451,1,0,0:0:0:0:
360,48,76519,5,4,0:0:0:0:
328,32,76586,1,0,0:0:0:0:
296,24,76654,1,0,0:0:0:0:
264,32,76722,1,0,0:0:0:0:
232,48,76789,1,2,0:0:0:0:
216,80,76857,1,0,0:0:0:0:
216,112,76924,1,0,0:0:0:0:
224,144,76992,1,0,0:0:0:0:
248,168,77059,1,2,0:0:0:0:
280,184,77127,1,0,0:0:0:0:
312,176,77195,1,0,0:0:0:0:
344,168,77262,1,0,0:0:0:0:
376,168,77330,1,2,0:0:0:0:
408,176,77397,1,0,0:0:0:0:
432,192,77465,1,0,0:0:0:0:
448,216,77532,1,0,0:0:0:0:
464,248,77600,1,2,0:0:0:0:
464,280,77668,1,0,0:0:0:0:
456,312,77735,1,0,0:0:0:0:
440,336,77803,1,0,0:0:0:0:
416,352,77870,1,2,0:0:0:0:
384,368,77938,1,0,0:0:0:0:
352,368,78005,1,0,0:0:0:0:
320,360,78073,1,0,0:0:0:0:
296,344,78141,6,0,L|256:304,7,47.5,4|0|0|0|0|0|0|0,0:0|0:0|0:0|0:0|0:0|0:0|0:0|0:0,0:0:0:0:
200,344,78681,2,0,L|144:296,7,47.5,2|0|0|0|0|0|0|0,0:0|0:0|0:0|0:0|0:0|0:0|0:0|0:0,0:0:0:0:
104,264,79222,1,4,0:0:0:0:
256,24,79492,5,2,0:0:0:0:
280,40,79559,1,0,0:0:0:0:
312,48,79627,1,0,0:0:0:0:
344,48,79695,1,0,0:0:0:0:
376,40,79762,1,0,0:0:0:0:
408,40,79830,1,0,0:0:0:0:
440,48,79897,1,0,0:0:0:0:
464,72,79965,1,0,0:0:0:0:
480,104,80032,1,2,0:0:0:0:
480,136,80100,1,0,0:0:0:0:
472,168,80168,1,0,0:0:0:0:
456,192,80235,1,0,0:0:0:0:
424,208,80303,1,0,0:0:0:0:
392,216,80370,1,0,0:0:0:0:
360,208,80438,1,0,0:0:0:0:
328,200,80505,1,0,0:0:0:0:
296,184,80573,1,2,0:0:0:0:
264,176,80641,1,0,0:0:0:0:
232,168,80708,1,0,0:0:0:0:
200,168,80776,1,0,0:0:0:0:
168,168,80843,1,0,0:0:0:0:
136,176,80911,1,0,0:0:0:0:
104,192,80978,1,0,0:0:0:0:
80,216,81046,1,0,0:0:0:0:
64,248,81113,1,2,0:0:0:0:
64,280,81181,1,0,0:0:0:0:
80,312,81249,1,0,0:0:0:0:
104,328,81316,1,0,0:0:0:0:
136,328,81384,5,2,0:0:0:0:
168,320,81451,1,0,0:0:0:0:
200,320,81519,1,0,0:0:0:0:
232,328,81586,1,0,0:0:0:0:
256,352,81654,1,2,0:0:0:0:
288,360,81722,1,0,0:0:0:0:
320,360,81789,1,0,0:0:0:0:
352,352,81857,1,0,0:0:0:0:
376,328,81924,1,2,0:0:0:0:
408,320,81992,1,0,0:0:0:0:
432,296,82059,1,0,0:0:0:0:
440,264,82127,1,0,0:0:0:0:
432,232,82195,1,2,0:0:0:0:
408,208,82262,1,0,0:0:0:0:
376,200,82330,1,0,0:0:0:0:
344,208,82397,1,0,0:0:0:0:
320,232,82465,6,0,L|288:272,3,47.5,2|0|0|0,0:0|0:0|0:0|0:0,0:0:0:0:
248,216,82735,2,0,L|216:256,3,47.5,2|0|0|0,0:0|0:0|0:0|0:0,0:0:0:0:
176,192,83005,6,2,L|136:240,1,47.5
160,80,83141,2,2,L|129:116,1,47.5
64,184,83276,2,2,L|33:220,1,47.5,0|0,0:0|0:0,0:0:0:0:
48,72,83411,2,0,L|8:120,2,47.5,2|2|4,0:0|0:0|0:0,0:0:0:0:
328,104,83816,5,2,0:0:0:0:
360,96,83884,1,0,0:0:0:0:
392,88,83951,1,2,0:0:0:0:
424,80,84019,1,0,0:0:0:0:
456,72,84086,1,2,0:0:0:0:
376,192,84222,2,0,L|320:208,1,47.5,2|0,0:0|0:0,0:0:0:0:
264,224,84357,1,2,0:0:0:0:
384,304,84492,1,0,0:0:0:0:
288,320,84627,5,2,0:0:0:0:
256,312,84695,1,0,0:0:0:0:
224,304,84762,1,2,0:0:0:0:
192,304,84830,1,0,0:0:0:0:
160,312,84897,1,2,0:0:0:0:
136,328,84965,1,0,0:0:0:0:
104,336,85032,1,2,0:0:0:0:
72,336,85100,1,0,0:0:0:0:
40,320,85168,1,2,0:0:0:0:
16,296,85235,1,0,0:0:0:0:
8,264,85303,1,2,0:0:0:0:
8,232,85370,1,0,0:0:0:0:
24,200,85438,1,2,0:0:0:0:
48,176,85505,1,0,0:0:0:0:
80,168,85573,1,2,0:0:0:0:
112,168,85641,1,0,0:0:0:0:
144,184,85708,6,0,L|184:208,4,31.6666666666667,2|0|2|0|2,0:0|0:0|0:0|0:0|0:0,0:0:0:0:
192,104,85978,2,0,B|235:126|235:126|280:152|328:144,1,142.5,2|0,0:0|0:0,0:0:0:0:
376,136,86249,2,0,L|424:128,4,31.6666666666667,2|0|2|0|2,0:0|0:0|0:0|0:0|0:0,0:0:0:0:
392,264,86519,2,0,L|496:248,1,95,2|0,0:0|0:0,0:0:0:0:
304,304,86789,2,0,P|256:312|208:304,1,95,2|0,0:0|0:0,0:0:0:0:
168,280,86992,2,0,B|144:272|144:272|120:280,1,47.5
48,216,87195,2,0,B|144:192|144:192|232:216,1,190,2|2,0:0|0:0,0:0:0:0:
496,224,87600,5,0,0:0:0:0:
464,216,87667,1,0,0:0:0:0:
432,208,87735,1,0,0:0:0:0:
400,200,87802,1,0,0:0:0:0:
368,192,87870,1,4,0:0:0:0:
56,192,96519,6,0,P|216:192|304:56,1,332.5,2|0,0:0|0:0,0:0:0:0:
208,56,97600,2,0,P|295:188|455:188,1,332.5
416,280,98681,6,0,L|424:344,1,47.5,2|0,0:0|0:0,0:0:0:0:
312,104,98951,2,0,L|304:40,1,47.5,2|0,0:0|0:0,0:0:0:0:
200,280,99222,2,0,L|208:344,1,47.5,2|0,0:0|0:0,0:0:0:0:
96,104,99492,2,0,L|88:40,1,47.5,2|0,0:0|0:0,0:0:0:0:
32,192,99762,5,2,0:0:0:0:
64,200,99830,1,0,0:0:0:0:
96,200,99897,1,0,0:0:0:0:
128,192,99965,1,0,0:0:0:0:
160,176,100032,1,2,0:0:0:0:
184,152,100100,1,0,0:0:0:0:
200,120,100168,1,0,0:0:0:0:
208,88,100235,1,0,0:0:0:0:
208,56,100303,2,0,L|208:24,6,23.75,2|0|2|0|2|0|0,0:0|0:0|0:0|0:0|0:0|0:0|0:0,0:0:0:0:
344,88,100844,5,2,0:0:0:0:
376,80,100911,1,0,0:0:0:0:
408,80,100979,1,0,0:0:0:0:
440,88,101046,1,0,0:0:0:0:
472,104,101114,1,2,0:0:0:0:
496,136,101182,1,0,0:0:0:0:
504,168,101249,1,0,0:0:0:0:
504,200,101316,1,0,0:0:0:0:
488,232,101384,2,0,L|472:264,6,23.75,2|0|2|0|2|0|0,0:0|0:0|0:0|0:0|0:0|0:0|0:0,0:0:0:0:
384,328,101924,5,2,0:0:0:0:
352,312,101992,1,0,0:0:0:0:
320,304,102059,1,0,0:0:0:0:
288,296,102127,1,0,0:0:0:0:
256,296,102195,1,2,0:0:0:0:
224,296,102262,1,0,0:0:0:0:
192,304,102330,1,0,0:0:0:0:
160,320,102397,1,0,0:0:0:0:
128,336,102465,2,0,L|128:368,6,23.75,2|0|2|0|2|0|0,0:0|0:0|0:0|0:0|0:0|0:0|0:0,0:0:0:0:
56,240,103005,5,0,0:0:0:0:
96,224,103073,1,0,0:0:0:0:
128,200,103141,1,0,0:0:0:0:
152,168,103208,1,0,0:0:0:0:
176,200,103276,5,0,0:0:0:0:
216,224,103343,1,0,0:0:0:0:
256,232,103411,1,0,0:0:0:0:
296,224,103478,1,0,0:0:0:0:
336,200,103546,1,0,0:0:0:0:
360,168,103613,1,0,0:0:0:0:
368,128,103681,1,0,0:0:0:0:
360,88,103749,1,0,0:0:0:0:
336,56,103816,1,0,0:0:0:0:
296,32,103884,1,0,0:0:0:0:
256,24,103951,1,0,0:0:0:0:
216,32,104019,1,0,0:0:0:0:
176,56,104086,1,0,0:0:0:0:
152,88,104154,1,0,0:0:0:0:
144,128,104222,1,0,0:0:0:0:
152,168,104289,1,0,0:0:0:0:
176,200,104357,1,0,0:0:0:0:
216,224,104424,1,0,0:0:0:0:
256,232,104492,1,0,0:0:0:0:
296,224,104559,1,0,0:0:0:0:
336,200,104627,1,0,0:0:0:0:
360,168,104695,1,0,0:0:0:0:
384,200,104762,5,0,0:0:0:0:
416,224,104830,1,0,0:0:0:0:
456,240,104898,1,0,0:0:0:0:
352,336,105032,5,0,0:0:0:0:
352,336,105100,1,0,0:0:0:0:
352,336,105168,2,0,P|256:320|160:336,1,190
0,240,105573,1,0,0:0:0:0:
0,240,105641,1,0,0:0:0:0:
0,240,105708,2,0,P|96:256|192:240,1,190,2|0,0:0|0:0,0:0:0:0:
256,216,106046,2,0,L|296:192,1,47.5
472,112,106249,6,0,B|456:144|456:144|456:96|424:56|392:40|344:48,1,190,2|0,0:0|0:0,0:0:0:0:
288,64,106586,1,0,0:0:0:0:
216,48,106654,2,0,B|160:56|112:48|112:48|128:88|96:128,1,190,2|0,0:0|0:0,0:0:0:0:
56,192,106992,2,0,L|16:168,1,47.5,0|2,0:0|0:0,0:0:0:0:
16,360,107195,5,0,0:0:0:0:
16,360,107262,1,0,0:0:0:0:
16,360,107330,2,0,P|104:344|208:360,1,190,2|0,0:0|0:0,0:0:0:0:
248,360,107668,1,0,0:0:0:0:
296,352,107735,1,0,0:0:0:0:
336,328,107803,1,0,0:0:0:0:
368,296,107870,2,0,P|384:208|472:176,1,190,2|0,0:0|0:0,0:0:0:0:
464,272,108276,1,0,0:0:0:0:
256,80,108411,5,2,0:0:0:0:
256,80,108546,2,0,L|352:64,1,95,0|0,0:0|0:0,0:0:0:0:
200,184,108816,1,2,0:0:0:0:
200,184,108951,2,0,L|104:200,1,95,0|0,0:0|0:0,0:0:0:0:
40,216,109154,1,0,0:0:0:0:
40,216,109222,1,2,0:0:0:0:
168,360,109357,6,0,L|224:352,1,47.5
288,344,109492,2,0,B|336:328|384:344|384:344|384:296|416:256,1,190,2|0,0:0|0:0,0:0:0:0:
432,216,109830,1,0,0:0:0:0:
456,176,109897,1,0,0:0:0:0:
456,128,109965,1,0,0:0:0:0:
432,88,110032,1,2,0:0:0:0:
392,64,110100,1,0,0:0:0:0:
344,64,110168,1,0,0:0:0:0:
304,80,110235,1,0,0:0:0:0:
256,88,110303,1,0,0:0:0:0:
208,80,110370,1,0,0:0:0:0:
168,64,110438,1,0,0:0:0:0:
168,64,110505,1,0,0:0:0:0:
168,64,110573,2,0,P|112:120|48:128,1,142.5,2|0,0:0|0:0,0:0:0:0:
32,176,110843,2,0,L|24:224,1,47.5
16,272,110978,1,2,0:0:0:0:
136,352,111113,5,0,0:0:0:0:
136,352,111181,1,0,0:0:0:0:
136,352,111249,1,0,0:0:0:0:
168,312,111316,1,0,0:0:0:0:
208,288,111384,1,2,0:0:0:0:
256,280,111451,1,0,0:0:0:0:
304,288,111519,1,0,0:0:0:0:
344,312,111586,1,0,0:0:0:0:
376,344,111654,2,0,P|424:344|472:312,1,95,2|0,0:0|0:0,0:0:0:0:
424,264,111857,2,0,L|416:208,1,47.5
488,192,111992,2,0,L|496:144,1,47.5
440,96,112127,2,0,L|432:48,1,47.5
384,40,112262,1,0,0:0:0:0:
344,64,112330,1,0,0:0:0:0:
296,72,112397,1,0,0:0:0:0:
248,72,112465,1,0,0:0:0:0:
200,56,112532,1,0,0:0:0:0:
152,48,112600,1,0,0:0:0:0:
104,56,112668,2,0,L|48:88,1,47.5,0|2,0:0|0:0,0:0:0:0:
24,264,112870,6,0,L|136:208,1,95,2|0,0:0|0:0,0:0:0:0:
160,352,113141,1,0,0:0:0:0:
160,352,113208,1,0,0:0:0:0:
160,352,113276,2,0,P|208:344|256:344,1,95,2|0,0:0|0:0,0:0:0:0:
328,352,113478,1,0,0:0:0:0:
400,360,113546,1,2,0:0:0:0:
488,168,113681,5,0,0:0:0:0:
488,168,113749,1,0,0:0:0:0:
488,168,113816,2,0,P|416:176|344:152,1,142.5
280,136,114086,1,0,0:0:0:0:
224,88,114154,1,0,0:0:0:0:
168,40,114222,2,0,B|120:24|120:24|72:40,1,95,0|2,0:0|0:0,0:0:0:0:
120,96,114424,1,0,0:0:0:0:
162,153,114492,2,0,B|120:168|120:168|72:152,1,95,0|2,0:0|0:0,0:0:0:0:
40,336,114762,6,0,L|88:328,1,47.5
160,312,114897,2,0,P|256:296|352:312,1,190,2|0,0:0|0:0,0:0:0:0:
416,336,115235,2,0,L|464:360,2,47.5,0|2|0,0:0|0:0|0:0,0:0:0:0:
400,264,115438,1,0,0:0:0:0:
360,240,115505,1,0,0:0:0:0:
336,200,115573,1,0,0:0:0:0:
328,152,115641,1,0,0:0:0:0:
336,104,115708,1,2,0:0:0:0:
360,64,115776,1,0,0:0:0:0:
400,40,115843,1,0,0:0:0:0:
400,40,115911,1,0,0:0:0:0:
400,40,115978,2,0,B|328:48|328:48|256:40,1,142.5,2|0,0:0|0:0,0:0:0:0:
208,32,116249,5,0,0:0:0:0:
160,24,116316,1,0,0:0:0:0:
112,32,116384,1,0,0:0:0:0:
72,56,116451,1,0,0:0:0:0:
48,96,116519,1,2,0:0:0:0:
80,128,116586,1,0,0:0:0:0:
88,176,116654,1,0,0:0:0:0:
80,224,116722,1,0,0:0:0:0:
64,272,116789,1,0,0:0:0:0:
32,304,116857,1,0,0:0:0:0:
72,320,116924,1,0,0:0:0:0:
120,336,116992,1,0,0:0:0:0:
168,352,117059,2,0,P|216:368|264:368,1,95,2|0,0:0|0:0,0:0:0:0:
328,360,117262,2,0,L|384:352,1,47.5
496,176,117465,6,0,B|432:192|432:192|376:216|376:216|312:232,1,190,2|0,0:0|0:0,0:0:0:0:
264,224,117803,1,0,0:0:0:0:
216,216,117870,1,2,0:0:0:0:
184,176,117938,1,0,0:0:0:0:
192,128,118005,1,0,0:0:0:0:
232,96,118073,1,0,0:0:0:0:
280,96,118141,2,0,P|328:96|384:80,1,95,2|0,0:0|0:0,0:0:0:0:
480,344,118411,5,0,0:0:0:0:
440,312,118478,1,0,0:0:0:0:
392,296,118546,1,0,0:0:0:0:
344,296,118613,1,0,0:0:0:0:
296,312,118681,1,0,0:0:0:0:
256,344,118749,1,0,0:0:0:0:
208,360,118816,1,0,0:0:0:0:
152,360,118884,1,0,0:0:0:0:
104,344,118951,1,2,0:0:0:0:
72,304,119019,1,0,0:0:0:0:
56,256,119086,1,0,0:0:0:0:
16,72,119222,5,2,0:0:0:0:
64,96,119289,1,0,0:0:0:0:
120,96,119357,1,0,0:0:0:0:
176,80,119424,1,0,0:0:0:0:
216,40,119492,1,0,0:0:0:0:
272,32,119559,1,0,0:0:0:0:
328,40,119627,1,0,0:0:0:0:
376,72,119695,1,0,0:0:0:0:
432,80,119762,1,2,0:0:0:0:
488,64,119830,1,0,0:0:0:0:
472,120,119897,1,0,0:0:0:0:
456,176,119965,1,0,0:0:0:0:
456,232,120032,1,2,0:0:0:0:
464,288,120100,1,0,0:0:0:0:
480,344,120168,6,0,L|432:376,2,47.5,8|8|8,0:0|0:0|0:0,0:0:0:0:
360,240,120438,5,8,0:0:0:0:
312,216,120505,1,8,0:0:0:0:
256,224,120573,1,10,0:0:0:0:
216,264,120641,1,8,0:0:0:0:
160,280,120708,1,10,0:0:0:0:
104,256,120776,1,8,0:0:0:0:
72,208,120843,1,10,0:0:0:0:
80,152,120911,1,8,0:0:0:0:
112,112,120978,1,10,0:0:0:0:
168,96,121046,1,8,0:0:0:0:
224,120,121113,1,10,0:0:0:0:
256,168,121181,1,8,0:0:0:0:
256,224,121249,1,10,0:0:0:0:
280,280,121316,1,8,0:0:0:0:
328,312,121384,5,10,0:0:0:0:
384,328,121451,1,8,0:0:0:0:
440,312,121519,1,10,0:0:0:0:
480,272,121586,1,8,0:0:0:0:
440,232,121654,1,10,0:0:0:0:
424,176,121722,1,8,0:0:0:0:
424,120,121789,1,10,0:0:0:0:
448,64,121857,1,8,0:0:0:0:
488,24,121924,1,10,0:0:0:0:
432,24,121992,1,8,0:0:0:0:
376,48,122059,1,10,0:0:0:0:
328,80,122127,1,8,0:0:0:0:
272,80,122195,1,10,0:0:0:0:
216,72,122262,1,8,0:0:0:0:
160,48,122330,1,10,0:0:0:0:
104,48,122397,1,8,0:0:0:0:
56,80,122465,5,12,0:0:0:0:
256,192,122600,12,0,128951,0:0:0:0:
