osu file format v14

[General]
AudioFilename: audio.mp3
AudioLeadIn: 0
PreviewTime: -1
Countdown: 0
SampleSet: Soft
StackLeniency: 0.3
Mode: 0
LetterboxInBreaks: 0
WidescreenStoryboard: 1

[Editor]
DistanceSpacing: 1
BeatDivisor: 4
GridSize: 16
TimelineZoom: 1.8

[Metadata]
Title:firmament castle "velier"
TitleUnicode:天空の城ヴェリエル
Artist:Uetso Shi
ArtistUnicode:うえつ氏
Creator:Weriko
Version:Firmament
Source:
Tags:
BeatmapID:1157377
BeatmapSetID:546408

[Difficulty]
HPDrainRate:0
CircleSize:4.3
OverallDifficulty:10
ApproachRate:10
SliderMultiplier:2.1
SliderTickRate:1

[Events]
//Background and Video events
0,0,"BG.jpg",0,0
//Break Periods
//Storyboard Layer 0 (Background)
//Storyboard Layer 1 (Fail)
//Storyboard Layer 2 (Pass)
//Storyboard Layer 3 (Foreground)
//Storyboard Sound Samples

[TimingPoints]
2090,270.27027027027,4,2,1,40,1,0
2090,-200,4,2,1,20,0,0
15062,-100,4,2,1,25,0,0
19387,-90.9090909090909,4,2,1,40,0,0
28981,-76.9230769230769,4,2,1,40,0,0
30198,-76.9230769230769,4,2,1,40,0,0
30603,-76.9230769230769,4,2,1,40,0,0
31549,-90.9090909090909,4,2,1,40,0,0
34522,-58.8235294117647,4,2,1,40,0,1
36684,-76.9230769230769,4,2,1,40,0,0
46819,-71.4285714285714,4,2,1,40,0,0
47495,-76.9230769230769,4,2,1,40,0,0
51819,-55.5555555555556,4,2,1,40,0,1
54252,-83.3333333333333,4,2,1,40,0,0
54792,-76.9230769230769,4,2,1,40,0,0
55333,-71.4285714285714,4,2,1,40,0,0
55603,-83.3333333333333,4,2,1,40,0,0
57225,-100,4,2,1,40,0,0
58981,-90.9090909090909,4,2,1,40,0,0
59386,-83.3333333333333,4,2,1,40,0,0
59927,-76.9230769230769,4,2,1,40,0,0
60467,-71.4285714285714,4,2,1,40,0,0
61819,-83.3333333333333,4,2,1,40,0,0
64522,-76.9230769230769,4,2,1,40,0,0
66684,-83.3333333333333,4,2,1,40,0,0
67778,-76.9230769230769,4,2,1,40,0,0
68576,-71.4285714285714,4,2,1,40,0,0
69386,-58.8235294117647,4,2,1,40,0,0
69927,-76.9230769230769,4,2,1,40,0,0
74792,-66.6666666666667,4,2,1,40,0,0
75062,-76.9230769230769,4,2,1,40,0,0
81279,-66.6666666666667,4,2,1,40,0,0
81819,-62.5,4,2,1,40,0,0
82089,-66.6666666666667,4,2,1,40,0,0
82359,-71.4285714285714,4,2,1,40,0,0
83981,-62.5,4,2,1,40,0,0
84522,-76.9230769230769,4,2,1,40,0,0
86684,-62.5,4,2,1,40,0,0
87225,-76.9230769230769,4,2,1,40,0,0
88846,-200,4,2,1,40,0,0
89927,-200,4,2,1,40,0,0
106144,-66.6666666666667,4,2,1,40,0,0
121279,-50,4,2,1,40,0,1
123441,-200,4,2,1,20,0,0

[Colours]
Combo1 : 0,255,190
Combo2 : 0,150,255
Combo3 : 255,0,0
Combo4 : 223,0,112

[HitObjects]
108,25,2090,5,12,0:0:0:0:
182,152,2225,1,0,0:0:0:0:
163,17,2360,1,0,0:0:0:0:
126,159,2495,1,0,0:0:0:0:
208,51,2630,1,0,0:0:0:0:
81,125,2765,1,0,0:0:0:0:
216,107,2900,1,0,0:0:0:0:
73,69,3035,1,0,0:0:0:0:
216,107,3171,6,0,L|285:123,1,52.5,12|0,0:0|0:0,0:0:0:0:
403,260,3441,2,0,L|334:244,1,52.5
138,11,3711,2,0,L|208:20,1,52.5
503,362,3981,2,0,L|433:353,1,52.5
196,224,4252,5,12,0:0:0:0:
122,351,4387,1,0,0:0:0:0:
141,216,4522,1,0,0:0:0:0:
178,358,4657,1,0,0:0:0:0:
96,250,4792,1,0,0:0:0:0:
223,324,4927,1,0,0:0:0:0:
88,306,5062,1,0,0:0:0:0:
231,268,5197,1,0,0:0:0:0:
88,306,5333,5,12,0:0:0:0:
86,156,5468,1,0,0:0:0:0:
88,306,5603,1,0,0:0:0:0:
86,156,5738,1,0,0:0:0:0:
88,306,5873,5,12,0:0:0:0:
205,76,6008,1,0,0:0:0:0:
88,306,6144,1,0,0:0:0:0:
205,76,6279,1,0,0:0:0:0:
88,306,6414,5,12,0:0:0:0:
162,179,6549,1,0,0:0:0:0:
143,314,6684,1,0,0:0:0:0:
106,172,6819,1,0,0:0:0:0:
188,280,6954,1,0,0:0:0:0:
61,206,7089,1,0,0:0:0:0:
196,224,7224,1,0,0:0:0:0:
53,262,7359,1,0,0:0:0:0:
196,224,7495,6,0,L|258:203,1,52.5,12|0,0:0|0:0,0:0:0:0:
303,54,7765,2,0,L|241:75,1,52.5
152,356,8035,2,0,L|212:330,1,52.5
426,0,8305,2,0,L|366:26,1,52.5
110,81,8576,5,12,0:0:0:0:
204,230,8711,1,0,0:0:0:0:
110,81,8846,1,0,0:0:0:0:
277,210,8981,1,0,0:0:0:0:
110,81,9117,1,0,0:0:0:0:
351,157,9252,1,0,0:0:0:0:
110,81,9387,1,0,0:0:0:0:
406,15,9522,1,0,0:0:0:0:
110,81,9657,5,12,0:0:0:0:
275,126,9792,1,0,0:0:0:0:
110,81,9927,1,0,0:0:0:0:
275,126,10062,1,0,0:0:0:0:
110,81,10198,5,12,0:0:0:0:
406,15,10333,1,0,0:0:0:0:
110,81,10468,1,0,0:0:0:0:
406,15,10603,1,0,0:0:0:0:
110,81,10738,5,12,0:0:0:0:
184,208,10873,1,0,0:0:0:0:
165,73,11008,1,0,0:0:0:0:
128,215,11143,1,0,0:0:0:0:
210,107,11278,1,0,0:0:0:0:
83,181,11413,1,0,0:0:0:0:
218,163,11548,1,0,0:0:0:0:
75,125,11683,1,0,0:0:0:0:
218,163,11819,6,0,L|287:179,1,52.5,12|0,0:0|0:0,0:0:0:0:
396,75,12089,2,0,L|327:59,1,52.5
83,248,12360,2,0,L|152:264,1,52.5
482,11,12630,2,0,L|413:-5,1,52.5
243,42,12900,5,12,0:0:0:0:
169,169,13035,1,0,0:0:0:0:
188,34,13170,1,0,0:0:0:0:
225,176,13305,1,0,0:0:0:0:
143,68,13440,1,0,0:0:0:0:
270,142,13575,1,0,0:0:0:0:
135,124,13710,1,0,0:0:0:0:
278,86,13845,1,0,0:0:0:0:
135,124,13981,5,12,0:0:0:0:
93,279,14117,1,0,0:0:0:0:
135,124,14252,1,0,0:0:0:0:
93,279,14388,1,0,0:0:0:0:
135,124,14522,5,12,0:0:0:0:
252,320,14657,1,0,0:0:0:0:
135,124,14792,1,0,0:0:0:0:
252,320,14927,1,0,0:0:0:0:
135,124,15062,5,12,0:0:0:0:
281,40,15198,1,0,0:0:0:0:
280,208,15333,1,0,0:0:0:0:
163,55,15468,1,0,0:0:0:0:
326,99,15604,1,0,0:0:0:0:
206,217,15739,1,0,0:0:0:0:
232,27,15873,1,0,0:0:0:0:
316,172,16009,1,0,0:0:0:0:
148,172,16144,5,12,0:0:0:0:
336,310,16279,1,0,0:0:0:0:
148,172,16414,1,0,0:0:0:0:
336,310,16549,1,0,0:0:0:0:
148,172,16684,1,0,0:0:0:0:
336,310,16819,1,0,0:0:0:0:
148,172,16954,1,0,0:0:0:0:
336,310,17089,1,0,0:0:0:0:
148,172,17225,2,0,L|209:169,15,52.5,4|0|0|0|0|0|0|0|0|0|0|0|0|0|0|0,0:0|0:0|0:0|0:0|0:0|0:0|0:0|0:0|0:0|0:0|0:0|0:0|0:0|0:0|0:0|0:0,0:0:0:0:
375,198,18306,2,0,L|314:195,15,52.5,4|0|0|0|0|0|0|0|0|0|0|0|0|0|0|0,0:0|0:0|0:0|0:0|0:0|0:0|0:0|0:0|0:0|0:0|0:0|0:0|0:0|0:0|0:0|0:0,0:0:0:0:
114,61,19387,5,4,0:0:0:0:
166,41,19454,1,0,0:0:0:0:
219,61,19522,1,0,0:0:0:0:
246,111,19589,1,0,0:0:0:0:
233,166,19657,1,0,0:0:0:0:
187,199,19724,1,0,0:0:0:0:
131,193,19792,1,0,0:0:0:0:
78,173,19860,1,0,0:0:0:0:
25,193,19928,1,0,0:0:0:0:
0,243,19995,1,0,0:0:0:0:
11,298,20062,2,0,P|68:310|105:297,1,57.7500017623902
241,273,20198,5,4,0:0:0:0:
289,242,20265,1,0,0:0:0:0:
323,196,20333,2,0,L|340:139,1,57.7500017623902,0|0,0:0|0:0,0:0:0:0:
452,58,20468,5,4,0:0:0:0:
460,114,20535,1,0,0:0:0:0:
453,172,20603,1,0,0:0:0:0:
431,225,20670,1,0,0:0:0:0:
396,270,20738,2,0,L|349:314,1,57.7500017623902
220,363,20873,5,4,0:0:0:0:
169,338,20940,1,0,0:0:0:0:
144,287,21008,1,0,0:0:0:0:
155,231,21076,1,0,0:0:0:0:
199,195,21144,2,0,P|225:183|256:185,1,57.7500017623902,0|0,0:0|0:0,0:0:0:0:
339,140,21279,5,4,0:0:0:0:
314,88,21346,1,0,0:0:0:0:
273,48,21414,2,0,L|269:124,1,57.7500017623902
144,287,21549,2,0,L|157:224,1,57.7500017623902,4|0,0:0|0:0,0:0:0:0:
80,37,21684,5,0,0:0:0:0:
37,75,21751,1,0,0:0:0:0:
15,128,21819,1,0,0:0:0:0:
17,185,21886,1,0,0:0:0:0:
43,237,21954,1,0,0:0:0:0:
88,272,22021,1,0,0:0:0:0:
143,286,22089,1,0,0:0:0:0:
129,233,22156,1,0,0:0:0:0:
77,215,22224,1,0,0:0:0:0:
34,250,22291,1,0,0:0:0:0:
40,305,22359,1,0,0:0:0:0:
90,330,22426,1,0,0:0:0:0:
136,301,22495,2,0,P|164:248|162:236,1,57.7500017623902,0|0,0:0|0:0,0:0:0:0:
155,107,22630,5,4,0:0:0:0:
211,99,22697,1,0,0:0:0:0:
265,120,22765,1,0,0:0:0:0:
302,163,22832,1,0,0:0:0:0:
314,219,22900,1,0,0:0:0:0:
299,274,22967,1,0,0:0:0:0:
260,317,23035,1,0,0:0:0:0:
277,262,23102,1,0,0:0:0:0:
314,219,23170,1,0,0:0:0:0:
367,196,23237,1,0,0:0:0:0:
424,196,23306,1,0,0:0:0:0:
414,140,23373,1,0,0:0:0:0:
373,100,23441,1,0,0:0:0:0:
407,55,23508,1,0,0:0:0:0:
463,43,23576,2,0,L|538:34,1,57.7500017623902
255,21,23711,5,4,0:0:0:0:
220,67,23778,1,0,0:0:0:0:
196,119,23846,1,0,0:0:0:0:
182,175,23913,1,0,0:0:0:0:
180,233,23981,2,0,L|203:301,1,57.7500017623902
54,384,24117,5,4,0:0:0:0:
40,328,24184,1,0,0:0:0:0:
43,270,24252,1,0,0:0:0:0:
63,216,24319,1,0,0:0:0:0:
98,170,24387,2,0,L|118:111,1,57.7500017623902
290,176,24522,5,4,0:0:0:0:
297,232,24589,1,0,0:0:0:0:
284,289,24657,2,0,L|250:352,1,57.7500017623902
16,130,24792,5,4,0:0:0:0:
32,75,24859,1,0,0:0:0:0:
73,36,24927,1,0,0:0:0:0:
129,23,24994,1,0,0:0:0:0:
183,39,25062,2,0,L|241:64,1,57.7500017623902
446,269,25198,5,4,0:0:0:0:
415,317,25265,1,0,0:0:0:0:
367,348,25333,1,0,0:0:0:0:
310,356,25400,1,0,0:0:0:0:
255,339,25468,2,0,L|189:310,1,57.7500017623902
32,75,25603,5,4,0:0:0:0:
73,36,25671,1,0,0:0:0:0:
129,23,25738,2,0,L|198:45,1,57.7500017623902
404,214,25873,5,4,0:0:0:0:
389,269,25940,1,0,0:0:0:0:
346,306,26008,1,0,0:0:0:0:
290,312,26075,1,0,0:0:0:0:
240,284,26143,1,0,0:0:0:0:
214,233,26210,1,0,0:0:0:0:
222,177,26278,1,0,0:0:0:0:
261,135,26345,1,0,0:0:0:0:
250,189,26414,1,0,0:0:0:0:
214,233,26482,1,0,0:0:0:0:
159,248,26549,1,0,0:0:0:0:
105,230,26617,1,0,0:0:0:0:
71,184,26684,1,0,0:0:0:0:
70,128,26752,1,0,0:0:0:0:
101,80,26819,2,0,L|165:36,1,57.7500017623902
440,61,26954,6,0,L|369:70,1,57.7500017623902,4|0,0:0|0:0,0:0:0:0:
127,109,27089,1,4,0:0:0:0:
103,159,27156,1,0,0:0:0:0:
134,204,27225,2,0,P|173:217|204:202,1,57.7500017623902
392,171,27360,5,4,0:0:0:0:
423,218,27427,1,0,0:0:0:0:
417,275,27495,1,0,0:0:0:0:
376,313,27562,1,0,0:0:0:0:
319,316,27630,2,0,L|247:316,1,57.7500017623902
19,212,27765,1,4,0:0:0:0:
32,268,27832,1,0,0:0:0:0:
55,321,27900,2,0,L|110:359,1,57.7500017623902
237,211,28035,2,0,L|179:181,1,57.7500017623902,4|0,0:0|0:0,0:0:0:0:
166,10,28171,5,0,0:0:0:0:
222,3,28238,1,0,0:0:0:0:
271,31,28306,1,0,0:0:0:0:
295,83,28373,1,0,0:0:0:0:
284,139,28441,1,0,0:0:0:0:
243,177,28508,1,0,0:0:0:0:
186,185,28576,1,0,0:0:0:0:
130,184,28643,1,0,0:0:0:0:
90,224,28711,1,0,0:0:0:0:
89,280,28778,1,0,0:0:0:0:
128,321,28846,1,0,0:0:0:0:
184,322,28913,1,0,0:0:0:0:
225,284,28981,2,0,L|289:235,1,68.2499968757631
295,83,29117,5,4,0:0:0:0:
362,79,29184,1,0,0:0:0:0:
420,113,29252,1,0,0:0:0:0:
449,174,29319,1,0,0:0:0:0:
440,240,29387,2,0,L|390:326,1,68.2499968757631
128,321,29522,5,4,0:0:0:0:
80,272,29589,1,0,0:0:0:0:
66,207,29657,1,0,0:0:0:0:
88,143,29724,1,0,0:0:0:0:
141,101,29792,2,0,L|220:82,1,68.2499968757631
365,0,29927,5,4,0:0:0:0:
412,47,29994,1,0,0:0:0:0:
420,113,30062,2,0,L|397:186,1,68.2499968757631
146,240,30198,2,0,L|169:167,1,68.2499968757631,4|0,0:0|0:0,0:0:0:0:
100,49,30333,5,0,0:0:0:0:
159,18,30400,1,0,0:0:0:0:
226,24,30468,1,0,0:0:0:0:
279,66,30535,1,0,0:0:0:0:
300,130,30603,1,0,0:0:0:0:
283,195,30670,1,0,0:0:0:0:
234,241,30738,1,0,0:0:0:0:
246,175,30805,1,0,0:0:0:0:
300,130,30873,2,0,L|368:107,1,68.2499968757631
350,300,31008,5,4,0:0:0:0:
293,337,31075,1,0,0:0:0:0:
228,359,31144,2,0,L|131:349,1,68.2499968757631
4,215,31279,5,4,0:0:0:0:
1,147,31346,1,0,0:0:0:0:
31,87,31414,1,0,0:0:0:0:
87,49,31481,1,0,0:0:0:0:
155,44,31549,2,0,L|214:42,1,57.7500017623902,0|0,0:0|0:0,0:0:0:0:
364,108,31684,5,4,0:0:0:0:
336,158,31751,1,0,0:0:0:0:
291,194,31819,1,0,0:0:0:0:
236,209,31886,1,0,0:0:0:0:
179,201,31954,2,0,L|106:168,1,57.7500017623902
31,87,32089,5,4,0:0:0:0:
87,49,32157,1,0,0:0:0:0:
155,44,32225,2,0,L|216:44,1,57.7500017623902
449,96,32360,5,4,0:0:0:0:
434,152,32427,1,0,0:0:0:0:
406,202,32495,1,0,0:0:0:0:
365,243,32562,1,0,0:0:0:0:
315,272,32630,1,0,0:0:0:0:
259,286,32697,1,0,0:0:0:0:
202,285,32765,1,0,0:0:0:0:
147,268,32832,1,0,0:0:0:0:
96,244,32900,1,0,0:0:0:0:
43,263,32968,1,0,0:0:0:0:
21,314,33035,2,0,L|11:379,1,57.7500017623902
6,167,33171,5,4,0:0:0:0:
58,143,33238,1,0,0:0:0:0:
115,137,33306,2,0,L|205:160,1,57.7500017623902
315,272,33441,5,4,0:0:0:0:
341,220,33508,1,0,0:0:0:0:
347,163,33576,1,0,0:0:0:0:
332,108,33643,1,0,0:0:0:0:
297,62,33711,1,0,0:0:0:0:
248,32,33778,1,0,0:0:0:0:
192,21,33846,2,0,L|124:13,1,57.7500017623902
58,143,33981,5,4,0:0:0:0:
49,200,34048,1,0,0:0:0:0:
60,256,34116,1,0,0:0:0:0:
89,306,34183,1,0,0:0:0:0:
133,343,34251,1,0,0:0:0:0:
186,364,34318,1,0,0:0:0:0:
244,365,34387,2,0,L|316:334,1,57.7500017623902
447,256,34522,5,0,0:0:0:0:
486,177,34589,1,0,0:0:0:0:
470,91,34657,1,0,0:0:0:0:
407,30,34724,1,0,0:0:0:0:
319,20,34792,1,0,0:0:0:0:
243,63,34859,1,0,0:0:0:0:
208,144,34927,1,0,0:0:0:0:
165,219,34994,1,0,0:0:0:0:
80,234,35062,1,0,0:0:0:0:
14,178,35129,1,0,0:0:0:0:
16,92,35197,1,0,0:0:0:0:
83,37,35264,1,0,0:0:0:0:
168,55,35333,1,0,0:0:0:0:
251,98,35400,1,0,0:0:0:0:
316,157,35468,1,0,0:0:0:0:
337,242,35535,1,0,0:0:0:0:
308,325,35603,5,0,0:0:0:0:
238,378,35670,1,0,0:0:0:0:
150,384,35738,1,0,0:0:0:0:
74,341,35805,1,0,0:0:0:0:
34,262,35873,1,0,0:0:0:0:
44,175,35941,1,0,0:0:0:0:
101,107,36008,1,0,0:0:0:0:
176,61,36075,1,0,0:0:0:0:
264,60,36143,1,0,0:0:0:0:
340,105,36210,1,0,0:0:0:0:
383,182,36278,1,0,0:0:0:0:
379,270,36345,1,0,0:0:0:0:
332,344,36413,1,0,0:0:0:0:
253,383,36480,1,0,0:0:0:0:
164,379,36549,2,0,P|104:330|84:263,1,89.2500017023087
49,173,36684,5,4,0:0:0:0:
87,117,36751,1,0,0:0:0:0:
147,86,36819,1,0,0:0:0:0:
214,87,36886,1,0,0:0:0:0:
273,121,36954,1,0,0:0:0:0:
309,178,37021,1,0,0:0:0:0:
314,245,37089,1,0,0:0:0:0:
335,307,37156,1,0,0:0:0:0:
398,326,37224,1,0,0:0:0:0:
449,284,37291,1,0,0:0:0:0:
444,219,37360,2,0,L|423:142,1,68.2499968757631
318,4,37495,5,4,0:0:0:0:
257,35,37562,1,0,0:0:0:0:
214,87,37630,2,0,L|216:176,1,68.2499968757631
236,354,37765,5,4,0:0:0:0:
168,347,37832,1,0,0:0:0:0:
108,314,37900,1,0,0:0:0:0:
66,261,37967,1,0,0:0:0:0:
48,196,38035,2,0,L|40:121,1,68.2499968757631
317,88,38171,1,4,0:0:0:0:
321,155,38238,1,0,0:0:0:0:
291,215,38306,1,0,0:0:0:0:
234,252,38373,1,0,0:0:0:0:
167,255,38441,2,0,L|114:198,1,68.2499968757631
112,19,38576,1,4,0:0:0:0:
62,64,38643,1,0,0:0:0:0:
39,128,38711,2,0,L|50:208,1,68.2499968757631
244,320,38846,2,0,L|233:240,1,68.2499968757631,4|0,0:0|0:0,0:0:0:0:
377,36,38981,5,0,0:0:0:0:
411,94,39048,1,0,0:0:0:0:
409,161,39116,1,0,0:0:0:0:
372,218,39183,1,0,0:0:0:0:
312,246,39251,1,0,0:0:0:0:
245,239,39318,1,0,0:0:0:0:
182,257,39386,1,0,0:0:0:0:
167,320,39454,1,0,0:0:0:0:
214,365,39521,1,0,0:0:0:0:
277,345,39589,1,0,0:0:0:0:
291,282,39657,1,0,0:0:0:0:
277,216,39724,1,0,0:0:0:0:
229,169,39792,2,0,L|167:128,1,68.2499968757631
100,2,39927,5,4,0:0:0:0:
60,56,39994,1,0,0:0:0:0:
49,123,40062,1,0,0:0:0:0:
69,187,40129,1,0,0:0:0:0:
117,235,40197,1,0,0:0:0:0:
181,256,40264,1,0,0:0:0:0:
242,280,40332,1,0,0:0:0:0:
245,345,40400,1,0,0:0:0:0:
188,373,40467,1,0,0:0:0:0:
138,332,40535,1,0,0:0:0:0:
155,270,40602,1,0,0:0:0:0:
200,219,40670,1,0,0:0:0:0:
258,184,40738,1,0,0:0:0:0:
324,169,40805,1,0,0:0:0:0:
392,176,40873,2,0,L|470:187,1,68.2499968757631
377,27,41008,5,4,0:0:0:0:
308,28,41075,1,0,0:0:0:0:
241,40,41143,1,0,0:0:0:0:
177,62,41210,1,0,0:0:0:0:
116,93,41279,2,0,L|33:141,1,68.2499968757631
44,322,41414,5,4,0:0:0:0:
111,315,41481,1,0,0:0:0:0:
173,288,41549,1,0,0:0:0:0:
224,242,41616,1,0,0:0:0:0:
258,184,41684,2,0,L|273:100,1,68.2499968757631
444,50,41819,5,4,0:0:0:0:
428,116,41886,1,0,0:0:0:0:
391,173,41954,2,0,L|333:230,1,68.2499968757631
173,288,42089,5,4,0:0:0:0:
112,261,42156,1,0,0:0:0:0:
78,203,42224,1,0,0:0:0:0:
84,136,42291,1,0,0:0:0:0:
127,85,42360,2,0,L|182:27,1,68.2499968757631
512,38,42495,5,4,0:0:0:0:
500,105,42562,1,0,0:0:0:0:
472,167,42630,1,0,0:0:0:0:
429,219,42697,1,0,0:0:0:0:
374,259,42765,2,0,L|309:288,1,68.2499968757631
167,211,42900,5,4,0:0:0:0:
123,165,42967,1,0,0:0:0:0:
159,114,43035,2,0,L|216:74,1,68.2499968757631
461,31,43171,5,4,0:0:0:0:
447,97,43238,1,0,0:0:0:0:
413,156,43306,1,0,0:0:0:0:
362,200,43373,1,0,0:0:0:0:
299,226,43441,1,0,0:0:0:0:
231,229,43508,1,0,0:0:0:0:
167,211,43576,1,0,0:0:0:0:
230,189,43643,1,0,0:0:0:0:
291,214,43711,1,0,0:0:0:0:
321,274,43778,1,0,0:0:0:0:
304,339,43846,1,0,0:0:0:0:
248,376,43913,1,0,0:0:0:0:
182,367,43981,1,0,0:0:0:0:
138,316,44048,1,0,0:0:0:0:
110,253,44117,2,0,L|61:166,1,68.2499968757631
84,30,44252,6,0,L|121:105,1,68.2499968757631,4|0,0:0|0:0,0:0:0:0:
238,223,44387,2,0,L|189:136,1,68.2499968757631,4|0,0:0|0:0,0:0:0:0:
212,0,44522,2,0,L|249:75,1,68.2499968757631,4|0,0:0|0:0,0:0:0:0:
320,193,44657,5,4,0:0:0:0:
361,244,44724,1,0,0:0:0:0:
426,241,44792,1,0,0:0:0:0:
463,187,44859,1,0,0:0:0:0:
442,125,44927,2,0,L|402:59,1,68.2499968757631
242,59,45062,1,4,0:0:0:0:
192,101,45129,1,0,0:0:0:0:
204,163,45198,2,0,L|203:251,1,68.2499968757631
107,341,45333,2,0,L|108:253,1,68.2499968757631,4|0,0:0|0:0,0:0:0:0:
31,170,45468,5,0,0:0:0:0:
58,108,45535,1,0,0:0:0:0:
109,63,45603,1,0,0:0:0:0:
174,46,45670,1,0,0:0:0:0:
242,59,45738,1,0,0:0:0:0:
302,86,45805,1,0,0:0:0:0:
328,148,45873,1,0,0:0:0:0:
304,210,45940,1,0,0:0:0:0:
243,238,46008,1,0,0:0:0:0:
180,218,46075,1,0,0:0:0:0:
148,159,46143,1,0,0:0:0:0:
165,95,46210,1,0,0:0:0:0:
220,62,46279,2,0,L|291:45,1,68.2499968757631
485,116,46414,6,0,L|414:133,1,68.2499968757631,4|0,0:0|0:0,0:0:0:0:
148,159,46549,2,0,L|219:142,1,68.2499968757631,4|0,0:0|0:0,0:0:0:0:
413,213,46684,2,0,L|342:230,1,68.2499968757631,4|0,0:0|0:0,0:0:0:0:
149,312,46819,1,4,0:0:0:0:
86,274,46886,1,0,0:0:0:0:
43,215,46954,1,0,0:0:0:0:
28,143,47021,1,0,0:0:0:0:
41,72,47089,2,0,L|89:10,1,73.4999977569581
213,143,47225,5,4,0:0:0:0:
185,210,47292,1,0,0:0:0:0:
116,224,47360,2,0,L|20:211,1,73.4999977569581
42,73,47495,5,4,0:0:0:0:
108,58,47562,1,0,0:0:0:0:
176,52,47630,2,0,L|260:48,1,68.2499968757631
452,101,47765,1,4,0:0:0:0:
420,160,47832,1,0,0:0:0:0:
366,201,47900,2,0,L|289:230,1,68.2499968757631
116,224,48035,6,0,L|192:194,1,68.2499968757631,4|0,0:0|0:0,0:0:0:0:
355,111,48171,2,0,L|278:140,1,68.2499968757631,4|0,0:0|0:0,0:0:0:0:
108,140,48306,1,0,0:0:0:0:
115,75,48373,1,0,0:0:0:0:
175,51,48441,2,0,L|249:45,1,68.2499968757631,4|0,0:0|0:0,0:0:0:0:
482,224,48576,5,4,0:0:0:0:
452,285,48643,1,0,0:0:0:0:
403,332,48711,1,0,0:0:0:0:
341,359,48778,1,0,0:0:0:0:
273,363,48846,2,0,L|193:341,1,68.2499968757631,4|0,0:0|0:0,0:0:0:0:
26,213,48981,2,0,L|106:235,1,68.2499968757631
264,214,49117,6,0,L|263:296,1,68.2499968757631,4|0,0:0|0:0,0:0:0:0:
90,299,49252,2,0,L|91:217,1,68.2499968757631,4|0,0:0|0:0,0:0:0:0:
262,214,49387,2,0,L|253:296,1,68.2499968757631,4|0,0:0|0:0,0:0:0:0:
81,284,49522,2,0,L|89:202,1,68.2499968757631,4|0,0:0|0:0,0:0:0:0:
262,214,49657,5,4,0:0:0:0:
249,280,49724,1,0,0:0:0:0:
197,323,49792,1,0,0:0:0:0:
130,324,49859,1,0,0:0:0:0:
78,282,49927,1,0,0:0:0:0:
63,217,49994,1,0,0:0:0:0:
93,157,50062,1,0,0:0:0:0:
154,129,50130,1,0,0:0:0:0:
196,79,50197,1,0,0:0:0:0:
183,14,50265,1,0,0:0:0:0:
122,0,50333,2,0,L|36:22,1,68.2499968757631
63,217,50468,5,4,0:0:0:0:
127,239,50535,1,0,0:0:0:0:
195,245,50603,2,0,L|267:231,1,68.2499968757631
457,269,50738,5,4,0:0:0:0:
477,205,50805,1,0,0:0:0:0:
470,138,50873,1,0,0:0:0:0:
436,79,50940,1,0,0:0:0:0:
381,39,51008,1,0,0:0:0:0:
315,25,51075,1,0,0:0:0:0:
249,40,51144,2,0,L|196:92,1,68.2499968757631
41,310,51279,5,4,0:0:0:0:
108,315,51346,1,0,0:0:0:0:
175,301,51414,1,0,0:0:0:0:
234,268,51481,1,0,0:0:0:0:
282,220,51549,1,0,0:0:0:0:
314,160,51617,1,0,0:0:0:0:
327,93,51684,2,0,L|314:20,1,68.2499968757631
100,36,51819,5,4,0:0:0:0:
48,113,51886,1,0,0:0:0:0:
52,205,51954,1,0,0:0:0:0:
111,277,52021,1,0,0:0:0:0:
201,300,52089,1,0,0:0:0:0:
287,265,52156,1,0,0:0:0:0:
335,185,52224,1,0,0:0:0:0:
326,92,52291,1,0,0:0:0:0:
250,40,52359,1,0,0:0:0:0:
158,49,52427,1,0,0:0:0:0:
93,115,52494,1,0,0:0:0:0:
87,208,52562,1,0,0:0:0:0:
143,282,52629,1,0,0:0:0:0:
233,303,52697,1,0,0:0:0:0:
315,260,52764,1,0,0:0:0:0:
353,174,52833,1,0,0:0:0:0:
357,83,52900,5,0,0:0:0:0:
437,40,52968,1,0,0:0:0:0:
512,86,53035,1,0,0:0:0:0:
512,176,53103,1,0,0:0:0:0:
432,226,53170,1,0,0:0:0:0:
340,242,53238,1,0,0:0:0:0:
251,211,53306,1,0,0:0:0:0:
184,139,53373,1,0,0:0:0:0:
115,78,53440,1,0,0:0:0:0:
26,97,53508,1,0,0:0:0:0:
0,177,53575,1,0,0:0:0:0:
31,260,53643,1,0,0:0:0:0:
121,274,53710,1,0,0:0:0:0:
209,242,53778,1,0,0:0:0:0:
289,192,53846,1,0,0:0:0:0:
357,126,53913,1,0,0:0:0:0:
410,48,53981,1,0,0:0:0:0:
475,11,54252,5,4,0:0:0:0:
478,73,54319,1,0,0:0:0:0:
455,131,54387,1,0,0:0:0:0:
410,175,54454,1,0,0:0:0:0:
351,196,54522,1,0,0:0:0:0:
289,192,54589,1,0,0:0:0:0:
234,162,54657,1,0,0:0:0:0:
196,112,54724,1,0,0:0:0:0:
182,51,54792,1,0,0:0:0:0:
130,8,54859,1,0,0:0:0:0:
63,8,54927,1,0,0:0:0:0:
11,51,54994,1,0,0:0:0:0:
0,116,55062,1,0,0:0:0:0:
29,176,55129,1,0,0:0:0:0:
90,202,55197,1,0,0:0:0:0:
158,216,55265,1,0,0:0:0:0:
225,229,55333,5,4,0:0:0:0:
264,286,55400,1,0,0:0:0:0:
232,349,55468,1,0,0:0:0:0:
162,350,55535,1,0,0:0:0:0:
105,322,55603,1,0,0:0:0:0:
82,264,55670,1,0,0:0:0:0:
90,202,55738,1,0,0:0:0:0:
126,152,55805,1,0,0:0:0:0:
183,126,55873,1,0,0:0:0:0:
245,130,55940,1,0,0:0:0:0:
297,164,56008,1,0,0:0:0:0:
326,219,56075,1,0,0:0:0:0:
364,267,56143,1,4,0:0:0:0:
424,274,56211,1,0,0:0:0:0:
472,235,56278,1,0,0:0:0:0:
479,174,56346,1,0,0:0:0:0:
424,201,56414,5,4,0:0:0:0:
426,163,56481,1,0,0:0:0:0:
429,125,56549,1,0,0:0:0:0:
432,87,56616,1,0,0:0:0:0:
407,136,56684,1,4,0:0:0:0:
390,101,56751,1,0,0:0:0:0:
374,67,56819,1,0,0:0:0:0:
357,33,56886,1,0,0:0:0:0:
359,89,56954,1,4,0:0:0:0:
326,67,57021,1,0,0:0:0:0:
295,45,57089,1,0,0:0:0:0:
264,24,57156,1,0,0:0:0:0:
233,3,57225,5,4,0:0:0:0:
181,5,57292,1,0,0:0:0:0:
139,36,57360,1,0,0:0:0:0:
122,85,57427,1,0,0:0:0:0:
135,135,57495,1,4,0:0:0:0:
174,169,57562,1,0,0:0:0:0:
225,188,57630,1,0,0:0:0:0:
252,232,57697,1,0,0:0:0:0:
249,284,57765,1,4,0:0:0:0:
216,323,57832,1,0,0:0:0:0:
166,336,57900,1,0,0:0:0:0:
118,318,57967,1,0,0:0:0:0:
90,274,58035,1,0,0:0:0:0:
92,223,58102,1,0,0:0:0:0:
125,183,58170,1,0,0:0:0:0:
174,169,58238,1,0,0:0:0:0:
218,195,58305,1,4,0:0:0:0:
232,244,58373,1,0,0:0:0:0:
207,288,58440,1,0,0:0:0:0:
158,303,58508,1,0,0:0:0:0:
112,277,58575,5,4,0:0:0:0:
151,316,58643,1,0,0:0:0:0:
195,344,58711,1,0,0:0:0:0:
245,359,58778,1,0,0:0:0:0:
297,359,58846,1,0,0:0:0:0:
348,345,58913,1,0,0:0:0:0:
392,317,58981,1,0,0:0:0:0:
428,279,59048,1,0,0:0:0:0:
451,232,59116,1,0,0:0:0:0:
461,180,59184,1,0,0:0:0:0:
449,124,59251,1,0,0:0:0:0:
413,80,59319,1,0,0:0:0:0:
360,59,59386,1,0,0:0:0:0:
303,66,59454,1,0,0:0:0:0:
256,99,59521,1,0,0:0:0:0:
231,150,59589,1,0,0:0:0:0:
233,207,59656,5,4,0:0:0:0:
229,269,59724,1,0,0:0:0:0:
194,321,59792,1,0,0:0:0:0:
138,347,59859,1,0,0:0:0:0:
76,342,59927,1,0,0:0:0:0:
26,305,59994,1,0,0:0:0:0:
1,249,60062,1,0,0:0:0:0:
8,187,60129,1,0,0:0:0:0:
46,137,60197,1,0,0:0:0:0:
104,114,60265,1,0,0:0:0:0:
165,123,60332,1,0,0:0:0:0:
219,165,60400,1,0,0:0:0:0:
229,244,60468,5,4,0:0:0:0:
176,194,60535,1,0,0:0:0:0:
165,123,60603,1,0,0:0:0:0:
201,60,60670,1,0,0:0:0:0:
267,32,60738,1,4,0:0:0:0:
337,51,60806,1,0,0:0:0:0:
374,113,60873,1,0,0:0:0:0:
382,185,60941,1,0,0:0:0:0:
360,255,61008,5,4,0:0:0:0:
320,193,61075,1,0,0:0:0:0:
311,121,61143,1,0,0:0:0:0:
337,51,61210,1,0,0:0:0:0:
386,0,61278,5,4,0:0:0:0:
433,56,61346,1,0,0:0:0:0:
457,125,61414,1,0,0:0:0:0:
457,198,61481,1,0,0:0:0:0:
431,267,61549,5,4,0:0:0:0:
401,333,61616,1,0,0:0:0:0:
338,367,61684,1,0,0:0:0:0:
267,356,61751,1,0,0:0:0:0:
217,303,61819,1,4,0:0:0:0:
198,245,61886,1,0,0:0:0:0:
141,225,61954,1,0,0:0:0:0:
89,257,62021,1,0,0:0:0:0:
83,318,62089,1,4,0:0:0:0:
127,360,62156,1,0,0:0:0:0:
187,352,62225,1,0,0:0:0:0:
237,316,62292,1,0,0:0:0:0:
265,259,62360,1,0,0:0:0:0:
262,197,62427,1,0,0:0:0:0:
230,143,62495,1,0,0:0:0:0:
177,111,62562,1,0,0:0:0:0:
115,108,62630,1,4,0:0:0:0:
55,114,62697,1,0,0:0:0:0:
22,64,62765,1,0,0:0:0:0:
50,11,62832,1,0,0:0:0:0:
110,11,62900,5,4,0:0:0:0:
146,20,62967,1,0,0:0:0:0:
183,28,63035,2,0,L|247:44,1,62.9999980773926
456,191,63171,5,0,0:0:0:0:
419,182,63238,1,0,0:0:0:0:
382,173,63306,2,0,L|318:157,1,62.9999980773926
55,114,63441,5,0,0:0:0:0:
91,122,63508,1,0,0:0:0:0:
128,131,63576,2,0,L|191:146,1,62.9999980773926
400,293,63712,5,0,0:0:0:0:
363,284,63779,1,0,0:0:0:0:
326,275,63847,2,0,L|262:259,1,62.9999980773926
95,289,63981,5,4,0:0:0:0:
58,237,64048,1,0,0:0:0:0:
44,176,64116,1,0,0:0:0:0:
55,114,64183,1,0,0:0:0:0:
88,61,64251,1,0,0:0:0:0:
139,26,64318,1,0,0:0:0:0:
200,13,64386,1,0,0:0:0:0:
262,24,64453,1,0,0:0:0:0:
314,59,64521,5,0,0:0:0:0:
248,42,64589,1,0,0:0:0:0:
183,61,64657,1,0,0:0:0:0:
137,111,64724,1,0,0:0:0:0:
123,176,64792,1,4,0:0:0:0:
143,241,64859,1,0,0:0:0:0:
194,285,64927,1,0,0:0:0:0:
260,298,64994,1,0,0:0:0:0:
324,276,65062,1,4,0:0:0:0:
379,238,65129,1,0,0:0:0:0:
445,245,65197,1,0,0:0:0:0:
490,294,65264,1,0,0:0:0:0:
493,369,65333,5,4,0:0:0:0:
455,312,65400,1,0,0:0:0:0:
445,245,65468,1,0,0:0:0:0:
465,181,65535,1,0,0:0:0:0:
511,132,65603,5,4,0:0:0:0:
473,115,65670,1,0,0:0:0:0:
435,99,65738,1,0,0:0:0:0:
397,83,65805,1,0,0:0:0:0:
449,116,65873,5,4,0:0:0:0:
408,120,65940,1,0,0:0:0:0:
367,125,66008,1,0,0:0:0:0:
327,130,66075,1,0,0:0:0:0:
385,107,66144,5,4,0:0:0:0:
347,90,66211,1,0,0:0:0:0:
309,74,66279,1,0,0:0:0:0:
271,58,66346,1,0,0:0:0:0:
323,91,66414,5,4,0:0:0:0:
282,95,66481,1,0,0:0:0:0:
241,100,66549,1,0,0:0:0:0:
201,105,66616,1,0,0:0:0:0:
161,110,66684,1,0,0:0:0:0:
102,131,66751,1,0,0:0:0:0:
66,182,66819,1,0,0:0:0:0:
65,244,66886,1,0,0:0:0:0:
100,295,66954,1,4,0:0:0:0:
157,319,67021,1,0,0:0:0:0:
218,306,67089,1,0,0:0:0:0:
260,260,67156,1,0,0:0:0:0:
270,199,67224,5,4,0:0:0:0:
224,240,67292,1,0,0:0:0:0:
218,306,67360,1,0,0:0:0:0:
251,352,67427,1,0,0:0:0:0:
311,367,67495,1,0,0:0:0:0:
366,339,67562,1,0,0:0:0:0:
388,282,67630,1,0,0:0:0:0:
367,224,67697,1,0,0:0:0:0:
334,169,67765,1,0,0:0:0:0:
325,108,67832,1,0,0:0:0:0:
362,58,67900,1,0,0:0:0:0:
422,48,67967,1,0,0:0:0:0:
473,82,68035,1,0,0:0:0:0:
486,142,68102,1,0,0:0:0:0:
454,194,68170,1,0,0:0:0:0:
394,209,68237,1,0,0:0:0:0:
326,211,68305,1,4,0:0:0:0:
260,195,68373,1,0,0:0:0:0:
200,163,68440,1,0,0:0:0:0:
151,116,68508,1,0,0:0:0:0:
115,58,68576,5,0,0:0:0:0:
176,96,68643,1,0,0:0:0:0:
200,163,68711,1,0,0:0:0:0:
182,233,68778,1,0,0:0:0:0:
125,277,68846,1,0,0:0:0:0:
56,253,68913,1,0,0:0:0:0:
10,197,68981,1,0,0:0:0:0:
0,125,69048,1,0,0:0:0:0:
29,59,69116,1,4,0:0:0:0:
89,18,69183,1,0,0:0:0:0:
161,14,69251,1,0,0:0:0:0:
225,48,69318,1,0,0:0:0:0:
261,111,69387,6,0,B|281:130|281:130|356:172|410:120|357:57|294:89|316:231,1,267.750005106926,4|0,0:0|0:0,0:0:0:0:
298,298,69657,2,0,B|330:331|368:280|368:280|265:311|223:217|165:291,1,267.750005106926,4|0,0:0|0:0,0:0:0:0:
113,272,69927,5,4,0:0:0:0:
51,245,69994,1,0,0:0:0:0:
22,185,70062,1,0,0:0:0:0:
39,120,70129,1,0,0:0:0:0:
94,81,70197,1,4,0:0:0:0:
160,88,70264,1,0,0:0:0:0:
216,122,70332,1,0,0:0:0:0:
227,187,70400,1,0,0:0:0:0:
185,238,70467,1,4,0:0:0:0:
119,239,70535,1,0,0:0:0:0:
75,189,70602,1,0,0:0:0:0:
84,124,70670,1,0,0:0:0:0:
147,115,70738,1,4,0:0:0:0:
177,172,70806,1,0,0:0:0:0:
134,219,70873,1,0,0:0:0:0:
75,189,70941,5,0,0:0:0:0:
18,223,71008,1,0,0:0:0:0:
4,288,71076,1,0,0:0:0:0:
43,342,71143,1,0,0:0:0:0:
109,349,71211,1,0,0:0:0:0:
159,305,71278,1,4,0:0:0:0:
184,242,71346,1,0,0:0:0:0:
177,172,71414,2,0,L|124:112,1,68.2499968757631
242,28,71549,5,4,0:0:0:0:
304,3,71616,1,0,0:0:0:0:
365,30,71684,1,0,0:0:0:0:
390,91,71751,1,0,0:0:0:0:
364,153,71819,1,0,0:0:0:0:
303,179,71886,1,0,0:0:0:0:
265,234,71954,1,0,0:0:0:0:
266,301,72022,1,0,0:0:0:0:
306,355,72089,1,4,0:0:0:0:
370,376,72157,1,0,0:0:0:0:
434,356,72224,1,0,0:0:0:0:
474,302,72292,1,0,0:0:0:0:
476,235,72359,1,0,0:0:0:0:
439,179,72427,1,0,0:0:0:0:
374,156,72495,1,0,0:0:0:0:
307,157,72562,1,0,0:0:0:0:
242,140,72629,1,4,0:0:0:0:
213,81,72697,1,0,0:0:0:0:
237,20,72764,1,0,0:0:0:0:
300,0,72832,1,0,0:0:0:0:
357,31,72899,1,0,0:0:0:0:
368,98,72967,1,0,0:0:0:0:
310,142,73035,2,0,L|219:138,1,68.2499968757631
161,349,73171,5,4,0:0:0:0:
98,325,73238,1,0,0:0:0:0:
59,270,73306,1,0,0:0:0:0:
58,202,73373,1,0,0:0:0:0:
94,146,73441,1,0,0:0:0:0:
156,120,73508,1,0,0:0:0:0:
222,132,73576,1,0,0:0:0:0:
269,180,73643,1,0,0:0:0:0:
320,225,73711,1,4,0:0:0:0:
386,237,73779,1,0,0:0:0:0:
449,213,73846,1,0,0:0:0:0:
490,159,73914,1,0,0:0:0:0:
496,92,73981,1,0,0:0:0:0:
467,31,74049,1,0,0:0:0:0:
411,0,74116,1,0,0:0:0:0:
343,0,74184,1,0,0:0:0:0:
285,27,74252,1,4,0:0:0:0:
253,87,74319,1,0,0:0:0:0:
249,153,74386,1,0,0:0:0:0:
202,200,74454,1,0,0:0:0:0:
135,203,74521,1,0,0:0:0:0:
84,160,74589,1,0,0:0:0:0:
75,94,74657,2,0,L|100:27,1,68.2499968757631
11,243,74792,5,4,0:0:0:0:
70,293,74859,1,0,0:0:0:0:
145,316,74927,1,0,0:0:0:0:
223,310,74994,1,0,0:0:0:0:
292,274,75062,1,0,0:0:0:0:
346,235,75129,1,0,0:0:0:0:
408,257,75197,1,0,0:0:0:0:
426,320,75264,1,0,0:0:0:0:
385,371,75332,1,4,0:0:0:0:
319,367,75399,1,0,0:0:0:0:
285,311,75468,1,0,0:0:0:0:
283,243,75535,1,0,0:0:0:0:
302,177,75603,1,0,0:0:0:0:
340,121,75670,1,0,0:0:0:0:
393,78,75738,2,0,L|460:43,1,68.2499968757631
114,13,75873,5,4,0:0:0:0:
101,79,75940,1,0,0:0:0:0:
123,143,76008,1,0,0:0:0:0:
172,190,76075,1,0,0:0:0:0:
239,200,76143,1,0,0:0:0:0:
302,175,76210,1,0,0:0:0:0:
364,150,76278,1,0,0:0:0:0:
430,165,76346,1,0,0:0:0:0:
475,215,76413,1,4,0:0:0:0:
484,281,76481,1,0,0:0:0:0:
453,341,76548,1,0,0:0:0:0:
394,372,76616,1,0,0:0:0:0:
327,364,76683,1,0,0:0:0:0:
277,320,76751,1,0,0:0:0:0:
262,254,76819,1,0,0:0:0:0:
270,188,76886,1,0,0:0:0:0:
227,137,76954,1,4,0:0:0:0:
161,133,77021,1,0,0:0:0:0:
113,179,77089,1,0,0:0:0:0:
113,245,77156,1,0,0:0:0:0:
162,290,77224,1,0,0:0:0:0:
228,286,77291,1,0,0:0:0:0:
283,242,77360,2,0,L|369:182,1,68.2499968757631
163,37,77495,5,4,0:0:0:0:
99,61,77562,1,0,0:0:0:0:
50,108,77630,1,0,0:0:0:0:
23,170,77697,1,0,0:0:0:0:
22,238,77765,1,0,0:0:0:0:
47,301,77832,1,0,0:0:0:0:
94,350,77900,1,0,0:0:0:0:
156,377,77967,1,0,0:0:0:0:
224,378,78035,1,4,0:0:0:0:
287,353,78103,1,0,0:0:0:0:
325,298,78170,1,0,0:0:0:0:
322,231,78238,1,0,0:0:0:0:
277,181,78305,1,0,0:0:0:0:
211,169,78373,1,0,0:0:0:0:
152,200,78440,1,0,0:0:0:0:
125,261,78508,1,0,0:0:0:0:
142,326,78575,1,4,0:0:0:0:
195,367,78643,1,0,0:0:0:0:
262,365,78711,1,0,0:0:0:0:
320,330,78778,1,0,0:0:0:0:
359,274,78846,1,0,0:0:0:0:
373,208,78913,1,0,0:0:0:0:
359,141,78981,2,0,L|329:67,1,68.2499968757631
37,17,79117,5,4,0:0:0:0:
24,83,79184,1,0,0:0:0:0:
39,149,79252,1,0,0:0:0:0:
77,205,79319,1,0,0:0:0:0:
135,241,79387,1,0,0:0:0:0:
201,253,79454,1,0,0:0:0:0:
268,238,79522,1,0,0:0:0:0:
323,199,79589,1,0,0:0:0:0:
359,141,79657,1,4,0:0:0:0:
408,97,79724,1,0,0:0:0:0:
474,107,79792,1,0,0:0:0:0:
509,163,79859,1,0,0:0:0:0:
489,226,79927,1,0,0:0:0:0:
428,252,79994,1,0,0:0:0:0:
367,208,80062,2,0,L|357:128,1,68.2499968757631
31,85,80198,5,4,0:0:0:0:
9,148,80265,1,0,0:0:0:0:
24,214,80333,1,0,0:0:0:0:
72,261,80400,1,0,0:0:0:0:
137,276,80468,1,0,0:0:0:0:
201,253,80535,1,0,0:0:0:0:
243,201,80603,1,0,0:0:0:0:
250,134,80670,1,0,0:0:0:0:
267,68,80738,1,4,0:0:0:0:
317,23,80806,1,0,0:0:0:0:
383,12,80873,1,0,0:0:0:0:
445,38,80941,1,0,0:0:0:0:
483,94,81008,1,0,0:0:0:0:
485,161,81076,1,0,0:0:0:0:
450,219,81143,1,0,0:0:0:0:
389,248,81211,1,0,0:0:0:0:
323,241,81279,5,4,0:0:0:0:
247,244,81346,1,0,0:0:0:0:
210,310,81414,1,0,0:0:0:0:
246,376,81481,1,0,0:0:0:0:
321,383,81549,1,0,0:0:0:0:
368,324,81616,1,0,0:0:0:0:
342,252,81684,1,0,0:0:0:0:
307,182,81751,1,0,0:0:0:0:
242,138,81819,1,4,0:0:0:0:
192,77,81886,1,0,0:0:0:0:
230,7,81954,1,0,0:0:0:0:
308,17,82021,1,0,0:0:0:0:
318,96,82089,1,4,0:0:0:0:
242,138,82157,1,0,0:0:0:0:
170,161,82224,1,0,0:0:0:0:
145,233,82292,5,0,0:0:0:0:
188,296,82359,1,4,0:0:0:0:
264,300,82427,1,0,0:0:0:0:
313,242,82494,1,0,0:0:0:0:
365,194,82562,1,0,0:0:0:0:
436,201,82630,1,4,0:0:0:0:
478,259,82697,1,0,0:0:0:0:
463,329,82765,1,0,0:0:0:0:
401,364,82832,1,0,0:0:0:0:
334,342,82900,1,4,0:0:0:0:
305,276,82967,1,0,0:0:0:0:
297,205,83035,1,0,0:0:0:0:
242,159,83103,1,0,0:0:0:0:
170,161,83170,1,4,0:0:0:0:
122,216,83238,1,0,0:0:0:0:
123,288,83305,1,0,0:0:0:0:
174,339,83373,1,0,0:0:0:0:
245,341,83440,1,4,0:0:0:0:
298,293,83508,1,0,0:0:0:0:
298,222,83575,1,0,0:0:0:0:
239,185,83643,1,0,0:0:0:0:
176,216,83710,1,4,0:0:0:0:
170,286,83778,1,0,0:0:0:0:
229,327,83846,2,0,P|260:308|282:269,1,73.4999977569581
396,20,83981,5,4,0:0:0:0:
414,102,84048,1,4,0:0:0:0:
432,184,84116,1,4,0:0:0:0:
450,266,84183,1,4,0:0:0:0:
468,348,84251,1,4,0:0:0:0:
385,347,84319,1,4,0:0:0:0:
319,297,84387,1,4,0:0:0:0:
298,222,84454,1,4,0:0:0:0:
324,140,84522,5,4,0:0:0:0:
259,127,84589,1,0,0:0:0:0:
197,154,84657,1,0,0:0:0:0:
162,211,84724,1,0,0:0:0:0:
170,276,84792,1,4,0:0:0:0:
140,335,84859,1,0,0:0:0:0:
77,355,84927,1,0,0:0:0:0:
18,324,84994,1,0,0:0:0:0:
0,260,85062,1,4,0:0:0:0:
32,202,85129,1,0,0:0:0:0:
97,185,85198,1,0,0:0:0:0:
148,224,85265,1,0,0:0:0:0:
136,288,85333,1,4,0:0:0:0:
74,307,85400,1,0,0:0:0:0:
34,266,85468,2,0,P|23:231|54:181,1,68.2499968757631
57,27,85603,5,4,0:0:0:0:
122,46,85670,1,0,0:0:0:0:
179,82,85738,1,0,0:0:0:0:
226,132,85805,1,0,0:0:0:0:
257,193,85873,1,0,0:0:0:0:
272,259,85940,1,0,0:0:0:0:
270,327,86008,2,0,L|222:388,1,68.2499968757631
462,320,86144,5,4,0:0:0:0:
474,253,86211,1,0,0:0:0:0:
458,187,86279,1,0,0:0:0:0:
416,135,86346,1,0,0:0:0:0:
355,105,86414,1,0,0:0:0:0:
287,104,86481,1,0,0:0:0:0:
226,132,86549,2,0,L|144:170,1,68.2499968757631
5,296,86684,5,4,0:0:0:0:
65,354,86751,1,4,0:0:0:0:
144,381,86819,1,4,0:0:0:0:
227,374,86886,1,4,0:0:0:0:
300,337,86954,1,4,0:0:0:0:
351,268,87021,1,4,0:0:0:0:
370,186,87089,1,4,0:0:0:0:
355,105,87156,1,4,0:0:0:0:
343,20,87225,5,4,0:0:0:0:
409,35,87292,1,0,0:0:0:0:
463,75,87360,1,0,0:0:0:0:
495,135,87427,1,0,0:0:0:0:
500,202,87495,1,4,0:0:0:0:
477,266,87562,1,0,0:0:0:0:
430,315,87630,1,0,0:0:0:0:
368,340,87697,1,0,0:0:0:0:
300,337,87765,1,4,0:0:0:0:
242,303,87832,1,0,0:0:0:0:
230,238,87900,1,0,0:0:0:0:
271,186,87967,1,0,0:0:0:0:
337,184,88035,1,0,0:0:0:0:
383,232,88102,1,0,0:0:0:0:
376,298,88170,5,4,0:0:0:0:
335,245,88238,1,0,0:0:0:0:
337,184,88306,1,0,0:0:0:0:
386,131,88373,1,0,0:0:0:0:
453,126,88441,1,4,0:0:0:0:
397,86,88508,1,0,0:0:0:0:
333,63,88576,1,0,0:0:0:0:
266,57,88643,1,0,0:0:0:0:
199,70,88711,1,0,0:0:0:0:
138,100,88778,1,0,0:0:0:0:
87,145,88846,6,0,L|98:194,1,26.25
87,145,88981,2,0,L|60:187,1,26.25
87,145,89117,2,0,L|38:156,1,26.25
87,145,89252,2,0,L|44:118,1,26.25
87,145,89387,2,0,L|76:96,1,26.25
87,145,89522,2,0,L|113:102,1,26.25
87,145,89657,2,0,L|136:134,1,26.25
87,145,89792,2,0,L|129:171,1,26.25
189,290,89927,6,0,L|217:314,1,26.25
189,290,90062,2,0,L|165:318,1,26.25
189,290,90198,2,0,L|161:266,1,26.25
189,290,90333,2,0,L|213:262,1,26.25
357,197,90468,6,0,L|369:231,1,26.25
357,197,90603,2,0,L|322:209,1,26.25
357,197,90739,2,0,L|344:162,1,26.25
357,197,90874,2,0,L|391:184,1,26.25
204,85,91008,6,0,L|191:118,1,26.25
204,85,91143,2,0,L|169:71,1,26.25
204,85,91279,2,0,L|216:49,1,26.25
204,85,91414,2,0,L|238:96,1,26.25
137,183,91549,6,0,L|160:211,1,26.25
137,183,91684,2,0,L|108:206,1,26.25
137,183,91820,2,0,L|113:155,1,26.25
137,183,91955,2,0,L|164:159,1,26.25
189,290,92089,6,0,L|224:284,1,26.25
189,290,92224,2,0,L|195:327,1,26.25
189,290,92360,2,0,L|152:297,1,26.25
189,290,92495,2,0,L|182:254,1,26.25
416,115,92630,6,0,L|447:133,1,26.25
416,115,92765,2,0,L|396:146,1,26.25
416,115,92901,2,0,L|383:96,1,26.25
416,115,93036,2,0,L|433:83,1,26.25
340,273,93171,6,0,L|351:322,1,26.25
340,273,93306,2,0,L|313:315,1,26.25
340,273,93442,2,0,L|291:284,1,26.25
340,273,93577,2,0,L|297:246,1,26.25
340,273,93712,2,0,L|329:224,1,26.25
340,273,93847,2,0,L|366:230,1,26.25
340,273,93982,2,0,L|389:262,1,26.25
340,273,94117,2,0,L|382:299,1,26.25
225,83,94252,6,0,L|260:77,1,26.25
225,83,94387,2,0,L|230:119,1,26.25
225,83,94523,2,0,L|188:89,1,26.25
225,83,94658,2,0,L|218:47,1,26.25
418,176,94792,6,0,L|445:198,1,26.25
418,176,94927,2,0,L|393:202,1,26.25
418,176,95063,2,0,L|389:151,1,26.25
418,176,95198,2,0,L|441:147,1,26.25
191,277,95333,6,0,L|202:326,1,26.25
191,277,95468,2,0,L|164:319,1,26.25
191,277,95604,2,0,L|142:288,1,26.25
191,277,95739,2,0,L|148:250,1,26.25
191,277,95874,2,0,L|180:228,1,26.25
191,277,96009,2,0,L|217:234,1,26.25
191,277,96144,2,0,L|240:266,1,26.25
191,277,96279,2,0,L|233:303,1,26.25
116,84,96414,6,0,L|144:108,1,26.25
116,84,96549,2,0,L|92:112,1,26.25
116,84,96685,2,0,L|88:60,1,26.25
116,84,96820,2,0,L|140:56,1,26.25
264,170,96954,6,0,L|263:206,1,26.25
264,170,97089,2,0,L|227:169,1,26.25
264,170,97225,2,0,L|264:133,1,26.25
264,170,97360,2,0,L|300:170,1,26.25
437,301,97495,6,0,L|448:350,1,26.25
437,301,97630,2,0,L|410:343,1,26.25
437,301,97766,2,0,L|388:312,1,26.25
437,301,97901,2,0,L|394:274,1,26.25
437,301,98036,2,0,L|426:252,1,26.25
437,301,98171,2,0,L|463:258,1,26.25
437,301,98306,2,0,L|486:290,1,26.25
437,301,98441,2,0,L|479:327,1,26.25
205,251,98576,6,0,L|216:300,1,26.25
205,251,98711,2,0,L|178:293,1,26.25
205,251,98847,2,0,L|156:262,1,26.25
205,251,98982,2,0,L|162:224,1,26.25
205,251,99117,2,0,L|194:202,1,26.25
205,251,99252,2,0,L|231:208,1,26.25
205,251,99387,2,0,L|254:240,1,26.25
205,251,99522,2,0,L|247:277,1,26.25
103,45,99657,6,0,L|102:81,1,26.25
103,45,99792,2,0,L|66:44,1,26.25
103,45,99928,2,0,L|103:8,1,26.25
103,45,100063,2,0,L|139:45,1,26.25
81,297,100198,6,0,L|67:330,1,26.25
81,297,100333,2,0,L|46:283,1,26.25
81,297,100469,2,0,L|93:262,1,26.25
81,297,100604,2,0,L|114:309,1,26.25
236,232,100738,6,0,L|204:249,1,26.25
236,232,100873,2,0,L|218:199,1,26.25
236,232,101009,2,0,L|268:213,1,26.25
236,232,101144,2,0,L|253:263,1,26.25
357,101,101279,6,0,L|343:134,1,26.25
357,101,101414,2,0,L|322:87,1,26.25
357,101,101550,2,0,L|369:66,1,26.25
357,101,101685,2,0,L|390:113,1,26.25
378,282,101819,6,0,L|389:331,1,26.25
378,282,101954,2,0,L|351:324,1,26.25
378,282,102090,2,0,L|329:293,1,26.25
378,282,102225,2,0,L|335:255,1,26.25
378,282,102360,2,0,L|367:233,1,26.25
378,282,102495,2,0,L|404:239,1,26.25
378,282,102630,2,0,L|427:271,1,26.25
378,282,102765,2,0,L|420:308,1,26.25
206,277,102900,6,0,L|192:310,1,26.25
206,277,103035,2,0,L|171:263,1,26.25
206,277,103171,2,0,L|218:242,1,26.25
206,277,103306,2,0,L|239:289,1,26.25
105,136,103441,6,0,L|73:153,1,26.25
105,136,103576,2,0,L|87:103,1,26.25
105,136,103712,2,0,L|137:117,1,26.25
105,136,103847,2,0,L|122:167,1,26.25
313,128,103981,6,0,L|324:177,1,26.25
313,128,104116,2,0,L|286:170,1,26.25
313,128,104252,2,0,L|264:139,1,26.25
313,128,104387,2,0,L|270:101,1,26.25
313,128,104522,2,0,L|302:79,1,26.25
313,128,104657,2,0,L|339:85,1,26.25
313,128,104792,2,0,L|362:117,1,26.25
313,128,104927,2,0,L|355:154,1,26.25
63,113,105062,6,0,L|74:162,1,26.25
63,113,105197,2,0,L|36:155,1,26.25
63,113,105333,2,0,L|14:124,1,26.25
63,113,105468,2,0,L|20:86,1,26.25
63,113,105603,2,0,L|52:64,1,26.25
63,113,105738,2,0,L|89:70,1,26.25
63,113,105873,2,0,L|112:102,1,26.25
63,113,106008,2,0,L|105:139,1,26.25
51,223,106144,5,4,0:0:0:0:
102,282,106211,1,0,0:0:0:0:
172,317,106279,2,0,L|258:342,1,78.7500030040742
435,278,106414,2,0,L|349:253,1,78.7500030040742,4|0,0:0|0:0,0:0:0:0:
189,131,106549,2,0,L|274:155,1,78.7500030040742,4|0,0:0|0:0,0:0:0:0:
404,168,106684,5,4,0:0:0:0:
459,112,106751,1,0,0:0:0:0:
430,46,106819,2,0,L|359:-7,1,78.7500030040742
126,83,106954,2,0,L|196:136,1,78.7500030040742,4|0,0:0|0:0,0:0:0:0:
404,168,107089,2,0,L|333:114,1,78.7500030040742,4|0,0:0|0:0,0:0:0:0:
126,83,107225,5,4,0:0:0:0:
96,154,107292,1,0,0:0:0:0:
107,231,107360,1,0,0:0:0:0:
158,291,107427,1,0,0:0:0:0:
231,315,107495,2,0,L|324:323,1,78.7500030040742
446,234,107630,5,4,0:0:0:0:
400,169,107697,1,0,0:0:0:0:
341,120,107765,2,0,L|270:77,1,78.7500030040742
96,154,107900,2,0,L|128:76,1,78.7500030040742,4|0,0:0|0:0,0:0:0:0:
252,7,108035,1,4,0:0:0:0:
273,79,108102,1,0,0:0:0:0:
230,141,108171,2,0,L|174:198,1,78.7500030040742
70,137,108306,2,0,L|126:80,1,78.7500030040742,4|0,0:0|0:0,0:0:0:0:
323,18,108441,1,0,0:0:0:0:
273,79,108508,1,0,0:0:0:0:
240,150,108576,1,0,0:0:0:0:
229,227,108643,1,0,0:0:0:0:
238,305,108711,2,0,L|286:374,1,78.7500030040742
448,181,108846,5,4,0:0:0:0:
396,121,108913,1,0,0:0:0:0:
327,85,108981,1,0,0:0:0:0:
249,77,109048,1,0,0:0:0:0:
174,98,109116,1,0,0:0:0:0:
112,146,109183,1,0,0:0:0:0:
72,214,109251,1,0,0:0:0:0:
60,291,109318,1,0,0:0:0:0:
77,366,109387,5,0,0:0:0:0:
118,300,109454,1,0,0:0:0:0:
131,223,109522,1,0,0:0:0:0:
181,164,109589,1,0,0:0:0:0:
256,144,109657,2,0,L|339:116,1,78.7500030040742
355,0,109792,1,4,0:0:0:0:
428,23,109859,1,0,0:0:0:0:
471,87,109927,1,0,0:0:0:0:
463,164,109994,1,0,0:0:0:0:
409,219,110062,2,0,L|326:193,1,78.7500030040742
206,351,110198,5,4,0:0:0:0:
149,298,110265,1,0,0:0:0:0:
131,223,110333,2,0,L|154:111,1,78.7500030040742
313,45,110468,5,4,0:0:0:0:
337,119,110535,1,0,0:0:0:0:
338,197,110603,1,0,0:0:0:0:
316,273,110670,1,0,0:0:0:0:
284,346,110738,2,0,L|183:353,1,78.7500030040742
27,245,110873,5,4,0:0:0:0:
31,166,110940,1,0,0:0:0:0:
63,95,111008,1,0,0:0:0:0:
118,40,111075,1,0,0:0:0:0:
190,8,111144,2,0,L|294:-2,1,78.7500030040742
458,211,111279,5,4,0:0:0:0:
392,253,111346,1,0,0:0:0:0:
316,273,111414,2,0,L|212:231,1,78.7500030040742
63,95,111549,5,4,0:0:0:0:
118,40,111616,1,0,0:0:0:0:
190,8,111684,1,0,0:0:0:0:
268,0,111751,1,0,0:0:0:0:
341,21,111819,2,0,L|416:73,1,78.7500030040742
477,339,111954,5,4,0:0:0:0:
399,350,112021,1,0,0:0:0:0:
320,344,112089,1,0,0:0:0:0:
245,323,112156,1,0,0:0:0:0:
175,286,112225,2,0,L|139:365,1,78.7500030040742
34,184,112360,2,0,L|70:105,1,78.7500030040742,4|0,0:0|0:0,0:0:0:0:
330,91,112495,5,0,0:0:0:0:
395,133,112562,1,0,0:0:0:0:
429,203,112630,1,0,0:0:0:0:
423,280,112697,1,0,0:0:0:0:
378,344,112765,1,0,0:0:0:0:
307,376,112832,1,0,0:0:0:0:
230,367,112900,1,0,0:0:0:0:
168,319,112967,1,0,0:0:0:0:
139,247,113035,2,0,L|129:160,1,78.7500030040742
330,91,113171,5,4,0:0:0:0:
326,168,113238,1,0,0:0:0:0:
282,232,113306,1,0,0:0:0:0:
210,262,113373,1,0,0:0:0:0:
139,247,113441,1,0,0:0:0:0:
76,196,113508,1,0,0:0:0:0:
56,121,113576,2,0,L|93:45,1,78.7500030040742
260,3,113711,6,0,L|211:89,1,78.7500030040742,4|0,0:0|0:0,0:0:0:0:
139,247,113846,1,4,0:0:0:0:
202,291,113913,1,0,0:0:0:0:
279,288,113981,2,0,L|362:264,1,78.7500030040742
449,34,114117,5,4,0:0:0:0:
370,27,114184,1,0,0:0:0:0:
293,41,114252,2,0,L|194:81,1,78.7500030040742
66,277,114387,2,0,L|164:236,1,78.7500030040742
362,157,114522,5,4,0:0:0:0:
431,191,114589,1,0,0:0:0:0:
469,259,114657,2,0,L|475:351,1,78.7500030040742
306,355,114792,2,0,L|300:263,1,78.7500030040742
220,71,114927,5,4,0:0:0:0:
148,102,114994,1,0,0:0:0:0:
103,166,115062,2,0,L|61:245,1,78.7500030040742
159,368,115198,2,0,L|201:289,1,78.7500030040742,4|0,0:0|0:0,0:0:0:0:
220,71,115333,5,4,0:0:0:0:
294,61,115400,1,0,0:0:0:0:
343,119,115468,2,0,L|383:196,1,78.7500030040742
358,338,115603,2,0,L|318:261,1,78.7500030040742,4|0,0:0|0:0,0:0:0:0:
191,145,115738,2,0,L|230:221,1,78.7500030040742,4|0,0:0|0:0,0:0:0:0:
231,368,115873,2,0,L|192:292,1,78.7500030040742,4|0,0:0|0:0,0:0:0:0:
69,243,116008,1,0,0:0:0:0:
69,165,116075,1,0,0:0:0:0:
100,93,116144,2,0,L|163:31,1,78.7500030040742
440,97,116279,1,4,0:0:0:0:
464,171,116346,1,0,0:0:0:0:
452,248,116414,6,0,L|408:325,1,78.7500030040742
273,328,116549,2,0,L|317:251,1,78.7500030040742,4|0,0:0|0:0,0:0:0:0:
319,41,116684,5,4,0:0:0:0:
254,85,116751,1,0,0:0:0:0:
219,154,116819,2,0,L|300:129,1,78.7500030040742
312,259,116954,2,0,L|231:284,1,78.7500030040742,4|0,0:0|0:0,0:0:0:0:
106,359,117089,5,0,0:0:0:0:
65,292,117156,1,0,0:0:0:0:
55,214,117224,1,0,0:0:0:0:
79,140,117291,1,0,0:0:0:0:
131,82,117360,2,0,L|196:32,1,78.7500030040742
420,53,117495,5,4,0:0:0:0:
445,126,117562,1,0,0:0:0:0:
433,203,117630,1,0,0:0:0:0:
387,266,117697,1,0,0:0:0:0:
317,301,117765,1,0,0:0:0:0:
239,300,117832,1,0,0:0:0:0:
171,263,117900,2,0,L|147:185,1,78.7500030040742
21,19,118035,5,4,0:0:0:0:
0,93,118102,1,0,0:0:0:0:
0,171,118170,1,0,0:0:0:0:
15,247,118237,1,0,0:0:0:0:
58,312,118306,2,0,L|140:362,1,78.7500030040742
275,215,118441,5,4,0:0:0:0:
303,143,118508,1,0,0:0:0:0:
279,69,118576,1,0,0:0:0:0:
214,28,118643,1,0,0:0:0:0:
137,38,118711,2,0,L|66:103,1,78.7500030040742
58,314,118846,5,4,0:0:0:0:
126,353,118913,1,0,0:0:0:0:
200,347,118981,2,0,L|282:324,1,78.7500030040742
486,95,119117,5,4,0:0:0:0:
416,58,119184,1,0,0:0:0:0:
338,50,119252,1,0,0:0:0:0:
263,72,119319,1,0,0:0:0:0:
202,120,119387,1,0,0:0:0:0:
163,188,119454,1,0,0:0:0:0:
190,259,119521,1,0,0:0:0:0:
262,282,119589,1,0,0:0:0:0:
326,241,119656,1,0,0:0:0:0:
335,166,119724,1,0,0:0:0:0:
280,111,119792,2,0,L|193:120,1,78.7500030040742
53,42,119928,5,4,0:0:0:0:
36,118,119995,1,0,0:0:0:0:
49,195,120062,2,0,P|82:267|100:296,1,78.7500030040742
382,313,120198,5,4,0:0:0:0:
414,242,120265,1,0,0:0:0:0:
414,164,120333,1,0,0:0:0:0:
382,93,120400,1,0,0:0:0:0:
322,42,120468,1,0,0:0:0:0:
246,22,120535,1,0,0:0:0:0:
169,40,120603,2,0,L|94:114,1,78.7500030040742
78,268,120738,5,4,0:0:0:0:
132,322,120805,1,0,0:0:0:0:
209,337,120873,1,0,0:0:0:0:
280,308,120940,1,0,0:0:0:0:
324,243,121008,5,4,0:0:0:0:
324,166,121075,1,0,0:0:0:0:
281,101,121144,2,0,L|196:61,1,78.7500030040742
512,176,121279,5,0,0:0:0:0:
503,278,121346,1,0,0:0:0:0:
430,349,121414,1,0,0:0:0:0:
327,355,121481,1,0,0:0:0:0:
247,291,121549,1,0,0:0:0:0:
228,189,121616,1,0,0:0:0:0:
281,101,121684,1,0,0:0:0:0:
379,70,121751,1,0,0:0:0:0:
438,154,121819,1,0,0:0:0:0:
433,257,121887,1,0,0:0:0:0:
368,337,121954,1,0,0:0:0:0:
267,360,122022,1,0,0:0:0:0:
173,318,122089,1,0,0:0:0:0:
124,228,122157,1,0,0:0:0:0:
159,128,122225,1,0,0:0:0:0:
117,40,122292,1,0,0:0:0:0:
23,64,122360,5,0,0:0:0:0:
28,161,122427,1,0,0:0:0:0:
124,175,122495,1,0,0:0:0:0:
220,199,122562,1,0,0:0:0:0:
244,297,122630,1,0,0:0:0:0:
170,363,122697,1,0,0:0:0:0:
76,329,122765,1,0,0:0:0:0:
62,230,122832,1,0,0:0:0:0:
95,132,122900,1,0,0:0:0:0:
178,69,122968,1,0,0:0:0:0:
281,62,123035,1,0,0:0:0:0:
371,113,123103,1,0,0:0:0:0:
417,206,123171,1,0,0:0:0:0:
405,305,123238,1,0,0:0:0:0:
312,341,123306,1,0,0:0:0:0:
237,276,123373,1,0,0:0:0:0:
260,179,123441,6,0,L|241:146,1,26.25
120,150,123644,6,0,L|139:183,1,26.25
141,305,123846,6,0,L|122:272,1,26.25
1,276,124049,6,0,L|20:309,1,26.25
379,279,124252,6,0,L|360:246,2,26.25
259,127,124522,6,0,L|278:160,1,26.25
201,235,124725,6,0,L|220:268,1,26.25
114,336,124927,6,0,L|133:369,1,26.25
84,199,125130,6,0,L|65:166,1,26.25
145,35,125333,6,0,L|169:59,2,26.25
309,220,125603,6,0,L|333:196,1,26.25
190,283,125806,6,0,L|166:307,1,26.25
350,92,126008,6,0,L|374:68,1,26.25
231,155,126211,6,0,L|207:179,1,26.25
64,110,126414,6,0,L|92:97,2,26.25
102,243,126684,6,0,L|130:230,1,26.25
312,213,126887,6,0,L|284:226,1,26.25
204,307,127089,6,0,L|232:294,1,26.25
414,277,127292,6,0,L|386:290,1,26.25
188,174,127495,6,0,L|224:157,2,26.25
447,99,127765,6,0,P|406:115|294:58,2,157.5
186,51,128846,6,0,P|195:115|284:177,2,157.5
69,296,129927,5,0,0:0:0:0:
