osu file format v14

[General]
AudioFilename: audio.mp3
AudioLeadIn: 0
PreviewTime: 62264
Countdown: 0
SampleSet: Soft
StackLeniency: 0.3
Mode: 0
LetterboxInBreaks: 0
WidescreenStoryboard: 1

[Editor]
Bookmarks: 33400
DistanceSpacing: 1.3
BeatDivisor: 3
GridSize: 32
TimelineZoom: 1.7

[Metadata]
Title:Ponkotsu! Isekai Theater (TV Size)
TitleUnicode:ポンコツ!異世界シアター (TV Size)
Artist:Uesaka Sumire, Takahashi Rie, Minase Inori, Hayami Saori
ArtistUnicode:上坂すみれ、高橋李依、水瀬いのり、早見沙織
Creator:dkblaze
Version:Asuka_-'s Hard
Source:異世界かるてっと2
Tags:Quartet season two 2 s2 jpop j pop japanese anime ED Ending Kowari Asuka_- Shizuku- シャルティア Shalltear めぐみん Megumin レム Rem ヴィーシャ Visja
BeatmapID:2330280
BeatmapSetID:1109197

[Difficulty]
HPDrainRate:4.8
CircleSize:4
OverallDifficulty:6
ApproachRate:8
SliderMultiplier:1.5
SliderTickRate:1

[Events]
//Background and Video events
0,0,"BG.jpg",0,0
Video,3700,"video.mp4"
//Break Periods
//Storyboard Layer 0 (Background)
//Storyboard Layer 1 (Fail)
//Storyboard Layer 2 (Pass)
//Storyboard Layer 3 (Foreground)
//Storyboard Layer 4 (Overlay)
//Storyboard Sound Samples

[TimingPoints]
4310,363.636363636364,4,2,2,75,1,0
10128,-100,4,2,2,75,0,0
21764,-125,4,2,2,65,0,0
27582,-111.111111111111,4,2,2,70,0,0
45037,428.571428571429,4,2,2,60,1,0
45037,-142.857142857143,4,2,2,60,0,0
50179,363.636363636364,4,2,2,60,1,0
50179,-125,4,2,2,60,0,0
51633,-125,4,2,2,70,0,0
63269,-100,4,2,2,80,0,1
83633,-125,4,2,2,60,0,0
86542,-125,4,2,2,40,0,0
89088,-125,4,2,2,70,0,0

[Colours]
Combo1 : 222,196,251
Combo2 : 220,139,31
Combo3 : 251,89,89
Combo4 : 160,191,248

[HitObjects]
85,34,10128,5,0,3:0:0:0:
85,34,10491,6,0,L|68:191,1,150,6|0,3:2|3:0,0:0:0:0:
41,277,11037,2,0,P|87:277|137:246,1,75,10|0,0:0|3:0,0:0:0:0:
165,183,11400,1,10,0:0:0:0:
165,183,11582,6,0,P|252:194|273:264,1,150,2|0,3:2|3:0,0:0:0:0:
368,216,12128,2,0,L|350:371,1,150,10|8,0:0|0:0,0:0:0:0:
260,341,12673,1,2,3:2:0:0:
260,341,12855,1,10,0:0:0:0:
165,364,13037,6,0,L|31:343,2,112.5,2|10|10,3:2|0:0|0:0,0:0:0:0:
260,341,13764,2,0,P|277:307|272:266,1,75,2|8,3:2|0:0,0:0:0:0:
332,192,14128,2,0,P|297:171|255:173,1,75,2|8,3:2|0:0,0:0:0:0:
182,225,14491,6,0,L|160:67,1,150,2|0,3:2|3:0,0:0:0:0:
65,54,15037,1,10,0:0:0:0:
65,54,15219,2,0,L|92:229,1,150,2|10,3:2|0:0,0:0:0:0:
40,287,15764,1,10,0:0:0:0:
40,287,15946,6,0,P|105:240|175:276,1,150,4|8,3:2|0:0,0:0:0:0:
183,362,16491,1,2,0:0:0:0:
183,362,16673,2,0,P|227:343|249:309,1,75,2|2,3:2|0:0,0:0:0:0:
341,323,17037,2,0,P|329:275|297:244,1,75,10|2,0:0|0:0,0:0:0:0:
352,166,17400,6,0,P|286:157|223:226,2,150,2|10|2,3:2|0:0|3:2,0:0:0:0:
469,321,18491,1,8,0:0:0:0:
499,128,18855,6,0,L|423:113,3,50,14|8|8|8,0:0|0:0|0:0|0:0,0:0:0:0:
363,293,19582,2,0,L|313:240,3,50,8|8|8|8,0:0|0:0|0:0|0:0,0:0:0:0:
141,314,20310,2,0,L|158:248,2,50,10|10|10,0:0|0:0|0:0,0:0:0:0:
106,259,20673,2,0,L|128:180,2,50,10|10|10,0:0|0:0|0:0,0:0:0:0:
92,195,21037,1,10,0:0:0:0:
263,111,21400,1,2,3:2:0:0:
426,24,21764,5,6,3:2:0:0:
426,24,23219,1,2,3:2:0:0:
290,100,23582,1,0,0:0:0:0:
424,180,23946,1,2,0:0:0:0:
426,23,24310,1,2,0:0:0:0:
290,99,24673,5,2,3:2:0:0:
466,355,25400,1,2,3:2:0:0:
290,99,26128,1,2,3:2:0:0:
165,192,26491,1,2,3:2:0:0:
264,312,26855,1,2,3:2:0:0:
390,219,27219,1,0,0:0:0:0:
289,100,27582,6,0,L|301:21,1,67.4999979400635,4|2,3:2|0:0,0:0:0:0:
212,14,27946,2,0,L|195:107,1,67.4999979400635,10|2,0:0|0:0,0:0:0:0:
117,112,28310,2,0,P|154:160|243:150,1,134.999995880127,2|10,3:2|0:0,0:0:0:0:
289,100,28855,6,0,P|326:89|377:102,1,67.4999979400635,2|0,0:0|3:0,0:0:0:0:
442,89,29219,2,0,L|415:233,1,134.999995880127,2|2,0:0|0:0,0:0:0:0:
460,297,29764,2,0,P|427:313|388:309,1,67.4999979400635,2|0,3:2|0:0,0:0:0:0:
338,253,30128,1,8,0:0:0:0:
338,253,30310,1,2,0:0:0:0:
256,284,30491,6,0,L|246:130,1,134.999995880127,2|8,3:2|0:0,0:0:0:0:
275,68,31037,1,2,0:0:0:0:
275,68,31219,2,0,P|228:106|142:86,1,134.999995880127,2|8,3:2|0:0,0:0:0:0:
86,55,31764,1,2,0:0:0:0:
86,55,31946,6,0,P|122:103|96:184,2,134.999995880127,2|10|2,3:2|0:0|3:2,0:0:0:0:
16,216,33037,1,2,0:0:0:0:
108,364,33400,6,0,L|188:348,1,67.4999979400635,6|0,3:2|0:0,0:0:0:0:
196,265,33764,2,0,L|256:309,1,67.4999979400635,10|2,0:0|0:0,0:0:0:0:
319,249,34128,2,0,L|348:326,1,67.4999979400635,2|0,3:2|0:0,0:0:0:0:
429,301,34491,2,0,L|414:374,1,67.4999979400635,10|2,0:0|0:0,0:0:0:0:
342,312,34855,6,0,L|371:168,1,134.999995880127,0|10,3:0|0:0,0:0:0:0:
413,105,35400,1,2,0:0:0:0:
413,105,35582,2,0,L|328:80,1,67.4999979400635,2|0,3:2|0:0,0:0:0:0:
310,5,35946,2,0,L|254:56,1,67.4999979400635,10|2,0:0|0:0,0:0:0:0:
172,38,36310,6,0,L|189:125,1,67.4999979400635,0|0,3:0|0:0,0:0:0:0:
265,139,36673,2,0,L|220:216,1,67.4999979400635,10|0,0:0|0:0,0:0:0:0:
257,281,37037,2,0,L|182:299,1,67.4999979400635,0|0,3:0|0:0,0:0:0:0:
138,367,37400,2,0,L|70:323,1,67.4999979400635,10|0,0:0|0:0,0:0:0:0:
8,280,37764,5,2,3:2:0:0:
87,243,37946,1,2,0:0:0:0:
12,196,38128,1,10,0:0:0:0:
90,156,38310,1,2,0:0:0:0:
15,110,38491,2,0,B|2:51|2:51|36:17|76:19,1,134.999995880127,2|10,3:2|0:0,0:0:0:0:
159,53,39038,5,2,0:0:0:0:
159,53,39129,1,2,0:0:0:0:
159,53,39219,2,0,P|199:53|243:25,1,67.4999979400635,6|2,3:2|0:0,0:0:0:0:
304,8,39582,2,0,P|353:16|384:38,1,67.4999979400635,10|2,0:0|0:0,0:0:0:0:
438,77,39946,1,2,3:2:0:0:
492,146,40128,1,2,0:0:0:0:
504,232,40310,1,10,0:0:0:0:
467,311,40491,1,2,0:0:0:0:
403,371,40673,6,0,P|366:368|323:344,1,67.4999979400635,2|2,3:2|0:0,0:0:0:0:
250,350,41037,2,0,L|268:274,1,67.4999979400635,10|2,0:0|0:0,0:0:0:0:
325,220,41400,2,0,L|316:165,3,33.7499989700318,2|2|2|2,3:2|0:0|0:0|0:0,0:0:0:0:
282,162,41764,2,0,L|300:72,1,67.4999979400635,10|0,0:0|0:0,0:0:0:0:
216,54,42128,6,0,L|197:144,1,67.4999979400635,2|0,3:2|0:0,0:0:0:0:
157,195,42491,1,8,0:0:0:0:
157,195,42673,1,0,0:0:0:0:
88,140,42855,2,0,L|12:125,1,67.4999979400635,2|10,3:2|0:0,0:0:0:0:
0,218,43219,1,10,0:0:0:0:
0,218,43310,1,8,0:0:0:0:
0,218,43400,1,10,0:0:0:0:
25,302,43582,6,0,L|19:351,8,33.7499989700318,2|0|0|0|0|0|0|0|0,3:2|0:0|0:0|0:0|0:0|0:0|0:0|0:0|0:0,0:0:0:0:
20,335,45037,6,0,P|66:331|97:299,1,69.9999978637696,2|8,0:0|0:0,0:0:0:0:
109,280,45465,2,0,L|153:297,2,34.9999989318848,8|8|8,0:0|0:0|0:0,0:0:0:0:
106,234,45894,2,0,P|159:187|240:217,1,139.999995727539,8|8,0:0|3:3,0:0:0:0:
272,274,46751,1,0,0:0:0:0:
348,161,47179,2,0,L|355:209,2,34.9999989318848,8|8|8,0:0|0:0|0:0,0:0:0:0:
380,128,47608,2,0,L|390:46,2,69.9999978637696,10|10|10,0:0|0:0|0:0,0:0:0:0:
454,180,48465,6,0,L|443:278,1,69.9999978637696,6|8,0:0|0:0,0:0:0:0:
468,289,48894,2,0,L|520:285,2,34.9999989318848,8|8|8,0:0|0:0|0:0,0:0:0:0:
441,326,49322,6,0,P|375:331|336:284,1,104.999996795654,10|0,0:0|0:0,0:0:0:0:
322,270,49894,1,10,0:0:0:0:
306,148,50179,6,0,P|274:149|237:178,1,80,6|0,3:2|0:0,0:0:0:0:
242,229,50542,2,0,P|209:257|162:258,1,80,0|0,3:0|0:0,0:0:0:0:
122,253,50906,2,0,P|102:213|114:168,1,80,2|10,3:2|0:0,0:0:0:0:
143,140,51269,1,2,3:2:0:0:
120,40,51512,1,2,3:2:0:0:
120,40,51633,6,0,L|153:46,3,30,6|0|0|0,3:2|0:0|0:0|0:0,0:0:0:0:
187,36,51997,2,0,L|225:43,3,30,0|0|0|0,0:0|0:0|0:0|0:0,0:0:0:0:
253,29,52360,2,0,L|239:148,1,120,0|0,0:0|0:0,0:0:0:0:
310,180,52906,6,0,L|328:33,1,120,0|8,0:0|0:0,0:0:0:0:
395,28,53451,2,0,L|401:-12,2,30,0|0|8,0:0|3:0|0:0,0:0:0:0:
462,77,53815,1,0,3:0:0:0:
462,77,53997,2,0,L|449:210,1,120,2|4,0:0|3:3,0:0:0:0:
449,274,54542,6,0,L|398:282,3,30,6|0|0|0,3:2|0:0|0:0|0:0,0:0:0:0:
401,314,54906,2,0,L|347:323,3,30,0|0|0|0,0:0|0:0|0:0|0:0,0:0:0:0:
341,343,55269,2,0,L|326:219,1,120,0|0,0:0|0:0,0:0:0:0:
249,206,55815,6,0,L|264:350,1,120,0|0,0:0|0:0,0:0:0:0:
186,350,56360,2,0,L|176:267,1,60,8|0,0:0|0:0,0:0:0:0:
119,238,56724,2,0,L|110:165,2,40,8|0|0,0:0|0:0|0:0,0:0:0:0:
77,269,57088,2,0,L|81:308,2,40,8|0|0,0:0|0:0|0:0,0:0:0:0:
29,248,57451,6,0,L|24:207,6,40,8|0|0|0|0|0|0,0:0|0:0|0:0|0:0|0:0|0:0|0:0,0:0:0:0:
137,135,58542,2,0,L|140:74,6,40,10|10|10|10|8|8|10,3:2|0:0|0:0|3:2|0:0|0:0|3:2,0:0:0:0:
259,230,59633,2,0,L|272:161,5,40,10|8|10|10|10|6,3:2|0:0|0:0|3:2|0:3|0:3,0:0:0:0:
288,143,60360,6,0,P|336:121|390:138,1,90,6|0,3:2|0:0,0:0:0:0:
406,107,60724,2,0,P|442:148|437:208,1,90,2|0,3:2|0:0,0:0:0:0:
473,209,61088,2,0,P|459:257|412:280,1,90,2|0,3:2|0:0,0:0:0:0:
399,304,61451,2,0,L|347:293,3,30,10|8|8|8,0:0|0:0|0:0|0:0,0:0:0:0:
334,316,61815,5,2,3:2:0:0:
50,84,63269,6,0,P|95:84|135:56,1,75,6|0,3:2|0:0,0:0:0:0:
162,42,63542,1,10,0:0:0:0:
162,42,63633,2,0,L|147:140,1,75,0|10,3:0|0:0,0:0:0:0:
81,185,63997,2,0,L|95:288,1,75,2|8,3:2|0:0,0:0:0:0:
86,307,64269,1,10,0:0:0:0:
86,307,64360,2,0,P|132:280|180:291,1,75,0|10,3:0|0:0,0:0:0:0:
227,343,64724,5,2,3:2:0:0:
307,287,64906,2,0,L|351:300,2,37.5,0|10|0,0:0|0:0|3:0,0:0:0:0:
234,221,65269,1,10,0:0:0:0:
234,221,65451,1,2,3:2:0:0:
291,142,65633,1,8,0:0:0:0:
240,58,65815,2,0,P|199:44|152:48,1,75,0|10,3:0|0:0,0:0:0:0:
69,48,66179,6,0,L|81:140,1,75,2|0,3:2|0:0,0:0:0:0:
66,172,66451,1,10,0:0:0:0:
66,172,66542,2,0,P|103:188|139:187,1,75,0|10,3:0|0:0,0:0:0:0:
167,280,66906,2,0,P|210:253|231:206,1,75,2|8,3:2|0:0,0:0:0:0:
250,193,67179,1,8,0:0:0:0:
250,193,67269,2,0,P|277:229|312:245,1,75,2|8,3:2|0:0,0:0:0:0:
398,219,67633,5,2,3:2:0:0:
437,129,67815,2,0,L|479:118,2,37.5,8|2|0,0:0|0:0|3:0,0:0:0:0:
382,54,68179,1,10,0:0:0:0:
382,54,68360,2,0,P|329:13|247:43,1,150,2|2,3:2|3:2,0:0:0:0:
189,107,68906,2,0,L|139:94,2,37.5,6|2|6,0:3|0:0|3:2,0:0:0:0:
259,174,69269,5,2,0:0:0:0:
212,259,69451,1,10,0:0:0:0:
264,341,69633,1,2,0:0:0:0:
264,341,69815,2,0,P|316:328|346:285,1,75,2|2,3:2|0:0,0:0:0:0:
428,322,70179,2,0,L|403:230,1,75,10|2,0:0|0:0,0:0:0:0:
352,169,70542,6,0,L|382:-5,2,150,2|10|2,3:2|0:0|3:2,0:0:0:0:
202,42,71633,1,8,0:0:0:0:
71,187,71997,6,0,L|46:116,3,50,10|10|10|10,0:0|0:0|0:0|0:0,0:0:0:0:
203,265,72724,6,0,L|185:329,3,50,10|10|10|10,0:0|0:0|0:0|0:0,0:0:0:0:
333,181,73451,6,0,L|317:113,2,50,10|10|10,0:0|0:0|0:0,0:0:0:0:
358,120,73815,2,0,L|341:53,2,50,10|10|10,0:0|0:0|0:0,0:0:0:0:
389,62,74179,1,10,0:0:0:0:
470,238,74542,6,0,L|429:230,3,37.5,8|8|8|8,0:0|0:0|0:0|0:0,0:0:0:0:
392,203,74906,6,0,L|382:301,1,75,6|0,3:2|0:0,0:0:0:0:
358,320,75179,1,10,0:0:0:0:
358,320,75269,2,0,P|318:318|276:279,1,75,0|10,3:0|0:0,0:0:0:0:
199,260,75633,2,0,P|144:266|113:292,1,75,2|8,3:2|0:0,0:0:0:0:
91,308,75906,1,10,0:0:0:0:
91,308,75997,2,0,L|73:208,1,75,0|10,3:0|0:0,0:0:0:0:
121,146,76360,5,2,3:2:0:0:
65,65,76542,2,0,L|8:56,2,37.5,0|10|0,0:0|0:0|3:0,0:0:0:0:
145,9,76906,1,10,0:0:0:0:
145,9,77088,1,2,3:2:0:0:
227,60,77269,1,8,0:0:0:0:
309,8,77451,2,0,P|327:42|321:99,1,75,8|10,3:2|0:0,0:0:0:0:
345,174,77815,6,0,L|272:157,1,75,6|0,3:2|0:0,0:0:0:0:
227,150,78088,1,10,0:0:0:0:
227,150,78179,2,0,P|209:189|239:245,1,75,0|10,3:0|0:0,0:0:0:0:
213,316,78542,2,0,P|252:309|283:284,1,75,2|8,3:2|0:0,0:0:0:0:
328,272,78815,1,10,0:0:0:0:
328,272,78906,2,0,L|316:354,1,75,0|10,3:0|0:0,0:0:0:0:
414,341,79269,6,0,L|429:205,2,112.5,8|8|8,3:2|3:2|3:2,0:0:0:0:
317,346,79997,2,0,B|254:325|254:325|167:342,1,150,2|8,0:0|0:0,0:0:0:0:
76,359,80542,1,6,0:3:0:0:
76,359,80633,1,0,0:0:0:0:
76,359,80724,5,6,3:2:0:0:
150,178,81088,2,0,L|85:162,2,50,10|10|10,0:0|0:0|0:0,0:0:0:0:
101,134,81451,1,2,3:2:0:0:
292,95,81815,2,0,L|356:77,2,50,10|10|10,0:0|0:0|0:0,0:0:0:0:
329,41,82179,6,0,L|395:60,2,50,10|8|8,3:2|0:0|0:0,0:0:0:0:
386,10,82542,2,0,L|423:81,2,50,8|8|8,3:2|0:0|0:0,0:0:0:0:
448,27,82906,1,8,3:2:0:0:
506,212,83269,1,8,3:3:0:0:
386,349,83633,6,0,P|326:357|278:314,1,120,6|0,3:2|0:0,0:0:0:0:
242,260,84179,1,8,0:0:0:0:
242,260,84360,2,0,P|182:250|130:302,1,120,0|4,0:0|0:3,0:0:0:0:
10,375,85088,5,6,3:2:0:0:
137,283,85451,1,6,3:2:0:0:
8,193,85815,1,6,3:2:0:0:
142,114,86179,1,2,0:0:0:0:
7,35,86542,6,0,P|53:15|105:26,1,80,6|2,3:2|0:0,0:0:0:0:
133,27,86906,2,0,P|167:42|223:26,1,80,2|2,0:0|0:0,0:0:0:0:
256,17,87269,2,0,P|312:8|352:29,1,80,2|2,0:0|0:0,0:0:0:0:
379,39,87633,2,0,P|415:55|479:40,1,80,2|2,0:0|0:0,0:0:0:0:
493,17,87997,6,0,L|470:147,1,120,2|2,0:0|0:0,0:0:0:0:
460,238,88603,1,2,0:0:0:0:
256,195,89088,5,6,3:2:0:0:
