osu file format v14

[General]
AudioFilename: audio.mp3
AudioLeadIn: 0
PreviewTime: 43821
Countdown: 0
SampleSet: Soft
StackLeniency: 0.7
Mode: 0
LetterboxInBreaks: 0
WidescreenStoryboard: 1

[Editor]
DistanceSpacing: 1
BeatDivisor: 4
GridSize: 32
TimelineZoom: 1.9

[Metadata]
Title:Happy End Princess (TV Size)
TitleUnicode:ハッピーエンドプリンセス (TV Size)
Artist:Uesaka Sumire
ArtistUnicode:上坂すみれ
Creator:Kohno Marika
Version:Collab Normal
Source:ティアムーン帝国物語~断頭台から始まる、姫の転生逆転ストーリー~
Tags:大石昌良 ooishi masayoshi 園田健太郎 kentaro sonoda Tearmoon Teikoku Monogatari: Dantoudai kara Hajimaru, Hime no Tensei Gyakuten Story empire poyoyo opening op theme pop jpop j-pop anime japanese Princess' Happy Ending princess __ag syndicate_ nilou -_nilou_-
BeatmapID:4358907
BeatmapSetID:2079610

[Difficulty]
HPDrainRate:3
CircleSize:3
OverallDifficulty:4
ApproachRate:5.5
SliderMultiplier:1
SliderTickRate:1

[Events]
//Background and Video events
0,0,"p.jpg",0,0
Video,-140,"a.mp4"
//Break Periods
2,83245,86230
//Storyboard Layer 0 (Background)
//Storyboard Layer 1 (Fail)
//Storyboard Layer 2 (Pass)
//Storyboard Layer 3 (Foreground)
//Storyboard Layer 4 (Overlay)
//Storyboard Sound Samples

[TimingPoints]
287,344.827586206897,4,2,1,55,1,0
1838,-111.111111111111,4,2,1,55,0,0
4597,-100,4,2,1,70,0,0
5804,-100,4,2,1,75,0,0
8390,-100,4,2,1,80,0,0
11321,-90.9090909090909,4,2,1,80,0,0
18218,-100,4,2,1,65,0,0
20287,-100,4,2,2,65,0,0
20631,-100,4,2,3,65,0,0
21149,-100,4,2,1,65,0,0
23045,-100,4,2,2,65,0,0
23218,-100,4,2,3,65,0,0
23304,-100,4,2,2,65,0,0
23735,-100,4,2,1,65,0,0
25804,-100,4,2,2,65,0,0
26149,-100,4,2,3,65,0,0
26666,-100,4,2,1,75,0,0
27916,-100,4,2,1,5,0,0
28218,-100,4,2,1,75,0,0
28735,-100,4,2,3,60,0,0
28821,-100,4,2,2,60,0,0
29252,-100,4,2,1,70,0,0
36149,-95.2380952380952,4,2,1,75,0,0
37355,-100,4,2,1,70,0,0
38907,-100,4,2,1,65,0,0
39596,-100,4,2,1,70,0,0
40286,-100,4,2,1,75,0,0
41666,-100,4,2,1,85,0,0
44424,-90.9090909090909,4,2,1,80,0,0
44683,-90.9090909090909,4,2,1,5,0,0
44768,-90.9090909090909,4,2,1,80,0,0
50200,-90.9090909090909,4,2,1,5,0,0
50286,-90.9090909090909,4,2,1,80,0,0
66493,-90.9090909090909,4,2,1,55,0,0
68735,-100,4,2,1,55,0,0
69080,-100,4,2,1,70,0,0
72011,-100,4,2,1,80,0,0
77528,-90.9090909090909,4,2,1,80,0,0
87355,-90.9090909090909,4,2,1,70,0,0
87613,-90.9090909090909,4,2,1,75,0,0
87872,-90.9090909090909,4,2,1,80,0,0

[Colours]
Combo1 : 77,108,238
Combo2 : 255,255,53
Combo3 : 120,236,239
Combo4 : 255,191,172

[HitObjects]
58,87,287,6,0,P|69:51|171:31,1,150,2|2,2:0|2:0,2:0:0:0:
213,61,976,1,0,2:0:0:0:
213,61,1149,1,2,2:0:0:0:
285,113,1493,1,2,2:0:0:0:
240,191,1838,2,0,L|186:181,2,45,2|0|2,2:0|2:0|2:0,2:0:0:0:
268,226,2355,1,2,2:0:0:0:
332,288,2700,1,2,2:0:0:0:
345,377,3045,6,0,P|391:375|444:304,1,135,2|2,2:0|2:0,2:0:0:0:
448,268,3735,1,0,2:0:0:0:
448,268,3907,1,2,2:0:0:0:
388,200,4252,1,2,2:0:0:0:
443,116,4597,2,0,P|480:115|512:133,2,75,2|2|2,1:2|1:2|1:2,2:0:0:0:
262,205,5804,6,0,P|217:178|157:196,1,100,6|0,3:2|2:0,2:0:0:0:
130,212,6321,1,2,3:2:0:0:
86,302,6666,1,0,2:0:0:0:
169,357,7011,1,6,3:2:0:0:
169,357,7183,2,0,L|241:345,1,50,0|0,2:0|2:0,2:0:0:0:
267,360,7528,1,2,2:0:0:0:
267,360,7700,1,6,3:2:0:0:
265,259,8045,2,0,P|235:254|209:234,1,50,0|2,2:0|2:0,2:0:0:0:
187,205,8390,6,0,L|197:94,1,100,6|0,3:2|2:0,2:0:0:0:
216,59,8907,2,0,L|276:50,1,50,2|0,1:2|3:2,2:0:0:0:
314,61,9252,2,0,L|321:1,2,50,2|0|2,1:2|3:0|1:2,2:0:0:0:
337,105,9769,1,2,3:2:0:0:
421,158,10114,1,0,3:0:0:0:
421,158,10287,1,2,1:2:0:0:
346,223,10631,2,0,L|237:197,1,100,2|0,1:2|1:0,2:0:0:0:
139,211,11321,6,0,P|80:215|32:181,2,110,6|0|0,3:2|1:0|3:0,2:0:0:0:
174,253,12183,2,0,L|179:307,1,55,2|0,2:0|1:0,2:0:0:0:
215,349,12528,2,0,P|260:317|323:324,1,110,2|2,2:0|2:0,2:0:0:0:
359,341,13045,1,0,1:0:0:0:
359,341,13218,1,2,2:0:0:0:
450,279,13562,2,0,L|457:209,1,55,0|0,3:0|1:2,2:0:0:0:
488,180,13907,6,0,L|464:55,1,110,6|2,3:2|3:2,2:0:0:0:
427,34,14424,1,0,1:0:0:0:
318,18,14769,2,0,P|290:51|298:124,1,110,2|0,3:2|1:0,2:0:0:0:
332,153,15287,2,0,L|325:215,1,55,6|0,3:2|2:0,2:0:0:0:
302,257,15631,1,2,3:2:0:0:
208,314,15976,2,0,P|166:312|101:279,1,110,8|8,2:3|2:3,2:0:0:0:
57,268,16493,1,0,1:0:0:0:
57,268,16666,1,8,2:3:0:0:
8,86,18218,6,0,P|62:57|119:69,1,100,2|2,3:2|1:2,2:0:0:0:
188,104,18907,2,0,L|179:160,1,50,2|2,3:2|2:0,2:0:0:0:
142,186,19252,1,0,1:2:0:0:
217,252,19597,2,0,P|271:225|330:235,1,100,0|0,3:0|1:0,2:0:0:0:
355,315,20287,2,0,L|414:308,1,50,2|2,3:0|2:3,2:0:0:0:
452,324,20631,1,2,1:3:0:0:
452,324,20804,1,2,2:3:0:0:
495,233,21149,5,2,2:0:0:0:
495,233,21321,2,0,P|475:165|474:113,1,100,2|0,1:2|3:2,2:0:0:0:
460,36,22011,1,0,1:0:0:0:
361,48,22355,2,0,L|368:97,1,50,0|2,3:2|2:0,2:0:0:0:
389,143,22700,1,0,1:2:0:0:
351,235,23045,2,0,P|294:215|241:209,1,100,2|2,3:0|1:3,2:0:0:0:
171,153,23735,6,0,P|146:188|155:262,1,100,4|2,3:2|1:2,2:0:0:0:
146,347,24424,1,0,3:0:0:0:
146,347,24597,2,0,L|80:355,1,50,2|0,2:0|1:0,2:0:0:0:
48,367,24942,2,0,L|36:256,1,100,2|0,2:0|2:0,2:0:0:0:
18,221,25459,1,0,1:0:0:0:
106,172,25804,2,0,L|97:111,1,50,2|2,3:0|2:3,2:0:0:0:
67,83,26149,1,2,1:3:0:0:
209,29,26666,5,0,1:0:0:0:
209,29,26838,1,0,1:0:0:0:
293,92,27183,1,0,1:0:0:0:
293,92,27355,1,0,1:0:0:0:
235,173,27700,1,0,1:0:0:0:
235,173,27873,2,0,L|244:232,1,50,2|0,1:2|2:0,2:0:0:0:
260,269,28218,2,0,P|326:237|468:248,1,200,6|2,3:2|1:3,2:0:0:0:
489,332,29252,5,2,3:2:0:0:
397,371,29597,1,0,3:2:0:0:
309,322,29942,1,2,2:0:0:0:
349,230,30287,2,0,L|336:167,1,50,2|2,1:2|2:0,2:0:0:0:
343,131,30631,1,0,3:2:0:0:
256,81,30976,2,0,L|186:86,1,50,0|4,3:0|2:3,2:0:0:0:
157,73,31321,2,0,P|132:111|132:179,1,100,2|8,2:0|2:3,2:0:0:0:
206,226,32011,5,2,3:2:0:0:
140,301,32355,1,0,3:0:0:0:
212,370,32700,1,2,2:0:0:0:
292,310,33045,1,0,1:0:0:0:
379,359,33390,2,0,P|443:354|484:326,1,100,0|0,3:2|3:0,2:0:0:0:
483,287,33907,1,4,2:3:0:0:
483,287,34080,2,0,L|489:217,1,50,2|2,2:0|3:2,2:0:0:0:
478,188,34424,1,4,1:0:0:0:
420,105,34769,6,0,P|374:83|365:83,1,50,2|2,1:2|1:2,2:0:0:0:
326,82,35114,1,2,1:2:0:0:
239,31,35459,2,0,P|196:59|192:67,1,50,2|2,1:2|1:2,2:0:0:0:
173,101,35804,1,2,1:2:0:0:
81,153,36149,2,0,P|84:203|94:220,1,52.5,2|2,1:2|1:2,2:0:0:0:
111,250,36493,1,2,1:2:0:0:
136,351,36838,2,0,P|182:373|200:373,1,52.5,2|2,1:2|1:2,2:0:0:0:
235,373,37183,1,2,1:2:0:0:
235,373,37355,6,0,P|247:270|251:254,1,100,6|0,3:2|3:0,2:0:0:0:
283,240,37873,1,0,1:0:0:0:
298,141,38218,2,0,L|287:75,1,50,0|4,3:0|2:3,2:0:0:0:
293,41,38562,1,2,1:2:0:0:
195,20,38907,5,6,3:2:0:0:
128,95,39252,2,0,L|16:83,1,100,2|2,3:2|3:2,2:0:0:0:
11,183,39942,2,0,L|110:193,1,100,2|2,3:2|3:2,2:0:0:0:
171,273,40631,2,0,P|215:238|363:253,1,200,2|0,3:2|3:0,2:0:0:0:
440,292,41666,6,0,L|451:223,1,50,6|0,1:2|3:0,2:0:0:0:
488,213,42011,2,0,L|477:144,1,50,2|0,1:2|3:0,2:0:0:0:
456,119,42355,2,0,L|395:128,1,50,2|0,1:2|3:0,2:0:0:0:
364,111,42700,1,0,1:0:0:0:
364,111,42873,2,0,P|311:80|268:104,1,100,2|0,3:2|3:0,2:0:0:0:
243,128,43390,1,2,1:2:0:0:
158,74,43735,1,2,1:2:0:0:
29,218,44424,6,0,P|37:266|46:336,1,110,2|4,3:2|1:2,2:0:0:0:
87,362,44942,1,2,3:2:0:0:
173,296,45287,2,0,P|231:285|279:317,1,110,2|0,2:0|2:0,2:0:0:0:
310,350,45804,2,0,P|317:308|330:273,1,55,2|2,3:2|2:0,2:0:0:0:
366,266,46149,1,2,1:2:0:0:
366,266,46321,1,2,1:2:0:0:
457,204,46666,2,0,L|446:137,1,55,2|0,2:0|1:0,2:0:0:0:
480,105,47011,6,0,P|442:70|366:69,1,110,2|2,3:2|3:2,2:0:0:0:
334,48,47528,2,0,L|327:117,1,55,2|0,1:2|2:0,2:0:0:0:
307,153,47873,2,0,L|378:143,2,55,2|2|2,3:2|2:0|1:2,2:0:0:0:
275,198,48390,2,0,P|240:223|175:220,1,110,4|2,1:2|3:2,2:0:0:0:
125,197,48907,1,2,1:2:0:0:
26,148,49252,2,0,P|31:95|42:32,1,110,2|0,1:2|1:0,2:0:0:0:
148,16,49942,6,0,P|194:47|257:43,1,110,0|6,3:2|1:2,2:0:0:0:
299,29,50459,1,2,0:0:0:0:
369,113,50804,1,2,2:0:0:0:
361,226,51149,1,0,2:0:0:0:
361,226,51321,2,0,P|309:237|284:244,1,55,2|2,3:2|2:0,2:0:0:0:
276,283,51666,1,2,1:2:0:0:
276,283,51838,2,0,P|196:266|159:261,1,110,2|2,2:0|2:0,2:0:0:0:
119,289,52355,2,0,L|102:212,1,55,0|2,1:0|2:0,2:0:0:0:
55,215,52700,6,0,P|30:152|42:101,1,110,6|2,3:2|1:2,2:0:0:0:
75,71,53218,1,2,3:2:0:0:
179,38,53562,2,0,L|259:45,1,55,8|0,2:3|3:0,2:0:0:0:
288,41,53907,1,2,3:2:0:0:
372,111,54252,1,2,3:2:0:0:
477,80,54597,1,2,3:2:0:0:
477,80,54769,1,2,3:2:0:0:
500,187,55114,2,2,P|494:226|490:311,1,110.000003356934,0|2,1:0|3:2,2:0:0:0:
406,364,55804,5,6,1:2:0:0:
406,364,55976,2,0,P|376:345|348:343,1,55,2|0,2:0|3:0,2:0:0:0:
302,349,56321,2,0,P|271:300|285:237,1,110,2|0,3:2|2:0,2:0:0:0:
307,204,56838,2,0,L|294:129,1,55,2|2,3:2|2:0,2:0:0:0:
319,99,57183,1,2,1:2:0:0:
319,99,57355,1,2,1:2:0:0:
224,42,57700,2,0,L|144:35,1,55,0|0,3:2|1:0,2:0:0:0:
114,28,58045,6,0,L|103:140,1,110,2|2,1:2|2:0,2:0:0:0:
58,170,58562,2,0,L|66:237,1,55,2|2,1:2|2:0,2:0:0:0:
69,279,58907,2,0,L|8:270,2,55,0|2|2,3:0|2:0|1:2,2:0:0:0:
104,320,59424,2,0,P|162:301|223:308,1,110,6|0,1:2|3:0,2:0:0:0:
252,340,59942,1,2,1:2:0:0:
341,276,60287,2,0,P|350:196|361:147,1,110,0|0,1:0|1:0,2:0:0:0:
454,118,60976,5,0,3:0:0:0:
380,44,61321,1,6,1:2:0:0:
380,44,61493,2,0,P|316:56|267:59,1,110,2|2,2:0|3:2,2:0:0:0:
223,30,62011,2,0,P|216:83|214:93,1,55,2|2,1:2|2:0,2:0:0:0:
178,124,62355,2,0,L|187:178,2,55,0|2|2,3:0|2:0|1:2,2:0:0:0:
125,104,62873,1,2,1:2:0:0:
36,170,63218,6,0,L|26:232,1,55,4|0,3:0|3:0,2:0:0:0:
31,279,63562,1,6,3:2:0:0:
119,344,63907,2,0,L|181:334,1,55,0|0,3:0|1:0,2:0:0:0:
228,339,64252,1,6,3:2:0:0:
290,248,64597,6,0,L|280:186,1,55,8|0,3:0|1:0,2:0:0:0:
285,139,64942,2,0,P|325:102|387:103,1,110,6|0,3:2|3:0,2:0:0:0:
425,127,65459,1,0,1:0:0:0:
493,213,65804,1,0,1:0:0:0:
459,317,66149,2,0,P|410:355|356:348,1,110,0|2,1:0|2:0,2:0:0:0:
496,81,68735,6,0,P|431:71|424:69,1,50,8|4,2:3|2:3,2:0:0:0:
399,57,69080,1,4,1:2:0:0:
299,66,69424,2,0,P|257:117|252:122,1,50,2|0,2:0|2:0,2:0:0:0:
229,138,69769,1,4,1:2:0:0:
194,231,70114,2,0,P|217:292|219:299,1,50,2|0,2:0|2:0,2:0:0:0:
222,328,70459,2,0,P|173:363|114:360,1,100,4|0,1:2|1:0,2:0:0:0:
88,346,70976,2,0,L|72:280,1,50,0|0,1:0|1:0,2:0:0:0:
42,259,71321,1,0,1:0:0:0:
94,173,71666,1,4,1:2:0:0:
46,85,72011,6,0,P|80:54|144:58,1,100,2|2,1:2|1:2,2:0:0:0:
175,76,72528,1,0,2:0:0:0:
175,76,72700,1,2,1:2:0:0:
359,154,73390,2,0,P|344:212|336:273,1,100,2|2,1:2|1:2,2:0:0:0:
337,301,73907,1,0,2:0:0:0:
337,301,74080,1,2,1:2:0:0:
500,185,74769,6,0,P|455:176|431:174,1,50,2|0,1:2|1:0,2:0:0:0:
400,179,75114,1,2,1:2:0:0:
338,257,75459,2,0,P|293:266|269:268,1,50,2|2,1:2|1:2,2:0:0:0:
238,263,75804,1,2,1:2:0:0:
175,184,76149,2,0,P|130:175|106:173,1,50,2|2,1:2|1:2,2:0:0:0:
76,181,76493,2,0,L|64:113,1,50,2|2,1:2|1:2,2:0:0:0:
35,93,76838,2,0,P|62:41|114:35,1,100,2|4,1:2|1:2,2:0:0:0:
209,23,77528,6,0,P|258:39|329:51,1,110,2|0,3:2|1:0,2:0:0:0:
366,29,78045,1,2,2:0:0:0:
454,95,78390,2,0,P|445:139|447:167,1,55,2|0,2:0|1:0,2:0:0:0:
458,202,78735,2,0,P|438:242|373:246,1,110,2|2,2:0|2:0,2:0:0:0:
339,208,79252,1,0,1:2:0:0:
339,208,79424,1,2,2:0:0:0:
253,276,79769,2,0,L|184:287,1,55,4|0,2:3|1:0,2:0:0:0:
162,326,80114,6,0,P|129:275|135:211,1,110,6|2,3:2|3:2,2:0:0:0:
158,180,80631,1,0,1:0:0:0:
244,112,80976,2,0,L|233:41,1,55,2|0,2:0|3:0,2:0:0:0:
212,7,81321,1,0,1:0:0:0:
212,7,81493,2,0,P|180:34|111:35,1,110,6|2,3:2|3:2,2:0:0:0:
11,75,82183,2,0,P|21:129|33:193,1,110,2|2,3:2|3:2,2:0:0:0:
50,234,82700,2,0,L|107:243,1,55,2|2,1:2|3:2,2:0:0:0:
150,272,83045,1,0,3:0:0:0:
233,145,87355,6,0,L|245:244,2,82.5,6|6|6,1:2|1:2|1:2,2:0:0:0:
