osu file format v14

[General]
AudioFilename: audio.mp3
AudioLeadIn: 0
PreviewTime: 48790
Countdown: 0
SampleSet: Soft
StackLeniency: 0.3
Mode: 0
LetterboxInBreaks: 0
WidescreenStoryboard: 1

[Editor]
DistanceSpacing: 1.2
BeatDivisor: 4
GridSize: 4
TimelineZoom: 1.2

[Metadata]
Title:EASY LOVE (TV Size)
TitleUnicode:EASY LOVE (TV Size)
Artist:Uesaka Sumire
ArtistUnicode:上坂すみれ
Creator:Kuki1537
Version:TORRIRU'S EXPERT
Source:イジらないで、長瀞さん
Tags:ijiranaide nagatoro-san nagatoro san don't dont toy with me miss opening op anime japanese female vocal j-pop j pop jpop mimari basensorex kirishima- torriru my_angel_ram my angel ram
BeatmapID:2945149
BeatmapSetID:1372562

[Difficulty]
HPDrainRate:5
CircleSize:3.6
OverallDifficulty:8.4
ApproachRate:9
SliderMultiplier:1.8
SliderTickRate:1

[Events]
//Background and Video events
Video,-50,"video.mp4"
0,0,"quality test2.jpg",0,0
//Break Periods
//Storyboard Layer 0 (Background)
//Storyboard Layer 1 (Fail)
//Storyboard Layer 2 (Pass)
//Storyboard Layer 3 (Foreground)
//Storyboard Layer 4 (Overlay)
//Storyboard Sound Samples

[TimingPoints]
360,319.148936170213,4,2,45,55,1,0
360,-125,4,2,45,55,0,0
2274,-100,4,2,45,55,0,0
2514,-100,4,2,45,5,0,0
2594,-100,4,2,45,55,0,0
2834,-100,4,2,45,5,0,0
2913,-125,4,2,45,55,0,0
4828,-100,4,2,45,55,0,0
5067,-100,4,2,45,5,0,0
5147,-83.3333333333333,4,2,45,70,0,0
5386,-83.3333333333333,4,2,45,5,0,0
5466,-100,4,2,45,80,0,0
9615,-100,4,2,45,80,0,0
13605,-99.9999999999995,4,2,45,80,0,0
15360,-100,4,2,45,80,0,0
15679,-125,4,2,45,60,0,0
23338,-111.111111111111,4,2,45,60,0,0
23897,-111.111111111111,4,2,45,5,0,0
23977,-80,4,2,45,60,0,0
24375,-111.111111111111,4,2,45,5,0,0
24455,-100,4,2,45,70,0,0
26051,-111.111111111111,4,2,45,70,0,0
33551,-100,4,2,45,70,0,0
36104,-125,4,2,45,75,0,0
38179,-100,4,2,45,75,0,0
38657,-125,4,2,45,75,0,0
40732,-100,4,2,45,75,0,0
41210,-125,4,2,45,75,0,0
43764,-125,4,2,45,75,0,0
44083,-142.857142857143,4,2,45,75,0,0
44402,-166.666666666667,4,2,45,75,0,0
44721,-200,4,2,45,75,0,0
45040,-333.333333333333,4,2,45,60,0,0
46317,-333.333333333333,4,2,45,75,0,0
47753,-100,4,2,45,75,0,0
48551,-71.4285714285714,4,2,45,75,0,0
48870,-100.000000000001,4,2,45,85,0,1
51344,-100.000000000001,4,2,45,5,0,1
51423,-100.000000000001,4,2,45,85,0,1
61556,-100.000000000001,4,2,45,5,0,1
61636,-100.000000000001,4,2,45,85,0,1
76955,-100,4,2,45,85,0,0
77115,-100,4,2,45,50,0,0
78232,-100,4,2,45,85,0,0
79508,-100,4,2,45,80,0,0
89402,-100,4,2,45,5,0,0
89562,-100,4,2,45,5,0,0

[Colours]
Combo1 : 83,14,211
Combo2 : 108,255,222
Combo3 : 255,23,111
Combo4 : 108,108,255
Combo5 : 173,255,62
Combo6 : 236,60,255
Combo7 : 255,244,43
Combo8 : 255,33,9

[HitObjects]
4,332,360,6,0,B|39:306|85:328|65:335|107:354|142:334,1,144,6|10,1:2|0:2,0:2:0:0:
124,184,838,1,8,0:2:0:0:
124,184,998,2,0,P|107:217|113:255,1,72,2|0,0:2|1:2,0:2:0:0:
204,144,1317,1,10,0:2:0:0:
204,144,1477,2,0,P|184:112|149:98,1,72,2|0,1:2|0:0,0:2:0:0:
200,232,1796,1,2,1:2:0:0:
200,232,1956,2,0,P|238:231|267:207,1,72,10|8,0:2|0:2,0:0:0:0:
340,160,2274,6,0,L|364:294,1,135,2|0,0:2|0:2,0:2:0:0:
380,308,2594,6,0,L|356:174,1,135,10|0,0:2|0:2,0:2:0:0:
414,73,2913,6,0,B|379:99|333:77|353:70|311:51|277:70,2,144,6|10|2,1:2|0:2|3:2,0:2:0:0:
318,213,3870,1,10,0:2:0:0:
318,213,4030,2,0,P|301:182|305:146,1,72,6|0,1:2|0:0,0:2:0:0:
397,251,4349,1,2,1:2:0:0:
397,251,4509,2,0,P|377:282|341:296,1,72,10|0,0:2|0:0,0:0:0:0:
512,150,4828,6,0,B|488:170|478:196|478:196|452:162|411:163,1,135,2|2,0:2|0:2,0:2:0:0:
288,44,5147,6,0,B|336:52|348:96|348:96|376:60|424:72,1,161.999995056153,14|0,1:2|0:2,0:2:0:0:
397,252,5466,6,0,L|412:163,1,90,6|0,1:2|0:2,0:2:0:0:
267,125,5785,1,10,0:2:0:0:
271,147,5864,1,2,0:2:0:0:
275,169,5945,2,0,L|284:218,1,45,2|2,0:2|0:2,0:0:0:0:
378,342,6104,6,0,L|289:327,1,90,2|0,1:2|0:2,0:2:0:0:
108,246,6423,1,10,0:2:0:0:
130,243,6502,1,2,0:2:0:0:
152,239,6583,2,0,L|201:230,1,45,2|2,0:2|0:2,0:2:0:0:
363,200,6742,1,2,1:2:0:0:
180,120,6902,1,2,0:2:0:0:
379,215,7062,1,10,0:2:0:0:
240,44,7221,6,0,P|155:25|88:84,1,180,10|0,0:2|1:2,0:2:0:0:
272,132,7700,1,8,0:2:0:0:
100,168,7860,5,2,1:2:0:0:
304,220,8019,1,2,1:2:0:0:
88,152,8179,2,0,L|-1:167,1,90,2|12,1:2|0:2,0:0:0:0:
304,220,8498,5,10,0:2:0:0:
100,272,8657,1,2,1:2:0:0:
316,204,8817,2,0,L|405:219,1,90,2|12,1:2|0:2,0:0:0:0:
244,384,9136,6,0,B|210:378|192:343|192:343|210:233,1,180,6|0,1:2|1:2,0:2:0:0:
388,128,9615,1,10,0:2:0:0:
296,308,9774,1,10,0:2:0:0:
188,140,9934,2,0,P|232:137|271:158,1,90,2|2,1:2|1:2,0:0:0:0:
152,280,10253,2,0,P|127:243|126:199,1,90,10|2,0:2|1:2,0:0:0:0:
286,70,10572,6,0,L|271:158,1,90,6|0,1:2|0:2,0:2:0:0:
408,320,10891,1,10,0:2:0:0:
404,298,10970,1,2,0:2:0:0:
400,276,11051,2,0,L|391:227,1,45,2|2,0:2|0:2,0:0:0:0:
512,104,11211,6,0,L|424:89,1,90,2|0,1:2|0:2,0:2:0:0:
212,172,11530,1,10,0:2:0:0:
234,168,11609,1,2,0:2:0:0:
256,164,11690,2,0,L|305:155,1,45,2|2,0:2|0:2,0:2:0:0:
488,288,11849,1,2,1:2:0:0:
272,248,12008,1,2,0:2:0:0:
500,300,12168,1,10,0:2:0:0:
272,348,12328,6,0,B|193:334|193:334|176:343|176:343|95:328,1,180,10|0,0:2|1:2,0:2:0:0:
212,172,12806,1,8,0:2:0:0:
44,232,12966,5,2,1:2:0:0:
272,248,13125,1,6,1:2:0:0:
104,152,13285,2,0,P|64:130|20:133,1,90,2|8,1:2|0:2,0:0:0:0:
272,248,13604,5,10,0:2:0:0:
72,320,13763,1,6,1:2:0:0:
212,172,13923,2,0,P|250:150|295:153,1,90,2|8,1:2|0:2,0:0:0:0:
420,368,14242,6,0,B|386:362|368:327|368:327|386:217,1,180,6|0,1:2|1:2,0:2:0:0:
512,20,14721,1,10,0:2:0:0:
512,236,14881,1,10,0:2:0:0:
367,51,15040,6,0,B|248:30|248:30|279:39|293:78,1,180,6|0,1:2|0:2,0:2:0:0:
289,69,15679,38,0,B|307:156|307:156|297:185|268:198,1,144,6|2,1:2|0:2,0:2:0:0:
246,286,16157,1,0,1:2:0:0:
246,286,16237,1,0,1:2:0:0:
246,286,16317,2,0,P|282:287|316:269,1,72,10|10,0:2|0:2,0:2:0:0:
174,218,16636,2,0,P|154:249|153:287,1,72,2|2,3:2|1:2,0:2:0:0:
252,376,16955,6,0,B|199:366|199:366|170:384|170:384|115:374,1,144,10|2,0:2|1:2,0:2:0:0:
17,287,17434,2,0,B|72:277|72:277|101:295|101:295|154:285,1,144,2|8,0:2|0:2,0:0:0:0:
256,192,17913,2,0,L|243:263,1,72,2|0,3:2|1:2,0:2:0:0:
152,112,18232,6,0,B|186:137|231:115|212:108|253:89|287:109,1,144,2|2,1:2|3:2,0:2:0:0:
242,259,18711,1,0,1:2:0:0:
242,259,18790,1,0,1:2:0:0:
242,259,18870,2,0,P|240:223|256:192,1,72,10|10,0:2|0:2,0:2:0:0:
300,324,19189,2,0,P|269:343|234:345,1,72,2|0,3:2|1:2,0:2:0:0:
348,248,19508,6,0,L|419:261,2,72,2|10|2,1:2|0:2|1:2,0:0:0:0:
300,324,19987,2,0,P|257:268|272:200,1,144,2|8,3:2|0:2,0:0:0:0:
420,172,20466,2,0,L|349:159,1,72,0|0,3:2|1:2,0:2:0:0:
264,32,20785,6,0,L|335:19,1,72,2|10,1:2|0:2,0:0:0:0:
271,200,21104,1,2,3:2:0:0:
196,80,21264,1,0,1:2:0:0:
196,80,21344,1,0,1:2:0:0:
196,80,21423,2,0,P|179:48|181:12,1,72,10|8,1:2|0:2,0:2:0:0:
340,64,21742,2,0,P|320:97|288:113,1,72,2|2,3:2|1:2,0:0:0:0:
148,184,22062,6,0,L|219:171,1,72,10|2,0:2|3:2,0:2:0:0:
356,252,22381,1,10,1:2:0:0:
356,252,22540,2,0,L|285:239,1,72,2|8,1:2|0:2,0:0:0:0:
432,308,22860,1,8,0:2:0:0:
432,308,23019,2,0,P|448:276|446:240,1,72,2|0,1:2|3:2,0:2:0:0:
276,147,23338,6,0,B|322:179|382:153|357:139|416:109|467:148|467:148|422:136|393:167,1,283.499991348267,6|0,1:2|0:0,0:2:0:0:
392,184,23977,6,0,B|421:153|466:165|466:165|415:126|356:156|381:170|321:196|275:164,1,281.25,6|0,1:2|0:0,0:2:0:0:
220,79,24455,6,0,P|260:59|305:65,1,90,6|0,1:2|0:2,0:2:0:0:
212,260,24774,1,0,1:2:0:0:
124,80,24934,2,0,L|107:174,1,90,8|0,0:2|0:2,0:0:0:0:
168,352,25253,1,8,0:2:0:0:
168,352,25333,1,8,0:2:0:0:
168,352,25413,1,0,1:2:0:0:
12,228,25572,1,0,1:2:0:0:
212,260,25732,5,10,0:2:0:0:
32,332,25891,1,6,1:2:0:0:
160,184,26051,2,0,P|197:165|243:174,1,80.9999975280763,2|8,0:2|0:2,0:0:0:0:
372,320,26370,5,2,0:2:0:0:
212,260,26530,1,2,1:2:0:0:
368,156,26689,2,0,L|353:235,1,80.9999975280763,2|8,1:2|0:2,0:0:0:0:
488,80,27008,6,0,B|450:101|397:79|419:71|372:50|333:74,1,161.999995056153,2|2,0:2|1:2,0:2:0:0:
212,172,27487,1,10,0:2:0:0:
352,235,27647,2,0,P|368:198|362:159,1,80.9999975280763,2|0,0:2|1:2,0:2:0:0:
268,280,27966,2,0,P|291:312|328:327,1,80.9999975280763,2|8,1:2|0:2,0:2:0:0:
212,172,28285,5,2,0:2:0:0:
212,368,28445,1,0,1:2:0:0:
352,235,28604,2,0,L|337:155,1,80.9999975280763,2|10,0:2|0:2,0:0:0:0:
276,0,28923,5,2,0:2:0:0:
212,172,29083,1,2,1:2:0:0:
388,80,29242,2,0,P|427:75|463:93,1,80.9999975280763,2|8,1:2|0:2,0:2:0:0:
408,304,29562,1,2,3:2:0:0:
296,136,29721,5,2,1:2:0:0:
480,220,29881,1,2,1:2:0:0:
280,244,30040,1,10,0:2:0:0:
424,112,30200,2,0,L|504:127,1,80.9999975280763,2|0,1:2|1:2,0:2:0:0:
316,16,30519,2,0,L|236:31,1,80.9999975280763,2|8,1:2|0:2,0:2:0:0:
172,200,30838,1,2,0:2:0:0:
64,48,30998,6,0,B|83:144|83:144|72:172|40:190,1,161.999995056153,6|8,1:2|0:2,0:2:0:0:
96,364,31477,1,0,0:2:0:0:
172,200,31636,2,0,L|252:215,1,80.9999975280763,0|0,1:2|1:2,0:0:0:0:
352,80,31955,2,0,L|272:95,1,80.9999975280763,8|0,0:2|0:2,0:2:0:0:
380,272,32274,5,0,1:2:0:0:
488,104,32434,1,0,1:2:0:0:
488,104,32514,1,0,1:2:0:0:
488,104,32594,2,0,L|473:184,1,80.9999975280763,8|0,0:2|1:2,0:0:0:0:
468,220,32833,1,0,1:2:0:0:
468,220,32913,2,0,L|478:272,3,40.4999987640381,0|0|8|0,1:2|1:2|0:2|1:2,0:2:0:0:
384,144,33232,2,0,L|391:104,3,40.4999987640381,10|0|0|0,0:2|1:2|1:2|1:2,0:2:0:0:
316,228,33551,6,0,B|272:255|219:232|244:223|185:198|142:222,1,180,6|8,1:2|0:2,0:2:0:0:
8,300,34030,2,0,B|48:277|107:302|82:311|135:334|179:307,1,180,2|0,0:2|1:2,0:0:0:0:
158,137,34508,2,0,P|138:177|144:222,1,90,10|0,0:2|0:2,0:2:0:0:
264,384,34828,5,2,1:2:0:0:
296,192,34987,1,8,0:2:0:0:
144,316,35147,1,0,1:2:0:0:
352,296,35306,1,0,3:2:0:0:
352,296,35386,1,8,0:2:0:0:
352,296,35466,2,0,L|441:311,1,90,8|8,0:2|0:2,0:0:0:0:
512,168,35785,2,0,L|423:183,1,90,8|4,0:3|1:3,0:0:0:0:
296,56,36104,6,0,B|351:66|351:66|380:48|380:48|433:58,1,144,6|10,1:2|0:2,0:2:0:0:
244,132,36583,2,0,P|201:76|216:8,1,144,2|2,1:2|1:2,0:2:0:0:
332,140,37062,1,10,0:2:0:0:
332,140,37221,2,0,B|348:225|348:225|339:249|310:265,1,144,2|2,1:2|1:2,0:2:0:0:
256,336,37700,1,10,0:2:0:0:
256,336,37860,2,0,P|291:354|331:349,1,72,2|0,1:2|3:2,0:2:0:0:
204,188,38179,5,4,1:2:0:0:
128,344,38338,2,0,L|38:327,1,90,12|0,0:2|0:0,0:0:0:0:
0,168,38657,6,0,P|56:125|124:140,1,144,6|10,1:2|0:2,0:2:0:0:
204,236,39136,2,0,B|118:252|118:252|94:243|78:214,1,144,6|2,1:2|1:2,0:2:0:0:
256,160,39615,1,10,0:2:0:0:
256,160,39774,2,0,P|299:216|284:284,1,144,6|2,1:2|1:2,0:2:0:0:
133,223,40253,1,10,0:2:0:0:
133,223,40413,2,0,L|203:235,1,72,2|2,0:2|3:2,0:0:0:0:
112,96,40732,5,4,1:2:0:0:
64,276,40891,2,0,P|44:239|54:186,1,90,12|0,0:2|0:2,0:2:0:0:
235,124,41211,6,0,P|167:138|112:96,1,144,6|10,1:2|0:2,0:2:0:0:
276,48,41689,2,0,P|322:99|313:169,1,144,6|2,1:2|1:2,0:2:0:0:
208,240,42168,1,10,0:2:0:0:
208,240,42328,2,0,B|242:220|288:240|268:247|310:266|345:244,1,144,6|2,1:2|1:2,0:2:0:0:
504,144,42806,5,10,0:2:0:0:
440,344,42966,1,10,0:2:0:0:
440,344,43046,1,8,0:2:0:0:
440,344,43125,2,0,L|426:265,1,72,8|8,0:2|0:2,0:0:0:0:
408,88,43445,1,8,0:2:0:0:
408,88,43524,1,8,0:2:0:0:
408,88,43604,1,8,0:2:0:0:
345,244,43764,6,2,L|293:234,3,36,6|2|2|2,1:2|0:2|0:2|0:2,0:2:0:0:
192,304,44083,2,2,L|227:297,3,31.4999990386963,2|2|2|2,0:2|0:2|0:2|0:2,0:2:0:0:
336,160,44402,6,0,L|284:150,3,26.9999991760254,2|2|2|2,0:2|0:2|0:2|0:2,0:0:0:0:
183,220,44721,2,0,L|218:213,3,22.5,2|2|2|2,0:2|0:2|0:2|0:2,0:0:0:0:
224,128,45040,6,0,B|178:99|122:123|148:133|87:159|42:134,1,188.999994232178,6|2,1:2|0:2,0:2:0:0:
184,200,46317,5,14,0:2:0:0:
88,60,46477,1,12,0:2:0:0:
20,296,46796,5,12,0:2:0:0:
130,135,46956,1,12,0:2:0:0:
184,380,47274,5,12,0:2:0:0:
74,219,47434,1,12,0:2:0:0:
264,304,47594,5,8,0:2:0:0:
264,304,47673,1,8,0:2:0:0:
264,304,47753,2,8,L|220:297,1,45,8|8,0:2|0:2,0:2:0:0:
130,135,47913,5,8,0:3:0:0:
150,132,47992,1,8,0:3:0:0:
168,128,48072,1,8,0:3:0:0:
188,125,48152,1,8,0:3:0:0:
207,122,48232,2,8,L|250:114,1,45,8|8,0:3|0:3,0:3:0:0:
408,268,48391,5,4,0:3:0:0:
408,268,48471,1,4,0:3:0:0:
408,268,48551,2,0,P|432:200|364:244,1,188.999994232178,12|0,0:2|0:2,0:2:0:0:
324,312,48870,6,0,L|236:297,1,90,6|2,1:2|0:2,0:2:0:0:
119,137,49189,2,0,L|207:122,1,90,10|2,0:2|0:2,0:0:0:0:
88,280,49508,1,2,1:2:0:0:
60,72,49668,1,12,0:2:0:0:
216,212,49828,1,12,0:2:0:0:
280,20,49987,6,1,B|201:6|201:6|184:15|184:15|103:0,1,180,2|2,0:2|0:2,0:0:0:0:
216,212,50466,2,0,P|240:175|241:130,1,90,10|2,0:2|0:2,0:0:0:0:
24,184,50785,1,2,1:2:0:0:
216,296,50945,1,12,0:2:0:0:
121,60,51104,2,0,L|137:154,1,90,12|0,0:2|0:0,0:2:0:0:
239,383,51423,6,0,P|194:385|155:364,1,90,6|0,1:2|0:2,0:2:0:0:
285,232,51742,2,0,P|309:268|310:313,1,90,10|0,0:2|0:2,0:2:0:0:
216,152,52062,2,0,L|310:135,1,90,2|0,1:2|0:2,0:2:0:0:
496,212,52381,1,10,0:2:0:0:
388,30,52540,2,0,L|183:66,1,180,2|2,3:2|0:2,0:0:0:0:
197,235,53019,6,0,P|218:195|215:151,1,90,10|0,0:2|0:2,0:0:0:0:
110,273,53338,2,0,P|133:310|173:330,1,90,2|12,1:2|0:2,0:0:0:0:
376,176,53657,1,12,0:2:0:0:
197,235,53817,5,2,3:2:0:0:
384,292,53977,1,6,1:2:0:0:
268,116,54136,2,0,L|283:204,1,90,2|8,0:2|0:2,0:2:0:0:
470,322,54455,5,2,0:2:0:0:
283,379,54615,1,2,1:2:0:0:
399,203,54774,2,0,L|384:292,1,90,2|8,1:2|0:2,0:2:0:0:
196,236,55094,5,2,0:2:0:0:
384,292,55254,1,2,1:2:0:0:
268,116,55413,2,0,L|283:204,1,90,2|8,0:2|0:2,0:2:0:0:
204,36,55732,6,0,P|243:14|287:17,1,90,2|0,0:2|1:2,0:2:0:0:
164,132,56051,2,0,P|126:108|106:68,1,90,2|8,1:2|0:2,0:2:0:0:
362,125,56370,1,2,0:2:0:0:
176,228,56530,6,0,B|97:214|97:214|80:223|80:223|-1:208,1,180,6|14,1:2|0:2,0:2:0:0:
189,322,57008,1,0,1:2:0:0:
65,133,57168,1,2,1:2:0:0:
19,338,57328,1,0,1:2:0:0:
164,132,57487,2,0,P|208:129|247:150,1,90,14|0,0:2|3:2,0:0:0:0:
355,345,57806,2,0,L|339:256,1,90,14|0,0:2|1:2,0:0:0:0:
500,132,58125,5,8,0:2:0:0:
440,288,58285,1,0,1:2:0:0:
360,84,58445,5,8,3:2:0:0:
512,228,58604,1,0,0:2:0:0:
268,168,58764,5,12,0:2:0:0:
488,48,58923,1,8,3:2:0:0:
292,260,59083,6,0,P|247:262|208:241,1,90,6|2,1:2|0:2,0:2:0:0:
96,40,59402,1,10,0:2:0:0:
268,168,59562,1,2,0:2:0:0:
76,28,59721,5,2,1:2:0:0:
208,241,59881,1,12,0:2:0:0:
263,3,60040,1,12,0:2:0:0:
124,196,60200,6,0,B|103:302|103:302|115:332|152:353,1,180,2|2,3:2|0:2,0:2:0:0:
291,259,60679,2,0,P|252:238|208:241,1,90,10|2,0:2|0:2,0:0:0:0:
352,384,60998,1,2,1:2:0:0:
388,192,61157,1,12,0:2:0:0:
500,384,61317,2,0,L|484:295,1,90,12|0,0:2|0:0,0:2:0:0:
372,176,61636,6,0,P|411:197|455:194,1,90,6|0,1:2|0:2,0:2:0:0:
332,84,61955,2,0,P|294:107|274:147,1,90,10|0,0:2|0:2,0:2:0:0:
432,96,62274,2,0,L|415:1,1,90,2|0,1:2|0:2,0:2:0:0:
208,56,62594,1,10,0:2:0:0:
372,176,62753,6,2,B|293:162|293:162|276:171|276:171|195:156,1,180,2|2,0:2|1:2,0:2:0:0:
168,324,63232,2,0,P|189:284|186:240,1,90,10|0,0:2|0:2,0:2:0:0:
48,140,63551,2,0,P|71:177|111:197,1,90,2|0,1:2|1:2,0:0:0:0:
272,40,63870,1,12,0:2:0:0:
48,140,64030,5,10,0:2:0:0:
244,164,64189,1,6,1:2:0:0:
120,0,64349,2,0,L|135:88,1,90,2|8,0:2|0:2,0:2:0:0:
331,215,64668,5,2,0:2:0:0:
135,239,64827,1,2,1:2:0:0:
259,75,64987,2,0,L|244:163,1,90,2|8,1:2|0:2,0:2:0:0:
48,140,65306,5,2,0:2:0:0:
244,164,65465,1,2,1:2:0:0:
120,0,65625,2,0,L|135:88,1,90,2|8,0:2|0:2,0:2:0:0:
42,248,65945,6,0,P|81:226|125:229,1,90,2|0,0:2|1:2,0:2:0:0:
162,384,66264,2,0,P|125:360|105:321,1,90,2|8,1:2|0:2,0:2:0:0:
264,264,66583,1,2,0:2:0:0:
88,172,66742,5,2,1:2:0:0:
88,172,66902,1,2,1:2:0:0:
248,352,67062,2,0,L|264:264,1,90,12|10,0:2|0:2,0:0:0:0:
344,44,67381,5,2,1:2:0:0:
344,44,67541,1,2,1:2:0:0:
183,224,67701,2,0,L|167:135,1,90,12|10,0:2|0:2,0:0:0:0:
160,104,67939,1,8,0:2:0:0:
160,104,68019,6,0,P|199:82|243:85,1,90,6|0,1:2|0:2,0:2:0:0:
368,224,68338,2,0,P|330:200|310:160,1,90,14|0,0:2|0:2,0:2:0:0:
492,32,68657,1,6,1:2:0:0:
456,252,68817,1,0,1:2:0:0:
326,66,68977,2,0,P|282:63|243:85,1,90,14|0,0:2|0:2,0:2:0:0:
354,312,69296,6,0,L|368:224,1,90,14|0,0:2|0:2,0:2:0:0:
148,56,69615,2,0,L|161:145,1,90,10|0,0:2|1:2,0:0:0:0:
128,332,69934,1,10,0:2:0:0:
253,136,70094,1,0,1:2:0:0:
31,216,70253,1,10,0:2:0:0:
239,351,70413,6,0,L|345:334,1,90,2|8,1:2|0:2,0:2:0:0:
397,118,70732,1,2,1:2:0:0:
233,247,70891,2,0,L|145:233,1,90,10|0,0:2|1:2,0:0:0:0:
193,26,71211,5,10,0:2:0:0:
338,247,71370,1,0,1:2:0:0:
80,131,71530,1,10,0:2:0:0:
333,24,71689,1,0,1:2:0:0:
233,247,71849,6,0,L|218:150,1,90,14|0,0:2|1:2,0:2:0:0:
429,282,72168,2,0,L|416:371,1,90,10|0,0:2|1:2,0:0:0:0:
306,118,72487,1,10,0:2:0:0:
507,226,72647,1,0,1:2:0:0:
282,335,72806,1,10,0:2:0:0:
405,113,72966,6,0,L|497:127,1,90,2|8,1:2|0:2,0:0:0:0:
377,365,73285,1,2,1:2:0:0:
233,179,73445,2,0,L|141:193,1,90,10|0,0:2|1:2,0:0:0:0:
357,275,73764,5,10,0:2:0:0:
230,47,73923,1,0,1:2:0:0:
155,338,74083,1,10,0:2:0:0:
306,118,74242,1,0,1:2:0:0:
265,376,74402,6,0,L|250:281,1,90,14|0,0:2|1:2,0:2:0:0:
136,79,74721,1,10,0:2:0:0:
54,308,74881,1,0,1:2:0:0:
215,141,75040,1,10,0:2:0:0:
120,379,75200,1,0,1:2:0:0:
51,128,75360,1,10,0:2:0:0:
249,277,75519,6,0,L|350:262,1,90,2|8,1:2|0:2,0:0:0:0:
345,20,75838,1,2,1:2:0:0:
178,228,75998,1,10,0:2:0:0:
436,126,76157,1,0,1:2:0:0:
191,29,76317,5,10,0:2:0:0:
328,324,76477,1,0,1:2:0:0:
456,28,76637,1,10,3:2:0:0:
178,228,76796,6,0,L|226:219,1,45,8|4,0:3|0:3,0:0:0:0:
512,172,76955,1,6,1:3:0:0:
159,0,78232,5,14,0:2:0:0:
216,192,78391,1,0,1:2:0:0:
40,88,78550,1,0,1:2:0:0:
284,120,78711,5,14,0:2:0:0:
108,204,78870,1,0,1:2:0:0:
248,28,79030,1,0,1:2:0:0:
272,268,79189,5,14,0:2:0:0:
123,115,79349,1,8,0:2:0:0:
123,115,79429,1,8,0:2:0:0:
123,115,79508,6,0,L|105:213,1,90,6|0,1:2|0:2,0:2:0:0:
4,316,79828,1,10,0:2:0:0:
26,312,79907,1,2,0:2:0:0:
48,308,79988,2,0,L|97:299,1,45,2|2,0:2|0:2,0:0:0:0:
256,384,80147,6,0,L|167:368,1,90,2|0,1:2|0:2,0:2:0:0:
255,179,80466,1,10,0:2:0:0:
259,201,80545,1,2,0:2:0:0:
263,223,80626,2,0,L|272:272,1,45,2|2,0:2|0:2,0:2:0:0:
444,148,80785,1,2,1:2:0:0:
240,88,80945,1,2,0:2:0:0:
460,164,81104,1,10,0:2:0:0:
304,24,81264,6,0,P|219:5|152:64,1,180,10|0,0:2|1:2,0:2:0:0:
152,248,81742,1,8,0:2:0:0:
240,88,81902,5,2,1:2:0:0:
64,164,82062,1,2,1:2:0:0:
264,200,82221,2,0,L|353:216,1,90,2|12,1:2|0:2,0:0:0:0:
176,36,82540,5,10,0:2:0:0:
352,112,82700,1,2,1:2:0:0:
152,148,82859,2,0,L|63:164,1,90,2|12,1:2|0:2,0:0:0:0:
264,288,83179,6,0,B|343:302|343:302|360:293|360:293|441:308,1,180,6|0,1:2|1:2,0:2:0:0:
472,96,83657,1,10,0:2:0:0:
292,200,83817,1,10,0:2:0:0:
336,23,83977,2,0,L|352:112,1,90,2|2,1:2|1:2,0:0:0:0:
208,218,84296,2,0,P|247:197|292:200,1,90,10|2,0:2|1:2,0:0:0:0:
284,384,84615,6,0,L|268:295,1,90,6|0,1:2|0:2,0:2:0:0:
132,172,84934,1,10,0:2:0:0:
128,194,85013,1,2,0:2:0:0:
124,216,85094,2,0,L|115:265,1,45,2|2,0:2|0:2,0:0:0:0:
240,72,85253,6,0,L|151:88,1,90,2|0,1:2|0:2,0:2:0:0:
291,199,85572,1,10,0:2:0:0:
313,203,85651,1,2,0:2:0:0:
335,207,85732,2,0,L|384:216,1,45,2|2,0:2|0:2,0:2:0:0:
496,40,85891,1,2,1:2:0:0:
312,112,86051,1,2,0:2:0:0:
512,24,86211,1,10,0:2:0:0:
335,207,86370,6,0,B|256:193|256:193|239:202|239:202|158:187,1,180,10|0,0:2|1:2,0:2:0:0:
40,16,86849,1,8,0:2:0:0:
224,96,87008,5,2,1:2:0:0:
20,136,87168,1,6,1:2:0:0:
240,80,87328,2,0,L|329:96,1,90,2|8,1:2|0:2,0:0:0:0:
116,220,87647,5,10,0:2:0:0:
320,260,87807,1,6,1:2:0:0:
100,204,87967,2,0,L|11:220,1,90,2|8,1:2|0:2,0:0:0:0:
232,356,88285,6,0,B|342:374|342:374|377:356|383:322,1,180,6|0,1:2|1:2,0:2:0:0:
492,152,88764,1,10,0:2:0:0:
512,356,88923,1,10,0:2:0:0:
351,184,89083,6,0,B|181:154|181:154|229:168|245:222,1,270,6|0,1:2|0:0,0:2:0:0:
