osu file format v14

[General]
AudioFilename: audio.mp3
AudioLeadIn: 0
PreviewTime: 48790
Countdown: 0
SampleSet: Soft
StackLeniency: 0.3
Mode: 0
LetterboxInBreaks: 0
WidescreenStoryboard: 1

[Editor]
Bookmarks: 1918,27449,37662,45322
DistanceSpacing: 1
BeatDivisor: 4
GridSize: 8
TimelineZoom: 1.2

[Metadata]
Title:EASY LOVE (TV Size)
TitleUnicode:EASY LOVE (TV Size)
Artist:Uesaka Sumire
ArtistUnicode:上坂すみれ
Creator:Kuki1537
Version:MIMARI'S EASY
Source:イジらないで、長瀞さん
Tags:ijiranaide nagatoro-san nagatoro san don't dont toy with me miss opening op anime japanese female vocal j-pop j pop jpop mimari basensorex kirishima- torriru my_angel_ram my angel ram
BeatmapID:2845845
BeatmapSetID:1372562

[Difficulty]
HPDrainRate:2
CircleSize:3
OverallDifficulty:2
ApproachRate:3.5
SliderMultiplier:0.799999999999999
SliderTickRate:1

[Events]
//Background and Video events
Video,-50,"video.mp4"
0,0,"quality test2.jpg",0,0
//Break Periods
//Storyboard Layer 0 (Background)
//Storyboard Layer 1 (Fail)
//Storyboard Layer 2 (Pass)
//Storyboard Layer 3 (Foreground)
//Storyboard Layer 4 (Overlay)
//Storyboard Sound Samples

[TimingPoints]
360,319.148936170213,4,2,45,55,1,0
360,-100,4,2,45,55,0,0
2514,-100,4,2,45,5,0,0
2594,-100,4,2,45,55,0,0
2833,-100,4,2,45,5,0,0
2913,-100,4,2,45,55,0,0
5067,-100,4,2,45,5,0,0
5147,-100,4,2,45,70,0,0
5386,-100,4,2,45,5,0,0
5466,-100,4,2,45,80,0,0
15679,-100,4,2,45,60,0,0
24455,-100,4,2,45,70,0,0
36104,-100,4,2,45,75,0,0
45040,-100,4,2,45,60,0,0
46317,-100,4,2,45,75,0,0
48870,-100,4,2,45,85,0,1
51344,-100,4,2,45,5,0,1
51423,-100,4,2,45,85,0,1
61556,-100,4,2,45,5,0,1
61636,-100,4,2,45,85,0,1
76955,-100,4,2,45,85,0,0
77115,-100,4,2,45,50,0,0
78232,-100,4,2,45,85,0,0
79508,-100,4,2,45,80,0,0
89402,-100,4,2,45,5,0,0

[Colours]
Combo1 : 83,14,211
Combo2 : 108,255,222
Combo3 : 255,23,111
Combo4 : 108,108,255
Combo5 : 173,255,62
Combo6 : 236,60,255
Combo7 : 255,244,43
Combo8 : 255,33,9

[HitObjects]
480,64,360,6,0,B|420:52|420:52|388:69|388:69|314:56,1,160,6|2,1:2|0:2,0:2:0:0:
208,35,1477,2,0,L|229:182,1,120,2|10,1:2|0:2,0:2:0:0:
237,232,2274,1,2,0:2:0:0:
98,312,2913,6,0,B|52:283|52:283|85:170,1,160,6|2,1:2|3:2,0:2:0:0:
16,80,4030,2,0,P|67:54|152:92,1,120,6|10,1:2|0:2,0:2:0:0:
187,118,4828,1,2,0:2:0:0:
330,46,5466,6,0,B|444:23|444:23|492:77,1,160,6|2,1:2|1:2,0:2:0:0:
454,133,6423,1,10,0:2:0:0:
479,208,6742,1,2,1:2:0:0:
432,318,7221,2,0,P|388:293|315:305,1,120,10|8,0:2|0:2,0:2:0:0:
247,331,8019,6,0,L|230:227,1,79.9999999999999,2|12,1:2|0:2,0:0:0:0:
291,196,8657,1,2,1:2:0:0:
237,88,9136,2,0,P|194:122|123:124,1,120,6|10,1:2|0:2,0:2:0:0:
53,106,9934,1,2,1:2:0:0:
6,171,10253,1,10,0:2:0:0:
35,245,10572,6,0,B|101:256|101:256|111:269|122:279|122:279|194:292,1,160,6|2,1:2|1:2,0:2:0:0:
258,319,11530,1,10,0:2:0:0:
321,367,11849,1,2,1:2:0:0:
424,305,12328,2,0,B|450:268|450:268|416:180,1,120,10|8,0:2|0:2,0:2:0:0:
370,137,13125,6,0,L|279:125,1,79.9999999999999,6|8,1:2|0:2,0:0:0:0:
231,180,13764,1,6,1:2:0:0:
115,148,14242,2,0,P|85:91|116:35,1,120,6|10,1:2|0:2,0:2:0:0:
181,18,15041,1,6,1:2:0:0:
339,40,15679,6,0,B|400:50|400:50|432:33|432:33|492:45,1,160,6|10,1:2|0:2,0:2:0:0:
505,205,16955,2,0,L|493:313,1,79.9999999999999,10|2,0:2|1:2,0:2:0:0:
446,347,17594,1,8,0:2:0:0:
306,269,18232,6,0,B|216:244|247:336|147:311,1,160,2|10,1:2|0:2,0:2:0:0:
27,229,19508,2,0,L|39:121,1,79.9999999999999,2|2,1:2|1:2,0:0:0:0:
86,87,20147,1,0,1:2:0:0:
228,14,20785,6,0,B|268:54|268:54|221:179,1,160,2|10,1:2|1:2,0:0:0:0:
162,295,22062,2,0,P|198:276|255:278,1,79.9999999999999,10|10,0:2|1:2,0:2:0:0:
314,290,22700,2,0,P|345:315|367:368,1,79.9999999999999,8|2,0:2|1:2,0:0:0:0:
440,328,23338,6,0,B|472:224|472:224|435:154,1,160,6|6,1:2|1:2,0:2:0:0:
411,64,24455,2,0,P|361:96|294:90,1,120,6|8,1:2|0:2,0:2:0:0:
230,58,25253,1,8,0:2:0:0:
157,91,25572,1,0,1:2:0:0:
82,61,25891,6,0,B|32:77|32:77|61:182,1,160,6|2,1:2|1:2,0:2:0:0:
11,290,27008,2,0,P|48:307|117:284,1,79.9999999999999,2|2,0:2|1:2,0:2:0:0:
158,268,27647,1,2,0:2:0:0:
231,299,27966,1,2,1:2:0:0:
300,258,28285,6,0,B|356:224|397:266|397:266|448:310|510:262,1,200,2|2,0:2|1:2,0:2:0:0:
502,119,29721,2,0,L|486:30,1,79.9999999999999,2|10,1:2|0:2,0:0:0:0:
410,18,30360,1,0,1:2:0:0:
250,18,30998,6,0,P|184:7|139:92,1,160,6|0,1:2|1:2,0:2:0:0:
97,230,32274,2,0,B|157:218|157:218|189:235|189:235|263:222,1,160,0|0,1:2|1:2,0:0:0:0:
319,183,33232,1,10,0:2:0:0:
394,207,33551,6,0,B|418:242|418:242|394:322,1,120,6|2,1:2|0:2,0:2:0:0:
285,364,34508,1,10,0:2:0:0:
225,310,34828,2,0,B|182:293|150:319|150:319|116:346|69:329,1,160,2|8,1:2|0:2,0:0:0:0:
40,174,36104,6,0,L|25:32,1,120,6|2,1:2|1:2,0:2:0:0:
183,19,37221,2,0,L|205:202,1,160,2|2,1:2|1:2,0:2:0:0:
159,290,38338,1,12,0:2:0:0:
222,339,38657,6,0,B|251:317|251:317|353:348,1,120,6|6,1:2|1:2,0:2:0:0:
479,282,39774,2,0,P|495:209|404:185,1,160,6|2,1:2|0:2,0:2:0:0:
321,227,40891,1,12,0:2:0:0:
252,185,41211,6,0,B|172:209|172:209|143:187,1,120,6|6,1:2|1:2,0:2:0:0:
93,34,42328,2,0,B|135:18|169:45|169:45|201:71|244:54,1,160,6|10,1:2|0:2,0:2:0:0:
358,20,43445,1,8,0:2:0:0:
417,73,43764,6,2,L|404:172,1,79.9999999999999,6|2,1:2|0:2,0:2:0:0:
337,191,44402,2,0,B|349:251|349:251|332:283|332:283|345:357,1,160,2|6,0:2|1:2,0:0:0:0:
41,237,46317,6,0,B|34:209|13:185|13:185|37:130,2,120,14|12|12,0:2|0:2|0:2,0:0:0:0:
144,176,47753,2,8,B|200:142|241:184|241:184|292:228|354:180,1,200,8|12,0:2|0:2,0:2:0:0:
402,169,48870,6,0,L|415:271,1,79.9999999999999,6|10,1:2|0:2,0:2:0:0:
466,307,49508,1,2,1:2:0:0:
355,355,49987,2,0,P|314:328|226:350,1,120,2|10,0:2|0:2,0:0:0:0:
173,368,50785,1,2,1:2:0:0:
99,336,51104,1,12,0:2:0:0:
24,365,51423,6,0,L|13:272,1,79.9999999999999,6|10,1:2|0:2,0:2:0:0:
49,213,52062,1,2,1:2:0:0:
25,95,52540,2,0,P|63:127|159:104,1,120,2|10,3:2|0:2,0:0:0:0:
197,80,53338,1,2,1:2:0:0:
271,107,53657,1,12,0:2:0:0:
332,55,53977,6,0,L|431:38,1,79.9999999999999,6|8,1:2|0:2,0:0:0:0:
480,82,54615,2,0,P|505:115|500:166,1,79.9999999999999,2|8,1:2|0:2,0:0:0:0:
483,229,55253,2,0,B|437:223|437:223|416:233|416:233|339:222,1,120,2|2,1:2|0:2,0:0:0:0:
296,265,56051,1,2,1:2:0:0:
188,211,56530,6,0,L|173:112,1,79.9999999999999,6|14,1:2|0:2,0:2:0:0:
112,82,57168,2,0,P|63:89|40:127,1,79.9999999999999,2|14,1:2|0:2,0:2:0:0:
34,190,57806,2,0,B|49:233|26:267|26:267|4:301|32:359,1,160,14|8,0:2|3:2,0:0:0:0:
98,376,58764,1,12,0:2:0:0:
169,340,59083,6,0,P|203:320|264:329,1,79.9999999999999,6|10,1:2|0:2,0:2:0:0:
316,350,59721,1,2,1:2:0:0:
426,302,60200,2,0,B|392:280|392:280|416:183,1,120,2|10,3:2|0:2,0:2:0:0:
399,123,60998,1,2,1:2:0:0:
441,55,61317,1,12,0:2:0:0:
373,11,61636,6,0,P|336:34|270:29,1,79.9999999999999,6|10,1:2|0:2,0:2:0:0:
227,4,62275,1,2,1:2:0:0:
125,66,62753,2,2,L|140:203,1,120,2|10,0:2|0:2,0:2:0:0:
115,262,63551,1,2,1:2:0:0:
165,324,63870,1,12,0:2:0:0:
99,369,64190,6,0,P|58:369|22:337,1,79.9999999999999,6|8,1:2|0:2,0:0:0:0:
18,267,64828,2,0,L|10:164,1,79.9999999999999,2|8,1:2|0:2,0:0:0:0:
50,117,65466,2,0,B|96:111|96:111|117:121|117:121|194:110,1,120,2|2,1:2|0:2,0:0:0:0:
240,144,66264,1,2,1:2:0:0:
335,70,66743,6,0,P|368:89|420:82,1,79.9999999999999,2|12,1:2|0:2,0:0:0:0:
485,64,67381,2,0,L|497:160,1,79.9999999999999,2|12,1:2|0:2,0:0:0:0:
474,220,68019,1,6,1:2:0:0:
395,207,68338,2,0,P|350:208|313:235,1,79.9999999999999,14|6,0:2|1:2,0:2:0:0:
275,291,68977,1,14,0:2:0:0:
307,364,69296,6,0,B|375:350|375:350|408:365|408:365|495:343,1,160,14|10,0:2|0:2,0:2:0:0:
479,233,70413,2,0,L|492:88,1,120,2|10,1:2|0:2,0:2:0:0:
434,55,71211,1,10,0:2:0:0:
360,86,71530,1,10,0:2:0:0:
288,51,71849,6,0,B|250:29|250:29|122:78,1,160,14|10,0:2|0:2,0:2:0:0:
31,23,72966,2,0,L|52:155,1,120,2|10,1:2|0:2,0:0:0:0:
108,196,73764,1,10,0:2:0:0:
179,160,74083,1,10,0:2:0:0:
239,212,74402,6,0,B|323:178|309:262|400:227,1,160,14|10,0:2|0:2,0:2:0:0:
503,270,75519,2,0,P|448:287|423:341,1,120,2|10,1:2|0:2,0:0:0:0:
349,373,76317,1,10,0:2:0:0:
281,330,76636,1,10,3:2:0:0:
209,366,76955,1,6,1:3:0:0:
80,73,78232,6,0,B|110:50|110:50|212:77,1,120,14|14,0:2|0:2,0:0:0:0:
308,52,79189,1,14,0:2:0:0:
376,93,79508,6,0,P|442:68|496:139,1,160,6|2,1:2|1:2,0:2:0:0:
465,201,80465,1,10,0:2:0:0:
495,274,80784,1,2,1:2:0:0:
413,362,81263,2,0,L|293:350,1,120,10|8,0:2|0:2,0:2:0:0:
230,301,82061,6,0,B|209:264|209:264|227:197,1,79.9999999999999,2|12,1:2|0:2,0:0:0:0:
274,170,82699,1,2,1:2:0:0:
230,57,83179,2,0,P|179:20|114:43,1,120,6|10,1:2|0:2,0:2:0:0:
67,85,83976,1,2,1:2:0:0:
116,147,84295,1,10,0:2:0:0:
59,203,84614,6,0,B|70:269|70:269|83:279|93:290|93:290|106:362,1,160,6|2,1:2|1:2,0:2:0:0:
180,375,85572,1,10,0:2:0:0:
251,339,85891,1,2,1:2:0:0:
366,371,86370,2,0,P|401:340|490:345,1,120,10|8,0:2|0:2,0:2:0:0:
503,262,87167,6,0,L|478:165,1,79.9999999999999,6|8,1:2|0:2,0:0:0:0:
419,135,87806,1,6,1:2:0:0:
316,198,88285,2,0,P|257:198|210:162,1,120,6|10,1:2|0:2,0:2:0:0:
173,91,89083,1,6,1:2:0:0:
