osu file format v14

[General]
AudioFilename: audio.mp3
AudioLeadIn: 0
PreviewTime: 48790
Countdown: 0
SampleSet: Soft
StackLeniency: 0.5
Mode: 0
LetterboxInBreaks: 0
WidescreenStoryboard: 1

[Editor]
DistanceSpacing: 1
BeatDivisor: 4
GridSize: 8
TimelineZoom: 1.18

[Metadata]
Title:EASY LOVE (TV Size)
TitleUnicode:EASY LOVE (TV Size)
Artist:Uesaka Sumire
ArtistUnicode:上坂すみれ
Creator:Kuki1537
Version:KIRISHIMA-'S INSANE
Source:イジらないで、長瀞さん
Tags:ijiranaide nagatoro-san nagatoro san don't dont toy with me miss opening op anime japanese female vocal j-pop j pop jpop mimari basensorex kirishima- torriru my_angel_ram my angel ram
BeatmapID:2841241
BeatmapSetID:1372562

[Difficulty]
HPDrainRate:5
CircleSize:3.5
OverallDifficulty:7.5
ApproachRate:9
SliderMultiplier:1.6
SliderTickRate:1

[Events]
//Background and Video events
Video,-50,"video.mp4"
0,0,"quality test2.jpg",0,0
//Break Periods
//Storyboard Layer 0 (Background)
//Storyboard Layer 1 (Fail)
//Storyboard Layer 2 (Pass)
//Storyboard Layer 3 (Foreground)
//Storyboard Layer 4 (Overlay)
//Storyboard Sound Samples

[TimingPoints]
360,319.148936170213,4,2,45,55,1,0
360,-133.333333333333,4,2,45,55,0,0
2514,-133.333333333333,4,2,45,5,0,0
2594,-133.333333333333,4,2,45,55,0,0
2833,-133.333333333333,4,2,45,5,0,0
2913,-133.333333333333,4,2,45,55,0,0
5067,-133.333333333333,4,2,45,5,0,0
5147,-133.333333333333,4,2,45,70,0,0
5386,-133.333333333333,4,2,45,5,0,0
5466,-100,4,2,45,80,0,0
5705,-100,4,2,45,5,0,0
5785,-100,4,2,45,80,0,0
10812,-100,4,2,45,5,0,0
10891,-100,4,2,45,80,0,0
15040,-133.333333333333,4,2,45,80,0,0
15679,-117.647058823529,4,2,45,60,0,0
24455,-117.647058823529,4,2,45,70,0,0
25891,-111.111111111111,4,2,45,70,0,0
36104,-117.647058823529,4,2,45,75,0,0
36344,-117.647058823529,4,2,45,5,0,0
36423,-117.647058823529,4,2,45,75,0,0
38897,-117.647058823529,4,2,45,5,0,0
38977,-117.647058823529,4,2,45,75,0,0
41450,-117.647058823529,4,2,45,5,0,0
41530,-117.647058823529,4,2,45,75,0,0
43764,-133.333333333333,4,2,45,75,0,0
44003,-133.333333333333,4,2,45,5,0,0
44083,-133.333333333333,4,2,45,75,0,0
45040,-133.333333333333,4,2,45,60,0,0
46317,-111.111111111111,4,2,45,75,0,0
48790,-111.111111111111,4,2,45,75,0,0
48870,-90.9090909090909,4,2,45,85,0,1
51344,-90.9090909090909,4,2,45,5,0,1
51423,-90.9090909090909,4,2,45,85,0,1
61556,-90.9090909090909,4,2,45,5,0,1
61636,-90.9090909090909,4,2,45,85,0,1
69296,-83.3333333333333,4,2,45,85,0,1
76955,-133.333333333333,4,2,45,85,0,0
77115,-133.333333333333,4,2,45,50,0,0
78232,-90.9090909090909,4,2,45,85,0,0
79508,-100,4,2,45,80,0,0
79748,-100,4,2,45,5,0,0
79828,-100,4,2,45,80,0,0
84854,-100,4,2,45,5,0,0
84934,-100,4,2,45,80,0,0
89402,-100,4,2,45,5,0,0

[Colours]
Combo1 : 83,14,211
Combo2 : 108,255,222
Combo3 : 255,23,111
Combo4 : 108,108,255
Combo5 : 173,255,62
Combo6 : 236,60,255
Combo7 : 255,244,43
Combo8 : 255,33,9

[HitObjects]
22,362,360,6,0,P|79:373|130:343,1,120.000004577637,6|10,1:2|0:2,0:2:0:0:
56,222,838,1,8,0:2:0:0:
56,222,998,2,0,L|62:282,1,60.0000022888184,2|0,0:2|1:2,0:2:0:0:
155,259,1317,1,10,0:2:0:0:
155,259,1477,2,0,L|161:200,1,60.0000022888184,2|0,1:2|0:0,0:2:0:0:
47,128,1796,1,2,1:2:0:0:
47,128,1955,2,0,L|53:187,1,60.0000022888184,10|8,0:2|0:2,0:0:0:0:
159,78,2274,5,2,0:2:0:0:
221,325,2594,1,10,0:2:0:0:
221,325,2913,6,0,L|341:315,1,120,6|10,1:2|0:2,0:2:0:0:
378,216,3391,1,8,0:2:0:0:
378,216,3551,2,0,L|318:210,1,60.0000022888184,2|0,3:2|1:2,0:2:0:0:
441,300,3870,1,10,0:2:0:0:
441,300,4030,2,0,L|501:294,1,60.0000022888184,6|0,1:2|0:0,0:2:0:0:
474,134,4349,1,2,1:2:0:0:
474,134,4509,2,0,L|414:128,1,60.0000022888184,10|0,0:2|0:0,0:0:0:0:
252,0,4828,5,2,0:2:0:0:
149,221,5147,2,0,P|113:209|141:186,1,90.0000034332277,14|0,1:2|0:2,0:2:0:0:
134,207,5466,6,0,B|151:264|151:264|133:322,1,120.000004577637,6|0,1:2|0:0,0:2:0:0:
123,360,5785,2,0,B|43:366,1,80,10|2,0:2|0:2,0:0:0:0:
230,226,6104,2,0,B|238:266|238:266|228:304,1,80,2|0,1:2|0:2,0:2:0:0:
47,246,6423,2,0,B|39:206|39:206|49:168,1,80,10|2,0:2|0:2,0:2:0:0:
210,13,6742,5,2,1:2:0:0:
138,188,6902,1,2,0:2:0:0:
70,11,7062,1,10,0:2:0:0:
150,219,7221,2,0,L|228:226,1,80,10|0,0:2|1:2,0:2:0:0:
332,110,7540,2,0,L|253:117,1,80,0|8,1:2|0:2,0:2:0:0:
320,279,7860,5,2,1:2:0:0:
433,109,8019,1,2,1:2:0:0:
429,318,8179,2,0,B|437:278|437:278|427:240,1,80,2|12,1:2|0:2,0:0:0:0:
253,79,8498,5,10,0:2:0:0:
321,241,8657,1,2,1:2:0:0:
401,32,8817,2,0,B|409:72|409:72|399:110,1,80,2|12,1:2|0:2,0:0:0:0:
177,239,9136,6,0,B|219:207|219:207|321:241,1,160,6|0,1:2|1:2,0:2:0:0:
124,173,9615,1,10,0:2:0:0:
240,300,9774,1,10,0:2:0:0:
248,118,9934,1,2,1:2:0:0:
148,267,10094,1,2,1:2:0:0:
162,80,10253,1,10,0:2:0:0:
220,207,10413,1,2,1:2:0:0:
40,187,10572,6,0,P|30:128|59:77,1,120,6|0,1:2|0:0,0:2:0:0:
89,50,10891,2,0,L|167:43,1,80,10|2,0:2|0:2,0:0:0:0:
220,207,11211,2,0,B|212:167|212:167|222:129,1,80,2|0,1:2|0:2,0:2:0:0:
396,70,11530,2,0,B|404:110|404:110|394:148,1,80,10|2,0:2|0:2,0:2:0:0:
277,304,11848,5,2,1:2:0:0:
308,112,12008,1,2,0:2:0:0:
403,286,12168,1,10,0:2:0:0:
474,155,12328,2,0,L|396:148,1,80,10|0,0:2|1:2,0:2:0:0:
220,207,12647,2,0,L|298:200,1,80,0|8,1:2|0:2,0:2:0:0:
461,34,12966,5,2,1:2:0:0:
478,186,13125,1,6,1:2:0:0:
346,31,13285,2,0,B|306:23|306:23|268:33,1,80,2|8,1:2|0:2,0:0:0:0:
151,166,13604,5,10,0:2:0:0:
308,112,13763,1,6,1:2:0:0:
178,0,13923,2,0,B|170:40|170:40|180:78,1,80,2|8,1:2|0:2,0:0:0:0:
281,209,14242,6,0,B|196:195|215:266|133:251,1,160,6|0,1:2|1:2,0:2:0:0:
151,166,14721,1,10,0:2:0:0:
226,324,14880,1,10,0:2:0:0:
325,142,15040,1,6,1:2:0:0:
325,142,15679,6,0,L|255:135,1,68.0000012969971,6|8,1:2|0:2,0:2:0:0:
272,37,15998,2,0,L|339:30,1,68.0000012969971,2|0,0:2|1:2,0:0:0:0:
187,75,16317,1,10,0:2:0:0:
187,75,16477,1,10,0:2:0:0:
258,135,16636,2,0,P|233:158|201:168,1,68.0000012969971,2|2,3:2|1:2,0:2:0:0:
0,183,16955,6,0,P|65:174|118:215,1,136.000002593994,10|2,0:2|1:2,0:2:0:0:
49,337,17434,1,2,0:2:0:0:
49,337,17594,2,0,L|42:269,1,68.0000012969971,8|8,0:2|0:2,0:0:0:0:
154,303,17913,2,0,L|148:371,1,68.0000012969971,2|0,3:2|1:2,0:2:0:0:
185,214,18232,6,0,P|152:207|120:215,1,68.0000012969971,2|8,1:2|0:2,0:2:0:0:
252,291,18551,2,0,P|275:267|283:235,1,68.0000012969971,2|0,3:2|1:2,0:0:0:0:
244,72,18870,2,0,L|251:140,1,68.0000012969971,10|10,0:2|0:2,0:2:0:0:
350,158,19189,2,0,L|356:90,1,68.0000012969971,2|0,3:2|1:2,0:2:0:0:
283,234,19508,6,0,B|321:260|321:260|407:233,1,136.000002593994,2|2,1:2|1:2,0:0:0:0:
422,91,19987,1,2,3:2:0:0:
422,91,20147,2,0,P|390:83|357:90,1,68.0000012969971,0|8,1:2|0:2,0:2:0:0:
283,234,20466,2,0,P|306:209|315:177,1,68.0000012969971,0|0,3:2|1:2,0:2:0:0:
225,156,20785,5,2,1:2:0:0:
190,254,20945,1,10,0:2:0:0:
190,254,21104,2,0,L|122:260,1,68.0000012969971,2|0,3:2|1:2,0:0:0:0:
157,150,21423,2,0,L|224:156,1,68.0000012969971,10|8,1:2|0:2,0:2:0:0:
55,177,21742,1,2,3:2:0:0:
55,177,21902,1,2,1:2:0:0:
85,61,22062,6,0,L|221:49,1,136.000002593994,10|10,0:2|1:2,0:2:0:0:
316,103,22540,1,2,1:2:0:0:
316,103,22700,2,0,P|349:111|382:104,1,68.0000012969971,8|8,0:2|0:2,0:0:0:0:
444,177,23019,2,0,P|467:153|476:121,1,68.0000012969971,2|0,1:2|3:2,0:2:0:0:
348,226,23338,6,0,B|280:220|280:220|238:166|238:166|170:160,1,204.000003890991,6|0,1:2|3:2,0:2:0:0:
57,251,23977,6,0,L|193:262,1,136.000002593994,6|0,1:2|0:2,0:2:0:0:
171,160,24455,6,0,L|101:153,1,68.0000012969971,6|0,1:2|0:2,0:2:0:0:
57,251,24774,1,0,1:2:0:0:
193,262,24934,1,8,0:2:0:0:
3,158,25094,1,0,0:2:0:0:
108,347,25253,1,8,0:2:0:0:
108,347,25333,1,8,0:2:0:0:
108,347,25413,2,0,L|178:354,1,68.0000012969971,0|0,1:2|1:2,0:0:0:0:
318,291,25732,1,10,0:2:0:0:
194,193,25891,6,0,P|184:227|193:262,1,71.9999978027344,6|2,1:2|0:2,0:2:0:0:
264,384,26211,1,8,0:2:0:0:
336,258,26370,1,2,0:2:0:0:
452,371,26530,1,2,1:2:0:0:
452,371,26689,2,0,P|418:378|382:369,1,71.9999978027344,2|8,1:2|0:2,0:0:0:0:
427,222,27008,6,0,L|420:293,1,71.9999978027344,2|0,0:2|1:2,0:2:0:0:
353,161,27328,1,2,1:2:0:0:
505,174,27487,1,10,0:2:0:0:
505,174,27647,2,0,L|512:245,1,71.9999978027344,2|0,0:2|1:2,0:2:0:0:
494,83,27966,1,2,1:2:0:0:
427,222,28125,1,8,0:2:0:0:
384,80,28285,6,0,P|348:73|314:81,1,71.9999978027344,2|0,0:2|1:2,0:2:0:0:
232,220,28604,2,0,P|256:195|265:160,1,71.9999978027344,2|10,0:2|0:2,0:0:0:0:
250,15,28923,1,2,0:2:0:0:
353,161,29083,1,2,1:2:0:0:
174,147,29242,2,0,P|167:113|176:77,1,71.9999978027344,2|8,1:2|0:2,0:2:0:0:
314,82,29562,5,2,3:2:0:0:
232,221,29721,1,2,1:2:0:0:
176,77,29880,1,2,1:2:0:0:
299,171,30040,1,10,0:2:0:0:
150,57,30200,2,0,L|79:64,1,71.9999978027344,2|0,1:2|1:2,0:2:0:0:
128,212,30519,2,0,L|199:219,1,71.9999978027344,2|8,1:2|0:2,0:2:0:0:
50,152,30838,1,2,0:2:0:0:
26,331,30998,6,0,B|100:346|83:281|159:296,2,143.999995605469,6|8|0,1:2|0:2|1:2,0:2:0:0:
38,251,31796,1,0,1:2:0:0:
147,376,31955,2,0,P|181:383|216:374,1,71.9999978027344,8|0,0:2|0:2,0:2:0:0:
353,266,32274,5,0,1:2:0:0:
196,203,32434,1,0,1:2:0:0:
196,203,32514,1,0,1:2:0:0:
196,203,32594,2,0,L|189:274,1,71.9999978027344,8|0,0:2|1:2,0:0:0:0:
331,133,32913,1,0,1:2:0:0:
153,80,33072,1,8,0:2:0:0:
286,212,33232,1,10,0:2:0:0:
298,10,33391,1,0,1:2:0:0:
298,10,33551,6,0,P|287:79|331:133,1,143.999995605469,6|8,1:2|0:2,0:2:0:0:
458,52,34030,1,2,0:2:0:0:
458,52,34189,2,0,P|423:43|388:52,1,71.9999978027344,0|0,1:2|1:2,0:2:0:0:
397,205,34508,2,0,P|421:179|430:145,1,71.9999978027344,10|0,0:2|0:2,0:2:0:0:
331,133,34828,5,2,1:2:0:0:
276,247,34987,2,0,L|205:254,1,71.9999978027344,8|0,0:2|1:2,0:0:0:0:
142,111,35306,1,0,3:2:0:0:
142,111,35386,1,8,0:2:0:0:
142,111,35466,2,0,L|213:118,1,71.9999978027344,8|8,0:2|0:2,0:0:0:0:
105,255,35785,1,8,0:3:0:0:
47,97,35945,1,4,1:3:0:0:
204,254,36104,6,0,B|155:266|155:266|101:254,1,102.000001945496,6|0,1:2|0:0,0:2:0:0:
72,244,36423,1,10,0:2:0:0:
125,354,36583,2,0,P|157:360|190:352,1,68.0000012969971,2|0,1:2|3:2,0:2:0:0:
299,222,36902,1,2,1:2:0:0:
348,321,37062,1,10,0:2:0:0:
348,321,37221,2,0,P|316:328|283:319,1,68.0000012969971,2|0,1:2|3:2,0:2:0:0:
222,151,37540,5,2,1:2:0:0:
204,254,37700,1,10,0:2:0:0:
326,114,37860,2,0,L|394:108,1,68.0000012969971,2|0,1:2|3:2,0:2:0:0:
299,222,38179,1,4,1:2:0:0:
243,27,38338,1,12,0:2:0:0:
243,27,38657,6,0,L|142:19,1,102.000001945496,6|0,1:2|0:0,0:2:0:0:
107,15,38976,1,10,0:2:0:0:
51,188,39136,2,0,P|83:196|116:188,1,68.0000012969971,6|0,1:2|0:2,0:2:0:0:
296,125,39455,1,2,1:2:0:0:
81,98,39615,1,10,0:2:0:0:
210,220,39774,2,0,P|218:188|209:155,1,68.0000012969971,6|0,1:2|0:2,0:2:0:0:
141,18,40093,5,2,1:2:0:0:
117,189,40253,1,10,0:2:0:0:
296,125,40413,2,0,L|364:119,1,68.0000012969971,2|2,0:2|3:2,0:0:0:0:
225,57,40732,1,4,1:2:0:0:
323,237,40891,1,12,0:2:0:0:
323,237,41211,6,0,P|315:187|339:143,1,102.000001945496,6|0,1:2|0:0,0:2:0:0:
364,119,41530,1,10,0:2:0:0:
477,206,41690,2,0,P|444:214|411:207,1,68.0000012969971,6|0,1:2|0:2,0:2:0:0:
237,157,42009,1,2,1:2:0:0:
294,322,42168,1,10,0:2:0:0:
294,322,42328,2,0,P|326:329|359:320,1,68.0000012969971,6|0,1:2|0:2,0:2:0:0:
484,241,42647,5,2,1:2:0:0:
323,237,42806,1,10,0:2:0:0:
449,384,42966,1,10,0:2:0:0:
449,384,43046,1,8,0:2:0:0:
449,384,43125,2,0,L|443:316,1,68.0000012969971,8|8,0:2|0:2,0:0:0:0:
331,245,43445,1,8,0:2:0:0:
331,245,43524,1,8,0:2:0:0:
331,245,43604,2,0,L|328:278,1,34.0000006484985,8|0,0:2|0:0,0:0:0:0:
250,376,43764,6,2,L|161:383,1,90.0000034332277,6|0,1:2|0:2,0:2:0:0:
61,320,44083,2,2,L|93:322,3,30.0000011444092,2|2|2|2,0:2|0:2|0:2|0:2,0:2:0:0:
172,242,44402,2,0,L|139:244,3,30.0000011444092,2|2|2|2,0:2|0:2|0:2|0:2,0:0:0:0:
73,149,44721,2,0,L|102:151,3,30.0000011444092,2|2|2|2,0:2|0:2|0:2|0:2,0:0:0:0:
162,80,45040,6,0,B|237:-23|464:40|327:193|516:184,1,420.000016021729,6|2,1:2|0:2,0:2:0:0:
485,97,46317,5,14,0:2:0:0:
439,263,46477,1,12,0:2:0:0:
430,295,46796,5,12,0:2:0:0:
371,89,46956,1,12,0:2:0:0:
359,58,47274,5,12,0:2:0:0:
288,283,47434,1,12,0:2:0:0:
193,88,47594,6,0,L|196:124,3,35.9999989013672,8|8|8|8,0:2|0:2|0:2|0:2,0:0:0:0:
289,160,47913,2,0,L|285:196,3,35.9999989013672,8|8|8|8,0:3|0:3|0:3|0:3,0:0:0:0:
198,225,48232,1,8,0:3:0:0:
198,225,48312,1,8,0:3:0:0:
198,225,48391,2,0,L|201:262,1,35.9999989013672,4|4,0:3|0:3,0:0:0:0:
207,364,48551,2,0,L|315:374,1,107.999996704102,12|0,0:2|0:2,0:2:0:0:
409,379,48870,6,0,P|420:338|409:296,1,88.000002685547,6|2,1:2|0:2,0:2:0:0:
285,195,49189,1,10,0:2:0:0:
315,374,49349,1,2,0:2:0:0:
452,219,49508,1,2,1:2:0:0:
452,219,49668,2,0,P|411:207|369:220,1,88.000002685547,12|12,0:2|0:2,0:0:0:0:
235,340,49987,1,2,0:2:0:0:
197,123,50147,6,0,L|286:116,1,88.000002685547,0|2,1:2|0:2,0:2:0:0:
175,267,50466,1,10,0:2:0:0:
125,66,50626,1,2,0:2:0:0:
289,200,50785,1,2,1:2:0:0:
81,230,50945,1,12,0:2:0:0:
81,230,51104,2,0,L|74:141,1,88.000002685547,12|0,0:2|0:0,0:2:0:0:
286,31,51423,6,0,P|296:73|284:114,1,88.000002685547,6|0,1:2|0:2,0:2:0:0:
175,266,51742,2,0,P|203:234|245:224,1,88.000002685547,10|0,0:2|0:2,0:2:0:0:
433,245,52062,2,0,P|391:235|361:203,1,88.000002685547,2|0,1:2|0:2,0:2:0:0:
286,31,52381,1,10,0:2:0:0:
451,59,52540,1,2,3:2:0:0:
451,59,52620,1,0,3:2:0:0:
451,59,52700,6,0,L|445:147,1,88.000002685547,0|2,1:2|0:2,0:0:0:0:
246,224,53019,2,0,L|239:136,1,88.000002685547,10|0,0:2|0:2,0:0:0:0:
434,245,53338,2,0,L|427:332,1,88.000002685547,2|12,1:2|0:2,0:0:0:0:
351,188,53657,1,12,0:2:0:0:
257,323,53817,5,2,3:2:0:0:
212,153,53977,1,6,1:2:0:0:
173,324,54136,2,0,P|215:335|256:323,1,88.000002685547,2|8,0:2|0:2,0:2:0:0:
125,198,54455,5,2,0:2:0:0:
91,373,54615,1,2,1:2:0:0:
213,237,54774,2,0,P|224:195|212:153,1,88.000002685547,2|8,1:2|0:2,0:2:0:0:
69,25,55094,5,2,0:2:0:0:
125,198,55254,1,2,1:2:0:0:
254,73,55413,2,0,P|212:61|170:73,1,88.000002685547,2|8,0:2|0:2,0:2:0:0:
318,197,55732,6,0,L|407:204,1,88.000002685547,2|0,0:2|1:2,0:2:0:0:
290,67,56051,1,2,1:2:0:0:
213,237,56211,2,0,L|124:244,1,88.000002685547,8|2,0:2|0:2,0:0:0:0:
63,84,56530,5,6,1:2:0:0:
188,150,56690,1,0,1:2:0:0:
33,284,56849,2,0,P|22:241|33:200,1,88.000002685547,14|0,0:2|1:2,0:0:0:0:
63,167,57088,1,0,1:2:0:0:
63,167,57168,2,0,P|76:125|63:84,1,88.000002685547,2|0,1:2|1:2,0:2:0:0:
125,244,57487,1,14,0:2:0:0:
263,73,57647,1,0,3:2:0:0:
263,73,57727,1,0,3:2:0:0:
263,73,57806,6,0,L|352:66,1,88.000002685547,14|0,0:2|1:2,0:0:0:0:
431,248,58125,2,0,L|343:241,1,88.000002685547,8|0,0:2|1:2,0:0:0:0:
311,242,58365,1,0,3:2:0:0:
311,242,58445,1,8,3:2:0:0:
172,116,58604,1,0,0:2:0:0:
123,279,58764,1,12,0:2:0:0:
263,156,58923,1,8,3:2:0:0:
263,156,59003,1,0,3:2:0:0:
263,156,59083,6,0,P|275:114|263:73,1,88.000002685547,6|2,1:2|0:2,0:2:0:0:
311,242,59402,1,10,0:2:0:0:
443,101,59562,1,2,0:2:0:0:
487,285,59721,1,2,1:2:0:0:
487,285,59881,2,0,P|446:298|405:285,1,88.000002685547,12|12,0:2|0:2,0:0:0:0:
451,109,60200,1,2,3:2:0:0:
451,109,60280,1,0,3:2:0:0:
451,109,60360,6,0,L|444:198,1,88.000002685547,0|2,1:2|0:2,0:0:0:0:
432,384,60679,1,10,0:2:0:0:
314,212,60839,1,2,0:2:0:0:
433,293,60998,1,2,1:2:0:0:
271,379,61158,1,12,0:2:0:0:
271,379,61317,2,0,L|264:290,1,88.000002685547,12|0,0:2|0:0,0:2:0:0:
152,136,61636,6,0,P|141:178|153:219,1,88.000002685547,6|0,1:2|0:2,0:2:0:0:
341,116,61955,2,0,P|311:85|269:74,1,88.000002685547,10|0,0:2|0:2,0:2:0:0:
264,291,62274,2,0,P|306:280|335:248,1,88.000002685547,2|0,1:2|0:2,0:2:0:0:
439,108,62594,1,10,0:2:0:0:
264,169,62753,1,2,0:2:0:0:
439,309,62913,6,0,L|432:220,1,88.000002685547,0|2,1:2|1:2,0:0:0:0:
349,30,63232,2,0,L|342:119,1,88.000002685547,10|0,0:2|0:2,0:2:0:0:
233,274,63551,2,0,L|226:185,1,88.000002685547,2|0,1:2|1:2,0:0:0:0:
214,20,63870,1,12,0:2:0:0:
51,172,64030,5,10,0:2:0:0:
112,15,64190,1,6,1:2:0:0:
226,186,64349,2,0,P|184:197|143:185,1,88.000002685547,2|8,0:2|0:2,0:2:0:0:
8,61,64668,5,2,0:2:0:0:
186,105,64828,1,2,1:2:0:0:
50,255,64987,2,0,P|38:213|51:172,1,88.000002685547,2|8,1:2|0:2,0:2:0:0:
182,307,65307,5,2,0:2:0:0:
24,371,65467,1,2,1:2:0:0:
142,220,65626,2,0,P|183:208|225:220,1,88.000002685547,2|8,0:2|0:2,0:2:0:0:
295,384,65945,6,0,L|288:295,1,88.000002685547,2|0,0:2|1:2,0:2:0:0:
468,209,66264,2,0,L|461:298,1,88.000002685547,2|8,1:2|0:2,0:2:0:0:
370,208,66583,5,2,0:2:0:0:
457,331,66743,1,2,1:2:0:0:
510,129,66902,2,0,P|467:117|426:129,1,88.000002685547,2|12,1:2|0:2,0:0:0:0:
288,263,67221,5,10,0:2:0:0:
468,209,67381,1,2,1:2:0:0:
283,81,67540,2,0,P|272:123|283:164,1,88.000002685547,2|12,1:2|0:2,0:0:0:0:
430,29,67860,1,10,0:2:0:0:
430,29,67939,1,8,0:2:0:0:
430,29,68019,6,0,L|341:22,1,88.000002685547,6|0,1:2|0:2,0:2:0:0:
196,172,68338,2,0,L|285:165,1,88.000002685547,14|0,0:2|0:2,0:2:0:0:
116,35,68657,2,0,P|104:76|117:118,1,88.000002685547,6|0,1:2|1:2,0:0:0:0:
284,248,68977,2,0,P|296:206|283:164,1,88.000002685547,14|0,0:2|0:2,0:2:0:0:
154,355,69296,6,0,L|250:362,1,95.9999970703126,14|0,0:2|0:2,0:2:0:0:
374,182,69615,1,10,0:2:0:0:
194,212,69774,1,0,1:2:0:0:
374,383,69934,2,0,P|386:338|372:293,1,95.9999970703126,10|0,0:2|1:2,0:0:0:0:
267,138,70253,1,10,0:2:0:0:
463,253,70413,6,0,L|456:157,1,95.9999970703126,2|8,1:2|0:2,0:2:0:0:
446,4,70732,1,2,1:2:0:0:
349,202,70891,1,10,0:2:0:0:
512,86,71051,1,0,1:2:0:0:
298,36,71211,2,0,P|286:81|300:126,1,95.9999970703126,10|0,0:2|1:2,0:0:0:0:
463,253,71530,1,10,0:2:0:0:
377,79,71689,1,0,1:2:0:0:
281,313,71849,6,0,L|185:320,1,95.9999970703126,14|0,0:2|1:2,0:2:0:0:
66,167,72168,1,10,0:2:0:0:
256,221,72328,1,0,1:2:0:0:
86,363,72487,2,0,P|73:318|88:273,1,95.9999970703126,10|0,0:2|1:2,0:0:0:0:
236,131,72806,1,10,0:2:0:0:
59,71,72966,1,2,1:2:0:0:
59,71,73046,1,0,1:2:0:0:
59,71,73125,6,0,L|66:167,1,95.9999970703126,8|2,0:2|1:2,0:0:0:0:
75,329,73445,1,10,0:2:0:0:
152,152,73604,1,0,1:2:0:0:
243,363,73764,2,0,P|288:376|333:361,1,95.9999970703126,10|0,0:2|1:2,0:0:0:0:
457,198,74083,1,10,0:2:0:0:
433,381,74242,1,0,1:2:0:0:
279,180,74402,6,0,L|286:276,1,95.9999970703126,14|0,0:2|1:2,0:2:0:0:
479,97,74721,1,10,0:2:0:0:
385,272,74881,1,0,1:2:0:0:
318,90,75040,2,0,P|273:78|227:93,1,95.9999970703126,10|0,0:2|1:2,0:0:0:0:
107,254,75360,1,10,0:2:0:0:
54,91,75519,1,2,1:2:0:0:
54,91,75599,1,0,1:2:0:0:
54,91,75679,6,0,L|47:187,1,95.9999970703126,8|2,0:2|1:2,0:0:0:0:
30,327,75998,1,10,0:2:0:0:
181,184,76157,1,0,1:2:0:0:
267,368,76317,2,0,P|312:381|357:366,1,95.9999970703126,10|0,0:2|1:2,0:2:0:0:
403,346,76556,1,0,0:0:0:0:
403,346,76636,2,0,L|408:299,1,47.9999985351563,10|8,3:2|0:3,0:0:0:0:
296,131,76796,2,0,L|301:179,1,47.9999985351563,8|4,0:3|0:3,0:0:0:0:
309,286,76955,5,6,1:3:0:0:
421,147,77115,1,2,0:0:0:0:
421,147,77434,1,2,0:0:0:0:
301,179,77594,1,2,0:0:0:0:
487,233,77753,1,2,0:0:0:0:
487,233,78072,1,2,0:0:0:0:
415,59,78232,6,0,L|421:148,1,88.000002685547,14|0,0:2|1:2,0:0:0:0:
432,312,78551,1,0,1:2:0:0:
307,91,78711,2,0,L|301:179,1,88.000002685547,14|0,0:2|1:2,0:0:0:0:
287,331,79030,1,0,1:2:0:0:
178,121,79189,2,0,L|184:210,1,88.000002685547,14|8,0:2|0:2,0:0:0:0:
189,257,79429,1,8,0:2:0:0:
189,257,79508,6,0,B|132:274|132:274|74:256,1,120.000004577637,6|0,1:2|0:0,0:2:0:0:
37,240,79827,2,0,B|31:160,1,80,10|2,0:2|0:2,0:0:0:0:
256,123,80146,2,0,B|216:131|216:131|178:121,1,80,2|0,1:2|0:2,0:2:0:0:
29,36,80466,2,0,B|69:28|69:28|107:38,1,80,10|2,0:2|0:2,0:2:0:0:
256,123,80784,5,2,1:2:0:0:
66,142,80944,1,2,0:2:0:0:
217,34,81104,1,10,0:2:0:0:
203,234,81263,2,0,L|125:241,1,80,10|0,0:2|1:2,0:2:0:0:
332,172,81582,2,0,L|411:179,1,80,0|8,1:2|0:2,0:2:0:0:
506,347,81902,5,2,1:2:0:0:
344,260,82061,1,2,1:2:0:0:
502,150,82221,2,0,B|510:190|510:190|500:228,1,80,2|12,1:2|0:2,0:0:0:0:
363,357,82540,5,10,0:2:0:0:
332,172,82699,1,2,1:2:0:0:
188,332,82859,2,0,B|228:340|228:340|266:330,1,80,2|12,1:2|0:2,0:0:0:0:
197,158,83179,6,0,B|144:163|144:163|105:201|105:201|49:206,1,160,6|0,1:2|1:2,0:2:0:0:
181,252,83657,1,10,0:2:0:0:
218,69,83816,1,10,0:2:0:0:
281,228,83976,1,2,1:2:0:0:
128,76,84136,1,2,1:2:0:0:
181,252,84295,1,10,0:2:0:0:
288,125,84455,1,2,1:2:0:0:
335,328,84615,6,0,P|283:356|225:346,1,120,6|0,1:2|0:0,0:2:0:0:
188,332,84934,2,0,L|181:254,1,80,10|2,0:2|0:2,0:0:0:0:
318,105,85253,2,0,B|326:145|326:145|316:183,1,80,2|0,1:2|0:2,0:2:0:0:
123,94,85572,2,0,B|115:54|115:54|125:16,1,80,10|2,0:2|0:2,0:2:0:0:
332,6,85890,5,2,1:2:0:0:
187,162,86050,1,2,0:2:0:0:
222,7,86210,1,10,0:2:0:0:
316,183,86370,2,0,L|394:190,1,80,10|0,0:2|1:2,0:2:0:0:
494,75,86689,2,0,L|416:82,1,80,0|8,1:2|0:2,0:2:0:0:
259,93,87008,5,2,1:2:0:0:
396,190,87167,1,6,1:2:0:0:
300,5,87327,2,0,B|260:-3|260:-3|222:7,1,80,2|8,1:2|0:2,0:0:0:0:
121,218,87646,5,10,0:2:0:0:
259,93,87805,1,6,1:2:0:0:
79,36,87965,2,0,B|71:76|71:76|81:114,1,80,2|8,1:2|0:2,0:0:0:0:
265,217,88284,6,0,B|223:185|223:185|122:218,1,160,6|0,1:2|1:2,0:2:0:0:
324,152,88763,1,10,0:2:0:0:
204,285,88922,1,10,0:2:0:0:
167,77,89082,1,6,1:2:0:0:
