osu file format v14

[General]
AudioFilename: audio.mp3
AudioLeadIn: 0
PreviewTime: 48790
Countdown: 0
SampleSet: Soft
StackLeniency: 0.7
Mode: 0
LetterboxInBreaks: 0
WidescreenStoryboard: 1

[Editor]
DistanceSpacing: 1.2
BeatDivisor: 4
GridSize: 32
TimelineZoom: 1.3

[Metadata]
Title:EASY LOVE (TV Size)
TitleUnicode:EASY LOVE (TV Size)
Artist:Uesaka Sumire
ArtistUnicode:上坂すみれ
Creator:Kuki1537
Version:HARD
Source:イジらないで、長瀞さん
Tags:ijiranaide nagatoro-san nagatoro san don't dont toy with me miss opening op anime japanese female vocal j-pop j pop jpop mimari basensorex kirishima- torriru my_angel_ram my angel ram
BeatmapID:2945148
BeatmapSetID:1372562

[Difficulty]
HPDrainRate:4
CircleSize:3.8
OverallDifficulty:7
ApproachRate:8
SliderMultiplier:1.4
SliderTickRate:1

[Events]
//Background and Video events
Video,-50,"video.mp4"
0,0,"quality test2.jpg",0,0
//Break Periods
//Storyboard Layer 0 (Background)
//Storyboard Layer 1 (Fail)
//Storyboard Layer 2 (Pass)
//Storyboard Layer 3 (Foreground)
//Storyboard Layer 4 (Overlay)
//Storyboard Sound Samples

[TimingPoints]
360,319.148936170213,4,2,45,55,1,0
360,-125,4,2,45,55,0,0
2514,-125,4,2,45,5,0,0
2594,-125,4,2,45,55,0,0
2833,-125,4,2,45,5,0,0
2913,-125,4,2,45,55,0,0
5067,-125,4,2,45,5,0,0
5147,-125,4,2,45,70,0,0
5386,-125,4,2,45,5,0,0
5466,-100,4,2,45,80,0,0
15679,-125,4,2,45,60,0,0
24455,-125,4,2,45,70,0,0
25732,-100,4,2,45,70,0,0
36104,-100,4,2,45,75,0,0
43764,-125,4,2,45,75,0,0
45040,-200,4,2,45,60,0,0
46317,-100,4,2,45,75,0,0
48870,-95.2380952380951,4,2,45,85,0,1
51344,-95.2380952380951,4,2,45,5,0,1
51423,-95.2380952380951,4,2,45,85,0,1
61556,-95.2380952380951,4,2,45,5,0,1
61636,-95.2380952380951,4,2,45,85,0,1
76955,-95.2380952380951,4,2,45,85,0,0
77115,-95.2380952380951,4,2,45,50,0,0
78232,-95.2380952380951,4,2,45,85,0,0
79508,-100,4,2,45,80,0,0
89083,-125,4,2,45,80,0,0
89402,-100,4,2,45,5,0,0

[Colours]
Combo1 : 83,14,211
Combo2 : 108,255,222
Combo3 : 255,23,111
Combo4 : 108,108,255
Combo5 : 173,255,62
Combo6 : 236,60,255
Combo7 : 255,244,43
Combo8 : 255,33,9

[HitObjects]
297,95,360,6,0,P|243:87|194:122,1,112,6|10,1:2|0:2,0:2:0:0:
148,179,838,1,8,0:2:0:0:
148,179,998,2,0,P|156:236|168:298,1,112,2|10,0:2|0:2,0:2:0:0:
164,368,1477,2,0,B|208:361|208:361|224:344|224:344|286:334,1,112,2|2,1:2|1:2,0:2:0:0:
339,366,1955,1,10,0:2:0:0:
343,370,2115,1,8,0:2:0:0:
415,339,2274,5,2,0:2:0:0:
367,189,2594,1,10,0:2:0:0:
509,123,2913,6,0,P|481:49|437:36,1,112,6|10,1:2|0:2,0:2:0:0:
387,72,3391,1,8,0:2:0:0:
387,72,3551,2,0,P|328:65|257:55,1,112,2|10,3:2|0:2,0:2:0:0:
191,27,4030,2,0,P|199:70|215:162,1,112,6|2,1:2|1:2,0:2:0:0:
265,193,4508,2,0,P|258:229|254:256,1,56,10|0,0:2|0:0,0:0:0:0:
218,318,4828,5,2,0:2:0:0:
69,367,5147,1,14,1:2:0:0:
0,218,5466,6,0,P|35:191|133:197,1,140,6|10,1:2|0:2,0:2:0:0:
211,198,5945,1,2,0:2:0:0:
197,115,6104,2,0,P|205:78|211:43,1,70,2|0,1:2|0:2,0:2:0:0:
292,19,6423,1,10,0:2:0:0:
292,19,6583,1,2,0:2:0:0:
366,92,6742,6,0,P|410:83|443:79,2,70,2|2|10,1:2|0:2|0:2,0:0:0:0:
316,160,7221,2,0,P|329:222|347:314,1,140,10|0,0:2|1:2,0:2:0:0:
385,370,7700,1,8,0:2:0:0:
287,378,7860,5,2,1:2:0:0:
214,336,8019,1,2,1:2:0:0:
133,362,8179,2,0,P|98:367|65:358,1,70,2|12,1:2|0:2,0:0:0:0:
32,238,8498,5,10,0:2:0:0:
105,280,8657,1,2,1:2:0:0:
186,254,8817,2,0,P|221:249|254:258,1,70,2|12,1:2|0:2,0:0:0:0:
349,302,9136,6,0,P|339:235|326:159,1,140,6|0,1:2|1:2,0:2:0:0:
391,109,9615,2,0,P|425:96|475:107,1,70,10|10,0:2|0:2,0:0:0:0:
496,24,9934,1,2,1:2:0:0:
413,8,10094,1,2,1:2:0:0:
336,41,10253,2,0,P|288:33|241:26,1,70,10|2,0:2|1:2,0:0:0:0:
172,75,10572,6,0,B|185:96|210:115|210:115|183:210,1,140,6|10,1:2|0:2,0:2:0:0:
248,254,11051,1,2,0:2:0:0:
225,335,11211,2,0,P|184:343|142:351,1,70,2|0,1:2|0:2,0:2:0:0:
106,287,11530,1,10,0:2:0:0:
106,287,11689,1,2,0:2:0:0:
4,313,11849,6,0,P|10:355|15:393,2,70,2|2|10,1:2|0:2|0:2,0:0:0:0:
37,235,12328,2,0,P|4:175|40:111,1,140,10|0,0:2|1:2,0:2:0:0:
82,47,12806,1,8,0:2:0:0:
177,23,12966,5,2,1:2:0:0:
222,114,13125,1,6,1:2:0:0:
222,114,13285,2,0,P|215:158|209:189,1,70,2|8,1:2|0:2,0:0:0:0:
276,237,13604,5,10,0:2:0:0:
207,307,13764,1,6,1:2:0:0:
207,307,13924,2,0,P|212:341|218:375,1,70,2|8,1:2|0:2,0:0:0:0:
315,335,14242,6,0,P|361:303|446:326,1,140,6|0,1:2|1:2,0:2:0:0:
499,261,14721,1,10,0:2:0:0:
452,190,14881,1,10,0:2:0:0:
502,106,15040,2,0,B|487:3|487:3|485:26|470:46,1,140,6|0,1:2|0:2,0:2:0:0:
366,114,15679,5,6,1:2:0:0:
366,114,15838,2,0,P|322:108|251:99,1,112,8|0,0:2|1:2,0:0:0:0:
191,52,16317,2,0,P|163:42|124:50,1,56,10|10,0:2|0:2,0:2:0:0:
128,122,16636,2,0,P|156:132|195:124,1,56,2|2,3:2|1:2,0:2:0:0:
251,186,16955,6,0,P|244:232|234:307,1,112,10|2,0:2|1:2,0:2:0:0:
197,367,17434,1,2,0:2:0:0:
197,367,17594,2,0,P|229:377|270:371,2,56,8|8|2,0:2|0:2|3:2,0:0:0:0:
66,376,18232,5,2,1:2:0:0:
66,376,18391,2,0,P|24:313|37:270,1,112,8|0,0:2|1:2,0:0:0:0:
101,249,18870,2,0,P|94:211|90:186,1,56,10|10,0:2|0:2,0:2:0:0:
24,152,19189,2,0,P|28:124|33:96,1,56,2|0,3:2|1:2,0:2:0:0:
66,13,19508,6,0,P|32:6|6:13,2,56,2|10|2,1:2|0:2|1:2,0:0:0:0:
114,81,19987,1,2,3:2:0:0:
114,81,20147,2,0,P|162:73|230:63,1,112,0|0,1:2|3:2,0:2:0:0:
358,67,20785,6,0,P|351:28|347:2,2,56,2|10|2,1:2|0:2|3:2,0:0:0:0:
423,127,21264,1,0,1:2:0:0:
423,127,21344,1,0,1:2:0:0:
423,127,21423,2,0,P|417:176|414:206,1,56,10|8,1:2|0:2,0:2:0:0:
371,247,21742,1,2,3:2:0:0:
371,247,21902,1,2,1:2:0:0:
442,302,22062,6,0,P|471:290|505:293,2,56,10|2|10,0:2|3:2|1:2,0:2:0:0:
392,363,22540,1,2,1:2:0:0:
392,363,22700,2,0,P|354:358|329:355,1,56,8|8,0:2|0:2,0:0:0:0:
271,312,23019,1,2,1:2:0:0:
155,380,23338,6,0,P|147:333|135:254,1,112,6|0,1:2|0:0,0:2:0:0:
284,214,23977,2,0,P|292:158|301:103,1,112,6|0,1:2|0:2,0:2:0:0:
269,11,24455,6,0,P|251:44|178:57,1,112,6|0,1:2|1:2,0:2:0:0:
113,21,24934,2,0,P|73:26|49:31,1,56,8|0,0:2|0:2,0:0:0:0:
20,98,25253,2,0,P|0:102|-18:106,2,28,8|8|0,0:2|0:2|1:2,0:0:0:0:
85,143,25572,1,0,1:2:0:0:
109,230,25732,6,0,P|71:226|37:222,1,70,10|6,0:2|1:2,0:0:0:0:
86,314,26051,2,0,P|120:309|155:306,1,70,2|8,0:2|0:2,0:0:0:0:
218,249,26370,1,2,0:2:0:0:
288,303,26530,1,2,1:2:0:0:
288,303,26689,2,0,P|283:338|277:374,1,70,2|8,1:2|0:2,0:0:0:0:
375,329,27008,6,0,P|365:271|351:190,1,140,2|2,0:2|1:2,0:2:0:0:
398,122,27487,1,10,0:2:0:0:
398,122,27647,2,0,P|431:108|477:115,1,70,2|0,0:2|1:2,0:2:0:0:
505,36,27966,2,0,P|472:22|426:29,1,70,2|8,1:2|0:2,0:2:0:0:
337,53,28285,6,0,P|296:47|256:40,1,70,2|0,0:2|1:2,0:2:0:0:
179,17,28604,2,0,P|185:58|192:98,1,70,2|10,0:2|0:2,0:0:0:0:
252,141,28923,1,2,0:2:0:0:
207,212,29083,1,2,1:2:0:0:
207,212,29242,2,0,P|202:252|196:286,1,70,2|8,1:2|0:2,0:2:0:0:
135,339,29562,1,2,3:2:0:0:
233,375,29721,6,0,P|273:368|307:363,2,70,2|2|10,1:2|1:2|0:2,0:0:0:0:
135,339,30200,2,0,P|94:353|63:349,1,70,2|0,1:2|1:2,0:2:0:0:
16,283,30519,2,0,P|24:238|30:207,1,70,2|8,1:2|0:2,0:2:0:0:
76,144,30838,1,2,0:2:0:0:
51,48,30998,6,0,B|87:28|123:49|112:57|148:80|185:62,1,140,6|8,1:2|0:2,0:2:0:0:
247,8,31477,1,0,0:2:0:0:
316,55,31636,2,0,P|309:95|303:136,1,70,0|0,1:2|1:2,0:0:0:0:
226,154,31955,2,0,P|233:194|239:235,1,70,8|0,0:2|0:2,0:2:0:0:
189,308,32274,5,0,1:2:0:0:
261,350,32434,2,0,P|264:373|267:392,2,35,0|0|8,1:2|1:2|0:2,0:0:0:0:
318,288,32753,2,0,P|315:265|312:246,2,35,0|0|0,1:2|1:2|1:2,0:0:0:0:
395,342,33072,1,8,0:2:0:0:
395,342,33152,1,0,1:2:0:0:
395,342,33232,2,0,P|433:348|474:330,1,70,10|0,0:2|1:2,0:2:0:0:
504,249,33551,6,0,B|461:207|461:207|486:115,1,140,6|8,1:2|0:2,0:2:0:0:
500,47,34030,2,0,P|491:91|408:90,1,140,2|0,0:2|1:2,0:0:0:0:
350,33,34508,1,10,0:2:0:0:
225,146,34828,6,0,P|185:139|153:135,2,70,2|8|0,1:2|0:2|1:2,0:0:0:0:
306,192,35306,1,0,3:2:0:0:
306,192,35386,1,8,0:2:0:0:
306,192,35466,2,0,P|321:225|319:263,1,70,8|8,0:2|0:2,0:0:0:0:
257,314,35785,2,0,P|244:347|215:373,1,70,8|4,0:3|1:3,0:0:0:0:
124,348,36104,6,0,P|131:309|139:269,1,70,6|0,1:2|0:2,0:2:0:0:
63,248,36423,1,10,0:2:0:0:
63,248,36583,2,0,P|56:209|48:169,1,70,2|0,1:2|3:2,0:2:0:0:
98,110,36902,1,2,1:2:0:0:
174,155,37062,1,10,0:2:0:0:
174,155,37221,6,0,P|181:116|189:76,1,70,2|0,1:2|3:2,0:2:0:0:
237,19,37540,1,2,1:2:0:0:
295,86,37700,1,10,0:2:0:0:
295,86,37860,2,0,P|353:77|371:74,1,70,2|0,1:2|3:2,0:2:0:0:
444,48,38179,1,4,1:2:0:0:
507,103,38338,1,12,0:2:0:0:
440,257,38657,6,0,P|397:243|323:299,1,140,6|10,1:2|0:2,0:2:0:0:
268,356,39136,2,0,B|227:321|227:321|256:215,1,140,6|2,1:2|1:2,0:2:0:0:
309,178,39615,1,10,0:2:0:0:
261,108,39774,6,0,B|205:102|205:102|180:119|180:119|117:112,1,140,6|2,1:2|1:2,0:2:0:0:
77,51,40253,1,10,0:2:0:0:
77,51,40413,2,0,P|50:85|45:123,1,70,2|2,0:2|3:2,0:0:0:0:
85,184,40732,1,4,1:2:0:0:
43,256,40891,2,0,P|50:299|56:342,1,70,12|0,0:2|0:2,0:2:0:0:
145,378,41211,6,0,P|171:360|220:354,1,70,6|0,1:2|0:2,0:2:0:0:
261,288,41530,1,10,0:2:0:0:
261,288,41689,2,0,P|287:306|336:312,1,70,6|0,1:2|0:2,0:2:0:0:
393,265,42008,1,2,1:2:0:0:
470,308,42168,1,10,0:2:0:0:
470,308,42328,6,0,P|475:263|479:220,1,70,6|0,1:2|0:2,0:2:0:0:
436,165,42647,1,2,1:2:0:0:
492,103,42806,1,10,0:2:0:0:
448,43,42966,1,10,0:2:0:0:
448,43,43046,1,8,0:2:0:0:
448,43,43125,2,0,P|406:50|373:55,1,70,8|8,0:2|0:2,0:0:0:0:
296,34,43445,2,0,P|300:12|303:-7,2,35,8|8|8,0:2|0:2|0:2,0:0:0:0:
229,86,43764,6,2,P|188:77|131:114,2,112,6|2|2,1:2|0:2|0:2,0:2:0:0:
337,182,44721,1,2,0:2:0:0:
238,281,45040,6,0,B|145:269|145:269|100:301|100:301|-3:288,1,245,6|2,1:2|0:2,0:2:0:0:
9,205,46317,5,14,0:2:0:0:
79,143,46477,2,0,P|114:155|151:155,1,70,12|0,0:2|0:0,0:0:0:0:
219,89,46796,1,12,0:2:0:0:
289,151,46956,2,0,P|324:139|361:139,1,70,12|0,0:2|0:0,0:0:0:0:
429,72,47274,1,12,0:2:0:0:
508,100,47434,1,12,0:2:0:0:
478,193,47594,6,0,P|483:222|485:235,3,35,8|8|8|8,0:2|0:2|0:2|0:2,0:0:0:0:
455,258,47913,2,0,P|452:275|449:292,3,35,8|8|8|8,0:3|0:3|0:3|0:3,0:0:0:0:
477,323,48232,2,8,P|482:352|484:365,3,35,8|8|4|4,0:3|0:3|0:3|0:3,0:3:0:0:
447,380,48551,2,0,P|392:372|318:363,1,105,12|0,0:2|0:2,0:2:0:0:
302,348,48870,6,0,P|288:309|293:271,1,73.4999977569581,6|2,1:2|0:2,0:2:0:0:
356,217,49189,1,10,0:2:0:0:
312,139,49349,1,2,0:2:0:0:
217,177,49508,2,0,B|139:160|155:220|72:198,1,146.999995513916,2|12,1:2|0:2,0:0:0:0:
19,139,49987,1,2,0:2:0:0:
19,139,50147,6,0,P|27:93|32:63,1,73.4999977569581,0|2,1:2|0:2,0:2:0:0:
89,0,50466,1,10,0:2:0:0:
153,60,50625,1,2,0:2:0:0:
244,11,50785,2,0,P|282:17|325:25,2,73.4999977569581,2|12|12,1:2|0:2|0:2,0:0:0:0:
150,160,51423,6,0,P|188:178|237:176,1,73.4999977569581,6|0,1:2|0:2,0:2:0:0:
292,130,51742,2,0,P|330:112|379:114,1,73.4999977569581,10|0,0:2|0:2,0:2:0:0:
439,152,52062,2,0,B|420:183|391:194|391:194|417:289,1,146.999995513916,2|10,1:2|0:2,0:2:0:0:
486,344,52540,6,0,B|409:327|422:382|343:362,1,146.999995513916,2|2,3:2|0:2,0:0:0:0:
271,314,53019,1,10,0:2:0:0:
188,344,53179,1,0,0:2:0:0:
132,276,53338,2,0,P|92:282|56:287,2,73.4999977569581,2|12|12,1:2|0:2|0:2,0:0:0:0:
193,194,53817,5,2,3:2:0:0:
193,194,53977,1,6,1:2:0:0:
255,131,54136,2,0,P|248:93|241:57,1,73.4999977569581,2|8,0:2|0:2,0:2:0:0:
327,1,54455,5,2,0:2:0:0:
400,49,54615,1,2,1:2:0:0:
480,13,54774,2,0,P|486:49|493:85,1,73.4999977569581,2|8,1:2|0:2,0:2:0:0:
512,191,55094,5,2,0:2:0:0:
512,191,55253,1,2,1:2:0:0:
436,236,55413,2,0,P|430:276|424:312,1,73.4999977569581,2|8,0:2|0:2,0:2:0:0:
330,379,55732,6,0,P|296:360|247:360,1,73.4999977569581,2|0,0:2|1:2,0:2:0:0:
202,291,56051,2,0,P|236:272|285:272,1,73.4999977569581,2|8,1:2|0:2,0:2:0:0:
328,202,56370,1,2,0:2:0:0:
245,140,56530,6,0,P|252:104|259:64,1,73.4999977569581,6|0,1:2|1:2,0:2:0:0:
319,4,56849,2,0,P|265:16|168:37,1,146.999995513916,14|2,0:2|1:2,0:0:0:0:
90,10,57328,1,0,1:2:0:0:
30,74,57487,1,14,0:2:0:0:
83,157,57647,1,0,3:2:0:0:
83,157,57727,1,0,3:2:0:0:
83,157,57806,6,0,P|73:201|66:231,1,73.4999977569581,14|0,0:2|1:2,0:0:0:0:
168,218,58125,2,0,P|169:263|170:293,1,73.4999977569581,8|0,0:2|1:2,0:0:0:0:
267,256,58445,2,0,P|280:299|289:328,1,73.4999977569581,8|0,3:2|0:2,0:0:0:0:
369,261,58764,1,12,0:2:0:0:
429,343,58923,1,8,3:2:0:0:
463,230,59083,6,0,P|455:185|450:152,1,73.4999977569581,6|2,1:2|0:2,0:2:0:0:
501,84,59402,1,10,0:2:0:0:
442,17,59562,1,2,0:2:0:0:
347,57,59721,2,0,P|286:49|199:37,1,146.999995513916,2|12,1:2|0:2,0:0:0:0:
104,73,60200,6,0,P|165:67|187:139,1,146.999995513916,2|2,3:2|0:2,0:2:0:0:
152,218,60679,1,10,0:2:0:0:
204,288,60838,1,2,0:2:0:0:
301,254,60998,2,0,P|309:208|315:162,2,73.4999977569581,2|12|12,1:2|0:2|0:2,0:0:0:0:
173,375,61636,6,0,P|131:380|96:367,1,73.4999977569581,6|0,1:2|0:2,0:2:0:0:
52,297,61955,2,0,P|47:255|60:220,1,73.4999977569581,10|0,0:2|0:2,0:2:0:0:
116,160,62274,2,0,B|104:57|104:57|111:85|136:103,1,146.999995513916,2|10,1:2|0:2,0:2:0:0:
201,24,62753,6,2,B|287:4|263:52|353:33,1,146.999995513916,2|2,0:2|1:2,0:2:0:0:
428,63,63232,1,10,0:2:0:0:
374,134,63391,1,0,3:2:0:0:
374,134,63471,1,0,3:2:0:0:
374,134,63551,2,0,P|363:174|367:211,2,73.4999977569581,2|0|12,1:2|1:2|0:2,0:0:0:0:
472,178,64030,5,10,0:2:0:0:
472,178,64189,1,6,1:2:0:0:
511,256,64349,2,0,P|505:300|501:336,1,73.4999977569581,2|8,0:2|0:2,0:2:0:0:
412,380,64668,5,2,0:2:0:0:
337,332,64828,1,2,1:2:0:0:
256,367,64987,2,0,P|216:373|177:361,1,73.4999977569581,2|8,1:2|0:2,0:2:0:0:
139,277,65306,5,2,0:2:0:0:
139,277,65466,1,2,1:2:0:0:
226,284,65625,2,0,P|234:233|239:203,1,73.4999977569581,2|8,0:2|0:2,0:2:0:0:
167,115,65945,6,0,P|129:133|87:130,1,73.4999977569581,2|0,0:2|1:2,0:2:0:0:
78,46,66264,2,0,P|116:28|158:31,1,73.4999977569581,2|8,1:2|0:2,0:2:0:0:
230,56,66583,5,2,0:2:0:0:
304,102,66742,1,2,1:2:0:0:
382,60,66902,2,0,P|435:44|477:55,1,73.4999977569581,2|12,1:2|0:2,0:0:0:0:
439,139,67221,1,10,0:2:0:0:
439,139,67301,1,8,0:2:0:0:
439,139,67381,2,0,P|445:178|451:222,1,73.4999977569581,2|2,1:2|1:2,0:0:0:0:
393,279,67700,1,12,0:2:0:0:
343,353,67860,1,10,0:2:0:0:
343,353,67939,1,8,0:2:0:0:
343,353,68019,6,0,P|382:368|473:318,2,146.999995513916,6|14|6,1:2|0:2|1:2,0:2:0:0:
294,278,68817,1,0,1:2:0:0:
225,334,68977,2,0,P|187:346|143:339,1,73.4999977569581,14|0,0:2|0:2,0:2:0:0:
50,382,69296,6,0,P|58:326|71:232,1,146.999995513916,14|10,0:2|0:2,0:2:0:0:
24,153,69774,1,0,1:2:0:0:
95,90,69934,2,0,P|140:99|176:107,1,73.4999977569581,10|0,0:2|1:2,0:0:0:0:
239,42,70253,1,10,0:2:0:0:
319,117,70413,6,0,P|310:174|293:282,1,146.999995513916,2|2,1:2|1:2,0:2:0:0:
265,352,70891,1,10,0:2:0:0:
359,337,71051,1,0,1:2:0:0:
468,318,71211,6,0,P|483:278|480:234,1,73.4999977569581,10|0,0:2|1:2,0:0:0:0:
422,172,71530,2,0,P|423:135|437:101,1,73.4999977569581,10|0,0:2|1:2,0:0:0:0:
484,0,71849,6,0,B|426:-10|426:-10|399:6|399:6|323:-6,1,146.999995513916,14|10,0:2|0:2,0:2:0:0:
285,73,72328,1,0,1:2:0:0:
204,21,72487,2,0,P|159:12|123:24,1,73.4999977569581,10|0,0:2|1:2,0:0:0:0:
63,84,72806,1,10,0:2:0:0:
178,115,72966,1,2,1:2:0:0:
178,115,73046,1,0,1:2:0:0:
178,115,73125,6,0,P|187:170|203:274,1,146.999995513916,8|10,0:2|0:2,0:0:0:0:
267,329,73604,1,0,1:2:0:0:
167,378,73764,6,0,P|128:372|92:367,1,73.4999977569581,10|0,0:2|1:2,0:0:0:0:
17,287,74083,2,0,P|56:281|92:276,1,73.4999977569581,10|0,0:2|1:2,0:0:0:0:
170,200,74402,6,0,P|181:159|102:86,1,146.999995513916,14|10,0:2|0:2,0:2:0:0:
22,81,74881,1,0,1:2:0:0:
80,6,75040,2,0,P|123:-1|158:9,1,73.4999977569581,10|0,0:2|1:2,0:0:0:0:
231,60,75360,1,10,0:2:0:0:
328,9,75519,6,0,P|317:85|307:156,1,146.999995513916,2|2,1:2|1:2,0:0:0:0:
268,242,75998,1,10,0:2:0:0:
333,310,76157,1,0,1:2:0:0:
430,257,76317,6,0,P|423:215|418:180,1,73.4999977569581,10|0,0:2|1:2,0:2:0:0:
490,121,76636,1,10,3:2:0:0:
468,37,76796,1,8,0:3:0:0:
468,37,76875,1,4,0:3:0:0:
468,37,76955,1,6,1:3:0:0:
350,38,78232,6,0,P|306:45|273:50,1,73.4999977569581,14|0,0:2|1:2,0:0:0:0:
190,65,78551,1,0,1:2:0:0:
262,166,78711,2,0,P|218:159|185:154,1,73.4999977569581,14|0,0:2|1:2,0:0:0:0:
102,139,79030,1,0,1:2:0:0:
130,221,79189,1,14,0:2:0:0:
67,282,79349,1,8,0:2:0:0:
67,282,79429,1,8,0:2:0:0:
67,282,79508,6,0,P|97:302|201:273,1,140,6|10,1:2|0:2,0:2:0:0:
270,248,79987,1,2,0:2:0:0:
329,308,80147,2,0,P|336:352|341:385,1,70,2|0,1:2|0:2,0:2:0:0:
397,253,80466,1,10,0:2:0:0:
397,253,80625,1,2,0:2:0:0:
464,324,80785,6,0,P|499:336|544:331,2,70,2|2|10,1:2|0:2|0:2,0:0:0:0:
504,250,81264,2,0,P|495:185|486:109,1,140,10|0,0:2|1:2,0:2:0:0:
456,32,81742,1,8,0:2:0:0:
362,0,81902,5,2,1:2:0:0:
289,42,82061,1,2,1:2:0:0:
208,16,82221,2,0,P|173:11|140:20,1,70,2|12,1:2|0:2,0:0:0:0:
107,140,82540,5,10,0:2:0:0:
180,98,82699,1,2,1:2:0:0:
261,124,82859,2,0,P|296:129|329:120,1,70,2|12,1:2|0:2,0:0:0:0:
422,153,83179,6,0,P|373:147|342:230,1,140,6|0,1:2|1:2,0:2:0:0:
370,295,83657,2,0,P|325:302|293:309,1,70,10|10,0:2|0:2,0:0:0:0:
233,358,83977,1,2,1:2:0:0:
151,340,84136,1,2,1:2:0:0:
68,325,84296,2,0,P|61:281|56:247,1,70,10|2,0:2|1:2,0:0:0:0:
26,155,84615,6,0,B|79:148|79:148|107:166|107:166|172:157,1,140,6|10,1:2|0:2,0:2:0:0:
209,90,85094,1,2,0:2:0:0:
285,123,85253,2,0,P|298:164|296:191,1,70,2|0,1:2|0:2,0:2:0:0:
238,251,85572,1,10,0:2:0:0:
238,251,85732,1,2,0:2:0:0:
188,334,85891,6,0,P|154:329|119:324,2,70,2|2|10,1:2|0:2|0:2,0:0:0:0:
260,376,86370,2,0,P|315:366|406:354,1,140,10|0,0:2|1:2,0:2:0:0:
482,360,86849,1,8,0:2:0:0:
512,267,87008,5,2,1:2:0:0:
445,202,87168,1,6,1:2:0:0:
445,202,87328,2,0,P|452:150|455:119,1,70,2|8,1:2|0:2,0:0:0:0:
464,49,87647,5,10,0:2:0:0:
381,6,87806,1,6,1:2:0:0:
381,6,87966,2,0,P|377:42|372:85,1,70,2|8,1:2|0:2,0:0:0:0:
323,160,88285,6,0,B|250:139|262:192|183:172,1,140,6|0,1:2|1:2,0:2:0:0:
132,109,88764,1,10,0:2:0:0:
58,149,88923,1,10,0:2:0:0:
91,241,89083,6,0,B|148:290|148:290|116:383,1,168,6|0,1:2|0:0,0:2:0:0:
