osu file format v14

[General]
AudioFilename: audio.mp3
AudioLeadIn: 0
PreviewTime: 48790
Countdown: 0
SampleSet: Soft
StackLeniency: 0.3
Mode: 0
LetterboxInBreaks: 0
WidescreenStoryboard: 1

[Editor]
DistanceSpacing: 1
BeatDivisor: 4
GridSize: 8
TimelineZoom: 1.2

[Metadata]
Title:EASY LOVE (TV Size)
TitleUnicode:EASY LOVE (TV Size)
Artist:Uesaka Sumire
ArtistUnicode:上坂すみれ
Creator:Kuki1537
Version:BASEN'S NORMAL
Source:イジらないで、長瀞さん
Tags:ijiranaide nagatoro-san nagatoro san don't dont toy with me miss opening op anime japanese female vocal j-pop j pop jpop mimari basensorex kirishima- torriru my_angel_ram my angel ram
BeatmapID:2839414
BeatmapSetID:1372562

[Difficulty]
HPDrainRate:3.6
CircleSize:3.5
OverallDifficulty:4.5
ApproachRate:6
SliderMultiplier:0.999999999999999
SliderTickRate:1

[Events]
//Background and Video events
Video,-50,"video.mp4"
0,0,"quality test2.jpg",0,0
//Break Periods
//Storyboard Layer 0 (Background)
//Storyboard Layer 1 (Fail)
//Storyboard Layer 2 (Pass)
//Storyboard Layer 3 (Foreground)
//Storyboard Layer 4 (Overlay)
//Storyboard Sound Samples

[TimingPoints]
360,319.148936170213,4,2,45,55,1,0
360,-125,4,2,45,55,0,0
2514,-125,4,2,45,5,0,0
2594,-125,4,2,45,55,0,0
2833,-125,4,2,45,5,0,0
2913,-125,4,2,45,55,0,0
5067,-125,4,2,45,5,0,0
5147,-125,4,2,45,70,0,0
5386,-125,4,2,45,5,0,0
5466,-100,4,2,45,80,0,0
15679,-111.111111111111,4,2,45,60,0,0
24455,-111.111111111111,4,2,45,70,0,0
36104,-111.111111111111,4,2,45,75,0,0
45040,-111.111111111111,4,2,45,60,0,0
46317,-111.111111111111,4,2,45,75,0,0
48870,-90.9090909090909,4,2,45,85,0,1
51344,-90.9090909090909,4,2,45,5,0,1
51423,-90.9090909090909,4,2,45,85,0,1
61556,-90.9090909090909,4,2,45,5,0,1
61636,-90.9090909090909,4,2,45,85,0,1
76955,-100,4,2,45,85,0,0
77115,-100,4,2,45,50,0,0
78232,-100,4,2,45,85,0,0
79508,-100,4,2,45,80,0,0
89402,-100,4,2,45,5,0,0

[Colours]
Combo1 : 83,14,211
Combo2 : 108,255,222
Combo3 : 255,23,111
Combo4 : 108,108,255
Combo5 : 173,255,62
Combo6 : 236,60,255
Combo7 : 255,244,43
Combo8 : 255,33,9

[HitObjects]
45,274,360,6,0,L|124:264,1,80,6|10,1:2|0:2,0:2:0:0:
203,254,998,1,2,0:2:0:0:
251,324,1317,1,10,0:2:0:0:
251,324,1477,2,0,B|306:330|306:330|313:339|313:339|369:346,1,120,2|10,1:2|0:2,0:2:0:0:
444,361,2274,1,2,0:2:0:0:
500,304,2594,1,10,0:2:0:0:
473,228,2913,6,0,L|484:132,1,79.9999999999999,6|10,1:2|0:2,0:2:0:0:
425,92,3551,1,2,3:2:0:0:
357,132,3870,1,10,0:2:0:0:
357,132,4030,2,0,P|291:155|237:147,1,120,6|10,1:2|0:2,0:2:0:0:
174,107,4828,1,2,0:2:0:0:
108,61,5147,2,0,L|60:66,1,40,14|0,1:2|0:0,0:2:0:0:
20,79,5466,6,0,B|4:111|4:111|20:175,1,99.9999999999999,6|10,1:2|0:2,0:2:0:0:
46,269,6104,1,2,1:2:0:0:
142,293,6423,1,10,0:2:0:0:
212,221,6742,2,0,P|239:213|279:213,1,50,2|2,1:2|0:2,0:0:0:0:
301,180,7062,1,10,0:2:0:0:
301,180,7221,2,0,B|394:188|353:130|444:139,1,150,10|8,0:2|0:2,0:2:0:0:
509,210,8019,6,0,L|502:258,1,50,2|2,1:2|1:2,0:0:0:0:
497,309,8338,1,12,0:2:0:0:
410,358,8657,2,0,P|383:350|343:350,1,50,2|2,1:2|1:2,0:0:0:0:
320,330,8976,1,12,0:2:0:0:
320,330,9136,2,0,B|257:345|257:345|225:329,1,99.9999999999999,6|0,1:2|1:2,0:2:0:0:
182,303,9615,1,10,0:2:0:0:
90,343,9934,2,0,L|83:294,1,50,2|2,1:2|1:2,0:0:0:0:
78,243,10253,1,10,0:2:0:0:
16,164,10572,6,0,B|0:132|0:132|16:68,1,99.9999999999999,6|10,1:2|0:2,0:2:0:0:
104,25,11210,1,2,1:2:0:0:
181,88,11529,1,10,0:2:0:0:
266,35,11849,2,0,L|329:27,1,50,2|2,1:2|0:2,0:0:0:0:
369,29,12168,1,10,0:2:0:0:
369,29,12328,2,0,P|421:44|447:135,1,150,10|8,0:2|0:2,0:2:0:0:
411,220,13125,6,0,L|362:213,1,50,6|2,1:2|1:2,0:0:0:0:
311,208,13444,1,8,0:2:0:0:
233,144,13764,2,0,P|206:152|166:152,1,50,6|2,1:2|1:2,0:0:0:0:
147,186,14082,1,8,0:2:0:0:
147,186,14242,2,0,B|84:170|84:170|52:186,1,99.9999999999999,6|0,1:2|1:2,0:2:0:0:
13,217,14721,1,10,0:2:0:0:
31,315,15040,1,6,1:2:0:0:
31,315,15679,6,0,L|126:326,1,89.999997253418,6|2,1:2|0:2,0:2:0:0:
203,291,16317,1,10,0:2:0:0:
258,361,16636,1,2,3:2:0:0:
338,321,16955,2,0,L|433:310,1,89.999997253418,10|2,0:2|1:2,0:2:0:0:
471,302,17434,2,0,P|484:259|477:215,1,89.999997253418,2|8,0:2|0:2,0:0:0:0:
467,171,17913,1,2,3:2:0:0:
410,100,18232,6,0,P|367:86|323:93,1,89.999997253418,2|2,1:2|3:2,0:2:0:0:
238,123,18870,1,10,0:2:0:0:
165,69,19189,1,2,3:2:0:0:
85,110,19508,2,0,L|96:205,1,89.999997253418,2|2,1:2|1:2,0:0:0:0:
103,243,19987,2,0,P|145:256|189:249,1,89.999997253418,2|8,3:2|0:2,0:0:0:0:
232,234,20466,1,0,3:2:0:0:
314,269,20785,6,0,L|308:314,2,44.999998626709,2|10|2,1:2|0:2|3:2,0:0:0:0:
399,240,21423,1,10,1:2:0:0:
483,208,21742,2,0,L|477:163,1,44.999998626709,2|2,3:2|1:2,0:0:0:0:
440,136,22062,2,0,L|451:41,1,89.999997253418,10|10,0:2|1:2,0:2:0:0:
417,16,22540,2,0,P|375:3|331:10,1,89.999997253418,2|8,1:2|0:2,0:0:0:0:
290,32,23019,1,2,1:2:0:0:
222,90,23338,6,0,B|169:57|102:96|144:143|52:137,1,179.999994506836,6|6,1:2|1:2,0:2:0:0:
13,262,24455,2,0,P|55:275|99:268,1,89.999997253418,6|0,1:2|1:2,0:2:0:0:
143,256,24934,1,8,0:2:0:0:
204,321,25253,2,0,L|267:328,1,44.999998626709,8|0,0:2|1:2,0:0:0:0:
289,306,25572,2,0,L|352:298,1,44.999998626709,0|10,1:2|0:2,0:0:0:0:
367,330,25891,6,0,L|462:341,1,89.999997253418,6|8,1:2|0:2,0:2:0:0:
508,267,26530,1,2,1:2:0:0:
472,190,26849,1,8,0:2:0:0:
472,190,27008,2,0,P|485:148|478:104,1,89.999997253418,2|2,0:2|1:2,0:2:0:0:
460,67,27487,1,10,0:2:0:0:
460,67,27647,2,0,L|365:78,1,89.999997253418,2|2,0:2|1:2,0:2:0:0:
294,39,28285,1,2,0:2:0:0:
294,39,28445,6,0,L|199:28,1,89.999997253418,0|10,1:2|0:2,0:0:0:0:
115,13,29084,1,2,1:2:0:0:
53,77,29402,2,0,L|60:140,1,44.999998626709,8|2,0:2|3:2,0:0:0:0:
67,165,29721,2,0,P|109:178|153:171,1,89.999997253418,2|10,1:2|0:2,0:0:0:0:
196,155,30200,1,2,1:2:0:0:
267,209,30519,1,2,1:2:0:0:
341,157,30839,1,2,0:2:0:0:
341,157,30998,6,0,L|352:62,2,89.999997253418,6|8|0,1:2|0:2|1:2,0:2:0:0:
421,197,31955,1,8,0:2:0:0:
500,238,32274,2,0,L|494:285,1,44.999998626709,0|0,1:2|1:2,0:0:0:0:
487,330,32594,1,8,0:2:0:0:
487,330,32753,2,0,B|421:322|421:322|412:312|412:312|345:303,1,134.999995880127,0|10,1:2|0:2,0:0:0:0:
295,370,33551,6,0,P|253:357|209:364,1,89.999997253418,6|8,1:2|0:2,0:2:0:0:
167,345,34030,2,0,P|125:358|81:351,1,89.999997253418,2|0,0:2|1:2,0:0:0:0:
41,327,34508,1,10,0:2:0:0:
2,245,34828,2,0,L|7:197,1,44.999998626709,2|8,1:2|0:2,0:0:0:0:
42,172,35147,2,0,L|36:124,1,44.999998626709,0|0,1:2|3:2,0:0:0:0:
28,82,35466,1,8,0:2:0:0:
101,30,35785,1,8,0:3:0:0:
160,98,36104,6,0,P|202:111|246:104,1,89.999997253418,6|10,1:2|0:2,0:2:0:0:
290,93,36583,1,2,1:2:0:0:
358,151,36902,2,0,L|352:198,1,44.999998626709,2|10,1:2|0:2,0:0:0:0:
346,240,37221,1,2,1:2:0:0:
260,268,37540,2,0,L|265:315,1,44.999998626709,2|10,1:2|0:2,0:0:0:0:
273,357,37860,2,0,P|315:370|359:363,1,89.999997253418,2|4,1:2|1:2,0:2:0:0:
399,343,38338,1,12,0:2:0:0:
468,285,38657,6,0,L|457:190,1,89.999997253418,6|10,1:2|0:2,0:2:0:0:
452,150,39136,1,6,1:2:0:0:
364,129,39455,2,0,L|369:81,1,44.999998626709,2|10,1:2|0:2,0:0:0:0:
374,39,39774,1,6,1:2:0:0:
291,2,40094,2,0,L|243:7,1,44.999998626709,2|10,1:2|0:2,0:0:0:0:
216,40,40413,2,0,P|174:27|130:34,1,89.999997253418,2|4,0:2|1:2,0:0:0:0:
89,54,40891,1,12,0:2:0:0:
16,107,41211,6,0,L|27:202,1,89.999997253418,6|10,1:2|0:2,0:2:0:0:
31,241,41690,1,6,1:2:0:0:
41,330,42008,2,0,L|88:335,1,44.999998626709,2|10,1:2|0:2,0:0:0:0:
130,340,42328,1,6,1:2:0:0:
197,280,42647,2,0,L|244:274,1,44.999998626709,2|10,1:2|0:2,0:0:0:0:
276,303,42966,2,0,L|371:314,1,89.999997253418,10|8,0:2|0:2,0:0:0:0:
409,321,43445,1,8,0:2:0:0:
483,270,43764,6,2,P|496:228|489:184,2,89.999997253418,6|2|2,1:2|0:2|0:2,0:2:0:0:
409,321,44721,1,2,0:2:0:0:
325,288,45040,2,0,B|272:255|205:294|247:341|155:335,1,179.999994506836,6|2,1:2|0:2,0:2:0:0:
166,335,46317,6,0,L|158:271,1,44.999998626709,14|12,0:2|0:2,0:0:0:0:
96,226,46796,2,0,L|103:162,1,44.999998626709,12|12,0:2|0:2,0:0:0:0:
29,126,47274,2,0,L|21:62,1,44.999998626709,12|12,0:2|0:2,0:0:0:0:
91,19,47753,1,8,0:2:0:0:
91,19,47913,2,0,B|120:4|120:4|179:19,1,89.999997253418,8|8,0:3|0:3,0:0:0:0:
260,48,48551,1,12,0:2:0:0:
257,157,48870,6,0,P|230:165|190:165,1,55.0000016784668,6|2,1:2|0:2,0:2:0:0:
155,194,49189,2,0,P|128:186|88:186,1,55.0000016784668,10|2,0:2|0:2,0:0:0:0:
46,193,49508,2,0,B|24:246|24:246|40:298,1,110.000003356934,2|12,1:2|0:2,0:0:0:0:
63,345,49987,1,2,0:2:0:0:
173,323,50306,1,2,0:2:0:0:
173,323,50466,2,0,L|236:330,1,55.0000016784668,10|2,0:2|0:2,0:0:0:0:
263,371,50785,2,0,L|374:357,1,110.000003356934,2|12,1:2|0:2,0:0:0:0:
480,339,51423,5,6,1:2:0:0:
506,232,51742,1,10,0:2:0:0:
422,160,52062,1,2,1:2:0:0:
448,53,52381,1,10,0:2:0:0:
448,53,52540,2,0,B|395:31|395:31|343:47,1,110.000003356934,2|2,3:2|0:2,0:0:0:0:
293,67,53019,1,10,0:2:0:0:
201,6,53338,2,0,L|146:12,1,55.0000016784668,2|12,1:2|0:2,0:0:0:0:
122,61,53657,2,0,L|67:54,1,55.0000016784668,12|2,0:2|3:2,0:0:0:0:
24,90,53977,6,0,P|0:141|14:199,1,110.000003356934,6|8,1:2|0:2,0:0:0:0:
60,289,54615,2,0,L|171:275,1,110.000003356934,2|8,1:2|0:2,0:0:0:0:
278,262,55253,2,0,B|300:209|300:209|284:157,1,110.000003356934,2|8,1:2|0:2,0:0:0:0:
265,106,55732,1,2,0:2:0:0:
329,17,56051,1,2,1:2:0:0:
440,42,56370,1,2,0:2:0:0:
440,42,56530,6,0,P|464:93|450:151,1,110.000003356934,6|14,1:2|0:2,0:2:0:0:
388,232,57168,1,2,1:2:0:0:
478,293,57487,1,14,0:2:0:0:
413,381,57806,2,0,L|349:373,1,55.0000016784668,14|0,0:2|1:2,0:0:0:0:
317,337,58125,2,0,L|253:344,1,55.0000016784668,8|0,0:2|1:2,0:0:0:0:
212,368,58445,2,0,L|148:360,1,55.0000016784668,8|0,3:2|0:2,0:0:0:0:
103,351,58764,1,12,0:2:0:0:
49,254,59083,6,0,P|41:227|41:187,1,55.0000016784668,6|2,1:2|0:2,0:2:0:0:
0,161,59402,2,0,P|8:134|8:94,1,55.0000016784668,10|2,0:2|0:2,0:0:0:0:
22,53,59721,2,0,P|73:29|131:43,1,110.000003356934,2|12,1:2|0:2,0:0:0:0:
169,69,60200,1,2,3:2:0:0:
222,170,60519,1,2,0:2:0:0:
222,170,60679,2,0,L|212:249,1,55.0000016784668,10|2,0:2|0:2,0:0:0:0:
211,279,60998,2,0,B|264:301|264:301|316:285,1,110.000003356934,2|12,1:2|0:2,0:0:0:0:
399,355,61636,5,6,1:2:0:0:
501,316,61955,1,10,0:2:0:0:
505,205,62275,1,2,1:2:0:0:
425,137,62594,1,10,0:2:0:0:
425,137,62753,2,2,P|376:113|323:122,1,110.000003356934,2|2,0:2|1:2,0:2:0:0:
275,151,63232,1,10,0:2:0:0:
217,244,63551,2,0,L|226:323,1,55.0000016784668,2|0,1:2|1:2,0:0:0:0:
187,340,63870,2,0,P|160:348|120:348,1,55.0000016784668,12|10,0:2|0:2,0:0:0:0:
78,344,64189,6,0,B|56:291|56:291|72:239,1,110.000003356934,6|8,1:2|0:2,0:0:0:0:
2,154,64828,2,0,L|16:43,1,110.000003356934,2|8,1:2|0:2,0:0:0:0:
123,20,65466,2,0,P|171:43|224:34,1,110.000003356934,2|8,1:2|0:2,0:0:0:0:
275,12,65945,1,2,0:2:0:0:
367,69,66264,1,2,1:2:0:0:
462,12,66583,1,2,0:2:0:0:
462,12,66742,6,0,B|484:65|484:65|468:117,1,110.000003356934,2|12,1:2|0:2,0:0:0:0:
428,217,67381,2,0,L|442:328,1,110.000003356934,2|12,1:2|0:2,0:0:0:0:
347,383,68019,1,6,1:2:0:0:
250,331,68338,1,14,0:2:0:0:
149,376,68657,1,6,1:2:0:0:
52,324,68976,1,14,0:2:0:0:
63,214,69296,6,0,P|111:190|164:199,1,110.000003356934,14|10,0:2|0:2,0:2:0:0:
273,180,69934,2,0,P|321:203|374:194,1,110.000003356934,10|10,0:2|0:2,0:0:0:0:
428,173,70413,1,2,1:2:0:0:
428,173,70572,6,0,L|442:62,1,110.000003356934,8|10,0:2|0:2,0:0:0:0:
351,0,71211,2,0,L|272:9,1,55.0000016784668,10|0,0:2|1:2,0:0:0:0:
256,44,71530,1,10,0:2:0:0:
151,8,71849,6,0,B|98:-14|98:-14|46:2,1,110.000003356934,14|10,0:2|0:2,0:2:0:0:
9,106,72487,2,0,L|23:230,1,110.000003356934,10|10,0:2|0:2,0:0:0:0:
38,272,72966,1,2,1:2:0:0:
38,272,73125,6,0,B|91:294|91:294|143:278,1,110.000003356934,8|10,0:2|0:2,0:0:0:0:
220,354,73764,2,0,L|299:363,1,55.0000016784668,10|0,0:2|1:2,0:0:0:0:
324,336,74083,1,10,0:2:0:0:
339,227,74402,6,0,L|324:102,1,110.000003356934,14|10,0:2|0:2,0:2:0:0:
391,29,75040,2,0,P|444:19|492:43,1,110.000003356934,10|10,0:2|0:2,0:0:0:0:
504,102,75519,1,2,1:2:0:0:
504,102,75679,6,0,B|482:155|482:155|498:207,1,110.000003356934,8|10,0:2|0:2,0:0:0:0:
411,273,76317,2,0,L|332:264,1,55.0000016784668,10|0,0:2|1:2,0:2:0:0:
320,224,76636,1,10,3:2:0:0:
230,268,76955,5,6,1:3:0:0:
230,268,78232,2,0,L|118:254,1,99.9999999999999,14|0,0:2|1:2,0:0:0:0:
81,245,78711,2,0,P|65:194|73:142,1,99.9999999999999,14|0,0:2|1:2,0:0:0:0:
92,103,79189,1,14,0:2:0:0:
169,39,79508,6,0,B|201:23|201:23|265:39,1,99.9999999999999,6|10,1:2|0:2,0:2:0:0:
334,108,80146,1,2,1:2:0:0:
416,51,80465,1,10,0:2:0:0:
489,118,80785,2,0,P|481:145|481:185,1,50,2|2,1:2|0:2,0:0:0:0:
482,221,81104,1,10,0:2:0:0:
482,221,81263,2,0,B|389:213|430:271|339:262,1,150,10|8,0:2|0:2,0:2:0:0:
265,325,82061,6,0,L|217:318,1,50,2|2,1:2|1:2,0:0:0:0:
166,313,82380,1,12,0:2:0:0:
97,240,82700,2,0,P|105:213|105:173,1,50,2|2,1:2|1:2,0:0:0:0:
110,145,83018,1,12,0:2:0:0:
110,145,83178,2,0,B|173:130|173:130|205:146,1,99.9999999999999,6|0,1:2|1:2,0:2:0:0:
245,174,83657,1,10,0:2:0:0:
343,158,83976,2,0,L|336:207,1,50,2|2,1:2|1:2,0:0:0:0:
331,257,84295,1,10,0:2:0:0:
356,353,84614,6,0,B|388:337|388:337|452:353,1,99.9999999999999,6|10,1:2|0:2,0:2:0:0:
508,271,85252,1,2,1:2:0:0:
439,198,85571,1,10,0:2:0:0:
501,119,85891,2,0,L|509:56,1,50,2|2,1:2|0:2,0:0:0:0:
480,33,86210,1,10,0:2:0:0:
480,33,86370,2,0,P|432:6|349:52,1,150,10|8,0:2|0:2,0:2:0:0:
302,132,87168,6,0,L|253:125,1,50,6|2,1:2|1:2,0:0:0:0:
202,117,87486,1,8,0:2:0:0:
108,154,87806,2,0,P|100:181|100:221,1,50,6|2,1:2|1:2,0:0:0:0:
94,255,88124,1,8,0:2:0:0:
94,255,88284,2,0,B|157:239|157:239|189:255,1,99.9999999999999,6|0,1:2|1:2,0:2:0:0:
234,274,88763,1,10,0:2:0:0:
222,373,89082,5,6,1:2:0:0:
