osu file format v14

[General]
AudioFilename: audio.mp3
AudioLeadIn: 0
PreviewTime:48770
Countdown: 0
SampleSet: Soft
StackLeniency: 0.5
Mode: 0
LetterboxInBreaks: 0
WidescreenStoryboard: 1

[Editor]
DistanceSpacing: 0.7
BeatDivisor: 4
GridSize: 16
TimelineZoom: 2.1

[Metadata]
Title:EASY LOVE (TV Size)
TitleUnicode:EASY LOVE (TV Size)
Artist:Uesaka Sumire
ArtistUnicode:上坂すみれ
Creator:Ayana
Version:Normal
Source:イジらないで、長瀞さん
Tags:Ijiranaide, Nagatoro-san Don't Toy with Me Please don't bully me miss japanese pop j-pop jpop anime opening op short size length version 長瀞早瀬 Nagatoro Hayase 先輩 パイセン Paisen Senpai すみぺ sumipe Hayacchi ハヤっち Roda Totsuki reiSevia Mayu Sakuma Xexyz Azunyan-
BeatmapID:2938753
BeatmapSetID:1427255

[Difficulty]
HPDrainRate:4
CircleSize:3
OverallDifficulty:5
ApproachRate:5.2
SliderMultiplier:1.1
SliderTickRate:1

[Events]
//Background and Video events
Video,90,"nagatoro.mp4"
0,0,"gaki.jpg",0,0
//Break Periods
//Storyboard Layer 0 (Background)
//Storyboard Layer 1 (Fail)
//Storyboard Layer 2 (Pass)
//Storyboard Layer 3 (Foreground)
//Storyboard Layer 4 (Overlay)
//Storyboard Sound Samples

[TimingPoints]
430,319.148936170213,4,2,1,50,1,0
15749,-111.111111111111,4,2,1,60,0,0
25961,-111.111111111111,4,2,1,65,0,0
31307,-111.111111111111,4,2,1,5,0,0
31387,-111.111111111111,4,2,1,65,0,0
46387,-111.111111111111,4,2,1,65,0,0
48940,-100,4,2,1,85,0,1
77025,-100,4,2,1,70,0,0
78302,-100,4,2,1,75,0,0

[Colours]
Combo1 : 250,180,240
Combo2 : 120,200,230
Combo3 : 255,230,130
Combo4 : 160,230,150

[HitObjects]
464,132,5536,6,0,P|399:112|347:101,1,110,4|10,2:0|2:0,2:0:0:0:
323,137,6015,1,0,2:0:0:0:
323,137,6174,2,0,P|270:153|217:166,1,110,8|8,2:1|2:0,2:0:0:0:
125,128,6812,2,0,L|105:70,2,55,10|2|10,2:1|2:0|2:0,2:0:0:0:
98,169,7291,2,0,L|67:343,1,165,10|8,2:0|2:0,2:0:0:0:
163,376,8089,5,10,2:1:0:0:
163,376,8249,2,0,P|203:353|273:334,1,110,10|10,2:1|2:0,2:0:0:0:
314,321,8727,1,10,2:1:0:0:
314,321,8887,2,0,P|354:344|424:363,1,110,10|2,2:1|2:0,2:0:0:0:
455,333,9366,1,4,2:0:0:0:
485,238,9685,1,8,2:0:0:0:
417,164,10004,2,0,L|430:100,2,55,8|8|8,2:1|2:1|2:0,2:0:0:0:
376,190,10483,1,0,2:0:0:0:
376,190,10642,6,0,P|302:166|253:162,1,110,4|10,2:0|2:0,2:0:0:0:
223,249,11281,2,0,P|149:273|100:277,1,110,8|8,2:1|2:0,2:0:0:0:
73,188,11919,2,0,L|15:176,2,55,10|2|10,2:1|2:0|2:0,2:0:0:0:
112,158,12398,2,0,P|125:90|208:13,1,165,10|8,2:0|2:0,2:0:0:0:
262,87,13195,5,4,2:0:0:0:
262,87,13355,2,0,L|376:66,1,110,8|8,2:1|2:0,2:0:0:0:
416,45,13834,1,4,2:0:0:0:
416,45,13994,2,0,L|395:159,1,110,8|4,2:1|2:0,2:0:0:0:
326,223,14632,2,0,L|339:287,2,55,10|10|10,2:0|2:1|2:1,2:0:0:0:
280,204,15110,1,6,2:0:0:0:
166,341,15749,6,0,L|63:316,1,98.9999969787599,8|2,2:1|2:1,2:0:0:0:
44,232,16387,2,0,P|27:184|19:129,1,98.9999969787599,8|2,2:0|2:0,2:0:0:0:
55,109,16866,1,8,2:0:0:0:
55,109,17025,1,4,2:3:0:0:
128,158,17344,2,0,L|184:171,1,49.4999984893799,10|2,2:1|2:0,2:0:0:0:
219,182,17664,2,0,L|316:164,1,98.9999969787599,4|2,2:3|2:0,2:0:0:0:
403,181,18302,5,4,2:3:0:0:
461,113,18621,1,2,2:0:0:0:
426,30,18940,2,0,P|382:15|329:12,1,98.9999969787599,4|2,2:3|2:0,2:0:0:0:
255,60,19578,2,0,P|211:75|158:78,1,98.9999969787599,4|8,2:3|2:0,2:0:0:0:
125,57,20057,1,8,2:0:0:0:
125,57,20217,2,0,L|105:169,1,98.9999969787599,4|8,2:3|2:0,2:0:0:0:
50,222,20855,6,0,L|70:283,1,49.4999984893799,4|8,2:3|2:0,2:0:0:0:
97,299,21174,2,0,P|135:288|215:297,1,98.9999969787599,2|4,2:0|2:3,2:0:0:0:
267,240,21812,2,0,L|328:253,1,49.4999984893799,2|8,2:0|2:0,2:0:0:0:
353,274,22132,2,0,P|341:321|332:384,2,98.9999969787599,4|8|4,2:3|2:1|2:3,2:0:0:0:
430,229,23089,1,8,2:1:0:0:
424,140,23408,2,0,P|362:116|314:114,1,98.9999969787599,4|0,2:0|2:0,2:0:0:0:
265,175,24047,2,0,P|219:195|171:201,1,98.9999969787599,4|0,2:0|2:0,2:0:0:0:
130,183,24525,1,4,2:0:0:0:
68,118,24844,6,0,L|7:130,2,49.4999984893799,8|8|8,2:1|2:0|2:1,2:0:0:0:
78,74,25323,2,0,L|196:42,1,98.9999969787599,8|8,2:0|2:0,2:0:0:0:
216,35,25802,2,0,L|334:67,1,98.9999969787599,8|2,2:1|2:0,2:0:0:0:
397,85,26440,2,0,P|409:113|419:152,1,49.4999984893799,2|10,2:0|2:1,2:0:0:0:
394,171,26759,2,0,L|373:284,1,98.9999969787599,10|2,2:1|2:0,2:0:0:0:
372,357,27398,1,0,2:0:0:0:
284,374,27717,1,10,2:1:0:0:
231,302,28036,2,0,P|178:310|123:334,1,98.9999969787599,8|2,2:1|2:0,2:0:0:0:
47,332,28674,6,0,L|15:233,1,98.9999969787599,2|2,2:0|2:0,2:0:0:0:
37,200,29153,1,8,2:1:0:0:
37,200,29312,2,0,P|99:172|142:164,1,98.9999969787599,10|2,2:1|2:0,2:0:0:0:
214,191,29951,2,0,L|320:206,1,98.9999969787599,8|8,2:1|2:1,2:0:0:0:
397,180,30589,1,8,2:1:0:0:
485,156,30908,1,2,2:0:0:0:
485,156,31068,6,0,L|498:57,1,98.9999969787599,4|8,2:0|2:0,2:0:0:0:
421,11,31706,1,8,2:1:0:0:
355,71,32025,1,8,2:0:0:0:
275,31,32344,2,0,P|196:16|161:19,1,98.9999969787599,8|8,2:1|2:0,2:0:0:0:
153,54,32823,1,0,2:0:0:0:
153,54,32983,2,0,P|74:69|39:66,1,98.9999969787599,2|8,2:0|2:0,2:0:0:0:
22,150,33621,6,0,L|47:258,1,98.9999969787599,4|8,2:0|2:0,2:0:0:0:
78,274,34100,2,0,P|121:250|170:246,1,98.9999969787599,2|8,2:0|2:1,2:0:0:0:
208,269,34578,1,8,2:0:0:0:
281,218,34898,2,0,L|344:197,1,49.4999984893799,4|8,2:0|2:0,2:0:0:0:
370,215,35217,2,0,L|487:247,1,98.9999969787599,8|8,2:3|2:0,2:0:0:0:
490,326,35855,1,8,2:3:0:0:
419,379,36174,6,0,L|323:352,1,98.9999969787599,4|8,2:0|2:0,2:0:0:0:
291,321,36653,1,8,2:1:0:0:
202,308,36972,2,0,L|151:319,1,49.4999984893799,8|8,2:1|2:0,2:0:0:0:
131,357,37291,2,0,P|77:353|16:335,1,98.9999969787599,8|8,2:1|2:1,2:0:0:0:
13,308,37770,1,8,2:0:0:0:
13,308,37930,1,8,2:1:0:0:
72,242,38249,1,8,2:0:0:0:
72,242,38408,1,8,2:0:0:0:
33,161,38727,6,0,L|20:53,1,98.9999969787599,4|8,2:0|2:0,2:0:0:0:
50,28,39206,1,8,2:1:0:0:
131,63,39525,2,0,B|195:49|199:53|182:48,1,49.4999984893799,8|8,2:1|2:0,2:0:0:0:
215,26,39844,2,0,P|265:25|324:33,1,98.9999969787599,8|8,2:1|2:1,2:0:0:0:
345,61,40323,1,8,2:0:0:0:
345,61,40483,2,0,L|329:171,1,98.9999969787599,8|8,2:1|2:0,2:0:0:0:
324,202,40961,1,8,2:0:0:0:
355,285,41281,6,0,P|397:302|459:301,1,98.9999969787599,4|8,2:0|2:0,2:0:0:0:
476,267,41759,2,0,P|487:216|495:155,1,98.9999969787599,8|8,2:1|2:1,2:0:0:0:
475,128,42238,1,8,2:0:0:0:
475,128,42398,1,4,2:3:0:0:
429,51,42717,2,0,P|405:49|367:62,1,49.4999984893799,8|8,2:1|2:0,2:0:0:0:
344,80,43036,2,0,P|296:74|239:53,1,98.9999969787599,8|8,2:0|2:0,2:0:0:0:
165,24,43674,1,8,2:0:0:0:
165,24,43834,6,0,P|117:30|60:51,1,98.9999969787599,4|0,2:0|2:0,2:0:0:0:
15,117,44472,1,2,2:0:0:0:
44,201,44791,1,2,2:0:0:0:
127,231,45110,2,0,P|167:236|226:218,1,98.9999969787599,2|2,2:0|2:0,2:0:0:0:
286,157,45749,2,0,P|326:152|385:170,1,98.9999969787599,2|2,2:0|2:0,2:0:0:0:
256,192,46387,12,8,47664,2:0:0:0:
412,215,48621,5,8,0:0:0:0:
334,275,48940,6,0,L|351:334,2,55,6|2|10,2:0|2:0|2:0,2:0:0:0:
301,245,49419,1,2,2:0:0:0:
301,245,49578,2,0,P|232:242|181:258,1,110,8|10,2:1|2:0,2:0:0:0:
153,282,50057,1,2,2:0:0:0:
78,217,50376,2,0,L|55:154,1,55,2|10,2:0|2:0,2:0:0:0:
83,122,50695,1,2,2:0:0:0:
83,122,50855,2,0,L|194:83,1,110,10|8,2:1|2:0,2:0:0:0:
282,110,51493,5,4,2:0:0:0:
351,40,51812,1,10,2:0:0:0:
439,84,52132,2,0,L|419:202,1,110,10|10,2:1|2:0,2:0:0:0:
436,239,52610,2,0,L|416:357,1,110,2|2,2:0|2:0,2:0:0:0:
380,380,53089,1,10,2:0:0:0:
300,321,53408,2,0,P|249:298|183:291,1,110,10|12,2:1|2:0,2:0:0:0:
103,316,54047,1,10,2:1:0:0:
103,316,54206,6,0,P|83:269|63:199,1,110,2|2,2:0|2:0,2:0:0:0:
96,173,54685,1,10,2:1:0:0:
96,173,54844,1,2,2:0:0:0:
193,193,55164,2,0,L|256:209,1,55,10|10,2:0|2:1,2:0:0:0:
293,221,55483,2,0,L|400:195,1,110,2|2,2:0|2:0,2:0:0:0:
476,131,56121,1,2,2:0:0:0:
413,62,56440,1,2,2:0:0:0:
413,62,56600,6,0,L|306:36,1,110,4|14,2:3|2:0,2:0:0:0:
266,62,57078,1,8,2:1:0:0:
266,62,57238,2,0,L|159:88,1,110,8|8,2:1|2:0,2:0:0:0:
68,47,57876,1,4,2:0:0:0:
12,128,58195,1,8,2:0:0:0:
75,203,58515,2,0,L|65:259,1,55,8|8,2:0|2:1,2:0:0:0:
46,303,58834,2,0,L|60:364,1,55,8|8,2:0|2:0,2:0:0:0:
103,377,59153,6,0,P|165:367|215:344,1,110,4|8,2:0|2:0,2:0:0:0:
245,315,59632,1,2,2:0:0:0:
245,315,59791,2,0,P|299:322|349:343,1,110,8|8,2:1|2:0,2:0:0:0:
390,372,60270,1,2,2:0:0:0:
447,291,60589,2,0,L|467:221,1,55,2|8,2:0|2:0,2:0:0:0:
430,199,60908,1,2,2:0:0:0:
430,199,61068,2,0,P|417:147|423:85,1,110,8|8,2:1|2:0,2:0:0:0:
348,24,61706,5,4,2:0:0:0:
307,114,62025,1,8,2:0:0:0:
223,60,62344,1,8,2:1:0:0:
183,153,62664,1,8,2:0:0:0:
183,153,62823,2,0,L|58:142,1,110,2|2,2:0|2:0,2:0:0:0:
29,120,63302,1,8,2:0:0:0:
8,216,63621,1,8,2:1:0:0:
68,294,63940,2,0,L|97:344,1,55,8|0,2:0|2:0,2:0:0:0:
139,364,64259,5,4,2:0:0:0:
139,364,64419,2,0,P|183:339|243:325,1,110,2|2,2:0|2:0,2:0:0:0:
287,354,64898,1,10,2:1:0:0:
287,354,65058,2,0,L|328:226,1,110,2|2,2:0|2:0,2:0:0:0:
354,213,65536,1,10,2:1:0:0:
354,213,65695,2,0,P|415:207|456:181,1,110,2|2,2:0|2:0,2:0:0:0:
449,86,66334,1,8,2:1:0:0:
449,86,66493,2,0,P|416:82|377:86,1,55,8|2,2:0|2:0,2:0:0:0:
361,119,66812,5,8,0:1:0:0:
361,119,66972,2,0,L|244:143,1,110,8|8,2:1|2:0,2:0:0:0:
223,181,67451,1,8,2:1:0:0:
223,181,67611,2,0,L|111:159,1,110,8|8,2:1|2:0,2:0:0:0:
66,149,68089,1,4,2:0:0:0:
37,54,68408,1,8,2:0:0:0:
121,2,68727,1,8,2:1:0:0:
201,60,69047,1,8,2:0:0:0:
296,15,69366,6,0,L|408:0,1,110,12|8,2:0|2:0,2:0:0:0:
480,64,70004,2,0,P|492:120|481:178,1,110,10|8,2:0|2:0,2:0:0:0:
440,196,70483,2,0,P|428:249|436:303,1,110,10|8,2:1|2:1,2:0:0:0:
453,349,70961,1,8,2:0:0:0:
359,381,71281,1,10,2:0:0:0:
286,313,71600,1,10,2:0:0:0:
189,335,71919,6,0,L|64:317,1,110,12|8,2:0|2:0,2:0:0:0:
15,244,72557,2,0,P|10:162|31:124,1,110,10|8,2:0|2:0,2:0:0:0:
60,108,73036,2,0,L|169:83,1,110,10|8,2:1|2:1,2:0:0:0:
204,115,73515,1,8,2:0:0:0:
297,147,73834,1,10,2:0:0:0:
388,183,74153,1,10,2:0:0:0:
472,132,74472,6,0,P|475:77|453:26,1,110,12|8,2:0|2:0,2:0:0:0:
413,52,74951,1,10,2:1:0:0:
413,52,75110,2,0,L|299:27,1,110,10|8,2:0|2:0,2:0:0:0:
263,53,75589,2,0,L|155:76,1,110,10|8,2:1|2:1,2:0:0:0:
108,67,76068,1,8,2:0:0:0:
39,138,76387,1,10,2:0:0:0:
92,221,76706,1,10,2:0:0:0:
92,221,76866,6,0,L|77:291,2,55,10|10|2,2:1|2:0|2:0,2:0:0:0:
190,208,77504,2,0,L|178:154,2,55,2|2|2,2:0|2:0|2:0,2:0:0:0:
261,276,78142,1,0,2:0:0:0:
261,276,78302,2,0,P|336:259|379:255,1,110,8|8,2:0|2:1,2:0:0:0:
412,279,78781,1,8,2:0:0:0:
480,207,79100,1,8,2:1:0:0:
480,207,79259,2,0,L|494:137,1,55,8|8,2:0|2:0,2:0:0:0:
469,108,79578,6,0,P|404:88|352:77,1,110,4|10,2:0|2:0,2:0:0:0:
328,113,80057,1,2,2:0:0:0:
328,113,80216,2,0,P|275:129|222:142,1,110,8|8,2:1|2:0,2:0:0:0:
147,77,80855,2,0,L|167:19,2,55,10|2|10,2:1|2:0|2:0,2:0:0:0:
108,108,81333,2,0,L|77:282,1,165,10|8,2:0|2:0,2:0:0:0:
122,365,82131,5,10,2:1:0:0:
122,365,82291,2,0,P|162:342|232:323,1,110,10|10,2:1|2:0,2:0:0:0:
273,310,82769,1,10,2:1:0:0:
273,310,82929,2,0,P|313:333|383:352,1,110,10|2,2:1|2:0,2:0:0:0:
423,344,83408,1,4,2:0:0:0:
468,254,83727,1,8,2:0:0:0:
398,162,84046,2,0,L|411:98,2,55,8|8|8,2:1|2:1|2:0,2:0:0:0:
368,202,84525,1,2,2:0:0:0:
368,202,84684,6,0,P|294:178|245:174,1,110,4|10,2:0|2:0,2:0:0:0:
191,239,85323,2,0,P|117:263|68:267,1,110,8|8,2:1|2:0,2:0:0:0:
53,173,85961,2,0,L|-7:163,2,55,2|10|10,2:0|2:1|2:0,2:0:0:0:
80,131,86440,2,0,L|255:90,1,165,10|8,2:0|2:0,2:0:0:0:
326,153,87237,5,4,2:0:0:0:
326,153,87397,2,0,B|396:124|396:124|440:132,1,110,8|8,2:1|2:0,2:0:0:0:
480,111,87876,1,4,2:0:0:0:
480,111,88036,2,0,B|490:181|490:181|475:230,1,110,8|4,2:1|2:0,2:0:0:0:
417,296,88674,2,0,L|430:360,2,55,10|10|10,2:0|2:1|2:1,2:0:0:0:
372,274,89152,1,6,2:0:0:0:
