osu file format v14

[General]
AudioFilename: audio.mp3
AudioLeadIn: 0
PreviewTime:48770
Countdown: 0
SampleSet: Soft
StackLeniency: 0.5
Mode: 0
LetterboxInBreaks: 0
WidescreenStoryboard: 1

[Editor]
DistanceSpacing: 0.7
BeatDivisor: 4
GridSize: 16
TimelineZoom: 2.3

[Metadata]
Title:EASY LOVE (TV Size)
TitleUnicode:EASY LOVE (TV Size)
Artist:Uesaka Sumire
ArtistUnicode:上坂すみれ
Creator:Ayana
Version:Insane
Source:イジらないで、長瀞さん
Tags:Ijiranaide, Nagatoro-san Don't Toy with Me Please don't bully me miss japanese pop j-pop jpop anime opening op short size length version 長瀞早瀬 Nagatoro Hayase 先輩 パイセン Paisen Senpai すみぺ sumipe Hayacchi ハヤっち Roda Totsuki reiSevia Mayu Sakuma Xexyz Azunyan-
BeatmapID:2938752
BeatmapSetID:1427255

[Difficulty]
HPDrainRate:5
CircleSize:3.6
OverallDifficulty:8
ApproachRate:9
SliderMultiplier:1.6
SliderTickRate:1

[Events]
//Background and Video events
Video,90,"nagatoro.mp4"
0,0,"gaki.jpg",0,0
//Break Periods
//Storyboard Layer 0 (Background)
//Storyboard Layer 1 (Fail)
//Storyboard Layer 2 (Pass)
//Storyboard Layer 3 (Foreground)
//Storyboard Layer 4 (Overlay)
//Storyboard Sound Samples

[TimingPoints]
430,319.148936170213,4,2,1,50,1,0
430,-156.86274988511,4,2,1,50,0,0
4818,-156.86274988511,4,2,1,5,0,0
4898,-156.86274988511,4,2,1,50,0,0
5536,-100,4,2,1,60,0,0
15749,-125,4,2,1,60,0,0
23408,-166.666666666667,4,2,1,60,0,0
24445,-166.666666666667,4,2,1,5,0,0
24525,-111.111111111111,4,2,1,60,0,0
25961,-111.111111111111,4,2,1,65,0,0
31307,-111.111111111111,4,2,1,5,0,0
31387,-111.111111111111,4,2,1,65,0,0
43834,-125,4,2,1,65,0,0
45110,-125,4,2,1,50,0,0
46387,-100,4,2,1,65,0,0
48940,-100,4,2,1,85,0,1
77025,-100,4,2,1,70,0,0
77504,-200,4,2,1,70,0,0
78302,-100,4,2,1,75,0,0

[Colours]
Combo1 : 250,180,240
Combo2 : 120,200,230
Combo3 : 255,230,130
Combo4 : 160,230,150

[HitObjects]
328,173,430,6,0,P|313:139|311:108,1,50.9999984436036,6|0,0:0|0:0,0:0:0:0:
390,241,749,2,0,P|369:271|343:288,1,50.9999984436036,10|8,0:0|0:0,0:0:0:0:
418,153,1068,2,0,P|455:156|483:170,1,50.9999984436036,2|8,0:0|0:1,0:0:0:0:
311,125,1387,1,10,0:0:0:0:
311,125,1547,2,0,L|321:57,1,50.9999984436036,10|0,0:1|0:0,0:0:0:0:
224,186,1866,1,10,0:1:0:0:
224,186,2025,2,0,L|239:253,1,50.9999984436036,10|8,0:0|0:0,0:0:0:0:
101,122,2344,2,0,P|138:107|169:101,1,50.9999984436036,2|0,0:0|0:0,0:0:0:0:
155,129,2664,2,0,P|118:144|87:150,1,50.9999984436036,2|0,0:0|0:0,0:0:0:0:
66,277,2983,6,0,L|50:208,1,50.9999984436036,4|0,0:0|0:0,0:0:0:0:
165,307,3302,2,0,L|177:356,1,50.9999984436036,10|8,0:0|0:0,0:0:0:0:
284,249,3621,2,0,P|247:237|227:234,1,50.9999984436036,2|8,0:0|0:1,0:0:0:0:
340,353,3940,1,10,0:0:0:0:
340,353,4100,2,0,P|379:346|398:339,1,50.9999984436036,6|0,0:0|0:0,0:0:0:0:
476,285,4419,1,8,0:0:0:0:
476,285,4578,2,0,L|493:210,1,76.4999976654053,8|0,0:1|0:0,0:0:0:0:
456,132,4898,2,0,P|419:116|393:112,1,50.9999993190765,2|0,0:0|0:0,0:0:0:0:
336,125,5217,2,0,P|373:141|399:145,1,50.9999993190765,8|0,0:0|0:0,0:0:0:0:
368,3,5536,6,0,P|313:11|210:71,1,160,4|10,0:0|0:0,0:0:0:0:
206,157,6015,1,2,0:0:0:0:
96,132,6174,2,0,L|-5:112,1,80,8|0,0:1|0:0,0:0:0:0:
3,250,6493,2,0,L|81:265,1,80,8|0,0:0|0:0,0:0:0:0:
238,320,6812,5,10,0:1:0:0:
206,157,6973,1,2,0:0:0:0:
81,265,7132,1,10,0:0:0:0:
269,229,7291,2,0,P|327:216|355:212,1,80,10|8,0:0|0:1,0:0:0:0:
433,266,7610,1,8,0:1:0:0:
397,372,7770,2,0,P|356:328|339:304,1,80,8|0,0:0|0:0,0:0:0:0:
350,122,8089,5,10,0:1:0:0:
512,194,8249,2,0,L|416:169,1,80,10|12,0:1|0:0,0:0:0:0:
356,13,8568,1,10,0:0:0:0:
263,127,8727,1,10,0:1:0:0:
263,127,8887,2,0,P|322:103|355:99,1,80,10|12,0:1|0:0,0:0:0:0:
149,227,9206,6,0,P|99:207|44:117,1,160,2|0,0:0|0:0,0:0:0:0:
99,30,9685,1,8,0:0:0:0:
99,30,9844,1,8,0:1:0:0:
241,146,10004,1,8,0:1:0:0:
149,115,10164,1,8,0:1:0:0:
355,158,10323,1,8,0:0:0:0:
263,127,10483,1,0,0:0:0:0:
395,76,10642,6,0,L|424:246,1,160,4|10,0:0|0:0,0:0:0:0:
458,348,11121,1,2,0:0:0:0:
358,379,11281,2,0,P|306:361|254:352,1,80,8|0,0:1|0:0,0:0:0:0:
99,335,11600,2,0,P|137:325|175:311,1,80,8|0,0:0|0:0,0:0:0:0:
245,155,11919,5,10,0:1:0:0:
175,311,12078,1,2,0:0:0:0:
224,138,12238,1,10,0:0:0:0:
339,262,12398,2,0,L|234:243,1,80,10|8,0:0|0:1,0:0:0:0:
145,152,12717,1,8,0:1:0:0:
145,152,12876,2,0,L|250:133,1,80,8|0,0:0|0:0,0:0:0:0:
364,77,13195,5,4,0:0:0:0:
272,0,13355,2,0,L|247:171,1,160,8|8,0:1|0:0,0:0:0:0:
186,255,13834,1,4,0:0:0:0:
84,193,13993,2,0,P|42:179|-9:171,1,80,8|8,0:1|0:0,0:0:0:0:
101,360,14312,6,0,P|140:352|178:339,1,80,4|0,0:0|0:0,0:0:0:0:
319,281,14632,1,10,0:0:0:0:
205,242,14791,1,10,0:1:0:0:
342,272,14951,1,10,0:1:0:0:
177,339,15110,1,6,0:0:0:0:
407,384,15749,6,0,L|332:363,1,64,8|8,0:1|0:0,0:0:0:0:
371,266,16068,2,0,L|432:283,1,64,2|8,0:1|0:1,0:0:0:0:
508,223,16387,1,8,0:0:0:0:
508,223,16547,1,8,0:0:0:0:
448,151,16706,2,0,P|440:115|440:80,1,64,2|8,0:0|0:0,0:0:0:0:
345,3,17025,6,0,L|326:136,1,128,4|10,0:3|0:1,0:0:0:0:
294,232,17504,1,2,0:0:0:0:
185,144,17664,2,0,P|229:126|262:120,1,64,4|8,0:3|0:0,0:0:0:0:
136,253,17983,2,0,P|105:244|76:231,1,64,2|8,0:0|0:1,0:0:0:0:
72,39,18302,6,0,L|58:129,1,64,4|8,0:3|0:0,0:0:0:0:
160,165,18621,2,0,L|169:101,1,64,2|8,0:0|0:0,0:0:0:0:
254,15,18940,2,0,P|295:2|329:0,1,64,4|8,0:3|0:0,0:0:0:0:
354,173,19259,2,0,P|322:143|303:115,1,64,2|8,0:0|0:0,0:0:0:0:
472,20,19578,6,0,L|444:164,1,128,4|8,0:3|0:0,0:0:0:0:
427,241,20057,1,8,0:0:0:0:
427,241,20137,1,8,0:0:0:0:
427,241,20217,1,4,0:3:0:0:
354,173,20376,1,8,0:0:0:0:
327,272,20536,1,8,0:0:0:0:
265,210,20695,1,8,0:0:0:0:
265,210,20775,1,8,0:0:0:0:
265,210,20855,6,0,P|221:199|185:196,1,64,4|8,0:3|0:0,0:0:0:0:
169,346,21174,2,0,P|200:313|221:283,1,64,2|8,0:0|0:0,0:0:0:0:
87,132,21493,2,0,L|118:260,1,128,4|2,0:3|0:0,0:0:0:0:
187,365,21972,1,8,0:0:0:0:
187,365,22052,1,8,0:0:0:0:
187,365,22132,6,0,P|232:350|265:348,1,64,4|8,0:3|0:0,0:0:0:0:
387,371,22451,1,8,0:1:0:0:
325,315,22610,1,8,0:0:0:0:
453,206,22770,1,4,0:3:0:0:
410,286,22930,1,8,0:0:0:0:
331,132,23089,2,0,L|414:112,1,64,8|0,0:1|0:0,0:0:0:0:
277,223,23408,6,0,P|232:169|243:82,1,143.999995605469,4|0,0:0|0:0,0:0:0:0:
232,4,24047,2,0,P|241:42|231:105,1,95.9999970703126,4|0,0:0|0:0,0:0:0:0:
153,149,24525,6,0,L|72:162,1,71.9999978027344,4|0,0:0|0:0,0:0:0:0:
21,256,24844,1,8,0:1:0:0:
129,239,25004,1,8,0:0:0:0:
11,274,25164,1,8,0:1:0:0:
67,173,25323,1,8,0:0:0:0:
67,173,25403,1,8,0:0:0:0:
67,173,25483,2,0,L|49:91,1,71.9999978027344,8|8,0:1|0:0,0:0:0:0:
204,0,25802,6,0,L|186:81,1,71.9999978027344,8|4,0:1|0:0,0:0:0:0:
255,176,26121,2,0,P|300:159|323:155,1,71.9999978027344,2|0,0:0|0:0,0:0:0:0:
467,106,26440,1,2,0:0:0:0:
395,44,26600,1,10,0:1:0:0:
324,155,26759,2,0,L|345:236,1,71.9999978027344,10|8,0:1|0:0,0:0:0:0:
474,334,27078,6,0,L|492:264,1,71.9999978027344,2|8,0:0|0:1,0:0:0:0:
342,224,27398,1,0,0:0:0:0:
430,188,27557,1,8,0:0:0:0:
349,316,27717,2,0,P|297:302|264:281,1,71.9999978027344,10|0,0:1|0:0,0:0:0:0:
233,135,28036,2,0,P|246:187|245:226,1,71.9999978027344,8|8,0:1|0:0,0:0:0:0:
176,285,28355,5,2,0:0:0:0:
114,226,28515,1,10,0:1:0:0:
39,361,28674,2,0,L|17:276,1,71.9999978027344,2|8,0:0|0:0,0:0:0:0:
185,268,28993,1,2,0:0:0:0:
123,209,29153,1,8,0:1:0:0:
48,344,29312,2,0,L|26:259,1,71.9999978027344,10|8,0:1|0:0,0:0:0:0:
51,130,29632,5,2,0:0:0:0:
123,209,29791,1,8,0:1:0:0:
211,56,29951,2,0,P|163:41|124:37,1,71.9999978027344,8|8,0:1|0:0,0:0:0:0:
234,181,30270,2,0,P|269:174|303:162,1,71.9999978027344,8|2,0:1|0:0,0:0:0:0:
413,91,30589,2,0,P|397:180|387:260,1,143.999995605469,8|2,0:1|0:0,0:0:0:0:
412,3,31068,6,0,L|428:73,1,71.9999978027344,4|0,0:0|0:0,0:0:0:0:
302,161,31387,2,0,L|286:91,1,71.9999978027344,8|0,0:0|0:0,0:0:0:0:
206,19,31706,1,8,0:1:0:0:
180,119,31866,1,8,0:1:0:0:
183,0,32025,1,8,0:0:0:0:
201,140,32185,1,0,0:0:0:0:
68,50,32344,5,8,0:1:0:0:
201,140,32504,2,0,L|248:131,2,35.9999989013672,2|2|2,0:0|0:0|0:0,0:0:0:0:
84,75,32823,1,0,0:0:0:0:
55,244,32983,2,0,L|31:167,1,71.9999978027344,2|8,0:0|0:1,0:0:0:0:
201,140,33302,2,0,L|179:208,1,71.9999978027344,8|0,0:0|0:0,0:0:0:0:
260,367,33621,6,0,P|197:324|117:343,1,143.999995605469,4|8,0:0|0:0,0:0:0:0:
387,384,34100,2,0,P|399:302|416:220,1,143.999995605469,2|8,0:0|0:1,0:0:0:0:
477,166,34578,2,0,L|460:86,1,71.9999978027344,8|0,0:0|0:0,0:0:0:0:
357,0,34898,5,4,0:0:0:0:
333,124,35057,1,8,0:0:0:0:
236,47,35217,2,0,L|151:33,1,71.9999978027344,8|8,0:3|0:0,0:0:0:0:
164,35,35456,1,8,0:0:0:0:
164,35,35536,1,8,0:0:0:0:
19,179,35695,1,8,0:3:0:0:
145,146,35855,1,8,0:3:0:0:
42,73,36015,1,8,0:3:0:0:
27,303,36174,6,0,L|51:137,1,143.999995605469,4|8,0:0|0:0,0:0:0:0:
149,371,36653,2,0,L|169:228,1,143.999995605469,8|8,0:1|0:1,0:0:0:0:
185,123,37132,1,8,0:0:0:0:
297,211,37291,2,0,P|368:189|446:180,1,143.999995605469,8|8,0:1|0:1,0:0:0:0:
512,256,37770,1,8,0:0:0:0:
413,347,37930,2,0,L|329:327,1,71.9999978027344,8|0,0:1|0:0,0:0:0:0:
226,227,38249,1,8,0:0:0:0:
226,227,38408,2,0,L|296:210,1,71.9999978027344,8|0,0:0|0:0,0:0:0:0:
93,372,38727,6,0,P|61:316|52:228,1,143.999995605469,4|8,0:0|0:0,0:0:0:0:
97,139,39206,2,0,L|109:68,1,71.9999978027344,8|0,0:1|0:0,0:0:0:0:
188,0,39525,1,8,0:1:0:0:
229,92,39685,1,8,0:0:0:0:
309,24,39844,6,0,P|363:9|389:2,1,71.9999978027344,8|0,0:1|0:0,0:0:0:0:
466,63,40164,1,8,0:1:0:0:
373,106,40323,1,8,0:0:0:0:
492,52,40483,2,0,L|456:217,1,143.999995605469,8|8,0:1|0:0,0:0:0:0:
423,309,40961,2,0,P|477:295|514:288,1,71.9999978027344,8|8,0:0|0:1,0:0:0:0:
344,214,41281,6,0,P|286:196|191:183,1,143.999995605469,4|8,0:0|0:0,0:0:0:0:
70,225,41759,2,0,L|-13:200,1,71.9999978027344,8|0,0:1|0:0,0:0:0:0:
166,318,42078,1,8,0:1:0:0:
56,364,42238,1,8,0:0:0:0:
193,311,42398,6,0,L|261:331,1,71.9999978027344,4|0,0:3|0:0,0:0:0:0:
381,269,42717,1,8,0:1:0:0:
281,304,42876,1,8,0:0:0:0:
442,377,43036,2,0,P|466:320|457:228,1,143.999995605469,8|8,0:0|0:0,0:0:0:0:
400,157,43515,1,8,0:0:0:0:
400,157,43594,1,8,0:0:0:0:
400,157,43674,1,8,0:0:0:0:
307,180,43834,6,0,L|243:192,1,64,4|0,0:0|0:0,0:0:0:0:
157,176,44153,2,0,L|219:164,1,64,0|2,0:0|0:0,0:0:0:0:
97,248,44472,2,0,P|87:236|79:223,3,32,2|2|2|0,0:0|0:0|0:0|0:0,0:0:0:0:
40,126,44791,2,0,P|31:139|21:151,3,32,2|0|2|0,0:0|0:0|0:0|0:0,0:0:0:0:
106,67,45110,6,0,L|112:42,6,16,2|0|0|0|0|0|0,0:0|0:0|0:0|0:0|0:0|0:0|0:0,0:0:0:0:
135,36,45430,2,0,L|141:11,6,16,2|0|0|0|0|0|0,0:0|0:0|0:0|0:0|0:0|0:0|0:0,0:0:0:0:
199,93,45749,2,0,L|205:118,6,16,2|0|0|0|0|0|0,0:0|0:0|0:0|0:0|0:0|0:0|0:0,0:0:0:0:
228,124,46069,2,0,L|234:149,6,16,2|0|0|0|0|0|0,0:0|0:0|0:0|0:0|0:0|0:0|0:0,0:0:0:0:
288,61,46387,6,0,P|333:40|362:34,1,80,8|8,0:0|0:0,0:0:0:0:
510,262,46866,1,8,0:0:0:0:
449,194,47026,2,0,P|404:173|375:167,1,80,8|0,0:0|0:0,0:0:0:0:
244,358,47344,1,8,0:0:0:0:
301,284,47504,6,0,P|346:263|375:257,1,80,8|8,0:0|0:0,0:0:0:0:
376,257,47743,1,8,0:0:0:0:
376,257,47823,1,8,0:0:0:0:
231,368,47983,2,0,L|128:334,1,80,8|8,0:3|0:3,0:0:0:0:
0,268,48302,1,8,0:3:0:0:
84,303,48461,1,8,0:1:0:0:
140,233,48621,2,0,P|153:187|163:134,1,80,8|0,0:0|0:0,0:0:0:0:
75,19,48940,5,6,0:0:0:0:
159,155,49100,1,2,0:0:0:0:
236,14,49259,1,10,0:0:0:0:
77,110,49419,1,2,0:0:0:0:
259,29,49578,2,0,L|429:59,1,160,8|10,0:1|0:0,0:0:0:0:
512,184,50057,6,0,B|467:164|467:164|357:191,1,160,2|0,0:0|0:0,0:0:0:0:
241,252,50536,1,10,0:0:0:0:
364,297,50695,1,2,0:0:0:0:
342,168,50855,5,10,0:1:0:0:
251,340,51015,1,8,0:0:0:0:
147,175,51174,1,8,0:0:0:0:
132,195,51493,6,0,L|111:104,1,80,4|0,0:0|0:0,0:0:0:0:
42,307,51812,2,0,L|24:384,1,80,10|0,0:0|0:0,0:0:0:0:
132,195,52132,2,0,P|182:174|225:164,1,80,10|0,0:1|0:0,0:0:0:0:
342,279,52451,1,10,0:0:0:0:
270,340,52610,2,0,P|226:307|196:274,1,80,2|8,0:0|0:1,0:0:0:0:
233,149,52930,5,2,0:0:0:0:
334,259,53089,1,10,0:0:0:0:
381,117,53249,1,2,0:0:0:0:
484,240,53408,2,0,B|509:190|509:190|483:72,1,160,10|12,0:1|0:0,0:0:0:0:
365,12,53887,5,10,0:1:0:0:
486,88,54047,1,10,0:1:0:0:
339,0,54206,2,0,L|248:24,1,80,2|8,0:0|0:0,0:0:0:0:
121,94,54525,5,2,0:0:0:0:
251,119,54685,1,10,0:1:0:0:
92,87,54844,2,0,L|67:-4,1,80,2|8,0:0|0:0,0:0:0:0:
251,119,55164,5,10,0:0:0:0:
122,185,55324,1,10,0:1:0:0:
297,241,55483,2,0,L|198:212,1,80,2|8,0:0|0:0,0:0:0:0:
389,156,55802,2,0,L|488:127,1,80,2|8,0:0|0:1,0:0:0:0:
312,266,56121,1,2,0:0:0:0:
312,266,56281,2,0,L|213:237,1,80,8|2,0:0|0:0,0:0:0:0:
127,89,56600,6,0,P|172:64|217:47,1,80,4|0,0:3|0:0,0:0:0:0:
72,269,56919,2,0,P|27:242|-9:212,1,80,14|8,0:0|0:1,0:0:0:0:
240,305,57238,2,0,L|256:227,1,80,8|8,0:1|0:1,0:0:0:0:
123,25,57557,2,0,L|138:103,1,80,8|8,0:0|0:1,0:0:0:0:
165,260,57876,5,4,0:0:0:0:
265,81,58036,1,8,0:1:0:0:
313,328,58195,1,8,0:0:0:0:
229,153,58355,1,8,0:1:0:0:
193,359,58515,1,8,0:0:0:0:
303,184,58674,1,8,0:1:0:0:
405,374,58834,2,0,P|419:332|427:283,1,80,8|8,0:0|0:0,0:0:0:0:
306,156,59153,5,4,0:0:0:0:
423,266,59313,1,0,0:0:0:0:
462,108,59472,1,8,0:0:0:0:
332,244,59632,1,0,0:0:0:0:
440,27,59791,2,0,L|410:197,1,160,8|8,0:1|0:0,0:0:0:0:
256,310,60270,6,0,L|228:152,1,160,2|0,0:0|0:0,0:0:0:0:
120,109,60749,1,8,0:0:0:0:
142,217,60908,1,0,0:0:0:0:
240,43,61068,5,8,0:1:0:0:
41,141,61227,1,8,0:1:0:0:
256,62,61387,1,8,0:0:0:0:
272,81,61706,6,0,L|352:92,1,80,4|0,0:0|0:0,0:0:0:0:
485,189,62025,2,0,L|405:200,1,80,8|0,0:0|0:0,0:0:0:0:
310,304,62344,2,0,L|298:383,1,80,8|0,0:1|0:0,0:0:0:0:
170,289,62664,1,8,0:0:0:0:
208,200,62823,6,0,L|196:120,1,80,2|4,0:0|0:3,0:0:0:0:
149,17,63142,1,2,0:0:0:0:
0,132,63302,2,0,P|42:113|87:102,1,80,8|0,0:0|0:0,0:0:0:0:
208,200,63621,1,8,0:1:0:0:
109,127,63781,1,8,0:1:0:0:
48,254,63940,2,0,L|69:341,1,80,8|0,0:0|0:0,0:0:0:0:
180,384,64259,5,4,0:0:0:0:
314,312,64418,2,0,P|262:290|205:278,1,80,2|8,0:0|0:0,0:0:0:0:
199,105,64737,5,2,0:0:0:0:
286,175,64897,1,10,0:1:0:0:
348,60,65057,2,0,L|434:30,1,80,2|8,0:0|0:0,0:0:0:0:
502,132,65376,5,2,0:0:0:0:
415,62,65536,1,10,0:1:0:0:
361,201,65695,2,0,L|275:171,1,80,0|8,0:0|0:0,0:0:0:0:
453,366,66015,2,0,P|477:315|483:259,1,80,2|8,0:0|0:1,0:0:0:0:
285,174,66334,1,2,0:0:0:0:
285,174,66493,2,0,P|282:213|289:253,1,80,8|2,0:0|0:0,0:0:0:0:
212,381,66812,5,8,0:1:0:0:
86,285,66972,2,0,L|-9:259,1,80,8|12,0:1|0:0,0:0:0:0:
196,271,67291,1,8,0:0:0:0:
182,146,67451,1,8,0:1:0:0:
77,253,67610,2,0,L|0:231,1,80,8|12,0:1|0:0,0:0:0:0:
69,43,67930,1,8,0:0:0:0:
69,43,68009,1,8,0:0:0:0:
69,43,68089,6,0,P|78:101|75:141,1,80,4|0,0:0|0:0,0:0:0:0:
195,248,68408,2,0,P|195:208|203:168,1,80,8|0,0:0|0:0,0:0:0:0:
250,28,68727,1,8,0:1:0:0:
250,28,68887,1,8,0:1:0:0:
371,80,69047,2,0,P|411:68|465:59,1,80,8|0,0:0|0:0,0:0:0:0:
280,191,69366,6,0,L|198:167,1,80,12|8,0:0|0:1,0:0:0:0:
399,311,69685,2,0,L|481:287,1,80,8|8,0:0|0:1,0:0:0:0:
207,298,70004,5,8,0:0:0:0:
345,253,70164,1,8,0:1:0:0:
128,261,70323,1,8,0:0:0:0:
298,335,70483,1,8,0:1:0:0:
82,364,70642,2,0,P|65:332|43:289,1,80,8|8,0:0|0:1,0:0:0:0:
263,124,70961,2,0,P|243:154|217:195,1,80,8|8,0:0|0:1,0:0:0:0:
12,83,71281,5,10,0:0:0:0:
45,293,71440,1,8,0:1:0:0:
95,51,71600,5,10,0:0:0:0:
128,261,71759,1,8,0:1:0:0:
190,25,71919,6,0,L|177:118,1,80,12|8,0:0|0:1,0:0:0:0:
311,259,72238,2,0,L|322:179,1,80,8|8,0:0|0:1,0:0:0:0:
417,55,72557,2,0,P|465:36|502:23,1,80,8|8,0:0|0:1,0:0:0:0:
322,180,72876,1,8,0:0:0:0:
233,92,73036,2,0,P|210:58|189:24,1,80,8|8,0:1|0:0,0:0:0:0:
314,200,73355,1,8,0:1:0:0:
440,152,73515,2,0,P|473:129|507:108,1,80,8|8,0:0|0:1,0:0:0:0:
250,281,73834,5,10,0:0:0:0:
360,111,73993,1,8,0:1:0:0:
388,361,74153,5,10,0:0:0:0:
314,200,74312,1,8,0:1:0:0:
195,357,74472,6,0,P|151:343|88:309,1,80,12|8,0:0|0:1,0:0:0:0:
39,142,74791,2,0,P|81:124|151:109,1,80,8|8,0:0|0:1,0:0:0:0:
314,200,75110,2,0,L|203:168,1,80,8|8,0:0|0:1,0:0:0:0:
207,39,75430,1,8,0:0:0:0:
378,94,75589,2,0,L|267:62,1,80,8|8,0:1|0:0,0:0:0:0:
197,13,75908,1,8,0:1:0:0:
136,192,76067,2,0,L|104:81,1,80,8|8,0:0|0:1,0:0:0:0:
242,313,76387,5,10,0:0:0:0:
275,153,76547,1,8,0:1:0:0:
166,381,76706,5,10,0:0:0:0:
101,174,76866,1,10,0:1:0:0:
263,294,77025,2,0,L|353:275,1,80,10|2,0:0|0:0,0:0:0:0:
101,174,77504,6,0,L|50:158,2,40,2|2|2,0:0|0:0|0:0,0:0:0:0:
295,0,78142,1,0,0:0:0:0:
295,0,78302,6,0,L|272:77,1,80,8|8,0:0|0:1,0:0:0:0:
234,178,78621,1,8,0:1:0:0:
430,166,78781,5,8,0:0:0:0:
272,76,78940,1,8,0:1:0:0:
272,76,79100,1,8,0:1:0:0:
480,71,79259,1,8,0:0:0:0:
396,252,79419,1,8,0:0:0:0:
396,252,79499,1,8,0:0:0:0:
396,252,79578,6,0,L|374:75,1,160,4|10,0:0|0:0,0:0:0:0:
284,0,80057,1,2,0:0:0:0:
190,84,80216,2,0,L|89:64,1,80,8|0,0:1|0:0,0:0:0:0:
8,160,80535,2,0,L|86:175,1,80,8|0,0:0|0:0,0:0:0:0:
223,247,80854,5,10,0:1:0:0:
66,192,81015,1,2,0:0:0:0:
190,84,81174,1,10,0:0:0:0:
119,297,81333,2,0,P|131:258|146:221,1,80,10|8,0:0|0:1,0:0:0:0:
190,84,81652,1,8,0:1:0:0:
344,168,81812,2,0,P|283:170|254:175,1,80,8|0,0:0|0:0,0:0:0:0:
383,297,82131,5,10,0:1:0:0:
471,249,82291,2,0,L|491:171,1,80,10|12,0:1|0:0,0:0:0:0:
419,33,82610,1,10,0:0:0:0:
326,147,82769,1,10,0:1:0:0:
326,147,82929,2,0,P|385:123|418:119,1,80,10|12,0:1|0:0,0:0:0:0:
245,289,83249,6,0,L|202:115,1,160,2|0,0:0|0:0,0:0:0:0:
114,32,83727,1,8,0:0:0:0:
114,32,83887,1,8,0:1:0:0:
20,187,84047,1,8,0:1:0:0:
76,99,84206,1,8,0:1:0:0:
153,282,84366,1,8,0:0:0:0:
120,183,84525,1,0,0:0:0:0:
0,331,84685,6,0,L|158:280,1,160,4|10,0:0|0:0,0:0:0:0:
251,227,85163,1,2,0:0:0:0:
330,348,85323,2,0,P|278:330|226:321,1,80,8|0,0:1|0:0,0:0:0:0:
120,183,85642,2,0,P|158:173|196:159,1,80,8|0,0:0|0:0,0:0:0:0:
259,35,85961,5,2,0:0:0:0:
221,186,86120,1,10,0:1:0:0:
267,14,86280,1,10,0:0:0:0:
405,140,86440,2,0,L|300:121,1,80,10|8,0:0|0:1,0:0:0:0:
188,28,86759,1,8,0:1:0:0:
188,28,86918,2,0,L|293:9,1,80,8|0,0:0|0:0,0:0:0:0:
96,192,87237,5,4,0:0:0:0:
165,14,87397,2,0,L|190:185,1,160,8|8,0:1|0:0,0:0:0:0:
255,266,87876,1,4,0:0:0:0:
344,190,88035,2,0,P|386:176|437:168,1,80,8|8,0:1|0:0,0:0:0:0:
236,346,88355,6,0,P|197:338|159:325,1,80,4|0,0:0|0:0,0:0:0:0:
36,233,88674,1,10,0:0:0:0:
188,172,88833,1,10,0:1:0:0:
15,237,88993,1,10,0:1:0:0:
255,266,89153,1,14,0:0:0:0:
