osu file format v14

[General]
AudioFilename: audio.mp3
AudioLeadIn: 0
PreviewTime:48770
Countdown: 0
SampleSet: Soft
StackLeniency: 0.5
Mode: 0
LetterboxInBreaks: 0
WidescreenStoryboard: 1

[Editor]
DistanceSpacing: 1.3
BeatDivisor: 8
GridSize: 16
TimelineZoom: 2.1

[Metadata]
Title:EASY LOVE (TV Size)
TitleUnicode:EASY LOVE (TV Size)
Artist:Uesaka Sumire
ArtistUnicode:上坂すみれ
Creator:Ayana
Version:Hard
Source:イジらないで、長瀞さん
Tags:Ijiranaide, Nagatoro-san Don't Toy with Me Please don't bully me miss japanese pop j-pop jpop anime opening op short size length version 長瀞早瀬 Nagatoro Hayase 先輩 パイセン Paisen Senpai すみぺ sumipe Hayacchi ハヤっち Roda Totsuki reiSevia Mayu Sakuma Xexyz Azunyan-
BeatmapID:2938750
BeatmapSetID:1427255

[Difficulty]
HPDrainRate:4.5
CircleSize:3.4
OverallDifficulty:6.5
ApproachRate:8
SliderMultiplier:1.4
SliderTickRate:1

[Events]
//Background and Video events
Video,90,"nagatoro.mp4"
0,0,"gaki.jpg",0,0
//Break Periods
//Storyboard Layer 0 (Background)
//Storyboard Layer 1 (Fail)
//Storyboard Layer 2 (Pass)
//Storyboard Layer 3 (Foreground)
//Storyboard Layer 4 (Overlay)
//Storyboard Sound Samples

[TimingPoints]
430,319.148936170213,4,2,1,50,1,0
4818,-100,4,2,1,5,0,0
4898,-100,4,2,1,60,0,0
15749,-133.333333333333,4,2,1,60,0,0
24445,-133.333333333333,4,2,1,5,0,0
24525,-133.333333333333,4,2,1,60,0,0
25961,-133.333333333333,4,2,1,65,0,0
26121,-111.111111111111,4,2,1,65,0,0
31307,-111.111111111111,4,2,1,5,0,0
31387,-111.111111111111,4,2,1,65,0,0
45110,-133.333333333333,4,2,1,50,0,0
46387,-100,4,2,1,65,0,0
48940,-90.9090909090909,4,2,1,85,0,1
77025,-90.9090909090909,4,2,1,70,0,0
77504,-166.666666666667,4,2,1,70,0,0
78302,-100,4,2,1,75,0,0

[Colours]
Combo1 : 250,180,240
Combo2 : 120,200,230
Combo3 : 255,230,130
Combo4 : 160,230,150

[HitObjects]
115,307,5536,6,0,L|198:286,1,70,4|0,0:0|0:0,0:0:0:0:
264,335,5855,2,0,L|331:352,1,70,10|0,0:0|0:0,0:0:0:0:
419,307,6174,2,0,P|437:239|432:142,1,140,8|8,0:1|0:0,0:0:0:0:
295,69,6812,2,0,L|304:-1,2,70,10|2|10,0:1|0:0|0:0,0:0:0:0:
228,136,7291,2,0,P|187:123|77:104,1,140,10|8,0:0|0:1,0:0:0:0:
38,170,7770,2,0,L|55:249,1,70,8|0,0:0|0:0,0:0:0:0:
126,312,8089,5,10,0:1:0:0:
126,312,8249,2,0,P|162:290|187:278,1,70,10|12,0:1|0:0,0:0:0:0:
278,242,8568,1,10,0:0:0:0:
278,242,8727,1,10,0:1:0:0:
356,285,8887,2,0,L|448:307,1,70,10|12,0:1|0:0,0:0:0:0:
508,248,9206,6,0,B|486:208|486:208|379:183,1,140,2|0,0:0|0:0,0:0:0:0:
302,159,9685,2,0,P|243:164|215:172,1,70,8|8,0:0|0:1,0:0:0:0:
184,248,10004,1,8,0:1:0:0:
184,248,10164,1,8,0:1:0:0:
92,227,10323,1,8,0:0:0:0:
92,227,10483,1,0,0:0:0:0:
89,118,10642,6,0,L|69:44,1,70,4|0,0:0|0:0,0:0:0:0:
151,7,10961,2,0,P|215:-1|241:1,1,70,10|0,0:0|0:0,0:0:0:0:
282,66,11281,2,0,P|373:79|443:67,1,140,8|8,0:1|0:0,0:0:0:0:
444,227,11919,2,0,L|513:241,2,70,10|2|10,0:1|0:0|0:0,0:0:0:0:
374,288,12398,2,0,L|231:312,1,140,10|8,0:0|0:1,0:0:0:0:
152,359,12876,2,0,P|108:348|70:330,1,70,8|0,0:0|0:0,0:0:0:0:
43,261,13195,5,4,0:0:0:0:
43,261,13355,2,0,L|26:175,1,70,8|8,0:1|0:0,0:0:0:0:
85,122,13674,1,8,0:0:0:0:
85,122,13834,1,4,0:0:0:0:
158,182,13993,2,0,P|197:174|235:175,1,70,8|8,0:1|0:0,0:0:0:0:
309,232,14312,6,0,P|343:231|378:224,1,70,4|0,0:0|0:0,0:0:0:0:
451,173,14632,1,10,0:0:0:0:
442,84,14791,1,10,0:1:0:0:
362,47,14950,1,10,0:1:0:0:
289,99,15110,1,6,0:0:0:0:
134,34,15749,6,0,L|60:20,1,52.5000020027161,8|8,0:1|0:0,0:0:0:0:
28,100,16068,2,0,L|37:151,1,52.5000020027161,2|8,0:1|0:1,0:0:0:0:
101,214,16387,1,8,0:0:0:0:
101,214,16547,1,8,0:0:0:0:
162,155,16706,2,0,P|206:138|235:135,1,52.5000020027161,2|8,0:0|0:0,0:0:0:0:
291,184,17025,6,0,L|404:194,1,105.000004005432,4|10,0:3|0:1,0:0:0:0:
483,173,17504,1,2,0:0:0:0:
483,173,17664,2,0,P|483:226|476:290,1,105.000004005432,4|2,0:3|0:0,0:0:0:0:
348,378,18302,6,0,P|284:348|235:341,1,105.000004005432,4|2,0:3|0:0,0:0:0:0:
169,308,18781,1,8,0:0:0:0:
169,308,18940,2,0,P|105:338|56:345,1,105.000004005432,4|2,0:3|0:0,0:0:0:0:
11,278,19419,1,8,0:0:0:0:
11,278,19578,6,0,L|-4:214,1,52.5000020027161,4|0,0:3|0:0,0:0:0:0:
33,143,19898,1,8,0:0:0:0:
33,143,20057,1,8,0:0:0:0:
116,179,20217,2,0,P|169:188|222:210,1,105.000004005432,4|8,0:3|0:0,0:0:0:0:
362,133,20855,5,4,0:3:0:0:
362,133,21015,1,8,0:0:0:0:
408,201,21174,2,0,L|480:211,1,52.5000020027161,2|8,0:0|0:0,0:0:0:0:
501,135,21493,2,0,P|507:108|508:64,1,52.5000020027161,4|8,0:3|0:0,0:0:0:0:
445,26,21812,2,0,L|392:18,1,52.5000020027161,2|8,0:0|0:0,0:0:0:0:
308,65,22132,6,0,P|227:38|197:33,1,105.000004005432,4|8,0:3|0:1,0:0:0:0:
129,84,22610,1,8,0:0:0:0:
129,84,22770,2,0,P|48:111|18:116,1,105.000004005432,4|8,0:3|0:1,0:0:0:0:
162,228,23408,6,0,P|213:239|316:276,1,157.500006008148,4|0,0:0|0:0,0:0:0:0:
387,318,24047,2,0,B|351:263|351:263|376:166,1,157.500006008148,4|4,0:0|0:0,0:0:0:0:
275,0,24844,1,8,0:1:0:0:
221,70,25004,1,8,0:0:0:0:
148,21,25164,1,8,0:1:0:0:
98,90,25323,2,0,L|80:114,2,26.2500010013581,8|8|8,0:0|0:0|0:1,0:0:0:0:
170,147,25642,1,8,0:0:0:0:
170,147,25802,6,0,P|173:174|178:211,1,52.5000020027161,8|4,0:1|0:0,0:0:0:0:
249,258,26121,2,0,L|235:391,1,125.999996154785,2|2,0:0|0:0,0:0:0:0:
153,384,26600,1,10,0:1:0:0:
153,384,26759,2,0,L|82:365,1,62.9999980773926,10|8,0:1|0:0,0:0:0:0:
31,306,27078,6,0,L|14:245,1,62.9999980773926,2|8,0:0|0:1,0:0:0:0:
56,171,27398,1,0,0:0:0:0:
56,171,27557,1,8,0:0:0:0:
0,97,27717,2,0,P|68:63|140:41,1,125.999996154785,10|8,0:1|0:1,0:0:0:0:
314,0,28355,1,2,0:0:0:0:
314,0,28515,1,10,0:1:0:0:
374,63,28674,6,0,P|355:120|343:202,1,125.999996154785,2|2,0:0|0:0,0:0:0:0:
277,245,29153,1,8,0:1:0:0:
277,245,29312,2,0,L|297:317,1,62.9999980773926,10|8,0:1|0:0,0:0:0:0:
355,375,29632,2,0,P|388:375|421:365,1,62.9999980773926,2|8,0:0|0:1,0:0:0:0:
472,299,29951,1,8,0:1:0:0:
472,299,30110,1,8,0:0:0:0:
463,210,30270,2,0,L|479:142,1,62.9999980773926,8|2,0:1|0:0,0:0:0:0:
441,56,30589,2,0,P|396:43|364:43,1,62.9999980773926,8|8,0:1|0:0,0:0:0:0:
295,92,30908,1,2,0:0:0:0:
227,23,31068,6,0,L|153:9,1,62.9999980773926,4|0,0:0|0:0,0:0:0:0:
74,62,31387,2,0,P|71:87|76:125,1,62.9999980773926,8|0,0:0|0:0,0:0:0:0:
111,213,31706,1,8,0:1:0:0:
111,213,31866,1,8,0:1:0:0:
199,185,32025,2,0,L|284:160,1,62.9999980773926,8|0,0:0|0:0,0:0:0:0:
295,92,32344,5,8,0:1:0:0:
376,81,32503,1,8,0:1:0:0:
426,148,32663,1,8,0:0:0:0:
392,223,32823,1,0,0:0:0:0:
309,234,32983,2,0,P|289:256|270:294,1,62.9999980773926,2|8,0:0|0:1,0:0:0:0:
252,371,33302,1,8,0:0:0:0:
252,371,33461,1,8,0:0:0:0:
167,332,33621,6,0,L|29:300,1,125.999996154785,4|8,0:0|0:0,0:0:0:0:
0,204,34100,2,0,L|122:175,1,125.999996154785,2|8,0:0|0:1,0:0:0:0:
196,125,34578,2,0,L|210:58,1,62.9999980773926,8|0,0:0|0:0,0:0:0:0:
283,0,34898,1,4,0:0:0:0:
283,0,35057,1,8,0:0:0:0:
347,56,35217,2,0,L|430:40,1,62.9999980773926,8|8,0:3|0:0,0:0:0:0:
486,100,35536,1,8,0:0:0:0:
486,100,35695,1,8,0:3:0:0:
428,164,35855,2,0,L|366:175,1,62.9999980773926,8|8,0:3|0:3,0:0:0:0:
291,135,36174,6,0,L|148:106,1,125.999996154785,4|8,0:0|0:0,0:0:0:0:
65,141,36653,2,0,B|48:180|48:180|72:282,1,125.999996154785,8|8,0:1|0:1,0:0:0:0:
94,347,37132,1,8,0:0:0:0:
182,324,37291,2,0,P|242:307|313:293,1,125.999996154785,8|8,0:1|0:1,0:0:0:0:
375,353,37770,1,8,0:0:0:0:
448,302,37930,2,0,L|467:160,1,125.999996154785,8|8,0:1|0:0,0:0:0:0:
475,93,38408,1,8,0:0:0:0:
322,21,38727,6,0,L|235:5,1,62.9999980773926,4|0,0:0|0:0,0:0:0:0:
186,33,39047,1,8,0:0:0:0:
201,112,39206,2,0,L|229:245,1,125.999996154785,8|8,0:1|0:1,0:0:0:0:
226,319,39685,1,8,0:0:0:0:
139,326,39844,6,0,P|47:301|2:296,1,125.999996154785,8|8,0:1|0:1,0:0:0:0:
6,166,40323,1,8,0:0:0:0:
6,166,40483,2,0,P|66:184|128:194,1,125.999996154785,8|8,0:1|0:0,0:0:0:0:
192,125,40961,2,0,L|178:52,1,62.9999980773926,8|8,0:0|0:1,0:0:0:0:
266,17,41281,6,0,P|339:1|417:2,1,125.999996154785,4|8,0:0|0:0,0:0:0:0:
457,69,41759,2,0,L|438:219,1,125.999996154785,8|8,0:1|0:1,0:0:0:0:
409,277,42238,1,8,0:0:0:0:
327,242,42398,6,0,P|260:236|198:235,1,125.999996154785,4|8,0:3|0:1,0:0:0:0:
123,285,42876,1,8,0:0:0:0:
54,226,43036,1,8,0:0:0:0:
54,226,43116,1,8,0:0:0:0:
54,226,43195,2,0,L|34:157,1,62.9999980773926,8|8,0:0|0:0,0:0:0:0:
79,74,43515,2,0,L|93:31,2,31.4999990386963,8|8|8,0:0|0:0|0:0,0:0:0:0:
161,128,43834,6,0,L|236:109,1,62.9999980773926,4|0,0:0|0:0,0:0:0:0:
286,45,44153,2,0,L|361:26,1,62.9999980773926,0|2,0:0|0:0,0:0:0:0:
433,89,44472,2,0,L|472:93,3,31.4999990386963,2|2|2|0,0:0|0:0|0:0|0:0,0:0:0:0:
409,132,44791,2,0,L|374:137,3,31.4999990386963,2|0|2|0,0:0|0:0|0:0|0:0,0:0:0:0:
434,172,45110,6,0,P|421:251|414:352,1,157.500006008148,2|0,0:0|0:0,0:0:0:0:
323,369,45749,2,0,P|325:290|334:212,1,157.500006008148,2|0,0:0|0:0,0:0:0:0:
290,138,46387,2,0,L|277:70,1,70,8|8,0:0|0:0,0:0:0:0:
111,22,46866,1,8,0:0:0:0:
111,22,47025,2,0,L|96:91,1,70,8|0,0:0|0:0,0:0:0:0:
70,172,47344,1,8,0:0:0:0:
70,172,47504,2,0,L|85:245,1,70,8|8,0:0|0:0,0:0:0:0:
138,326,47823,5,8,0:0:0:0:
209,280,47983,2,0,P|251:261|293:256,1,70,8|8,0:3|0:3,0:0:0:0:
355,294,48302,1,8,0:3:0:0:
417,229,48461,1,8,0:1:0:0:
374,151,48621,1,8,0:0:0:0:
212,201,48940,6,0,L|118:188,1,77.0000023498536,6|2,0:0|0:0,0:0:0:0:
53,168,49259,1,10,0:0:0:0:
37,85,49419,1,2,0:0:0:0:
105,29,49578,2,0,L|264:51,1,154.000004699707,8|10,0:1|0:0,0:0:0:0:
360,6,50057,6,0,P|344:57|350:163,1,154.000004699707,2|0,0:0|0:0,0:0:0:0:
436,210,50536,1,10,0:0:0:0:
441,303,50695,1,2,0:0:0:0:
360,351,50855,1,10,0:1:0:0:
277,304,51015,1,8,0:0:0:0:
277,304,51174,1,8,0:0:0:0:
175,170,51493,6,0,P|119:195|8:218,1,154.000004699707,4|10,0:0|0:0,0:0:0:0:
26,128,51972,1,0,0:0:0:0:
26,128,52132,2,0,L|5:51,1,77.0000023498536,10|0,0:1|0:0,0:0:0:0:
89,0,52451,1,10,0:0:0:0:
172,55,52610,6,0,P|241:31|333:16,1,154.000004699707,2|2,0:0|0:0,0:0:0:0:
390,78,53089,1,10,0:0:0:0:
448,1,53249,1,2,0:0:0:0:
509,73,53408,2,0,L|480:250,1,154.000004699707,10|12,0:1|0:0,0:0:0:0:
443,329,53887,5,10,0:1:0:0:
353,328,54047,1,10,0:1:0:0:
264,327,54206,2,0,P|219:342|171:355,1,77.0000023498536,2|8,0:0|0:0,0:0:0:0:
106,327,54525,1,2,0:0:0:0:
78,241,54685,1,10,0:1:0:0:
50,156,54844,2,0,L|81:73,1,77.0000023498536,2|8,0:0|0:0,0:0:0:0:
121,12,55164,5,10,0:0:0:0:
199,77,55323,1,10,0:1:0:0:
273,16,55483,2,0,P|347:0|378:-2,1,77.0000023498536,2|8,0:0|0:0,0:0:0:0:
418,65,55802,2,0,L|438:162,1,77.0000023498536,2|8,0:0|0:1,0:0:0:0:
397,228,56121,1,2,0:0:0:0:
397,228,56281,2,0,P|323:244|292:246,1,77.0000023498536,8|2,0:0|0:0,0:0:0:0:
243,189,56600,6,0,L|81:162,1,154.000004699707,4|14,0:3|0:0,0:0:0:0:
31,230,57078,1,8,0:1:0:0:
58,312,57238,2,0,L|209:337,1,154.000004699707,8|8,0:1|0:0,0:0:0:0:
304,380,57717,1,8,0:1:0:0:
304,380,57797,1,8,0:1:0:0:
304,380,57876,6,0,L|390:356,1,77.0000023498536,4|8,0:0|0:1,0:0:0:0:
458,341,58195,1,8,0:0:0:0:
463,260,58355,1,8,0:1:0:0:
388,229,58515,1,8,0:0:0:0:
336,290,58675,1,8,0:1:0:0:
262,258,58834,1,8,0:0:0:0:
268,177,58993,1,8,0:0:0:0:
347,160,59153,6,0,L|432:141,1,77.0000023498536,4|0,0:0|0:0,0:0:0:0:
512,70,59472,1,8,0:0:0:0:
428,37,59632,1,0,0:0:0:0:
341,6,59791,2,0,L|183:40,1,154.000004699707,8|8,0:1|0:0,0:0:0:0:
101,30,60270,2,0,P|92:81|90:115,1,77.0000023498536,2|4,0:0|0:3,0:0:0:0:
115,193,60589,2,0,P|107:230|104:269,2,77.0000023498536,0|8|0,0:0|0:0|0:0,0:0:0:0:
191,147,61068,1,8,0:1:0:0:
257,207,61227,1,8,0:1:0:0:
330,161,61387,2,0,P|383:149|417:144,1,77.0000023498536,8|0,0:0|0:0,0:0:0:0:
477,204,61706,6,0,P|489:275|465:359,1,154.000004699707,4|8,0:0|0:0,0:0:0:0:
381,361,62185,1,0,0:0:0:0:
381,361,62344,2,0,L|206:337,1,154.000004699707,8|8,0:1|0:0,0:0:0:0:
142,370,62823,2,0,P|99:359|56:344,1,77.0000023498536,2|4,0:0|0:3,0:0:0:0:
42,271,63142,1,2,0:0:0:0:
16,191,63302,2,0,L|-5:97,1,77.0000023498536,8|0,0:0|0:0,0:0:0:0:
31,29,63621,2,0,P|79:20|124:31,1,77.0000023498536,8|8,0:1|0:1,0:0:0:0:
165,93,63940,2,0,P|213:102|258:91,1,77.0000023498536,8|0,0:0|0:0,0:0:0:0:
283,23,64259,5,4,0:0:0:0:
363,55,64419,2,0,L|448:72,1,77.0000023498536,2|8,0:0|0:0,0:0:0:0:
509,133,64738,1,2,0:0:0:0:
492,217,64898,1,10,0:1:0:0:
471,304,65057,2,0,P|466:350|451:399,1,77.0000023498536,2|8,0:0|0:0,0:0:0:0:
350,379,65376,5,2,0:0:0:0:
267,343,65536,1,10,0:1:0:0:
180,310,65695,2,0,L|93:336,1,77.0000023498536,0|8,0:0|0:0,0:0:0:0:
39,272,66015,2,0,P|29:221|37:185,1,77.0000023498536,2|8,0:0|0:1,0:0:0:0:
96,123,66334,2,0,L|175:137,1,77.0000023498536,2|8,0:0|0:0,0:0:0:0:
248,203,66653,5,2,0:0:0:0:
248,203,66812,1,8,0:1:0:0:
320,148,66972,2,0,P|366:132|397:130,1,77.0000023498536,8|12,0:1|0:0,0:0:0:0:
506,79,67291,1,8,0:0:0:0:
431,42,67451,1,8,0:1:0:0:
350,10,67610,2,0,L|254:34,1,77.0000023498536,8|12,0:1|0:0,0:0:0:0:
210,95,67930,1,8,0:0:0:0:
210,95,68010,1,8,0:0:0:0:
210,95,68089,6,0,L|135:76,1,77.0000023498536,4|0,0:0|0:0,0:0:0:0:
36,45,68408,2,0,P|53:117|52:150,1,77.0000023498536,8|0,0:0|0:0,0:0:0:0:
28,210,68727,2,0,P|15:246|10:284,1,77.0000023498536,8|8,0:1|0:1,0:0:0:0:
79,346,69047,2,0,L|154:365,1,77.0000023498536,8|0,0:0|0:0,0:0:0:0:
208,298,69366,5,12,0:0:0:0:
283,342,69525,1,8,0:1:0:0:
323,269,69685,1,8,0:0:0:0:
397,316,69844,1,8,0:1:0:0:
463,255,70004,2,0,L|489:162,1,77.0000023498536,8|8,0:0|0:1,0:0:0:0:
452,105,70323,1,10,0:0:0:0:
412,30,70483,6,0,P|362:31|321:41,1,77.0000023498536,10|8,0:1|0:0,0:0:0:0:
258,64,70802,1,10,0:1:0:0:
249,153,70961,2,0,L|268:227,1,77.0000023498536,10|8,0:0|0:1,0:0:0:0:
217,313,71281,5,10,0:0:0:0:
217,313,71440,1,8,0:1:0:0:
133,247,71600,5,10,0:0:0:0:
133,247,71759,1,8,0:1:0:0:
40,289,71919,6,0,L|4:195,1,77.0000023498536,12|8,0:0|0:1,0:0:0:0:
73,122,72238,2,0,L|150:140,1,77.0000023498536,8|8,0:0|0:1,0:0:0:0:
237,85,72557,2,0,P|291:72|330:55,1,77.0000023498536,8|8,0:0|0:1,0:0:0:0:
405,24,72876,1,10,0:0:0:0:
475,97,73036,6,0,L|490:193,1,77.0000023498536,10|8,0:1|0:0,0:0:0:0:
476,278,73355,1,10,0:1:0:0:
377,266,73515,2,0,P|319:250|288:245,1,77.0000023498536,10|8,0:0|0:1,0:0:0:0:
233,188,73834,5,10,0:0:0:0:
206,270,73993,1,8,0:1:0:0:
126,233,74153,5,10,0:0:0:0:
99,315,74312,1,8,0:1:0:0:
28,268,74472,6,0,L|2:171,1,77.0000023498536,12|8,0:0|0:1,0:0:0:0:
23,80,74791,2,0,P|73:56|120:41,1,77.0000023498536,8|8,0:0|0:1,0:0:0:0:
187,114,75110,2,0,P|237:138|284:153,1,77.0000023498536,8|8,0:0|0:1,0:0:0:0:
335,106,75430,1,10,0:0:0:0:
408,56,75589,6,0,P|441:70|473:98,1,77.0000023498536,10|8,0:1|0:0,0:0:0:0:
480,183,75908,1,10,0:1:0:0:
460,270,76068,2,0,L|439:369,1,77.0000023498536,10|8,0:0|0:1,0:0:0:0:
365,376,76387,5,10,0:0:0:0:
305,308,76547,1,8,0:1:0:0:
221,333,76706,2,0,L|132:313,1,77.0000023498536,10|8,0:0|0:1,0:0:0:0:
69,269,77025,5,8,0:0:0:0:
69,269,77185,1,2,0:0:0:0:
88,97,77504,2,0,L|70:53,2,41.9999987182618,2|2|2,0:0|0:0|0:0,0:0:0:0:
214,184,78142,1,0,0:0:0:0:
214,184,78302,6,0,L|195:280,1,70,8|8,0:0|0:1,0:0:0:0:
237,338,78621,1,8,0:1:0:0:
316,295,78781,2,0,P|365:278|396:276,1,70,8|8,0:0|0:1,0:0:0:0:
468,294,79100,1,8,0:1:0:0:
500,208,79259,2,0,L|508:125,1,70,8|8,0:0|0:0,0:0:0:0:
446,54,79578,6,0,L|363:75,1,70,4|0,0:0|0:0,0:0:0:0:
286,107,79897,2,0,L|219:90,1,70,10|0,0:0|0:0,0:0:0:0:
122,42,80216,2,0,P|104:110|109:207,1,140,10|8,0:1|0:0,0:0:0:0:
215,307,80855,2,0,P|208:335|206:377,2,70,10|2|10,0:1|0:0|0:0,0:0:0:0:
281,240,81333,2,0,L|432:272,1,140,10|8,0:0|0:1,0:0:0:0:
505,226,81812,2,0,L|488:147,1,70,8|0,0:0|0:0,0:0:0:0:
434,81,82131,5,10,0:1:0:0:
434,81,82291,2,0,L|366:106,1,70,10|12,0:1|0:0,0:0:0:0:
284,140,82610,1,10,0:0:0:0:
284,140,82769,1,10,0:1:0:0:
197,99,82929,2,0,L|105:77,1,70,10|12,0:1|0:0,0:0:0:0:
53,145,83248,6,0,B|30:184|30:184|66:288,1,140,2|0,0:0|0:0,0:0:0:0:
129,345,83727,2,0,L|212:333,1,70,8|8,0:0|0:1,0:0:0:0:
278,289,84046,1,8,0:1:0:0:
278,289,84206,1,8,0:1:0:0:
369,329,84365,1,8,0:0:0:0:
369,329,84525,1,0,0:0:0:0:
462,296,84684,6,0,L|472:212,1,70,4|0,0:0|0:0,0:0:0:0:
415,147,85004,2,0,P|351:139|325:141,1,70,10|0,0:0|0:0,0:0:0:0:
274,193,85323,2,0,P|183:206|113:194,1,140,8|8,0:1|0:0,0:0:0:0:
68,63,85961,2,0,L|-1:49,2,70,2|10|10,0:0|0:1|0:0,0:0:0:0:
149,23,86440,2,0,L|292:-1,1,140,10|8,0:0|0:1,0:0:0:0:
382,18,86918,2,0,P|426:29|464:47,1,70,8|0,0:0|0:0,0:0:0:0:
499,121,87237,5,4,0:0:0:0:
499,121,87397,2,0,L|516:207,1,70,8|8,0:1|0:0,0:0:0:0:
457,260,87716,1,8,0:0:0:0:
457,260,87876,1,4,0:0:0:0:
384,200,88035,2,0,P|345:208|307:207,1,70,8|8,0:1|0:0,0:0:0:0:
233,150,88355,6,0,P|199:151|164:158,1,70,4|0,0:0|0:0,0:0:0:0:
91,209,88674,1,10,0:0:0:0:
100,298,88833,1,10,0:1:0:0:
180,335,88992,1,10,0:1:0:0:
253,283,89153,1,14,0:0:0:0:
