osu file format v14

[General]
AudioFilename: audio.mp3
AudioLeadIn: 0
PreviewTime: 0
Countdown: 0
SampleSet: Normal
StackLeniency: 0.7
Mode: 1
LetterboxInBreaks: 0
WidescreenStoryboard: 0

[Editor]
DistanceSpacing: 0.8
BeatDivisor: 4
GridSize: 32
TimelineZoom: 1

[Metadata]
Title:The Rebel Army
TitleUnicode:反乱軍のテーマ
Artist:Uematsu Nobuo
ArtistUnicode:植松伸夫
Creator:tatatat
Version:Muzukashii
Source:ファイナルファンタジーII
Tags:Final Fantasy II ff2 squaresoft enix nintendo famicom video game instrumental ost original soundtrack theme chiptune Hanrangun no Teema thema wiiguy's niko's 8-bit stereo 8bit
BeatmapID:2359098
BeatmapSetID:1129250

[Difficulty]
HPDrainRate:9
CircleSize:2
OverallDifficulty:4
ApproachRate:10
SliderMultiplier:1.4
SliderTickRate:1

[Events]
//Background and Video events
0,0,"wp3250566.png",0,0
//Break Periods
//Storyboard Layer 0 (Background)
//Storyboard Layer 1 (Fail)
//Storyboard Layer 2 (Pass)
//Storyboard Layer 3 (Foreground)
//Storyboard Layer 4 (Overlay)
//Storyboard Sound Samples

[TimingPoints]
-1427,499.375780274657,4,1,0,70,1,0

[HitObjects]
256,192,71,5,0,0:0:0:0:
256,192,237,1,0,0:0:0:0:
256,192,404,1,0,0:0:0:0:
256,192,570,1,8,0:0:0:0:
256,192,1319,1,0,0:0:0:0:
256,192,1444,1,8,0:0:0:0:
256,192,1569,1,8,0:0:0:0:
256,192,2068,1,0,0:0:0:0:
256,192,2568,1,8,0:0:0:0:
256,192,3067,1,8,0:0:0:0:
256,192,3400,1,8,0:0:0:0:
256,192,3566,1,0,0:0:0:0:
256,192,4066,1,0,0:0:0:0:
256,192,4565,1,8,0:0:0:0:
256,192,5064,1,8,0:0:0:0:
256,192,5564,1,8,0:0:0:0:
256,192,5813,1,8,0:0:0:0:
256,192,6063,1,8,0:0:0:0:
256,192,6313,1,0,0:0:0:0:
256,192,6563,1,8,0:0:0:0:
256,192,7062,1,0,0:0:0:0:
256,192,7561,1,0,0:0:0:0:
256,192,7811,1,0,0:0:0:0:
256,192,8061,1,0,0:0:0:0:
256,192,8310,1,0,0:0:0:0:
256,192,8560,1,8,0:0:0:0:
256,192,9309,1,8,0:0:0:0:
256,192,9559,1,8,0:0:0:0:
256,192,9808,1,0,0:0:0:0:
256,192,10058,1,8,0:0:0:0:
256,192,10308,1,8,0:0:0:0:
256,192,10558,1,8,0:0:0:0:
256,192,11057,1,0,0:0:0:0:
256,192,11390,1,8,0:0:0:0:
256,192,11556,1,0,0:0:0:0:
256,192,12056,1,8,0:0:0:0:
256,192,12555,1,0,0:0:0:0:
256,192,13304,1,0,0:0:0:0:
256,192,13554,1,8,0:0:0:0:
256,192,14053,1,0,0:0:0:0:
256,192,14220,1,0,0:0:0:0:
256,192,14386,1,8,0:0:0:0:
256,192,14553,1,8,0:0:0:0:
256,192,15302,1,0,0:0:0:0:
256,192,15551,1,0,0:0:0:0:
256,192,16051,5,0,0:0:0:0:
256,192,16217,1,0,0:0:0:0:
256,192,16384,1,0,0:0:0:0:
256,192,16550,1,8,0:0:0:0:
256,192,17299,1,0,0:0:0:0:
256,192,17424,1,8,0:0:0:0:
256,192,17549,1,8,0:0:0:0:
256,192,18048,1,0,0:0:0:0:
256,192,18548,1,8,0:0:0:0:
256,192,19047,1,8,0:0:0:0:
256,192,19380,1,8,0:0:0:0:
256,192,19546,1,0,0:0:0:0:
256,192,20046,1,0,0:0:0:0:
256,192,20545,1,8,0:0:0:0:
256,192,21044,1,8,0:0:0:0:
256,192,21544,1,8,0:0:0:0:
256,192,21793,1,8,0:0:0:0:
256,192,22043,1,8,0:0:0:0:
256,192,22293,1,0,0:0:0:0:
256,192,22543,1,8,0:0:0:0:
256,192,23042,1,0,0:0:0:0:
256,192,23541,1,0,0:0:0:0:
256,192,23791,1,0,0:0:0:0:
256,192,24041,1,0,0:0:0:0:
256,192,24290,1,0,0:0:0:0:
256,192,24540,1,8,0:0:0:0:
256,192,25039,1,8,0:0:0:0:
256,192,25539,1,8,0:0:0:0:
256,192,25788,1,8,0:0:0:0:
256,192,26038,1,8,0:0:0:0:
256,192,26288,1,0,0:0:0:0:
256,192,26538,1,0,0:0:0:0:
256,192,27037,1,0,0:0:0:0:
256,192,27370,1,8,0:0:0:0:
256,192,27536,1,0,0:0:0:0:
256,192,28036,1,8,0:0:0:0:
256,192,28535,1,0,0:0:0:0:
256,192,29367,1,0,0:0:0:0:
256,192,29534,1,8,0:0:0:0:
256,192,30033,1,0,0:0:0:0:
256,192,30200,1,8,0:0:0:0:
256,192,30366,1,8,0:0:0:0:
256,192,30533,1,0,0:0:0:0:
256,192,31032,1,0,0:0:0:0:
256,192,31365,1,0,0:0:0:0:
256,192,31531,1,8,0:0:0:0:
