osu file format v14

[General]
AudioFilename: audio.mp3
AudioLeadIn: 0
PreviewTime:275
Countdown: 0
SampleSet: Soft
StackLeniency: 0.7
Mode: 0
LetterboxInBreaks: 0
WidescreenStoryboard: 1

[Editor]
DistanceSpacing: 1
BeatDivisor: 3
GridSize: 8
TimelineZoom: 1

[Metadata]
Title:The Princess's Seduction
TitleUnicode:The Princess's Seduction
Artist:Uematsu Nobuo
ArtistUnicode:植松伸夫
Creator:Kaeldori
Version:Moody's Hard
Source:ファイナルファンタジー II
Tags:squaresoft square enix final fantasy video game 2002 ff2 Original Soundtrack ost MoodyRPG AJT Wanpachi Instrumental waltz ballet classical Tchaikovsky Swan Lake Op. 20, Act I No. 9, Finale Oujo No Yuwaku Videogame VGM
BeatmapID:2656773
BeatmapSetID:1260694

[Difficulty]
HPDrainRate:7
CircleSize:4.5
OverallDifficulty:7
ApproachRate:7
SliderMultiplier:1.7
SliderTickRate:1

[Events]
//Background and Video events
0,0,"hilda.png",0,0
//Break Periods
//Storyboard Layer 0 (Background)
//Storyboard Layer 1 (Fail)
//Storyboard Layer 2 (Pass)
//Storyboard Layer 3 (Foreground)
//Storyboard Layer 4 (Overlay)
//Storyboard Sound Samples

[TimingPoints]
275,659.340659340659,4,2,1,40,1,0
21373,-100,4,2,2,50,0,0
45110,-100,4,2,1,40,0,0

[Colours]
Combo1 : 255,128,192
Combo2 : 128,0,128
Combo3 : 255,111,111

[HitObjects]
49,211,275,6,0,P|43:184|52:155,3,42.5,6|0|0|0,0:0|0:0|0:0|0:0,0:0:0:0:
72,112,934,2,0,P|84:90|104:77,3,42.5,8|0|0|0,0:0|0:0|0:0|0:0,0:0:0:0:
149,42,1593,1,2,0:0:0:0:
311,43,1923,1,2,0:0:0:0:
230,18,2253,1,10,0:0:0:0:
363,109,2582,1,2,0:0:0:0:
379,192,2912,6,0,P|354:205|324:209,3,42.5,2|0|0|0,0:0|0:0|0:0|0:0,0:0:0:0:
278,192,3571,2,0,P|251:181|220:185,3,42.5,8|0|2|0,0:0|0:0|0:0|0:0,0:0:0:0:
173,185,4231,2,0,B|133:228|150:278|150:278|247:287|255:374,1,255,2|2,0:0|0:0,0:0:0:0:
336,185,5549,2,0,B|376:228|359:278|359:278|262:287|254:374,1,255,2|2,0:0|0:0,0:0:0:0:
339,375,6868,1,2,0:0:0:0:
484,300,7198,1,2,0:0:0:0:
422,358,7527,1,10,0:0:0:0:
486,214,7857,1,2,0:0:0:0:
471,130,8187,6,0,L|463:85,3,42.5,2|0|0|0,0:0|0:0|0:0|0:0,0:0:0:0:
403,65,8846,2,0,L|408:13,3,42.5,8|0|0|0,0:0|0:0|0:0|0:0,0:0:0:0:
346,3,9505,1,0,0:0:0:0:
192,65,9835,1,2,0:0:0:0:
261,15,10165,1,10,0:0:0:0:
158,143,10494,1,2,0:0:0:0:
190,221,10824,6,0,P|197:249|193:282,3,42.5,6|0|0|0,0:0|0:0|0:0|0:0,0:0:0:0:
141,294,11483,2,0,P|141:323|151:351,3,42.5,8|0|0|0,0:0|0:0|0:0|0:0,0:0:0:0:
200,367,12143,1,2,0:0:0:0:
367,343,12472,1,2,0:0:0:0:
283,353,12802,1,10,0:0:0:0:
451,332,13132,1,2,0:0:0:0:
367,343,13461,6,0,L|361:288,3,42.5,2|0|0|0,0:0|0:0|0:0|0:0,0:0:0:0:
392,244,14121,2,0,L|398:197,3,42.5,8|0|2|0,0:0|0:0|0:0|0:0,0:0:0:0:
360,149,14780,2,0,B|293:149|255:208|255:208|217:272|143:272,1,255,2|2,0:0|0:0,0:0:0:0:
362,271,16099,2,0,B|295:272|257:208|257:208|219:149|152:149,1,255,2|2,0:0|0:0,0:0:0:0:
97,213,17417,1,2,0:0:0:0:
89,77,17747,1,2,0:0:0:0:
41,148,18077,1,10,0:0:0:0:
31,14,18406,1,2,0:0:0:0:
256,192,18736,12,2,20714,0:0:0:0:
416,342,21373,6,0,P|445:340|484:330,2,56.6666666666667,6|0|0,0:0|0:0|0:0,0:0:0:0:
373,303,22033,1,10,0:0:0:0:
358,248,22253,1,0,0:0:0:0:
370,193,22472,1,0,0:0:0:0:
407,150,22692,2,0,P|428:127|442:99,2,56.6666666666667,2|0|0,0:0|0:0|0:0,0:0:0:0:
370,193,23351,1,10,0:0:0:0:
313,200,23571,1,0,0:0:0:0:
262,173,23791,1,0,0:0:0:0:
222,131,24011,6,0,P|211:103|208:71,2,56.6666666666667,2|0|0,0:0|0:0|0:0,0:0:0:0:
262,173,24670,1,8,0:0:0:0:
269,229,24890,1,0,0:0:0:0:
240,277,25110,1,0,0:0:0:0:
191,306,25329,2,0,P|174:332|172:359,2,56.6666666666667,2|0|0,0:0|0:0|0:0,0:0:0:0:
160,258,25989,2,0,P|129:260|102:275,2,56.6666666666667,10|0|0,0:0|0:0|0:0,0:0:0:0:
176,203,26648,5,2,0:0:0:0:
216,162,26868,1,0,0:0:0:0:
208,105,27088,1,0,0:0:0:0:
170,62,27307,2,0,P|146:43|111:34,2,56.6666666666667,8|0|0,0:0|0:0|0:0,0:0:0:0:
226,52,27967,2,0,P|222:20|210:-4,2,56.6666666666667,2|0|0,0:0|0:0|0:0,0:0:0:0:
280,67,28626,1,10,0:0:0:0:
323,103,28846,1,0,0:0:0:0:
332,158,29066,1,0,0:0:0:0:
309,206,29285,6,0,B|256:244|186:213|186:213|108:246|63:206,1,255,2|2,0:0|0:0,0:0:0:0:
103,132,30604,1,2,0:0:0:0:
67,210,30934,1,2,0:0:0:0:
30,286,31264,1,10,0:0:0:0:
96,338,31593,1,2,0:0:0:0:
173,301,31923,6,0,L|164:235,2,56.6666666666667,6|0|0,0:0|0:0|0:0,0:0:0:0:
202,349,32582,1,10,0:0:0:0:
256,364,32802,1,0,0:0:0:0:
310,349,33022,1,0,0:0:0:0:
339,301,33242,2,0,L|348:235,2,56.6666666666667,2|0|0,0:0|0:0|0:0,0:0:0:0:
387,330,33901,1,10,0:0:0:0:
441,314,34121,1,0,0:0:0:0:
466,263,34340,1,0,0:0:0:0:
453,207,34560,6,0,L|478:146,2,56.6666666666667,2|0|0,0:0|0:0|0:0,0:0:0:0:
402,181,35220,1,8,0:0:0:0:
378,129,35439,1,0,0:0:0:0:
387,73,35659,1,0,0:0:0:0:
410,21,35879,2,0,L|479:12,2,56.6666666666667,2|0|0,0:0|0:0|0:0,0:0:0:0:
359,3,36538,1,10,0:0:0:0:
302,7,36758,1,0,0:0:0:0:
256,41,36978,1,0,0:0:0:0:
256,97,37198,6,0,L|256:161,2,56.6666666666667,2|0|0,0:0|0:0|0:0,0:0:0:0:
256,41,37857,1,8,0:0:0:0:
210,7,38077,1,0,0:0:0:0:
153,3,38296,1,0,0:0:0:0:
102,21,38516,2,0,L|33:12,2,56.6666666666667,2|0|0,0:0|0:0|0:0,0:0:0:0:
125,73,39176,1,10,0:0:0:0:
134,129,39395,1,0,0:0:0:0:
110,181,39615,1,0,0:0:0:0:
65,215,39835,6,0,B|39:267|87:318|87:318|166:286|219:353,1,255,2|2,0:0|0:0,0:0:0:0:
286,302,41154,2,0,B|323:286|368:313|368:313|398:281|446:285,1,170,2|10,0:0|0:0,0:0:0:0:
461,201,42143,1,2,0:0:0:0:
377,184,42472,2,0,B|325:143|256:172|174:206|131:174,1,255,2|2,0:0|0:0,0:0:0:0:
45,159,43791,2,0,L|40:106,3,42.5,2|0|0|0,0:0|0:0|0:0|0:0,0:0:0:0:
100,94,44450,2,0,L|96:51,3,42.5,8|0|0|0,0:0|0:0|0:0|0:0,0:0:0:0:
151,18,45110,5,6,0:0:0:0:
