osu file format v14

[General]
AudioFilename: audio.mp3
AudioLeadIn: 0
PreviewTime: 272
Countdown: 0
SampleSet: Normal
StackLeniency: 0.7
Mode: 1
LetterboxInBreaks: 0
WidescreenStoryboard: 0

[Editor]
Bookmarks: 8584
DistanceSpacing: 0.7
BeatDivisor: 4
GridSize: 32
TimelineZoom: 0.9

[Metadata]
Title:Reminiscence
TitleUnicode:回想
Artist:Uematsu Nobuo
ArtistUnicode:植松伸夫
Creator:tatatat
Version:Futsuu
Source:ファイナルファンタジーV
Tags:Final Fantasy V ff5 squaresoft enix nintendo SNES super famicom video game instrumental ost original soundtrack theme chiptune
BeatmapID:2418195
BeatmapSetID:1158819

[Difficulty]
HPDrainRate:9.5
CircleSize:2
OverallDifficulty:3
ApproachRate:10
SliderMultiplier:2
SliderTickRate:1

[Events]
//Background and Video events
0,0,"e.jpg",0,-16
//Break Periods
//Storyboard Layer 0 (Background)
//Storyboard Layer 1 (Fail)
//Storyboard Layer 2 (Pass)
//Storyboard Layer 3 (Foreground)
//Storyboard Layer 4 (Overlay)
//Storyboard Sound Samples

[TimingPoints]
485,851.063829787235,4,1,0,45,1,8
1761,851.063829787235,4,1,0,45,1,0
47718,873.362445414847,4,1,0,45,1,0
47718,-97.4468914441629,4,1,0,45,0,0
48591,886.262924667651,4,1,0,45,1,8
48591,-96.0338038989724,4,1,0,45,0,0
49920,851.063829787234,4,1,0,45,1,8
51196,851.063829787234,4,1,0,45,1,0
51196,-100,4,1,0,35,0,0
52047,-100,4,1,0,30,0,0
52898,-100,4,1,0,25,0,0
53749,-100,4,1,0,20,0,0

[HitObjects]
256,192,485,5,0,0:0:0:0:
256,192,910,1,0,0:0:0:0:
256,192,1336,1,8,0:0:0:0:
256,192,1761,1,8,0:0:0:0:
256,192,2186,1,0,0:0:0:0:
256,192,2612,1,0,0:0:0:0:
256,192,3037,1,0,0:0:0:0:
256,192,3463,1,8,0:0:0:0:
256,192,4314,1,8,0:0:0:0:
256,192,4739,1,8,0:0:0:0:
256,192,5165,1,0,0:0:0:0:
256,192,5590,1,8,0:0:0:0:
256,192,6016,1,0,0:0:0:0:
256,192,6441,1,0,0:0:0:0:
256,192,6867,1,8,0:0:0:0:
256,192,8569,1,0,0:0:0:0:
256,192,8995,1,8,0:0:0:0:
256,192,9420,1,0,0:0:0:0:
256,192,9846,1,0,0:0:0:0:
256,192,10271,1,8,0:0:0:0:
256,192,10697,1,0,0:0:0:0:
256,192,11122,1,0,0:0:0:0:
256,192,11548,1,8,0:0:0:0:
256,192,11973,1,8,0:0:0:0:
256,192,12399,1,0,0:0:0:0:
256,192,12824,1,0,0:0:0:0:
256,192,13250,1,0,0:0:0:0:
252,185,13675,1,8,0:0:0:0:
256,192,14101,1,0,0:0:0:0:
256,192,14526,1,0,0:0:0:0:
256,192,14952,1,8,0:0:0:0:
256,192,15378,1,8,0:0:0:0:
256,192,15803,1,0,0:0:0:0:
256,192,16229,1,0,0:0:0:0:
256,192,16654,1,0,0:0:0:0:
256,192,17080,1,8,0:0:0:0:
256,192,17931,1,8,0:0:0:0:
256,192,18356,1,8,0:0:0:0:
256,192,18782,1,0,0:0:0:0:
256,192,19207,1,8,0:0:0:0:
256,192,19633,1,0,0:0:0:0:
256,192,20058,1,0,0:0:0:0:
256,192,20484,1,8,0:0:0:0:
256,192,22186,1,8,0:0:0:0:
256,192,22612,1,0,0:0:0:0:
256,192,23037,1,0,0:0:0:0:
256,192,23463,1,0,0:0:0:0:
256,192,23888,1,8,0:0:0:0:
256,192,24314,1,8,0:0:0:0:
256,192,24739,1,0,0:0:0:0:
256,192,25165,1,8,0:0:0:0:
256,192,25590,1,0,0:0:0:0:
256,192,26016,1,0,0:0:0:0:
256,192,26441,1,0,0:0:0:0:
256,192,26867,1,8,0:0:0:0:
256,192,27292,1,8,0:0:0:0:
256,192,27718,1,8,0:0:0:0:
256,192,28143,1,8,0:0:0:0:
256,192,28569,1,8,0:0:0:0:
256,192,28995,1,8,0:0:0:0:
256,192,29420,1,0,0:0:0:0:
256,192,29846,1,0,0:0:0:0:
256,192,30271,1,8,0:0:0:0:
256,192,30697,1,8,0:0:0:0:
256,192,31548,1,0,0:0:0:0:
256,192,32399,1,0,0:0:0:0:
256,192,32824,1,8,0:0:0:0:
256,192,33250,1,8,0:0:0:0:
256,192,33675,1,0,0:0:0:0:
256,192,34101,1,0,0:0:0:0:
256,192,34952,1,8,0:0:0:0:
256,192,35378,1,0,0:0:0:0:
256,192,35803,1,8,0:0:0:0:
256,192,36229,1,0,0:0:0:0:
256,192,36654,1,8,0:0:0:0:
256,192,37080,1,8,0:0:0:0:
256,192,37505,1,0,0:0:0:0:
256,192,37931,1,0,0:0:0:0:
256,192,38356,1,8,0:0:0:0:
256,192,38782,1,8,0:0:0:0:
256,192,39207,1,0,0:0:0:0:
256,192,39633,1,0,0:0:0:0:
256,192,40058,1,0,0:0:0:0:
256,192,40484,1,8,0:0:0:0:
256,192,40909,1,0,0:0:0:0:
256,192,41335,1,0,0:0:0:0:
256,192,41761,1,0,0:0:0:0:
256,192,42186,1,8,0:0:0:0:
256,192,42612,1,0,0:0:0:0:
256,192,43037,1,0,0:0:0:0:
256,192,43463,1,8,0:0:0:0:
256,192,43888,1,8,0:0:0:0:
256,192,44314,1,0,0:0:0:0:
256,192,44739,1,0,0:0:0:0:
256,192,45165,1,0,0:0:0:0:
256,192,45590,1,8,0:0:0:0:
256,192,46016,1,0,0:0:0:0:
256,192,46441,1,0,0:0:0:0:
256,192,46867,1,8,0:0:0:0:
256,192,47292,1,8,0:0:0:0:
256,192,47505,1,0,0:0:0:0:
256,192,47718,1,8,0:0:0:0:
256,192,48591,1,8,0:0:0:0:
256,192,49920,1,0,0:0:0:0:
256,192,50345,1,0,0:0:0:0:
256,192,50771,1,0,0:0:0:0:
256,192,51196,12,0,54600,0:0:0:0:
