osu file format v14

[General]
AudioFilename: sunkenshrine.mp3
AudioLeadIn: 0
PreviewTime: 42761
Countdown: 1
SampleSet: Drum
StackLeniency: 0.4
Mode: 0
LetterboxInBreaks: 1
WidescreenStoryboard: 1

[Editor]
Bookmarks: 88,14310,28532,42754,56949,71171,71393,85393
DistanceSpacing: 1.4
BeatDivisor: 4
GridSize: 8
TimelineZoom: 3.399999

[Metadata]
Title:Kaitei Shinden
TitleUnicode:海底神殿
Artist:Uematsu Nobuo
ArtistUnicode:植松伸夫
Creator:Kaeldori
Version:Water Crystal Collab
Source:ファイナルファンタジー I·II
Tags:sunken shrine underwater temple squaresoft square enix final fantasy origins video game instrumental starcastler 2002 ff1 Original Soundtrack ost
BeatmapID:2315400
BeatmapSetID:1107860

[Difficulty]
HPDrainRate:5
CircleSize:5
OverallDifficulty:7
ApproachRate:7
SliderMultiplier:1.6
SliderTickRate:1

[Events]
//Background and Video events
0,0,"Waterroom.png",0,0
//Break Periods
//Storyboard Layer 0 (Background)
//Storyboard Layer 1 (Fail)
//Storyboard Layer 2 (Pass)
//Storyboard Layer 3 (Foreground)
//Storyboard Layer 4 (Overlay)
//Storyboard Sound Samples

[TimingPoints]
95,444.444444444444,4,3,1,40,1,0
95,-100,4,3,1,40,0,0
28539,-100,4,3,1,55,0,1
42761,-100,4,3,1,40,0,0
71206,-100,4,3,1,55,0,1
85428,-100,4,3,1,40,0,0

[Colours]
Combo1 : 0,0,128
Combo2 : 0,128,255
Combo3 : 0,128,192
Combo4 : 0,0,255

[HitObjects]
216,192,95,5,4,1:2:0:0:
296,192,317,1,0,1:0:0:0:
360,240,539,2,0,P|368:288|352:312,1,80
288,360,983,2,0,B|256:336|256:336|224:360,1,80
160,312,1428,2,0,P|144:288|152:240,1,80
216,192,1872,1,0,1:2:0:0:
296,192,2094,1,0,1:0:0:0:
360,144,2317,2,0,P|368:96|352:72,1,80
288,24,2761,2,0,B|256:48|256:48|224:24,1,80
160,72,3206,2,0,P|144:96|152:144,1,80
216,192,3650,5,0,1:2:0:0:
256,264,3872,1,0,1:0:0:0:
216,336,4094,2,0,L|144:376,1,80
136,296,4539,2,0,L|56:312,1,80,4|0,0:0|0:0,0:0:0:0:
80,232,4983,2,0,L|0:232,1,80
0,152,5428,1,0,1:2:0:0:
80,152,5650,1,0,1:0:0:0:
57,72,5872,2,0,L|136:88,1,80
146,9,6317,2,0,L|216:48,1,80
256,120,6761,2,0,L|216:192,1,80
296,192,7206,5,2,1:3:0:0:
217,189,7428,1,0,1:0:0:0:
152,240,7650,2,0,P|144:288|160:312,1,80
224,360,8094,2,0,B|256:336|256:336|288:360,1,80
352,312,8539,2,0,P|368:288|360:240,1,80
296,192,8983,1,0,1:0:0:0:
216,192,9206,1,0,1:0:0:0:
152,144,9428,2,0,P|144:96|160:72,1,80
224,24,9872,2,0,B|256:48|256:48|288:24,1,80
352,72,10317,2,0,P|368:96|360:144,1,80
296,192,10761,5,0,1:0:0:0:
256,264,10983,1,0,1:0:0:0:
296,336,11206,2,0,L|368:376,1,80
376,296,11650,2,0,L|456:312,1,80,4|0,0:0|0:0,0:0:0:0:
432,232,12094,2,0,L|512:232,1,80
512,152,12539,1,0,1:0:0:0:
432,152,12761,1,0,1:0:0:0:
454,72,12983,2,0,L|376:88,1,80
365,9,13428,2,0,L|296:48,1,80
256,120,13872,2,0,L|296:192,1,80
256,336,14317,6,0,P|167:345|127:276,1,160,4|0,1:2|0:0,0:0:0:0:
184,144,15206,2,0,L|184:64,1,80,2|0,0:2|0:0,0:0:0:0:
256,16,15650,2,0,L|256:104,1,80,2|0,0:0|0:0,0:0:0:0:
328,144,16094,2,0,L|328:64,1,80,2|0,1:2|1:0,0:0:0:0:
400,32,16539,1,2,0:0:0:0:
512,120,16983,1,2,0:2:0:0:
512,264,17428,1,2,0:0:0:0:
408,368,17872,5,2,1:2:0:0:
328,352,18094,1,0,1:0:0:0:
320,272,18317,2,0,L|264:216,1,80
216,280,18761,2,0,L|144:320,1,80,4|0,0:0|0:0,0:0:0:0:
136,240,19206,2,0,L|56:256,1,80
80,176,19650,1,0,1:0:0:0:
0,176,19872,1,0,1:0:0:0:
32,104,20094,2,0,L|112:104,1,80
168,48,20539,2,0,L|246:64,1,80
304,8,20983,2,0,L|373:47,1,80
466,179,21428,6,0,P|475:268|406:308,1,160,4|0,1:2|0:0,0:0:0:0:
347,166,22317,2,0,L|347:278,1,80,2|0,0:2|0:0,0:0:0:0:
272,215,22761,2,0,L|272:314,1,80,2|0,0:0|0:0,0:0:0:0:
199,260,23206,2,0,L|199:359,1,80,2|0,1:2|1:0,0:0:0:0:
120,326,23650,1,2,0:0:0:0:
0,247,24094,1,2,0:2:0:0:
65,131,24539,2,0,P|113:139|140:169,1,80,2|0,0:0|0:0,0:0:0:0:
180,224,24983,6,0,P|276:197|286:62,1,240,2|0,1:2|0:0,0:0:0:0:
395,32,25872,2,0,L|432:132,1,80,4|0,0:0|0:0,0:0:0:0:
489,150,26317,2,0,L|452:250,1,80
478,303,26761,2,0,L|378:340,1,80,0|0,1:0|1:0,0:0:0:0:
325,352,27206,2,0,L|297:276,1,80
214,276,27650,2,0,L|187:352,1,80
63,280,28094,1,0,0:0:0:0:
61,240,28206,1,0,0:0:0:0:
80,205,28317,1,0,0:0:0:0:
115,186,28428,1,0,0:0:0:0:
154,194,28539,5,4,1:2:0:0:
208,264,28761,2,0,B|264:328|352:320,1,160,0|0,1:0|0:0,0:0:0:0:
408,376,29428,2,0,L|488:376,1,80,2|0,0:2|0:0,0:0:0:0:
432,304,29872,2,0,L|488:248,1,80,2|0,0:0|0:0,0:0:0:0:
488,168,30317,1,2,1:2:0:0:
464,88,30539,1,0,1:0:0:0:
392,48,30761,1,2,0:0:0:0:
296,176,31206,2,0,B|304:216|304:216|296:256,1,80,2|0,0:2|0:0,0:0:0:0:
216,256,31650,2,0,B|208:216|208:216|216:176,1,80,2|0,0:0|0:0,0:0:0:0:
256,104,32094,5,2,1:2:0:0:
256,24,32317,2,0,B|168:16|112:80,1,160,0|0,1:0|0:0,0:0:0:0:
64,144,32983,2,0,L|40:224,1,80,2|0,0:2|0:0,0:0:0:0:
144,152,33428,2,0,L|128:232,1,80,2|0,0:0|0:0,0:0:0:0:
176,296,33872,1,2,1:2:0:0:
256,304,34094,2,0,B|320:344|376:312|376:264|424:240|480:272,1,240,0|2,1:0|0:2,0:0:0:0:
440,344,34983,2,0,B|464:376|464:376|504:384,2,80
408,272,35650,5,4,1:3:0:0:
104,272,36539,2,0,L|184:272,1,80,2|0,0:2|0:0,0:0:0:0:
256,232,36983,2,0,L|256:152,1,80,2|0,0:0|0:0,0:0:0:0:
328,112,37428,1,2,1:2:0:0:
256,272,37872,1,2,0:0:0:0:
184,112,38317,1,2,0:2:0:0:
256,272,38761,1,2,0:0:0:0:
256,192,38983,1,0,0:0:0:0:
256,112,39206,5,4,1:2:0:0:
256,192,39317,12,0,40983,1:0:0:0:
256,336,42761,5,4,1:2:0:0:
208,272,42983,1,0,1:0:0:0:
160,208,43206,2,0,P|124:217|71:207,1,80
48,136,43650,2,0,P|39:100|49:47,1,80
120,24,44094,2,0,P|159:18|198:27,1,80
256,80,44539,1,0,1:2:0:0:
304,144,44761,1,0,1:0:0:0:
368,192,44983,2,0,P|404:183|457:193,1,80
480,264,45428,2,0,P|489:300|479:353,1,80
408,376,45872,2,0,P|368:381|329:372,1,80
368,304,46317,5,0,1:0:0:0:
328,232,46539,1,0,1:2:0:0:
272,176,46761,2,0,L|200:136,1,80
160,208,47206,2,0,L|96:128,1,80,4|0,0:0|0:0,0:0:0:0:
56,208,47650,2,0,L|24:120,1,80
64,64,48094,1,0,1:0:0:0:
144,64,48317,1,0,1:0:0:0:
224,48,48539,2,0,P|272:40|304:56,1,80
360,104,48983,2,0,P|368:152|352:184,1,80
288,224,49428,2,0,P|274:186|283:148,1,80
256,72,49872,5,2,1:3:0:0:
200,128,50094,1,0,1:0:0:0:
144,184,50317,2,0,P|108:175|55:185,1,80
32,256,50761,2,0,P|23:292|33:345,1,80
104,360,51206,2,0,P|143:365|182:356,1,80
256,304,51650,1,0,1:2:0:0:
304,240,51872,1,0,1:0:0:0:
368,192,52094,2,0,P|404:201|457:191,1,80
480,120,52539,2,0,P|489:84|479:31,1,80
408,8,52983,2,0,P|368:2|329:11,1,80
368,80,53428,5,0,1:0:0:0:
328,152,53650,1,0,1:2:0:0:
272,208,53872,2,0,L|200:248,1,80
160,176,54317,2,0,L|96:256,1,80,4|0,0:0|0:0,0:0:0:0:
56,176,54761,2,0,L|24:264,1,80
64,320,55206,1,0,1:0:0:0:
144,320,55428,1,0,1:0:0:0:
224,336,55650,2,0,P|272:344|304:328,1,80
360,280,56094,2,0,P|368:232|352:200,1,80
288,160,56539,2,0,P|274:197|283:235,1,80
360,280,56983,5,6,1:2:0:0:
376,360,57206,1,0,1:0:0:0:
296,336,57428,2,0,B|256:320|216:336,1,80
136,360,57872,2,0,B|96:376|56:360,1,80,2|0,0:2|0:0,0:0:0:0:
96,288,58317,1,2,0:3:0:0:
256,264,58761,1,2,1:2:0:0:
256,264,58983,1,0,1:0:0:0:
296,192,59206,2,0,B|256:176|216:192,1,80,2|0,0:3|0:0,0:0:0:0:
216,112,59650,2,0,B|256:128|296:112,1,80,2|0,0:2|0:0,0:0:0:0:
256,40,60094,1,2,0:3:0:0:
256,192,60539,5,2,1:2:0:0:
256,192,60761,1,0,1:0:0:0:
208,256,60983,2,0,P|200:288|168:320,1,80
216,384,61428,2,0,L|296:384,1,80,4|0,0:3|0:0,0:0:0:0:
344,320,61872,2,0,P|312:288|304:256,1,80
256,192,62317,1,0,1:2:0:0:
256,192,62539,1,0,1:0:0:0:
304,128,62761,2,0,P|312:96|344:64,1,80
296,0,63206,2,0,L|216:0,1,80,0|0,0:3|0:0,0:0:0:0:
168,64,63650,2,0,P|200:96|208:128,1,80
128,136,64094,5,4,1:2:0:0:
128,136,64317,1,0,1:0:0:0:
88,208,64539,2,0,L|48:280,1,80
88,352,64983,2,0,L|128:280,1,80,2|0,0:2|0:0,0:0:0:0:
168,208,65428,1,2,0:3:0:0:
344,208,65872,1,2,1:2:0:0:
344,208,66094,1,0,1:0:0:0:
384,280,66317,2,0,L|424:352,1,80,2|0,0:3|0:0,0:0:0:0:
464,280,66761,2,0,L|424:208,1,80,2|0,0:2|0:0,0:0:0:0:
384,136,67206,1,2,0:3:0:0:
256,40,67650,5,2,1:2:0:0:
256,40,67872,1,0,1:0:0:0:
216,112,68094,2,0,B|256:120|296:112,1,80,0|0,0:2|0:0,0:0:0:0:
296,192,68539,2,0,B|256:200|216:192,1,80,4|0,0:3|0:0,0:0:0:0:
216,272,68983,2,0,B|256:280|296:272,1,80,0|0,0:2|0:0,0:0:0:0:
368,232,69428,1,0,1:0:0:0:
368,232,69650,2,0,P|216:200|144:232,1,240,0|0,1:0|0:0,0:0:0:0:
256,320,70761,1,0,0:0:0:0:
256,288,70872,1,0,0:0:0:0:
256,256,70983,1,0,0:0:0:0:
256,224,71094,1,0,0:0:0:0:
256,192,71206,6,0,B|219:95|82:144|106:-12,1,240,0|0,1:0|0:0,0:0:0:0:
216,16,72094,2,0,L|296:16,1,80,2|0,0:2|0:0,0:0:0:0:
328,112,72539,2,0,L|384:56,1,80,2|0,0:0|0:0,0:0:0:0:
408,168,72983,2,0,B|448:160|488:168,1,80,2|0,1:2|1:0,0:0:0:0:
512,280,73428,2,0,B|520:320|512:360,1,80,2|0,0:0|0:0,0:0:0:0:
408,320,73872,2,0,B|368:328|328:320,1,80,2|0,0:2|0:0,0:0:0:0:
248,240,74317,2,0,B|240:200|248:160,1,80,2|0,0:0|0:0,0:0:0:0:
192,62,74761,6,0,B|48:70|24:222,1,240,2|0,1:2|0:0,0:0:0:0:
63,312,75650,2,0,L|111:248,1,80,2|0,0:2|0:0,0:0:0:0:
222,236,76094,2,0,L|222:156,1,80,2|0,0:0|0:0,0:0:0:0:
295,70,76539,2,0,B|358:109|414:77|414:29|462:5|512:35,1,240,2|0,1:2|0:2,0:0:0:0:
483,143,77428,1,2,0:2:0:0:
428,241,77650,2,0,B|404:273|404:273|364:281,2,80
344,160,78317,5,4,1:3:0:0:
32,104,79206,2,0,P|72:96|112:104,1,80,2|0,0:2|0:0,0:0:0:0:
200,32,79650,2,0,L|200:112,1,80,2|0,0:0|0:0,0:0:0:0:
256,208,80094,1,2,1:2:0:0:
152,368,80539,1,2,0:0:0:0:
360,368,80983,1,2,0:2:0:0:
464,240,81428,2,0,B|472:200|456:144,1,80,2|0,0:2|0:0,0:0:0:0:
400,64,81872,5,4,1:2:0:0:
256,192,81983,12,0,83649,1:0:0:0:
256,192,85428,5,4,0:0:0:0:
