osu file format v14

[General]
AudioFilename: sunkenshrine.mp3
AudioLeadIn: 0
PreviewTime: 42761
Countdown: 1
SampleSet: Drum
StackLeniency: 0.7
Mode: 0
LetterboxInBreaks: 1
WidescreenStoryboard: 1

[Editor]
Bookmarks: 95,14317,28539,42761,56983,71206,85428
DistanceSpacing: 1
BeatDivisor: 4
GridSize: 8
TimelineZoom: 1

[Metadata]
Title:Kaitei Shinden
TitleUnicode:海底神殿
Artist:Uematsu Nobuo
ArtistUnicode:植松伸夫
Creator:Kaeldori
Version:StarCastler's Normal
Source:ファイナルファンタジー I·II
Tags:sunken shrine underwater temple squaresoft square enix final fantasy origins video game instrumental starcastler 2002 ff1 Original Soundtrack ost
BeatmapID:2315416
BeatmapSetID:1107860

[Difficulty]
HPDrainRate:3
CircleSize:3
OverallDifficulty:5
ApproachRate:5
SliderMultiplier:1.3
SliderTickRate:1

[Events]
//Background and Video events
0,0,"Sunken_Shrine.png",0,0
//Break Periods
//Storyboard Layer 0 (Background)
//Storyboard Layer 1 (Fail)
//Storyboard Layer 2 (Pass)
//Storyboard Layer 3 (Foreground)
//Storyboard Layer 4 (Overlay)
//Storyboard Sound Samples

[TimingPoints]
95,444.444444444444,4,3,1,40,1,0
95,-100,4,3,1,40,0,0
28539,-100,4,3,1,55,0,1
42761,-100,4,3,1,40,0,0
71206,-100,4,3,1,55,0,1
85428,-100,4,3,1,40,0,0

[Colours]
Combo1 : 0,0,128
Combo2 : 0,128,255
Combo3 : 0,128,192
Combo4 : 0,0,255

[HitObjects]
256,192,95,5,4,1:2:0:0:
256,256,317,1,0,1:0:0:0:
256,320,539,2,0,P|176:344|144:320,2,130,0|0|0,3:0|3:0|3:0,3:0:0:0:
256,192,1872,1,0,1:2:0:0:
256,128,2094,1,0,1:0:0:0:
256,64,2317,2,0,P|336:40|368:64,2,130,0|0|0,3:0|3:0|3:0,3:0:0:0:
288,192,3650,5,0,1:2:0:0:
224,192,3872,1,0,1:0:0:0:
160,192,4094,2,0,B|80:192|80:272,1,130,0|4,3:0|3:0,3:0:0:0:
200,320,4983,1,0,3:0:0:0:
224,192,5428,1,0,1:2:0:0:
288,192,5650,1,0,1:0:0:0:
352,192,5872,2,0,B|432:192|432:112,1,130,0|0,3:0|3:0,3:0:0:0:
312,64,6761,1,0,3:0:0:0:
256,192,7206,5,2,1:3:0:0:
256,256,7428,1,0,1:0:0:0:
256,320,7650,2,0,P|336:344|368:320,2,130,0|0|0,3:0|3:0|3:0,3:0:0:0:
256,192,8983,1,0,1:0:0:0:
256,128,9206,1,0,1:0:0:0:
256,64,9428,2,0,P|176:40|144:64,2,130,0|0|0,3:0|3:0|3:0,3:0:0:0:
224,192,10761,5,0,1:0:0:0:
288,192,10983,1,0,1:0:0:0:
352,192,11206,2,0,B|432:192|432:272,1,130,0|4,3:0|3:0,3:0:0:0:
312,320,12094,1,0,3:0:0:0:
288,192,12539,1,0,1:0:0:0:
224,192,12761,1,0,1:0:0:0:
160,192,12983,2,0,B|80:192|80:112,1,130,0|0,3:0|3:0,3:0:0:0:
200,64,13872,1,0,3:0:0:0:
328,64,14317,6,0,B|488:64|488:224,1,260,4|2,1:2|3:2,3:0:0:0:
424,336,15650,1,2,3:0:0:0:
320,256,16094,1,2,1:2:0:0:
320,128,16539,1,2,3:0:0:0:
192,128,16983,1,2,3:2:0:0:
192,256,17428,1,2,3:0:0:0:
192,384,17872,6,0,B|32:384|32:224,1,260,2|4,1:2|3:0,3:0:0:0:
64,96,19206,1,0,3:0:0:0:
184,64,19650,1,0,1:0:0:0:
256,56,19872,1,0,1:0:0:0:
328,64,20094,2,0,B|376:112|376:184,2,130,0|0|0,3:0|3:0|3:0,3:0:0:0:
184,64,21428,6,0,B|24:64|24:224,1,260,4|2,1:2|3:2,3:0:0:0:
88,336,22761,1,2,3:0:0:0:
192,256,23206,1,2,1:2:0:0:
192,128,23650,1,2,3:0:0:0:
320,128,24094,1,2,3:2:0:0:
320,256,24539,1,2,3:0:0:0:
320,384,24983,6,0,B|480:384|480:224,1,260,2|4,1:2|3:0,3:0:0:0:
448,96,26317,1,0,3:0:0:0:
328,64,26761,1,0,1:0:0:0:
256,56,26983,1,0,1:0:0:0:
184,64,27206,2,0,B|136:112|136:184,2,130,0|0|0,3:0|3:0|3:0,3:0:0:0:
264,168,28539,5,4,1:2:0:0:
264,168,28761,1,0,1:0:0:0:
424,280,29428,2,0,B|424:360|344:360,1,130,2|2,3:2|3:0,3:2:0:0:
280,360,30094,1,0,3:0:0:0:
216,360,30317,1,2,1:2:0:0:
144,248,30761,1,2,3:0:0:0:
72,360,31206,1,2,3:2:0:0:
24,312,31428,1,0,3:0:0:0:
0,248,31650,1,2,3:0:0:0:
0,120,32094,5,2,1:2:0:0:
0,56,32317,1,0,1:0:0:0:
192,56,32983,2,0,P|256:64|320:56,1,130,2|2,3:2|3:0,3:0:0:0:
384,48,33650,1,0,3:0:0:0:
448,40,33872,1,2,1:2:0:0:
456,104,34094,1,0,1:0:0:0:
456,296,34761,2,0,B|456:376|376:376,1,130,2|0,3:2|3:0,3:0:0:0:
312,352,35428,1,0,3:0:0:0:
256,312,35650,5,4,1:3:0:0:
256,56,36539,1,2,3:2:0:0:
192,168,36983,1,2,3:0:0:0:
320,168,37428,1,2,1:2:0:0:
320,296,37872,1,2,3:0:0:0:
192,296,38317,1,2,3:2:0:0:
256,192,38761,1,2,3:0:0:0:
256,192,38983,1,0,3:0:0:0:
256,192,39206,5,4,1:2:0:0:
256,192,39428,12,0,40983,1:0:0:0:
192,192,42761,5,4,1:2:0:0:
192,192,42983,1,0,1:0:0:0:
192,192,43206,2,0,B|128:208|128:176|64:192,2,130,0|0|0,3:0|3:0|3:0,3:0:0:0:
320,192,44539,1,0,1:2:0:0:
320,192,44761,1,0,1:0:0:0:
320,192,44983,2,0,B|384:208|384:176|448:192,2,130,0|0|0,3:0|3:0|3:0,3:0:0:0:
288,64,46317,6,0,L|224:64,2,65,0|0|0,1:0|1:0|3:0,3:0:0:0:
320,192,47206,2,0,P|256:200|192:192,1,130,4|0,3:0|3:0,3:0:0:0:
224,320,48094,2,0,L|288:320,2,65,0|0|0,1:0|1:0|3:0,3:0:0:0:
112,256,48983,2,0,B|128:192|128:192|192:192,1,130,0|0,3:0|3:0,3:0:0:0:
320,192,49872,5,2,1:3:0:0:
320,192,50094,1,0,1:0:0:0:
320,192,50317,2,0,B|384:208|384:176|448:192,2,130,0|0|0,3:0|3:0|3:0,3:0:0:0:
192,192,51650,1,0,1:2:0:0:
192,192,51872,1,0,1:0:0:0:
192,192,52094,2,0,B|128:208|128:176|64:192,2,130,0|0|0,3:0|3:0|3:0,3:0:0:0:
224,64,53428,6,0,L|288:64,2,65,0|0|0,1:0|1:0|3:0,3:0:0:0:
192,192,54317,2,0,P|256:200|320:192,1,130,4|0,3:0|3:0,3:0:0:0:
288,320,55206,2,0,L|224:320,2,65,0|0|0,1:0|1:0|3:0,3:0:0:0:
320,192,56094,2,0,P|256:184|192:192,1,130,0|0,3:0|3:0,3:0:0:0:
128,304,56983,6,0,B|12:192|128:80,1,260,4|2,1:2|3:2,3:0:0:0:
256,80,58317,1,2,3:0:0:0:
320,192,58761,1,2,1:2:0:0:
256,304,59206,1,2,3:0:0:0:
192,192,59650,1,2,3:2:0:0:
256,80,60094,1,2,3:0:0:0:
384,80,60539,6,0,B|500:192|384:304,1,260,2|4,1:2|3:0,3:0:0:0:
320,192,61872,1,0,3:0:0:0:
256,304,62317,1,0,1:0:0:0:
256,304,62539,1,0,1:0:0:0:
256,304,62761,2,0,B|208:256|192:192,2,130,0|0|0,3:0|3:0|3:0,3:0:0:0:
384,304,64094,6,0,B|500:192|384:80,1,260,4|2,1:2|3:2,3:0:0:0:
256,80,65428,1,2,3:0:0:0:
192,192,65872,1,2,1:2:0:0:
256,304,66317,1,2,3:0:0:0:
320,192,66761,1,2,3:2:0:0:
256,80,67206,1,2,3:0:0:0:
128,80,67650,6,0,B|12:192|128:304,1,260,2|4,1:2|3:0,3:0:0:0:
256,336,68983,1,0,3:0:0:0:
384,304,69428,1,0,1:0:0:0:
384,304,69650,1,0,1:0:0:0:
384,304,69872,2,0,B|432:256|448:192,2,130,0|0|0,3:0|3:0|3:0,3:0:0:0:
320,192,71206,5,4,1:2:0:0:
320,192,71428,1,0,1:0:0:0:
128,192,72094,2,0,P|120:128|128:64,1,130,2|2,3:2|3:0,3:2:0:0:
136,0,72761,1,0,3:0:0:0:
200,8,72983,1,2,1:2:0:0:
312,64,73428,1,2,3:0:0:0:
440,24,73872,1,2,3:2:0:0:
488,72,74094,1,0,3:0:0:0:
512,136,74317,1,2,3:0:0:0:
512,264,74761,5,2,1:2:0:0:
512,328,74983,1,0,1:0:0:0:
320,328,75650,2,0,P|256:320|192:328,1,130,2|2,3:2|3:0,3:0:0:0:
128,336,76317,1,0,3:0:0:0:
120,272,76539,1,2,1:2:0:0:
56,280,76761,1,0,1:0:0:0:
56,88,77428,2,0,B|56:8|136:8,1,130,2|0,3:2|3:0,3:0:0:0:
200,32,78094,1,0,3:0:0:0:
256,72,78317,5,4,1:3:0:0:
256,328,79206,1,2,3:2:0:0:
320,216,79650,1,2,3:0:0:0:
192,216,80094,1,2,1:2:0:0:
192,88,80539,1,2,3:0:0:0:
320,88,80983,1,2,3:2:0:0:
256,192,81428,1,2,3:0:0:0:
256,192,81650,1,0,3:0:0:0:
256,192,81872,5,4,1:2:0:0:
256,192,82094,12,0,83650,1:0:0:0:
256,192,85428,5,4,1:0:0:0:
