osu file format v14

[General]
AudioFilename: sunkenshrine.mp3
AudioLeadIn: 0
PreviewTime: 42761
Countdown: 1
SampleSet: Drum
StackLeniency: 0.7
Mode: 0
LetterboxInBreaks: 1
WidescreenStoryboard: 1

[Editor]
Bookmarks: 95,14317,28539,42761,56983,71206,85428
DistanceSpacing: 1
BeatDivisor: 4
GridSize: 4
TimelineZoom: 3.199999

[Metadata]
Title:Kaitei Shinden
TitleUnicode:海底神殿
Artist:Uematsu Nobuo
ArtistUnicode:植松伸夫
Creator:Kaeldori
Version:Easy
Source:ファイナルファンタジー I·II
Tags:sunken shrine underwater temple squaresoft square enix final fantasy origins video game instrumental starcastler 2002 ff1 Original Soundtrack ost
BeatmapID:2316596
BeatmapSetID:1107860

[Difficulty]
HPDrainRate:2
CircleSize:2
OverallDifficulty:3
ApproachRate:3
SliderMultiplier:1
SliderTickRate:1

[Events]
//Background and Video events
0,0,"Sunken_Shrine.png",0,0
//Break Periods
//Storyboard Layer 0 (Background)
//Storyboard Layer 1 (Fail)
//Storyboard Layer 2 (Pass)
//Storyboard Layer 3 (Foreground)
//Storyboard Layer 4 (Overlay)
//Storyboard Sound Samples

[TimingPoints]
95,444.444444444444,4,3,1,40,1,0
95,-100,4,3,1,40,0,0
28539,-100,4,3,1,55,0,1
42761,-100,4,3,1,40,0,0
71206,-100,4,3,1,55,0,1
85428,-100,4,3,1,40,0,0

[Colours]
Combo1 : 0,0,128
Combo2 : 0,128,255
Combo3 : 0,128,192
Combo4 : 0,0,255

[HitObjects]
219,326,95,6,0,P|139:350|26:300,1,200,4|0,1:2|0:0,0:0:0:0:
59,211,1428,1,0,0:0:0:0:
89,115,1872,2,0,L|305:83,1,200,0|0,1:2|0:0,0:0:0:0:
378,45,3206,1,0,0:0:0:0:
441,122,3650,6,0,P|485:201|465:311,1,200,0|4,1:2|0:0,0:0:0:0:
385,362,4983,1,0,0:0:0:0:
303,304,5428,1,0,1:2:0:0:
223,244,5872,2,0,P|168:256|132:306,1,100
52,336,6761,1,0,0:0:0:0:
36,236,7206,6,0,P|-8:157|12:47,1,200,2|0,1:3|0:0,0:0:0:0:
104,28,8539,1,0,0:0:0:0:
192,76,8983,2,0,P|286:59|381:100,1,200,0|0,1:0|0:0,0:0:0:0:
480,80,10317,1,0,0:0:0:0:
500,178,10761,6,0,P|492:259|298:268,1,300,0|0,1:0|0:0,0:0:0:0:
393,207,12539,2,0,P|306:150|113:186,1,300,0|0,1:0|0:0,0:0:0:0:
46,262,14317,38,0,P|15:153|81:76,1,200,4|2,1:2|0:2,0:0:0:0:
141,29,15650,1,2,0:0:0:0:
220,90,16094,1,2,1:2:0:0:
316,62,16539,2,0,L|416:34,2,100,2|2|0,0:0|0:0|0:0,0:0:0:0:
371,145,17872,6,0,L|314:338,1,200,2|4,1:2|0:0,0:0:0:0:
224,293,19206,1,0,0:0:0:0:
140,347,19650,1,0,1:0:0:0:
81,266,20094,2,0,L|20:183,2,100
179,249,21428,6,0,P|277:239|356:181,1,200,4|2,1:2|0:2,0:0:0:0:
317,88,22761,1,2,0:0:0:0:
218,103,23206,2,0,L|117:82,2,100,2|2|0,1:2|0:2|0:0,0:0:0:0:
257,194,24539,1,2,0:0:0:0:
323,268,24983,5,2,1:2:0:0:
130,323,25872,1,4,0:0:0:0:
259,170,26761,1,0,1:0:0:0:
389,18,27650,1,0,0:0:0:0:
190,36,28539,6,0,P|104:90|84:183,1,200,4|2,1:2|0:2,0:0:0:0:
84,280,29872,1,2,0:0:0:0:
164,340,30317,1,2,1:2:0:0:
244,280,30761,1,2,0:0:0:0:
315,209,31206,1,2,0:2:0:0:
386,279,31650,1,2,0:0:0:0:
438,193,32094,6,0,P|488:113|447:3,1,200,2|2,1:2|0:2,0:0:0:0:
378,96,33428,1,2,0:0:0:0:
344,190,33872,2,0,P|235:216|135:183,1,200,2|0,1:2|0:0,0:0:0:0:
35,30,35650,5,4,1:3:0:0:
234,13,36539,1,2,0:2:0:0:
312,76,36983,1,2,0:0:0:0:
234,139,37428,1,2,1:2:0:0:
312,202,37872,1,2,0:0:0:0:
234,264,38317,1,2,0:2:0:0:
312,327,38761,1,2,0:0:0:0:
206,354,39206,6,0,P|58:318|31:86,1,400,4|0,1:2|0:0,0:0:0:0:
287,283,42761,6,0,P|367:307|480:257,1,200,4|0,1:2|0:0,0:0:0:0:
444,169,44094,1,0,0:0:0:0:
414,73,44539,2,0,L|198:41,1,200,0|0,1:2|0:0,0:0:0:0:
116,32,45872,1,0,0:0:0:0:
72,122,46317,6,0,P|28:201|48:311,1,200,0|4,1:0|0:0,0:0:0:0:
139,276,47650,1,0,0:0:0:0:
239,276,48094,2,0,L|331:328,1,100,0|4,1:0|0:0,0:0:0:0:
423,344,48983,1,0,0:0:0:0:
512,296,49428,1,0,0:0:0:0:
472,204,49872,6,0,P|516:125|496:15,1,200,2|0,1:3|0:0,0:0:0:0:
400,40,51206,1,0,0:0:0:0:
320,100,51650,2,0,P|226:83|131:124,1,200,0|0,1:2|0:0,0:0:0:0:
40,88,52983,1,0,0:0:0:0:
20,186,53428,2,0,P|25:209|159:339,1,200,2|0,0:0|0:0,0:0:0:0:
193,248,54761,1,0,0:0:0:0:
134,168,55206,2,0,P|273:151|437:221,1,300,0|0,1:0|0:0,0:0:0:0:
488,304,56983,6,0,P|518:216|485:106,1,200,4|2,1:2|0:2,0:0:0:0:
405,64,58317,1,2,0:0:0:0:
321,118,58761,1,2,1:2:0:0:
237,63,59206,2,0,P|157:39|124:45,1,100,2|2,0:0|0:0,0:0:0:0:
50,79,60094,1,0,0:0:0:0:
2,167,60539,6,0,L|59:360,1,200,2|4,1:2|0:0,0:0:0:0:
146,311,61872,1,0,0:0:0:0:
237,351,62317,1,0,1:0:0:0:
318,292,62761,2,0,L|435:274,2,100
229,245,64094,6,0,P|155:180|125:86,1,200,4|2,1:2|0:2,0:0:0:0:
214,40,65428,1,2,0:0:0:0:
291,103,65872,1,0,0:0:0:0:
360,31,66317,1,0,0:0:0:0:
433,99,66761,1,2,0:0:0:0:
504,169,67206,1,0,0:0:0:0:
491,268,67650,2,0,P|450:307|307:329,1,200
125,262,69428,2,0,P|76:166|90:64,1,200
283,57,71206,6,0,P|378:22|464:63,1,200,4|2,1:2|0:2,0:0:0:0:
471,161,72539,1,2,0:0:0:0:
404,235,72983,1,2,1:2:0:0:
332,165,73428,1,2,0:0:0:0:
264,239,73872,1,2,0:2:0:0:
179,186,74317,1,2,0:0:0:0:
79,192,74761,6,0,P|29:112|70:2,1,200,2|2,1:2|0:2,0:0:0:0:
134,96,76094,1,2,0:0:0:0:
168,190,76539,2,0,P|277:216|362:164,1,200,2|0,1:2|0:0,0:0:0:0:
494,37,78317,5,4,1:3:0:0:
257,94,79206,1,2,0:2:0:0:
169,150,79650,1,2,0:0:0:0:
169,246,80094,1,2,1:2:0:0:
257,302,80539,1,2,0:0:0:0:
344,246,80983,1,2,1:2:0:0:
344,146,81428,1,2,0:0:0:0:
256,192,81872,12,4,85428,0:0:0:0:
