osu file format v14

[General]
AudioFilename: audio.mp3
AudioLeadIn: 0
PreviewTime: 13290
Countdown: 0
SampleSet: Soft
StackLeniency: 0.7
Mode: 3
LetterboxInBreaks: 0
SpecialStyle: 0
WidescreenStoryboard: 1

[Editor]
Bookmarks: 10,4501,5360,5743,12239,13271,13366,35169,39951,48441
DistanceSpacing: 1
BeatDivisor: 4
GridSize: 8
TimelineZoom: 1.5

[Metadata]
Title:Dead Music
TitleUnicode:デッド・ミュージック
Artist:Uematsu Nobuo
ArtistUnicode:植松伸夫
Creator:tatatat
Version:Normal
Source:ファイナルファンタジー
Tags:Final Fantasy I Square Co., Ltd. RPG Death Game Over
BeatmapID:1462898
BeatmapSetID:691273

[Difficulty]
HPDrainRate:6.5
CircleSize:5
OverallDifficulty:6.5
ApproachRate:5
SliderMultiplier:1.4
SliderTickRate:1

[Events]
//Background and Video events
0,0,"final-fantasy-logo-wallpaper-004.jpg",0,0
//Break Periods
//Storyboard Layer 0 (Background)
//Storyboard Layer 1 (Fail)
//Storyboard Layer 2 (Pass)
//Storyboard Layer 3 (Foreground)
//Storyboard Sound Samples

[TimingPoints]
2274,754.716981132075,4,2,1,20,1,0
13083,754.716981132075,4,2,1,20,1,0
14592,754.716981132075,4,2,1,20,1,0
27432,754.716981132075,4,2,1,20,1,0
28941,754.716981132075,4,2,1,20,1,0
39763,754.716981132075,4,2,1,20,1,0
41272,754.716981132075,4,2,1,20,1,0

[HitObjects]
32,192,764,5,2,0:0:0:0:
160,192,1141,1,2,0:0:0:0:
256,192,1519,1,2,0:0:0:0:
358,192,1896,1,2,0:0:0:0:
256,192,2274,128,0,3406:0:0:0:0:
460,192,2274,1,8,0:0:0:0:
358,192,3406,1,0,0:0:0:0:
51,192,3783,128,0,4538:0:0:0:0:
153,192,3783,1,8,0:0:0:0:
460,192,4538,1,0,0:0:0:0:
153,192,4915,1,0,0:0:0:0:
256,192,5292,1,0,0:0:0:0:
51,192,5292,1,8,0:0:0:0:
358,192,5670,1,0,0:0:0:0:
153,192,6047,1,0,0:0:0:0:
256,192,6424,1,0,0:0:0:0:
153,192,6802,1,8,0:0:0:0:
358,192,6802,128,0,8311:0:0:0:0:
256,192,8311,128,0,9443:0:0:0:0:
460,192,8311,1,8,0:0:0:0:
358,192,9443,1,0,0:0:0:0:
51,192,9821,128,0,10575:0:0:0:0:
153,192,9821,1,8,0:0:0:0:
153,192,10575,1,0,0:0:0:0:
460,192,10953,1,0,0:0:0:0:
358,192,11330,1,0,0:0:0:0:
256,192,11330,1,8,0:0:0:0:
51,192,11707,1,0,0:0:0:0:
460,192,12085,128,0,13083:0:0:0:0:
51,192,13366,1,2,0:0:0:0:
153,192,13837,1,2,0:0:0:0:
256,192,14215,1,2,0:0:0:0:
460,192,14592,1,8,0:0:0:0:
358,192,14592,128,0,15724:0:0:0:0:
256,192,15724,1,0,0:0:0:0:
51,192,16101,128,0,16856:0:0:0:0:
153,192,16101,1,8,0:0:0:0:
460,192,16856,1,0,0:0:0:0:
358,192,17233,1,0,0:0:0:0:
51,192,17610,1,8,0:0:0:0:
256,192,17610,1,0,0:0:0:0:
358,192,17988,1,0,0:0:0:0:
256,192,18365,1,0,0:0:0:0:
153,192,18742,1,0,0:0:0:0:
256,192,19120,1,8,0:0:0:0:
51,192,19120,128,0,19875:0:0:0:0:
153,192,19875,1,0,0:0:0:0:
256,192,20252,1,0,0:0:0:0:
153,192,20629,1,8,0:0:0:0:
358,192,20629,128,0,21761:0:0:0:0:
256,192,21761,1,0,0:0:0:0:
51,192,22139,1,8,0:0:0:0:
358,192,22139,128,0,22893:0:0:0:0:
153,192,22893,1,0,0:0:0:0:
256,192,23271,1,0,0:0:0:0:
153,192,23648,1,8,0:0:0:0:
51,192,23648,128,0,26667:0:0:0:0:
460,192,25158,128,0,26667:0:0:0:0:
32,192,27432,5,2,0:0:0:0:
160,192,27809,1,2,0:0:0:0:
256,192,28186,1,2,0:0:0:0:
358,192,28564,1,2,0:0:0:0:
256,192,28941,128,0,30073:0:0:0:0:
460,192,28941,1,8,0:0:0:0:
358,192,30073,1,0,0:0:0:0:
153,192,30450,1,8,0:0:0:0:
51,192,30450,128,0,31205:0:0:0:0:
460,192,31205,1,0,0:0:0:0:
256,192,31582,1,0,0:0:0:0:
51,192,31959,1,8,0:0:0:0:
153,192,31959,128,0,33469:0:0:0:0:
256,192,33469,1,8,0:0:0:0:
460,192,33469,1,0,0:0:0:0:
358,192,33846,1,0,0:0:0:0:
256,192,34224,1,0,0:0:0:0:
153,192,34601,1,0,0:0:0:0:
460,192,34978,1,8,0:0:0:0:
256,192,34978,128,0,36110:0:0:0:0:
358,192,36110,1,0,0:0:0:0:
153,192,36488,1,8,0:0:0:0:
51,192,36488,128,0,37242:0:0:0:0:
256,192,37242,1,0,0:0:0:0:
460,192,37620,1,0,0:0:0:0:
358,192,37997,1,0,0:0:0:0:
256,192,37997,1,8,0:0:0:0:
153,192,38374,1,0,0:0:0:0:
256,192,38752,128,0,39763:0:0:0:0:
51,192,40046,1,2,0:0:0:0:
153,192,40517,1,2,0:0:0:0:
256,192,40895,1,2,0:0:0:0:
460,192,41272,128,0,42781:0:0:0:0:
51,192,41272,1,8,0:0:0:0:
153,192,42781,1,8,0:0:0:0:
358,192,42781,1,0,0:0:0:0:
256,192,43158,1,0,0:0:0:0:
153,192,43536,1,0,0:0:0:0:
51,192,43913,1,0,0:0:0:0:
358,192,44290,1,8,0:0:0:0:
153,192,44290,128,0,45800:0:0:0:0:
51,192,45800,1,8,0:0:0:0:
460,192,45800,1,0,0:0:0:0:
358,192,46177,1,0,0:0:0:0:
256,192,46555,1,0,0:0:0:0:
153,192,46932,1,0,0:0:0:0:
256,192,47309,1,8,0:0:0:0:
51,192,47309,128,0,48819:0:0:0:0:
153,192,48819,1,8,0:0:0:0:
358,192,48819,128,0,49573:0:0:0:0:
153,192,49573,1,0,0:0:0:0:
256,192,49951,1,0,0:0:0:0:
153,192,50328,1,8,0:0:0:0:
51,192,50328,128,0,53347:0:0:0:0:
460,192,50328,1,0,0:0:0:0:
358,192,50705,1,0,0:0:0:0:
153,192,51083,1,0,0:0:0:0:
256,192,51460,1,0,0:0:0:0:
460,192,51838,128,0,53347:0:0:0:0:
