osu file format v14

[General]
AudioFilename: audio.mp3
AudioLeadIn: 0
PreviewTime: 305193
Countdown: 0
SampleSet: Soft
StackLeniency: 0.7
Mode: 0
LetterboxInBreaks: 0
WidescreenStoryboard: 1

[Editor]
DistanceSpacing: 0.9
BeatDivisor: 4
GridSize: 32
TimelineZoom: 1.8

[Metadata]
Title:Irony
TitleUnicode:Irony
Artist:Uema Emi
ArtistUnicode:上間江望
Creator:Hanakumo Rin
Version:Hard
Source:NOeSIS 歌う影の戯曲
Tags:dog food dahkjdas garden Misure NOeSIS03 Utau Kage no Gikyoku cutlass visual novel ending japanese video game rock 仄かな旋律の記憶 Honoka na Senritsu no Kioku japanese rock jrock pop jpop female vocals visual novel vn video game
BeatmapID:3721351
BeatmapSetID:1813945

[Difficulty]
HPDrainRate:4
CircleSize:3.8
OverallDifficulty:6.2
ApproachRate:8
SliderMultiplier:1.5
SliderTickRate:1

[Events]
//Background and Video events
0,0,"velia xiao mei mei.jpg",0,0
//Break Periods
2,201518,211938
2,297518,311938
//Storyboard Layer 0 (Background)
//Storyboard Layer 1 (Fail)
//Storyboard Layer 2 (Pass)
//Storyboard Layer 3 (Foreground)
//Storyboard Layer 4 (Overlay)
//Storyboard Sound Samples

[TimingPoints]
23235,952.380952380952,4,2,3,30,1,0
79425,1132.07547169811,4,2,3,30,1,0
79991,1578.94736842105,4,2,3,30,1,0
80780,1020.40816326531,4,2,3,30,1,0
88943,500,4,2,3,30,1,0
89318,500,4,2,3,40,1,0
105318,-142.857142857143,4,2,3,40,0,0
106693,-142.857142857143,4,2,3,60,0,0
107318,-90.9090909090909,4,2,3,70,0,0
115318,-100,4,2,3,55,0,0
131318,-100,4,2,3,60,0,0
135318,-100,4,2,3,65,0,0
163693,-100,4,2,3,55,0,0
165318,-83.3333333333333,4,2,3,75,0,1
181318,-74.0740740740741,4,2,3,80,0,1
200818,-100,4,2,3,80,0,0
214693,-100,4,2,3,80,0,0
215318,-100,4,2,3,55,0,0
231318,-100,4,2,3,60,0,0
265318,-90.9090909090909,4,2,3,70,0,0
281318,-100,4,2,3,60,0,0
305318,-100,4,2,3,45,0,0
312318,-100,4,2,3,40,0,0
313318,-100,4,2,3,65,0,0
315318,-100,4,2,3,45,0,0
315818,-83.3333333333333,4,2,3,85,0,1
316193,-83.3333333333333,4,2,3,75,0,1
331318,-74.0740740740741,4,2,3,80,0,1
351318,-90.9090909090909,4,2,3,80,0,0
353318,-90.9090909090909,4,2,3,50,0,0
355318,-90.9090909090909,4,2,3,20,0,0

[Colours]
Combo1 : 128,128,255
Combo2 : 0,128,128

[HitObjects]
59,65,88943,6,0,P|52:46|44:30,2,37.5,2|0|0,0:0|0:0|0:0,0:0:0:0:
132,108,89318,2,0,P|96:166|98:251,1,150,6|0,0:0|0:0,0:0:0:0:
58,359,90068,1,0,0:0:0:0:
58,359,90193,2,0,P|111:337|172:327,1,112.5,2|0,0:0|0:0,0:0:0:0:
242,283,90818,2,0,P|267:314|315:322,1,75,2|2,0:0|0:3,0:0:0:0:
370,384,91318,6,0,P|387:317|403:246,1,112.5,2|0,0:0|0:0,0:0:0:0:
476,267,91818,2,0,P|469:218|466:186,1,75
397,158,92193,1,2,0:0:0:0:
503,78,92568,2,0,P|521:36|509:6,1,75
425,14,92943,2,0,L|382:1,2,37.5,0|2|2,0:0|0:0|0:0,0:0:0:0:
381,82,93318,6,0,P|348:122|244:115,1,150,2|0,0:0|0:0,0:0:0:0:
154,131,94068,1,0,0:0:0:0:
154,131,94193,2,0,P|182:70|189:11,1,112.5,2|0,0:0|0:0,0:0:0:0:
44,0,94818,2,0,P|64:28|78:73,1,75
35,140,95193,5,2,0:0:0:0:
44,145,95318,2,0,L|78:312,1,150,2|0,0:0|0:0,0:0:0:0:
142,377,96068,1,0,0:0:0:0:
142,377,96193,2,0,P|189:338|253:330,1,112.5,2|0,0:0|0:0,0:0:0:0:
311,272,96818,1,2,0:0:0:0:
388,331,97068,5,0,0:0:0:0:
394,321,97193,1,0,0:0:0:0:
391,309,97318,2,0,P|413:226|429:153,1,150,2|0,0:0|0:0,0:0:0:0:
499,87,98068,1,0,0:0:0:0:
499,87,98193,2,0,P|489:33|421:13,1,112.5,2|0,0:0|0:0,0:0:0:0:
359,56,98818,2,0,P|319:49|287:33,1,75
208,84,99318,6,0,P|154:59|62:44,1,150,2|0,0:0|0:0,0:0:0:0:
96,169,100068,1,0,0:0:0:0:
96,169,100193,2,0,P|136:191|139:257,1,112.5,2|0,0:0|0:0,0:0:0:0:
76,333,100818,2,0,P|114:344|149:361,1,75
217,305,101193,5,2,0:0:0:0:
229,307,101318,2,0,P|274:296|327:251,2,112.5,2|0|0,0:0|0:0|0:0,0:0:0:0:
141,252,102318,2,0,P|124:179|101:103,1,150,2|0,0:0|0:0,0:0:0:0:
228,34,103318,5,2,0:0:0:0:
228,34,103443,2,0,P|263:34|306:71,1,75,0|2,0:0|0:0,0:0:0:0:
381,168,104068,2,0,P|424:169|482:90,1,150,2|2,0:3|0:3,0:0:0:0:
395,84,104818,1,2,0:0:0:0:
395,84,105318,6,2,B|339:110|307:208|370:278|370:278|399:234|367:186,1,314.999990386963,2|14,0:1|0:0,0:1:0:0:
232,234,107068,5,8,0:0:0:0:
248,188,107193,1,8,0:0:0:0:
209,154,107318,2,0,P|152:155|99:94,1,123.75000377655,6|0,3:1|0:0,0:0:0:0:
19,96,107818,2,0,P|38:47|53:-2,1,82.5000025177003,10|0,0:0|0:0,0:0:0:0:
155,1,108193,2,0,P|195:0|231:25,1,82.5000025177003,0|8,3:0|0:0,0:0:0:0:
276,91,108568,1,0,3:0:0:0:
391,19,108818,2,0,P|447:1|491:2,1,82.5000025177003,10|0,0:0|0:0,0:0:0:0:
452,87,109193,1,0,1:2:0:0:
461,96,109318,6,0,L|453:151,1,41.2500012588501,2|0,3:2|0:0,0:0:0:0:
380,222,109568,2,0,P|370:199|365:172,1,41.2500012588501,0|0,3:0|0:0,0:0:0:0:
290,140,109818,1,10,0:0:0:0:
221,251,110068,2,0,P|176:247|108:179,1,123.75000377655,2|8,0:0|0:0,0:0:0:0:
43,151,110568,2,0,P|35:170|29:189,1,41.2500012588501,0|0,3:2|0:0,0:0:0:0:
158,108,110818,2,0,P|165:88|171:69,1,41.2500012588501,10|0,0:0|0:0,0:0:0:0:
112,11,111068,1,2,3:2:0:0:
255,118,111318,6,0,P|299:122|341:80,1,82.5000025177003,14|0,0:0|3:0,0:0:0:0:
423,111,111693,2,0,P|404:50|392:16,1,82.5000025177003,14|0,0:0|3:0,0:0:0:0:
475,180,112068,2,0,P|511:191|469:183,1,165.000005035401,14|0,0:0|1:0,0:0:0:0:
383,239,112693,1,0,1:0:0:0:
369,246,112818,2,0,L|357:309,1,41.2500012588501,10|0,0:0|3:0,0:0:0:0:
361,286,113318,6,0,B|279:286|183:373|183:373|228:320|229:254,1,330.000010070801,6|2,3:2|0:3,0:0:0:0:
90,234,114693,6,0,L|100:268,2,20.6250006294251,0|0|10,1:0|1:0|0:0,0:0:0:0:
89,186,114943,1,8,0:0:0:0:
132,160,115068,1,4,0:3:0:0:
307,17,115318,6,0,P|338:56|402:51,1,112.5,6|0,3:2|0:0,0:0:0:0:
465,106,115818,2,0,P|481:172|486:193,1,75,8|0,0:0|0:0,0:0:0:0:
439,302,116318,2,0,P|381:275|314:277,1,112.5,2|0,0:0|0:0,0:0:0:0:
254,299,116818,2,0,L|226:390,1,75,10|0,0:0|0:0,0:0:0:0:
156,315,117193,5,0,0:0:0:0:
147,322,117318,2,0,P|116:344|68:341,1,75,2|0,3:2|3:0,0:0:0:0:
109,225,117818,2,0,P|92:154|84:105,1,112.5,10|0,0:0|3:0,0:0:0:0:
28,52,118318,2,0,P|78:37|107:31,1,75,0|0,0:0|3:0,0:0:0:0:
225,44,118818,1,8,0:0:0:0:
225,44,118943,2,0,P|240:4|241:-15,2,37.5,2|2|2,0:0|0:0|0:0,0:0:0:0:
290,113,119318,6,0,P|338:172|352:252,1,150,2|8,3:2|0:0,0:0:0:0:
445,340,120068,1,0,0:0:0:0:
445,340,120193,1,2,3:2:0:0:
445,340,120318,2,0,P|493:328|515:295,1,75,0|0,0:0|3:2,0:0:0:0:
346,329,120818,2,0,L|269:357,1,75,8|0,0:0|0:0,0:0:0:0:
188,312,121193,5,0,0:0:0:0:
196,308,121318,2,0,P|212:262|207:231,1,75,2|0,3:2|3:0,0:0:0:0:
166,127,121818,2,0,P|220:142|274:157,1,112.5,10|0,0:0|3:0,0:0:0:0:
338,209,122318,2,0,P|357:169|355:125,1,75,0|0,0:0|3:0,0:0:0:0:
440,87,122818,1,8,0:0:0:0:
363,22,123068,5,2,3:2:0:0:
363,22,123193,1,10,0:0:0:0:
363,22,123318,2,0,P|301:37|245:52,1,112.5,6|0,3:2|0:0,0:0:0:0:
191,106,123818,2,0,P|143:89|124:69,1,75,8|0,0:0|0:0,0:0:0:0:
60,0,124193,2,0,P|42:73|30:125,1,112.5,2|0,3:2|3:0,0:0:0:0:
83,209,124818,2,0,P|99:254|85:283,1,75,8|0,0:0|0:0,0:0:0:0:
18,339,125193,5,0,1:0:0:0:
28,346,125318,2,0,P|64:354|110:367,1,75,2|0,3:2|3:0,0:0:0:0:
204,294,125818,2,0,P|239:306|279:315,1,75,10|0,0:0|0:0,0:0:0:0:
341,378,126193,2,0,P|363:315|356:248,1,112.5,2|0,3:2|3:2,0:0:0:0:
292,204,126818,1,10,0:0:0:0:
355,137,127068,5,2,0:3:0:0:
355,137,127193,1,0,0:0:0:0:
355,137,127318,2,0,P|390:150|426:161,1,75,6|0,3:2|3:0,0:0:0:0:
505,88,127818,2,0,P|461:68|403:60,1,75,10|2,0:0|0:0,0:0:0:0:
367,10,128193,2,0,P|314:19|275:78,1,112.5,2|2,3:2|3:2,0:0:0:0:
191,143,128818,2,0,L|172:67,1,75,10|2,0:0|0:3,0:0:0:0:
89,17,129193,5,0,1:0:0:0:
80,26,129318,2,0,P|68:63|79:106,1,75,6|0,3:2|3:2,0:0:0:0:
69,190,129818,2,0,P|126:176|183:162,1,112.5,10|0,0:0|3:0,0:0:0:0:
237,223,130318,1,10,0:0:0:0:
269,203,130443,1,8,0:0:0:0:
313,214,130568,2,0,L|329:257,1,37.5,0|8,3:0|0:0,0:0:0:0:
381,326,130818,5,10,0:0:0:0:
415,339,130943,1,0,3:0:0:0:
450,328,131068,1,8,0:0:0:0:
470,297,131193,1,8,0:0:0:0:
466,261,131318,1,6,3:2:0:0:
399,196,131568,1,0,3:0:0:0:
474,142,131818,1,10,0:0:0:0:
405,94,132068,1,10,0:0:0:0:
405,94,132193,1,10,0:0:0:0:
115,283,133318,5,6,3:2:0:0:
48,218,133568,1,0,3:0:0:0:
123,164,133818,1,10,0:0:0:0:
54,116,134068,1,10,0:0:0:0:
54,116,134193,1,10,0:0:0:0:
199,5,134568,6,0,B|205:21|205:21|187:45|185:79,1,75,2|8,3:0|0:0,0:0:0:0:
234,212,135318,6,0,P|264:190|301:191,1,75,6|0,3:2|0:0,0:0:0:0:
423,161,135818,2,0,P|445:111|436:45,1,112.5,10|8,0:0|0:0,0:0:0:0:
367,7,136318,2,0,P|307:22|283:26,1,75,6|0,3:2|3:0,0:0:0:0:
224,102,136818,2,0,P|187:97|157:69,1,75,10|2,0:0|0:0,0:0:0:0:
96,13,137193,5,8,0:0:0:0:
82,24,137318,2,0,P|72:57|60:95,1,75,6|0,3:2|3:2,0:0:0:0:
4,215,137818,2,0,P|43:196|79:197,1,75,10|0,0:0|0:0,0:0:0:0:
138,255,138193,2,0,P|167:295|236:305,1,112.5,2|0,3:2|3:2,0:0:0:0:
312,372,138818,2,0,P|327:310|332:286,1,75,10|0,0:0|3:2,0:0:0:0:
392,230,139193,2,0,L|386:211,2,18.75,0|0|6,1:0|1:0|3:2,0:0:0:0:
492,176,139568,5,2,3:0:0:0:
431,105,139818,2,0,P|383:99|348:80,1,75,10|2,0:0|0:3,0:0:0:0:
288,144,140193,2,0,P|271:98|277:27,1,112.5,2|2,3:2|3:0,0:0:0:0:
144,9,140818,2,0,L|160:93,1,75,10|2,0:0|0:3,0:0:0:0:
137,165,141193,5,0,1:0:0:0:
129,175,141318,2,0,P|90:198|56:198,1,75,2|2,3:2|3:0,0:0:0:0:
200,292,141818,2,0,P|239:269|273:269,1,75,8|2,0:0|0:3,0:0:0:0:
356,306,142193,2,0,B|345:256|335:195,1,112.5,2|2,3:2|3:0,0:0:0:0:
427,140,142818,1,10,0:0:0:0:
336,69,143068,1,2,0:3:0:0:
240,123,143318,6,0,B|217:147|217:147|158:145|107:192,1,150,6|10,3:2|0:0,0:0:0:0:
15,295,144068,1,2,1:3:0:0:
15,295,144193,2,0,P|62:293|116:340,1,112.5,2|2,3:2|3:0,0:0:0:0:
197,375,144818,2,0,P|216:329|214:298,1,75,10|2,0:0|3:0,0:0:0:0:
303,227,145318,6,0,P|343:193|406:195,1,112.5,6|10,3:2|0:0,0:0:0:0:
493,39,146068,2,0,B|456:55|456:55|426:30|377:32,1,112.5,6|8,3:2|0:0,0:0:0:0:
320,79,146568,1,0,3:0:0:0:
210,35,146818,2,0,P|178:13|133:17,1,75,8|0,0:0|3:0,0:0:0:0:
65,58,147193,5,2,0:0:0:0:
68,69,147318,2,0,P|50:131|42:168,1,75,6|0,3:2|0:0,0:0:0:0:
0,274,147818,2,0,P|50:240|109:253,1,112.5,10|0,0:0|1:0,0:0:0:0:
166,302,148318,2,0,P|151:361|144:390,1,75,2|0,3:2|3:0,0:0:0:0:
254,315,148818,1,10,0:0:0:0:
337,365,149068,5,2,0:0:0:0:
337,365,149193,1,2,0:0:0:0:
337,365,149318,2,0,P|385:362|416:306,1,112.5,6|2,3:2|3:2,0:0:0:0:
505,198,150068,2,0,B|474:208|474:208|430:175|387:182|387:182|348:157,1,150,6|0,1:2|3:2,0:0:0:0:
243,131,150818,2,0,P|223:83|227:49,1,75,8|2,0:0|0:0,0:0:0:0:
301,20,151193,2,0,L|291:-10,2,18.75,0|0|6,1:0|1:0|3:2,0:0:0:0:
256,221,151818,6,0,P|192:263|146:262,1,112.5,10|0,0:0|1:0,0:0:0:0:
90,323,152318,2,0,P|77:278|69:247,1,75,2|0,3:2|3:2,0:0:0:0:
0,169,152818,1,10,0:0:0:0:
70,92,153068,5,2,0:0:0:0:
70,92,153193,1,2,0:0:0:0:
70,92,153318,2,0,P|124:108|184:120,1,112.5,6|2,3:2|3:2,0:0:0:0:
308,20,154068,2,0,P|348:24|383:91,1,112.5,14|8,0:0|0:0,0:0:0:0:
329,149,154568,1,0,3:2:0:0:
428,216,154818,2,0,P|475:206|507:184,1,75,10|2,0:0|3:2,0:0:0:0:
449,363,155318,6,0,P|395:323|315:318,1,150,6|10,3:2|0:2,0:0:0:0:
192,360,156068,1,2,0:0:0:0:
192,360,156193,2,0,P|223:304|221:222,1,112.5,6|0,3:2|3:0,0:0:0:0:
296,168,156818,2,0,P|325:205|333:235,1,75,8|2,0:0|0:0,0:0:0:0:
227,256,157193,5,2,0:0:0:0:
218,262,157318,2,0,P|145:252|106:191,1,150,6|10,3:2|0:0,0:0:0:0:
190,15,158193,2,0,P|218:41|221:89,1,75,6|8,3:2|0:0,0:0:0:0:
185,157,158568,1,2,3:2:0:0:
317,132,158818,2,0,P|370:119|399:112,1,75,10|0,0:0|3:0,0:0:0:0:
469,157,159193,5,0,1:0:0:0:
479,162,159318,2,0,P|504:227|472:309,1,150,6|8,3:2|0:0,0:0:0:0:
370,380,160068,1,0,1:0:0:0:
370,380,160193,1,0,1:0:0:0:
370,380,160318,2,0,P|386:298|401:231,1,150,6|8,3:2|0:0,0:0:0:0:
331,159,161068,5,2,1:2:0:0:
331,159,161193,1,2,1:2:0:0:
331,159,161318,2,0,B|284:173|284:173|241:140|187:131,1,150,6|8,3:2|0:0,0:0:0:0:
96,85,162068,1,0,0:0:0:0:
96,85,162193,2,0,P|80:25|81:1,1,75,0|8,3:2|0:0,0:0:0:0:
175,42,162568,1,0,3:2:0:0:
253,4,162818,1,8,0:0:0:0:
312,55,163068,1,2,3:2:0:0:
425,9,163318,5,10,0:0:0:0:
431,19,163443,1,10,0:0:0:0:
417,99,163693,1,14,0:0:0:0:
487,144,163943,1,10,0:0:0:0:
481,158,164068,1,14,0:0:0:0:
16,181,165318,6,0,L|26:130,1,44.999998626709,6|0,3:1|0:0,0:0:0:0:
134,63,165568,2,0,L|123:107,1,44.999998626709,0|0,3:2|0:0,0:0:0:0:
172,182,165818,2,0,P|206:214|263:212,1,89.9999972534181,10|0,0:0|0:0,0:0:0:0:
309,296,166193,2,0,P|334:240|339:152,1,134.999995880127,2|2,3:2|3:2,0:0:0:0:
479,105,166818,2,0,P|445:91|426:73,1,44.999998626709,10|0,0:0|0:0,0:0:0:0:
392,2,167068,1,2,3:2:0:0:
259,83,167318,6,0,L|248:136,1,44.999998626709,2|0,3:2|0:0,0:0:0:0:
340,167,167568,2,0,L|329:220,1,44.999998626709,0|0,3:0|1:0,0:0:0:0:
230,330,167818,2,0,P|211:290|220:241,1,89.9999972534181,10|2,0:0|0:0,0:0:0:0:
334,310,168193,2,0,P|398:328|463:345,1,134.999995880127,2|0,3:2|3:2,0:0:0:0:
406,239,168818,1,10,0:0:0:0:
475,173,169068,1,2,3:2:0:0:
377,99,169318,6,0,P|343:90|306:68,1,44.999998626709,6|0,3:2|0:0,0:0:0:0:
247,132,169568,2,0,L|231:75,1,44.999998626709,0|2,3:0|0:0,0:0:0:0:
112,23,169818,2,0,L|138:109,1,89.9999972534181,10|0,0:0|0:0,0:0:0:0:
106,190,170193,2,0,P|73:220|15:209,1,89.9999972534181,2|8,3:2|0:0,0:0:0:0:
4,139,170568,1,2,3:2:0:0:
125,66,170818,2,0,P|184:49|209:34,1,89.9999972534181,10|0,0:0|3:0,0:0:0:0:
293,53,171193,5,2,0:0:0:0:
301,56,171318,2,0,P|327:78|333:109,1,44.999998626709,2|0,3:2|0:0,0:0:0:0:
424,106,171568,2,0,P|417:139|394:160,1,44.999998626709,0|0,3:0|0:0,0:0:0:0:
327,205,171818,2,0,P|309:251|309:311,1,89.9999972534181,10|0,0:0|0:0,0:0:0:0:
381,378,172193,2,0,P|404:316|408:255,1,89.9999972534181,2|8,3:2|0:0,0:0:0:0:
471,236,172568,1,0,3:2:0:0:
399,157,172818,1,10,0:0:0:0:
502,106,173068,5,6,3:2:0:0:
490,61,173193,1,8,0:0:0:0:
446,43,173318,2,0,L|395:63,1,44.999998626709,6|0,3:2|0:0,0:0:0:0:
299,51,173568,2,0,L|282:6,1,44.999998626709,0|2,3:0|0:0,0:0:0:0:
201,99,173818,2,0,P|226:128|225:186,1,89.9999972534181,10|0,0:0|0:0,0:0:0:0:
190,266,174193,2,0,P|114:287|54:325,1,134.999995880127,2|2,3:2|3:2,0:0:0:0:
165,362,174818,1,10,0:0:0:0:
263,325,175068,1,0,3:0:0:0:
367,363,175318,6,0,P|411:355|440:319,1,89.9999972534181,6|0,3:2|3:0,0:0:0:0:
490,189,175818,2,0,P|468:113|455:49,1,134.999995880127,14|0,0:0|1:0,0:0:0:0:
387,7,176318,2,0,P|375:49|373:95,1,89.9999972534181,6|0,3:2|3:0,0:0:0:0:
271,176,176818,2,2,P|206:161|166:106,1,134.999995880127,14|0,0:0|0:1,0:1:0:0:
66,71,177318,6,0,L|84:167,1,89.9999972534181,6|0,3:2|0:0,0:0:0:0:
20,244,177818,1,10,0:0:0:0:
110,305,178068,1,2,0:0:0:0:
110,305,178193,2,0,P|151:283|237:268,1,134.999995880127,2|2,3:2|3:2,0:0:0:0:
302,342,178818,1,10,0:0:0:0:
386,293,179068,1,2,3:2:0:0:
314,204,179318,6,0,P|317:154|341:112,1,89.9999972534181,6|0,3:2|3:0,0:0:0:0:
481,11,179818,2,0,P|439:39|384:32,1,89.9999972534181,10|0,0:0|3:0,0:0:0:0:
315,5,180193,2,0,L|220:30,1,89.9999972534181,14|8,0:0|0:0,0:0:0:0:
147,2,180568,1,2,1:0:0:0:
10,114,180818,5,10,0:0:0:0:
17,157,180943,1,8,0:0:0:0:
52,184,181068,1,8,0:0:0:0:
96,182,181193,1,8,0:0:0:0:
138,163,181318,2,0,P|138:137|154:107,1,50.6250001931191,6|0,3:1|0:0,0:0:0:0:
224,221,181568,2,0,L|208:284,1,50.6250001931191,8|0,0:0|0:0,0:0:0:0:
207,373,181818,6,0,P|248:341|297:349,1,101.250000386238,2|8,3:2|0:0,0:0:0:0:
383,370,182193,2,0,P|443:378|472:293,1,151.875000579357,2|10,3:2|0:0,0:0:0:0:
381,237,182818,1,2,3:2:0:0:
464,151,183068,1,10,0:0:0:0:
369,95,183318,6,0,P|355:60|353:32,1,50.6250001931191,6|0,3:2|0:0,0:0:0:0:
238,5,183568,2,0,L|253:61,1,50.6250001931191,8|0,0:0|0:0,0:0:0:0:
200,132,183818,2,0,P|164:160|100:157,1,101.250000386238,2|8,3:2|0:0,0:0:0:0:
30,103,184193,2,0,B|15:141|15:141|38:204|11:262,1,151.875000579357,6|8,3:2|0:0,0:0:0:0:
66,339,184818,1,2,3:2:0:0:
158,291,185068,1,10,0:0:0:0:
245,354,185318,6,0,P|293:351|323:296,1,101.250000386238,6|8,3:2|0:0,0:0:0:0:
476,349,185818,2,0,P|456:295|450:269,1,50.6250001931191,2|0,3:2|0:0,0:0:0:0:
407,231,186068,1,8,0:0:0:0:
407,231,186193,2,0,P|403:151|429:111,1,101.250000386238,6|0,3:2|3:0,0:0:0:0:
485,89,186568,1,8,0:0:0:0:
378,22,186818,1,2,3:2:0:0:
328,0,186943,1,0,3:0:0:0:
280,22,187068,1,10,0:0:0:0:
182,74,187318,6,0,P|132:64|77:45,1,101.250000386238,6|8,3:2|0:0,0:0:0:0:
121,184,187818,2,0,P|106:237|100:287,1,101.250000386238,6|8,3:2|0:0,0:0:0:0:
73,361,188193,2,2,P|136:365|190:285,1,151.875000579357,6|10,3:2|0:0,0:1:0:0:
265,204,188818,2,0,P|273:228|282:251,1,50.6250001931191,2|0,3:2|3:0,0:0:0:0:
341,311,189068,1,10,0:0:0:0:
482,223,189318,6,0,P|439:192|389:192,1,101.250000386238,6|8,3:2|0:0,0:0:0:0:
282,116,189818,2,0,L|337:96,1,50.6250001931191,2|0,3:2|3:0,0:0:0:0:
336,0,190068,2,0,L|288:17,1,50.6250001931191,8|0,0:0|0:0,0:0:0:0:
194,1,190318,2,0,P|155:34|103:38,1,101.250000386238,6|8,3:2|0:0,0:0:0:0:
20,124,190818,1,2,3:2:0:0:
31,168,190943,1,0,3:0:0:0:
47,210,191068,1,8,0:0:0:0:
127,309,191318,5,6,3:2:0:0:
207,256,191568,1,10,0:0:0:0:
295,321,191818,2,0,P|309:269|312:251,1,50.6250001931191,2|0,3:2|3:0,0:0:0:0:
377,214,192068,1,8,0:0:0:0:
377,214,192193,2,0,P|384:151|360:111,1,101.250000386238,6|0,3:2|3:0,0:0:0:0:
297,69,192568,1,10,0:0:0:0:
230,137,192818,1,0,3:0:0:0:
186,143,192943,1,0,3:0:0:0:
151,113,193068,1,10,0:0:0:0:
52,127,193318,6,0,P|73:64|81:22,1,101.250000386238,6|8,3:2|0:0,0:0:0:0:
192,0,193818,1,0,3:0:0:0:
192,0,193943,1,0,3:0:0:0:
274,72,194193,2,0,P|328:73|370:4,1,101.250000386238,14|0,0:0|3:0,0:0:0:0:
434,0,194568,1,10,0:0:0:0:
480,130,194818,1,0,3:0:0:0:
468,177,194943,1,0,3:0:0:0:
455,216,195068,2,0,L|471:269,1,50.6250001931191,10|2,0:0|0:0,0:0:0:0:
460,367,195318,6,0,P|416:337|364:342,1,101.250000386238,6|8,3:2|0:0,0:0:0:0:
276,382,195818,1,0,3:0:0:0:
276,382,195943,1,0,3:0:0:0:
166,324,196193,2,0,P|147:276|156:216,1,101.250000386238,14|0,0:0|3:0,0:0:0:0:
212,165,196568,1,10,0:0:0:0:
93,115,196818,1,0,3:0:0:0:
106,73,196943,1,0,3:0:0:0:
116,31,197068,1,10,0:0:0:0:
248,13,197318,6,0,P|296:13|341:47,1,101.250000386238,6|8,3:2|0:0,0:0:0:0:
473,4,197818,2,0,L|485:66,1,50.6250001931191,0|0,3:0|3:0,0:0:0:0:
474,139,198068,1,10,0:0:0:0:
474,139,198193,2,0,P|453:184|452:235,1,101.250000386238,0|0,3:2|3:0,0:0:0:0:
389,292,198568,1,8,0:0:0:0:
348,192,198818,1,0,3:0:0:0:
297,210,198943,1,0,3:0:0:0:
249,232,199068,1,8,0:0:0:0:
289,332,199318,1,14,0:0:0:0:
256,192,199443,12,6,201318,3:1:0:0:
63,77,214693,5,0,3:0:0:0:
63,77,214818,2,0,L|48:24,1,37.5,10|2,0:0|3:0,0:0:0:0:
165,116,215318,6,0,P|222:114|285:165,1,112.5,6|0,3:2|0:0,0:0:0:0:
353,108,215818,2,0,P|372:76|375:36,1,75,10|0,0:0|0:0,0:0:0:0:
458,70,216193,1,0,3:2:0:0:
467,78,216318,2,0,P|478:103|484:129,2,37.5,0|8|0,0:0|0:0|3:0,0:0:0:0:
294,50,216818,2,0,L|217:32,1,75,10|0,0:0|0:0,0:0:0:0:
146,82,217193,5,0,0:0:0:0:
152,91,217318,2,0,P|121:113|73:110,1,75,2|0,3:2|3:0,0:0:0:0:
15,197,217818,2,0,P|27:235|33:269,1,75,10|0,0:0|0:0,0:0:0:0:
28,350,218193,2,0,P|78:335|137:317,1,112.5,0|0,3:0|3:0,0:0:0:0:
242,351,218818,1,8,0:0:0:0:
242,351,218943,2,0,L|253:302,2,37.5,2|2|2,0:0|0:0|0:0,0:0:0:0:
360,339,219318,6,0,P|349:279|367:228,1,112.5,2|0,3:2|0:0,0:0:0:0:
433,161,219818,2,0,P|382:146|349:135,1,75,8|0,0:0|0:0,0:0:0:0:
275,61,220318,2,0,P|266:35|257:7,2,37.5,2|8|0,0:0|0:0|3:2,0:0:0:0:
218,138,220818,2,0,P|185:157|143:157,1,75,8|0,0:2|0:0,0:0:0:0:
76,219,221193,5,0,0:0:0:0:
83,229,221318,2,0,P|73:265|63:301,1,75,2|0,3:2|3:0,0:0:0:0:
159,362,221818,2,0,P|215:359|267:332,1,112.5,10|0,0:0|3:0,0:0:0:0:
333,381,222318,2,0,P|352:341|350:297,1,75,0|0,0:0|3:0,0:0:0:0:
293,228,222818,1,8,0:0:0:0:
395,172,223068,5,2,3:2:0:0:
395,172,223193,1,10,0:0:0:0:
395,172,223318,2,0,P|327:154|272:140,1,112.5,6|0,3:2|0:0,0:0:0:0:
220,85,223818,2,0,P|204:37|208:14,1,75,8|0,0:0|0:0,0:0:0:0:
300,23,224193,2,0,P|341:57|416:62,1,112.5,2|0,3:2|3:0,0:0:0:0:
480,13,224818,2,0,L|494:88,1,75,8|0,0:0|0:0,0:0:0:0:
451,183,225193,5,0,1:0:0:0:
437,189,225318,2,0,P|401:176|364:168,1,75,2|0,3:2|3:0,0:0:0:0:
252,230,225818,2,0,P|254:269|265:306,1,75,10|0,0:0|0:0,0:0:0:0:
327,373,226193,2,0,P|349:310|342:243,1,112.5,2|0,3:2|3:2,0:0:0:0:
364,168,226818,1,10,0:0:0:0:
271,130,227068,5,2,0:3:0:0:
271,130,227193,1,2,0:3:0:0:
271,130,227318,2,0,P|235:139|198:147,1,75,6|0,3:2|3:0,0:0:0:0:
80,102,227818,2,0,P|60:133|59:170,1,75,10|2,0:0|0:0,0:0:0:0:
48,260,228193,2,0,P|104:249|157:233,1,112.5,2|2,3:2|3:2,0:0:0:0:
240,283,228818,2,0,P|248:318|258:355,1,75,10|2,0:0|0:3,0:0:0:0:
359,364,229193,5,0,1:0:0:0:
371,367,229318,2,0,P|403:346|441:344,1,75,6|0,3:2|3:2,0:0:0:0:
510,245,229818,2,0,P|453:231|396:217,1,112.5,10|0,0:0|3:0,0:0:0:0:
335,164,230318,1,10,0:0:0:0:
303,184,230443,1,8,0:0:0:0:
259,173,230568,2,0,L|243:130,1,37.5,0|8,3:0|0:0,0:0:0:0:
159,80,230818,5,10,0:0:0:0:
129,58,230943,1,0,3:0:0:0:
92,60,231068,1,8,0:0:0:0:
65,84,231193,1,8,0:0:0:0:
60,120,231318,2,0,P|49:156|41:192,1,75,6|2,3:2|3:0,0:0:0:0:
0,291,231818,5,10,0:0:0:0:
87,357,232068,1,2,0:3:0:0:
87,357,232193,2,0,P|126:338|202:338,1,112.5,2|2,3:2|3:0,0:0:0:0:
284,373,232818,1,10,0:0:0:0:
367,318,233068,5,2,0:3:0:0:
367,318,233193,1,2,1:2:0:0:
367,318,233318,2,0,P|349:270|343:239,1,75,2|2,3:2|0:3,0:0:0:0:
413,181,233818,1,10,0:0:0:0:
350,112,234068,1,2,0:3:0:0:
350,112,234193,2,0,P|305:83|228:79,1,112.5,2|2,3:2|3:0,0:0:0:0:
146,62,234818,2,0,L|164:140,1,75,10|2,0:0|0:3,0:0:0:0:
142,223,235193,5,0,1:0:0:0:
127,218,235318,2,0,P|90:217|56:235,1,75,6|2,3:2|0:3,0:0:0:0:
145,327,235818,2,0,L|270:297,1,112.5,10|0,0:0|1:0,0:0:0:0:
343,320,236318,2,0,P|339:281|330:245,1,75,6|0,3:2|3:0,0:0:0:0:
333,130,236818,2,0,P|360:154|397:159,1,75,10|2,0:0|0:0,0:0:0:0:
465,220,237193,5,0,1:0:0:0:
478,214,237318,2,0,P|489:173|500:138,1,75,6|2,3:2|3:2,0:0:0:0:
426,57,237818,2,0,P|387:38|353:31,1,75,10|2,0:0|0:0,0:0:0:0:
278,0,238193,2,0,P|220:6|166:39,1,112.5,6|0,3:2|3:0,0:0:0:0:
74,53,238818,2,0,P|88:93|101:128,1,75,10|0,0:0|3:0,0:0:0:0:
145,201,239193,2,0,L|140:219,2,18.75,0|0|6,1:0|1:0|3:2,0:0:0:0:
236,154,239568,5,2,3:0:0:0:
303,227,239818,2,0,P|337:241|374:244,1,75,10|2,0:0|0:3,0:0:0:0:
440,298,240193,2,0,P|457:252|451:181,1,112.5,2|2,3:2|3:3,0:0:0:0:
353,134,240818,2,0,L|338:60,1,75,10|2,0:0|0:3,0:0:0:0:
265,13,241193,5,2,0:3:0:0:
257,23,241318,2,0,P|218:46|184:46,1,75,2|2,3:2|3:0,0:0:0:0:
107,179,241818,2,0,P|148:167|184:158,1,75,10|2,0:0|0:3,0:0:0:0:
262,208,242193,2,0,B|283:263|283:319,1,112.5,2|2,3:2|3:0,0:0:0:0:
180,373,242818,1,10,0:0:0:0:
84,330,243068,1,2,0:3:0:0:
164,249,243318,6,0,B|187:207|173:177|173:177|144:147|153:105,1,150,6|10,3:2|0:0,0:0:0:0:
230,28,244068,1,2,0:3:0:0:
230,28,244193,2,0,P|277:26|331:73,1,112.5,2|2,3:2|3:0,0:0:0:0:
415,62,244818,2,0,L|398:135,1,75,10|2,0:0|3:0,0:0:0:0:
369,224,245193,5,2,0:0:0:0:
376,216,245318,2,0,P|416:182|479:184,1,112.5,6|10,3:2|0:0,0:0:0:0:
371,338,246068,2,0,B|336:327|336:327|302:342|252:342,1,112.5,6|8,3:2|0:0,0:0:0:0:
203,279,246568,1,0,3:2:0:0:
84,323,246818,2,0,L|104:250,1,75,10|0,0:0|3:0,0:0:0:0:
60,178,247193,5,0,0:0:0:0:
53,168,247318,2,0,P|51:132|71:96,1,75,6|0,3:2|0:0,0:0:0:0:
176,163,247818,2,0,P|226:129|285:142,1,112.5,10|0,0:0|1:0,0:0:0:0:
361,133,248318,2,0,P|346:192|339:221,1,75,2|0,3:2|3:0,0:0:0:0:
278,293,248818,1,10,0:0:0:0:
372,364,249068,5,2,0:0:0:0:
372,364,249193,1,2,0:0:0:0:
372,364,249318,2,0,P|420:361|451:305,1,112.5,6|2,3:2|3:2,0:0:0:0:
503,160,250068,2,0,B|463:137|410:150|410:150|346:119,1,150,6|0,1:2|3:2,0:0:0:0:
280,189,250818,2,0,P|260:141|264:107,1,75,8|2,0:0|0:0,0:0:0:0:
306,40,251193,2,0,L|294:8,2,18.75,2|0|6,1:2|1:0|3:2,0:0:0:0:
155,95,251818,6,0,P|101:111|47:126,1,112.5,10|0,0:0|1:0,0:0:0:0:
3,205,252318,2,0,P|5:244|18:282,1,75,2|0,3:2|3:2,0:0:0:0:
85,347,252818,1,10,0:0:0:0:
166,295,253068,5,2,0:0:0:0:
166,295,253193,1,2,0:0:0:0:
166,295,253318,2,0,P|220:311|280:323,1,112.5,6|2,3:2|3:2,0:0:0:0:
475,253,254068,2,0,P|452:203|399:191,1,112.5,14|8,0:0|0:0,0:0:0:0:
329,233,254568,1,0,3:2:0:0:
274,138,254818,2,0,L|289:70,2,37.5,10|8|2,0:0|0:0|3:2,0:0:0:0:
179,213,255318,6,0,P|125:173|45:168,1,150,6|10,3:2|0:2,0:0:0:0:
105,69,256068,1,2,0:0:0:0:
105,69,256193,2,0,P|165:54|214:44,1,112.5,6|0,3:2|3:0,0:0:0:0:
308,1,256818,2,0,P|337:38|345:68,1,75,8|2,0:0|0:0,0:0:0:0:
351,149,257193,5,2,0:0:0:0:
360,155,257318,2,0,P|433:145|472:84,1,150,6|10,3:2|0:0,0:0:0:0:
435,243,258193,2,0,L|457:324,1,75,6|8,3:2|0:0,0:0:0:0:
401,377,258568,1,2,3:2:0:0:
292,310,258818,2,0,P|254:315|219:327,1,75,10|0,0:0|3:0,0:0:0:0:
112,382,259318,6,0,P|87:312|112:243,1,150,6|8,3:2|0:0,0:0:0:0:
193,163,260068,1,0,1:0:0:0:
193,163,260193,1,0,1:0:0:0:
193,163,260318,2,0,P|209:88|224:14,1,150,6|8,3:2|0:0,0:0:0:0:
312,130,261068,5,2,0:0:0:0:
312,130,261193,1,2,0:0:0:0:
312,130,261318,2,0,B|347:152|347:152|402:161|450:112,1,150,6|8,3:2|0:0,0:0:0:0:
420,239,262068,1,0,0:0:0:0:
420,239,262193,2,0,P|443:270|449:312,1,75,0|8,3:2|0:0,0:0:0:0:
388,359,262568,1,0,3:2:0:0:
291,306,262818,1,8,0:0:0:0:
198,360,263068,1,2,3:2:0:0:
114,297,263318,5,6,3:2:0:0:
114,297,263443,2,0,P|49:316|26:321,1,75,2|0,1:2|3:0,0:0:0:0:
55,228,263818,1,0,3:2:0:0:
55,228,263943,2,0,P|59:209|63:191,1,37.5,8|10,0:0|0:0,0:0:0:0:
140,151,264193,1,2,3:2:0:0:
140,151,264318,2,0,P|130:89|100:35,1,112.5,4|2,0:3|1:2,0:0:0:0:
191,6,264818,2,0,L|266:23,1,75,10|2,0:0|1:2,0:0:0:0:
323,89,265193,5,2,1:2:0:0:
333,94,265318,2,0,P|382:85|402:54,1,82.5000025177003,6|0,3:1|1:0,0:0:0:0:
461,169,265818,2,0,L|509:182,2,41.2500012588501,10|0|2,0:0|0:0|3:2,0:0:0:0:
399,237,266193,2,0,P|406:282|416:325,2,82.5000025177003,2|10|2,0:3|0:0|0:0,0:0:0:0:
310,207,266818,1,10,0:0:0:0:
267,179,266943,1,2,0:0:0:0:
221,197,267068,2,0,L|182:212,1,41.2500012588501,2|2,3:2|0:0,0:0:0:0:
114,271,267318,5,2,3:2:0:0:
114,271,267443,2,0,P|72:262|38:240,1,82.5000025177003,2|2,0:3|0:0,0:0:0:0:
28,155,267818,2,0,L|14:113,2,41.2500012588501,10|2|2,0:0|0:0|0:0,0:0:0:0:
128,84,268318,1,2,0:2:0:0:
157,55,268443,1,10,0:0:0:0:
204,66,268568,1,2,3:2:0:0:
301,126,268818,5,10,0:0:0:0:
330,118,268943,1,2,0:0:0:0:
359,110,269068,1,2,3:2:0:0:
388,103,269193,1,0,1:2:0:0:
417,95,269318,2,0,P|438:131|431:171,1,82.5000025177003,6|2,3:2|0:0,0:0:0:0:
401,254,269693,6,0,P|418:318|423:340,2,82.5000025177003,2|2|2,0:0|3:2|3:2,0:0:0:0:
315,214,270318,1,2,0:0:0:0:
205,281,270568,1,2,3:2:0:0:
205,281,270693,2,0,P|150:277|68:136,1,206.250006294251,2|6,0:0|3:2,0:0:0:0:
178,48,271943,6,0,L|161:-3,2,41.2500012588501,2|2|2,0:0|0:0|3:2,0:0:0:0:
237,118,272318,1,2,0:0:0:0:
237,118,272443,2,0,P|275:142|322:145,1,82.5000025177003,10|2,0:0|0:0,0:0:0:0:
384,212,272818,2,0,P|396:157|405:126,1,82.5000025177003,10|2,0:0|1:2,0:0:0:0:
477,66,273193,5,0,1:2:0:0:
474,55,273318,2,0,P|434:26|391:24,1,82.5000025177003,6|2,3:2|0:0,0:0:0:0:
299,69,273818,1,10,0:0:0:0:
259,98,273943,1,2,0:0:0:0:
213,81,274068,1,2,0:0:0:0:
128,10,274318,1,2,0:0:0:0:
128,10,274443,2,0,P|112:72|104:104,1,82.5000025177003,10|2,0:0|0:0,0:0:0:0:
27,149,274818,5,10,0:0:0:0:
57,175,274943,1,2,0:0:0:0:
74,213,275068,1,2,3:2:0:0:
72,254,275193,1,2,1:2:0:0:
53,290,275318,1,0,3:0:0:0:
57,302,275443,2,0,P|140:322|188:332,1,123.75000377655,2|10,0:3|0:0,0:0:0:0:
248,373,275943,5,2,0:0:0:0:
348,302,276193,2,0,P|317:267|266:264,2,82.5000025177003,2|10|0,3:3|0:0|1:0,0:0:0:0:
431,332,276818,2,0,B|450:329|460:324|460:324|494:292,2,61.8750018882752,2|2|2,3:0|0:3|1:3,0:0:0:0:
410,239,277318,6,0,P|431:184|438:107,1,123.75000377655,6|0,3:2|0:0,0:0:0:0:
355,81,277818,2,0,P|333:45|304:17,1,82.5000025177003,10|2,0:0|0:0,0:0:0:0:
248,106,278193,1,2,3:2:0:0:
256,117,278318,2,0,P|213:195|134:194,1,165.000005035401,2|10,1:2|0:0,0:0:0:0:
38,256,279068,1,0,3:2:0:0:
125,338,279318,6,0,P|112:385|108:402,2,41.2500012588501,6|8|0,3:2|0:0|1:0,0:0:0:0:
201,286,279693,1,2,3:0:0:0:
273,351,279943,1,2,3:0:0:0:
360,300,280193,1,2,3:0:0:0:
360,300,280318,2,0,L|350:259,1,41.2500012588501,4|8,3:0|0:3,0:0:0:0:
433,227,280568,2,0,L|423:186,1,41.2500012588501,8|8,0:3|0:3,0:0:0:0:
344,135,280818,5,0,3:2:0:0:
310,111,280943,1,0,3:2:0:0:
298,73,281068,1,8,0:0:0:0:
311,34,281193,1,8,0:0:0:0:
344,12,281318,2,0,B|370:53|405:60|405:60|443:51,2,112.5,6|0|0,3:1|3:0|3:1,0:0:0:0:
231,8,282318,6,0,P|181:53|88:52,1,150,2|0,1:2|0:0,0:0:0:0:
21,127,283068,1,0,3:0:0:0:
76,212,283318,2,0,B|50:268|45:280|34:327,2,112.5,2|0|0,3:2|3:0|3:0,0:0:0:0:
191,148,284318,2,0,P|200:222|233:290,1,150,2|2,1:2|0:0,0:0:0:0:
244,329,284943,1,0,0:0:0:0:
297,338,285068,1,0,3:0:0:0:
403,380,285318,6,0,P|431:349|512:334,2,112.5,6|0|0,3:2|3:0|3:0,0:0:0:0:
357,273,286318,2,0,P|365:207|420:144,1,150,2|0,1:2|0:0,0:0:0:0:
487,60,287068,1,0,3:0:0:0:
396,26,287318,2,0,B|374:39|374:39|328:42|287:0,2,112.5,6|0|0,3:2|3:0|3:0,0:0:0:0:
411,134,288318,2,0,P|354:149|317:157,1,75,2|0,1:2|3:0,0:0:0:0:
270,218,288818,1,0,1:0:0:0:
232,188,288943,1,8,0:3:0:0:
189,188,289068,1,4,0:3:0:0:
93,253,289318,6,0,P|83:316|57:359,2,112.5,6|0|0,3:2|3:2|3:0,0:0:0:0:
3,135,290318,2,0,B|32:164|32:164|104:168|135:93,1,150,14|0,0:0|0:0,0:0:0:0:
102,21,291068,1,0,3:0:0:0:
198,8,291318,2,0,P|261:13|303:59,2,112.5,6|0|0,3:2|3:0|3:0,0:0:0:0:
219,104,292318,2,0,P|252:169|323:186,1,150,10|2,0:0|3:2,0:0:0:0:
397,258,293068,5,0,1:0:0:0:
397,258,293193,1,0,1:0:0:0:
397,258,293318,2,0,P|418:203|427:161,1,75,6|0,3:2|0:0,0:0:0:0:
483,129,293693,2,0,P|460:81|457:11,1,112.5,0|0,3:0|3:0,0:0:0:0:
353,97,294318,2,0,P|301:156|229:149,1,150,10|0,0:0|0:0,0:0:0:0:
153,93,295068,5,0,1:0:0:0:
153,93,295193,1,0,1:0:0:0:
153,93,295318,2,0,P|109:82|74:74,1,75,6|0,3:2|0:0,0:0:0:0:
20,18,295693,2,0,P|-4:72|3:136,1,112.5,0|0,3:0|3:2,0:0:0:0:
96,167,296318,2,0,P|84:215|74:252,1,75,10|0,0:0|1:0,0:0:0:0:
30,310,296693,1,0,1:0:0:0:
28,321,296818,2,0,L|43:374,1,37.5,10|0,0:0|1:0,0:0:0:0:
165,371,297068,2,0,L|154:334,1,37.5,0|0,1:0|1:0,0:0:0:0:
198,251,297318,5,10,0:1:0:0:
262,97,313318,5,10,0:0:0:0:
262,97,313443,2,0,L|212:85,1,37.5,0|0,3:0|0:0,0:0:0:0:
164,24,313693,2,0,P|129:50|62:52,1,112.5,10|10,0:0|0:0,0:0:0:0:
3,133,314318,1,2,0:0:0:0:
3,133,314443,2,0,P|13:177|16:187,2,37.5,8|0|8,0:0|1:0|0:3,0:0:0:0:
113,170,314818,5,8,0:0:0:0:
149,164,314943,1,8,0:3:0:0:
184,176,315068,1,4,0:3:0:0:
210,203,315193,1,4,0:3:0:0:
220,239,315318,1,2,0:2:0:0:
366,367,315818,6,0,P|416:367|446:326,1,89.9999972534181,6|0,1:0|0:0,0:0:0:0:
478,256,316193,2,0,P|461:190|451:108,1,134.999995880127,2|2,3:2|3:2,0:0:0:0:
490,31,316818,1,10,0:0:0:0:
385,0,317068,1,2,3:2:0:0:
325,79,317318,6,0,P|281:97|257:96,1,44.999998626709,2|0,3:2|0:0,0:0:0:0:
207,158,317568,2,0,L|192:106,1,44.999998626709,0|0,3:2|0:0,0:0:0:0:
110,53,317818,2,0,P|65:58|29:84,1,89.9999972534181,10|0,0:0|0:0,0:0:0:0:
98,140,318193,2,0,B|128:178|128:178|173:198|214:149,1,134.999995880127,2|0,3:2|3:2,0:0:0:0:
298,215,318818,1,10,0:0:0:0:
219,294,319068,1,2,3:2:0:0:
313,377,319318,6,0,L|322:332,1,44.999998626709,6|0,3:2|0:0,0:0:0:0:
420,299,319568,2,0,L|429:254,1,44.999998626709,0|2,3:0|0:0,0:0:0:0:
361,176,319818,2,0,P|355:127|373:92,1,89.9999972534181,10|0,0:0|0:0,0:0:0:0:
452,59,320193,2,0,P|386:41|321:23,1,134.999995880127,2|2,3:2|3:2,0:0:0:0:
235,88,320818,1,10,0:0:0:0:
156,15,321068,1,0,3:0:0:0:
78,77,321318,6,0,P|44:68|7:46,1,44.999998626709,2|0,3:2|0:0,0:0:0:0:
54,172,321568,2,0,P|88:181|125:203,1,44.999998626709,0|0,3:0|0:0,0:0:0:0:
196,168,321818,2,0,L|174:258,1,89.9999972534181,10|0,0:0|0:0,0:0:0:0:
131,328,322193,2,0,P|163:357|208:358,1,89.9999972534181,2|8,3:2|0:0,0:0:0:0:
277,304,322568,1,0,3:2:0:0:
376,375,322818,2,0,P|435:358|467:349,1,89.9999972534181,10|6,0:0|3:2,0:0:0:0:
500,270,323193,5,8,0:0:0:0:
497,259,323318,2,0,P|485:239|466:227,1,44.999998626709,6|0,3:2|0:0,0:0:0:0:
371,224,323568,2,0,L|385:268,1,44.999998626709,0|2,3:0|0:0,0:0:0:0:
308,371,323818,2,0,P|290:330|293:283,1,89.9999972534181,10|2,0:0|0:0,0:0:0:0:
243,208,324193,2,0,P|197:194|155:184,1,89.9999972534181,2|8,3:2|0:0,0:0:0:0:
84,236,324568,1,2,3:2:0:0:
1,153,324818,1,10,0:0:0:0:
95,79,325068,5,2,3:2:0:0:
79,33,325193,1,2,0:0:0:0:
124,6,325318,2,0,L|269:39,1,134.999995880127,6|0,3:2|0:0,0:0:0:0:
320,102,325818,2,0,P|342:148|323:193,1,89.9999972534181,14|0,0:0|0:0,0:0:0:0:
251,315,326318,2,0,P|193:279|126:274,1,134.999995880127,6|0,3:2|0:0,0:0:0:0:
62,215,326818,2,0,P|35:177|44:134,1,89.9999972534181,14|0,0:0|0:0,0:1:0:0:
169,50,327318,6,0,P|213:42|257:24,1,89.9999972534181,6|0,3:2|0:0,0:0:0:0:
374,0,327818,2,0,P|366:44|356:88,1,89.9999972534181,10|2,0:0|0:0,0:0:0:0:
309,164,328193,1,2,3:2:0:0:
316,173,328318,2,0,P|350:204|400:207,1,89.9999972534181,0|2,0:0|3:2,0:0:0:0:
477,294,328818,1,10,0:0:0:0:
397,364,329068,1,2,3:2:0:0:
283,310,329318,6,0,L|175:336,1,89.9999972534181,6|0,3:2|3:0,0:0:0:0:
93,371,329818,1,10,0:0:0:0:
24,286,330068,1,0,3:0:0:0:
24,286,330193,2,0,P|17:241|38:184,1,89.9999972534181,8|0,0:0|1:0,0:0:0:0:
99,151,330568,2,0,L|88:103,1,44.999998626709,0|0,3:0|3:0,0:0:0:0:
49,25,330818,5,2,3:2:0:0:
86,11,330943,1,2,3:2:0:0:
126,16,331068,1,10,0:0:0:0:
159,38,331193,1,10,0:0:0:0:
179,73,331318,2,0,L|192:142,1,50.6250001931191,6|0,3:1|0:0,0:0:0:0:
272,56,331568,2,0,L|262:6,1,50.6250001931191,8|0,0:0|0:0,0:0:0:0:
379,70,331818,6,0,P|427:43|480:51,1,101.250000386238,2|8,3:2|0:0,0:0:0:0:
440,139,332193,2,0,L|462:238,1,101.250000386238,2|0,3:2|3:0,0:0:0:0:
495,321,332568,1,10,0:0:0:0:
390,368,332818,1,2,3:2:0:0:
300,310,333068,1,10,0:2:0:0:
366,215,333318,6,0,P|364:161|344:116,1,101.250000386238,6|8,3:2|0:0,0:0:0:0:
278,34,333818,2,0,P|238:67|188:63,1,101.250000386238,2|8,3:2|0:0,0:0:0:0:
130,127,334193,2,0,B|106:91|106:91|45:74|11:126,1,151.875000579357,6|8,3:2|0:0,0:0:0:0:
94,224,334818,1,2,3:2:0:0:
1,290,335068,1,10,0:0:0:0:
96,359,335318,6,0,P|146:360|184:311,1,101.250000386238,6|8,3:2|0:0,0:0:0:0:
278,349,335818,2,0,P|266:295|254:251,1,101.250000386238,2|8,3:2|0:0,0:0:0:0:
185,201,336193,2,0,P|169:150|187:100,1,101.250000386238,6|0,3:2|3:0,0:0:0:0:
286,139,336568,1,8,0:0:0:0:
357,60,336818,1,2,3:2:0:0:
407,38,336943,1,0,3:2:0:0:
455,60,337068,1,10,0:0:0:0:
510,141,337318,6,0,B|496:151|496:151|456:150|408:165,1,101.250000386238,6|8,3:2|0:0,0:0:0:0:
301,224,337818,2,0,B|277:243|277:243|266:275|286:324,1,101.250000386238,6|8,3:2|0:0,0:0:0:0:
364,384,338193,2,2,P|375:334|386:285,1,101.250000386238,6|0,3:2|0:0,0:1:0:0:
462,233,338568,1,10,0:0:0:0:
389,146,338818,2,0,P|377:121|375:99,1,50.6250001931191,2|0,3:2|3:0,0:0:0:0:
431,32,339068,1,10,0:0:0:0:
307,0,339318,6,0,P|257:1|217:31,1,101.250000386238,6|8,3:2|0:0,0:0:0:0:
164,138,339818,2,0,L|144:83,1,50.6250001931191,2|0,3:2|3:0,0:0:0:0:
48,84,340068,2,0,L|65:132,1,50.6250001931191,8|0,0:0|0:0,0:0:0:0:
11,214,340318,2,0,P|44:253|40:307,1,101.250000386238,6|8,3:2|0:0,0:0:0:0:
111,378,340818,2,0,P|165:368|208:327,1,101.250000386238,2|8,3:2|0:0,0:0:0:0:
289,363,341318,5,6,3:2:0:0:
359,300,341568,1,10,0:0:0:0:
284,226,341818,2,0,P|298:174|301:156,1,50.6250001931191,2|0,3:2|3:0,0:0:0:0:
372,131,342068,1,8,0:0:0:0:
372,131,342193,2,0,P|379:68|355:28,1,101.250000386238,6|0,3:2|3:0,0:0:0:0:
283,4,342568,1,10,0:0:0:0:
209,70,342818,1,0,3:0:0:0:
165,76,342943,1,0,3:0:0:0:
130,46,343068,1,10,0:0:0:0:
44,110,343318,6,0,P|32:159|19:208,1,101.250000386238,6|8,3:2|0:0,0:0:0:0:
42,323,343818,1,0,3:0:0:0:
42,323,343943,1,0,3:0:0:0:
137,276,344193,2,0,P|189:282|227:318,1,101.250000386238,14|0,0:0|3:0,0:0:0:0:
301,366,344568,1,10,0:0:0:0:
408,306,344818,1,0,3:0:0:0:
457,321,344943,1,0,3:0:0:0:
488,288,345068,2,0,L|473:239,1,50.6250001931191,10|2,0:0|0:0,0:0:0:0:
485,146,345318,6,0,P|441:116|389:121,1,101.250000386238,6|8,3:2|0:0,0:0:0:0:
320,196,345818,1,0,3:0:0:0:
320,196,345943,1,0,3:0:0:0:
226,140,346193,2,0,P|215:93|206:31,1,101.250000386238,14|0,0:0|3:0,0:0:0:0:
132,0,346568,1,10,0:0:0:0:
47,71,346818,1,0,3:0:0:0:
57,113,346943,1,0,3:0:0:0:
70,155,347068,1,10,0:0:0:0:
40,273,347318,6,0,P|80:243|130:243,1,101.250000386238,6|8,3:2|0:0,0:0:0:0:
245,208,347818,2,0,L|231:268,1,50.6250001931191,0|0,3:0|3:0,0:0:0:0:
264,341,348068,1,10,0:0:0:0:
264,341,348193,2,0,P|312:346|363:324,1,101.250000386238,0|0,3:2|3:0,0:0:0:0:
435,361,348568,1,8,0:0:0:0:
511,298,348818,1,0,3:0:0:0:
469,258,348943,1,0,3:0:0:0:
489,208,349068,2,0,P|475:159|463:110,1,101.250000386238,8|0,0:0|0:0,0:0:0:0:
489,33,349443,6,0,P|445:2|392:8,1,101.250000386238,14|0,0:0|3:0,0:0:0:0:
300,9,349818,2,0,P|308:32|316:56,1,50.6250001931191,14|0,0:0|0:0,0:0:0:0:
374,133,350068,1,0,3:0:0:0:
374,133,350193,2,0,B|356:159|356:159|361:219|337:289,1,151.875000579357,14|0,0:0|0:0,0:0:0:0:
260,306,350693,1,0,1:0:0:0:
258,316,350818,2,0,L|274:370,2,50.6250001931191,0|8|4,1:0|0:3|0:3,0:0:0:0:
141,103,351318,5,14,0:0:0:0:
256,192,351443,12,0,355318,0:0:0:0:
