osu file format v14

[General]
AudioFilename: audio.mp3
AudioLeadIn: 0
PreviewTime: 305193
Countdown: 0
SampleSet: Soft
StackLeniency: 0.5
Mode: 0
LetterboxInBreaks: 0
WidescreenStoryboard: 1

[Editor]
Bookmarks: 89318,107318,131318,147318,165318,181318,201318,231318,247318,265318,281318,315318,331318
DistanceSpacing: 1.2
BeatDivisor: 8
GridSize: 32
TimelineZoom: 3.099998

[Metadata]
Title:Irony
TitleUnicode:Irony
Artist:Uema Emi
ArtistUnicode:上間江望
Creator:Hanakumo Rin
Version:Extra
Source:NOeSIS 歌う影の戯曲
Tags:dog food dahkjdas garden Misure NOeSIS03 Utau Kage no Gikyoku cutlass visual novel ending japanese video game rock 仄かな旋律の記憶 Honoka na Senritsu no Kioku japanese rock jrock pop jpop female vocals visual novel vn video game
BeatmapID:3721350
BeatmapSetID:1813945

[Difficulty]
HPDrainRate:5
CircleSize:4
OverallDifficulty:8.6
ApproachRate:9.3
SliderMultiplier:1.8
SliderTickRate:1

[Events]
//Background and Video events
0,0,"velia xiao mei mei.jpg",0,0
//Break Periods
2,297518,304514
//Storyboard Layer 0 (Background)
//Storyboard Layer 1 (Fail)
//Storyboard Layer 2 (Pass)
//Storyboard Layer 3 (Foreground)
//Storyboard Layer 4 (Overlay)
//Storyboard Sound Samples

[TimingPoints]
23235,952.380952380952,4,2,3,30,1,0
79425,1132.07547169811,4,2,3,30,1,0
79991,1578.94736842105,4,2,3,30,1,0
80780,1020.40816326531,4,2,3,30,1,0
88943,500,4,2,3,30,1,0
89318,500,4,2,3,40,1,0
105318,-125,4,2,3,40,0,0
106693,-100,4,2,3,60,0,0
106818,-50,4,2,3,60,0,0
107318,-60.6060606060606,4,2,3,70,0,0
111318,-45.4545454545455,4,2,3,70,0,0
112068,-100,4,2,3,70,0,0
115318,-83.3333333333333,4,2,3,55,0,0
131318,-62.5,4,2,3,60,0,0
134568,-100,4,2,3,60,0,0
135318,-62.5,4,2,3,65,0,0
163318,-83.3333333333333,4,2,3,65,0,0
163693,-55.5555555555556,4,2,3,55,0,0
165318,-55.5555555555556,4,2,3,75,0,0
167068,-83.3333333333333,4,2,3,75,0,0
167318,-55.5555555555556,4,2,3,75,0,0
169068,-71.4285714285714,4,2,3,75,0,0
169318,-55.5555555555556,4,2,3,75,0,0
172818,-50,4,2,3,75,0,0
173068,-55.5555555555556,4,2,3,75,0,0
173318,-45.4545454545455,4,2,3,75,0,0
173818,-55.5555555555556,4,2,3,75,0,0
175318,-50,4,2,3,75,0,0
175818,-47.6190476190476,4,2,3,75,0,0
176318,-45.4545454545455,4,2,3,75,0,0
176818,-43.4782608695652,4,2,3,75,0,0
177318,-41.6666666666667,4,2,3,75,0,0
177818,-55.5555555555556,4,2,3,75,0,0
179818,-50,4,2,3,75,0,0
180193,-45.4545454545455,4,2,3,75,0,0
181318,-50,4,2,3,80,0,1
188193,-45.4545454545455,4,2,3,80,0,1
188568,-50,4,2,3,80,0,1
189068,-71.4285714285714,4,2,3,80,0,1
189318,-50,4,2,3,80,0,1
193068,-71.4285714285714,4,2,3,80,0,1
193318,-55.5555555555556,4,2,3,80,0,1
194193,-45.4545454545455,4,2,3,80,0,1
194568,-55.5555555555556,4,2,3,80,0,1
196193,-45.4545454545455,4,2,3,80,0,1
196568,-55.5555555555556,4,2,3,80,0,1
199068,-50,4,2,3,80,0,1
199318,-500,4,2,3,80,0,1
200818,-100,4,2,3,80,0,0
201318,-60.6060606060606,4,2,3,80,0,0
213068,-83.3333333333333,4,2,3,80,0,0
213318,-100,4,2,3,80,0,0
215318,-83.3333333333333,4,2,3,55,0,0
231318,-66.6666666666667,4,2,3,60,0,0
247318,-62.5,4,2,3,60,0,0
265318,-58.8235294117647,4,2,3,70,0,1
281318,-100,4,2,3,60,0,0
305318,-166.666666666667,4,2,3,45,0,0
312318,-333.333333333333,4,2,3,40,0,0
313318,-62.5,4,2,3,65,0,0
315318,-500,4,2,3,45,0,0
315818,-50,4,2,3,85,0,0
316193,-55.5555555555556,4,2,3,75,0,0
319068,-71.4285714285714,4,2,3,75,0,0
319318,-55.5555555555556,4,2,3,75,0,0
322818,-50,4,2,3,75,0,0
323068,-55.5555555555556,4,2,3,75,0,0
323318,-45.4545454545455,4,2,3,75,0,0
323818,-55.5555555555556,4,2,3,75,0,0
325318,-50,4,2,3,75,0,0
325818,-47.6190476190476,4,2,3,75,0,0
326318,-45.4545454545455,4,2,3,75,0,0
326818,-43.4782608695652,4,2,3,75,0,0
327318,-41.6666666666667,4,2,3,75,0,0
327818,-55.5555555555556,4,2,3,75,0,0
329818,-50,4,2,3,75,0,0
330193,-45.4545454545455,4,2,3,75,0,0
331318,-50,4,2,3,80,0,1
338193,-45.4545454545455,4,2,3,80,0,1
338568,-50,4,2,3,80,0,1
339068,-71.4285714285714,4,2,3,80,0,1
339318,-50,4,2,3,80,0,1
343068,-71.4285714285714,4,2,3,80,0,1
343318,-55.5555555555556,4,2,3,80,0,1
344193,-45.4545454545455,4,2,3,80,0,1
344568,-55.5555555555556,4,2,3,80,0,1
346193,-45.4545454545455,4,2,3,80,0,1
346568,-55.5555555555556,4,2,3,80,0,1
349068,-100,4,2,3,80,0,1
349318,-45.4545454545455,4,2,3,80,0,1
350193,-66.6666666666667,4,2,3,80,0,1
351068,-166.666666666667,4,2,3,80,0,1
351318,-166.666666666667,4,2,3,80,0,0
353318,-166.666666666667,4,2,3,50,0,0
355318,-166.666666666667,4,2,3,20,0,0

[Colours]
Combo1 : 128,128,255
Combo2 : 0,128,128

[HitObjects]
359,70,88943,6,0,L|401:85,2,45,2|0|0,0:0|0:0|0:0,0:0:0:0:
267,47,89318,2,0,B|225:58|225:58|163:15|96:9,1,180,6|0,0:0|0:0,0:0:0:0:
250,208,90068,1,0,0:0:0:0:
242,217,90193,2,0,P|233:244|226:267,1,45,2|0,0:0|0:0,0:0:0:0:
159,319,90443,1,0,0:0:0:0:
91,261,90568,2,0,P|49:254|19:214,2,90,0|2|2,0:0|0:0|0:3,0:0:0:0:
273,364,91318,6,0,B|319:369|366:339|366:339|408:335|456:357,1,180,2|0,0:0|0:0,0:0:0:0:
359,229,92068,1,0,0:0:0:0:
370,226,92193,2,0,P|404:188|408:134,1,90,2|0,0:0|0:0,0:0:0:0:
472,86,92568,2,0,L|429:71,1,45
286,138,92818,2,0,L|243:123,1,45
370,11,93068,5,2,0:0:0:0:
290,47,93193,1,2,0:0:0:0:
217,9,93318,2,0,B|166:-6|166:-6|101:2|51:71,1,180,2|0,0:0|0:0,0:0:0:0:
126,214,94068,1,0,0:0:0:0:
116,206,94193,2,0,L|28:185,1,90,2|0,0:0|0:0,0:0:0:0:
105,309,94568,2,0,P|152:315|190:282,1,90
184,291,95068,6,0,B|185:287|185:287|171:255,3,22.5,2|2|2|2,0:0|0:0|0:0|0:0,0:0:0:0:
257,361,95318,2,0,B|301:348|324:331|324:331|360:338|360:338|381:326|426:305,1,180,2|0,0:0|0:0,0:0:0:0:
496,178,96068,1,0,0:0:0:0:
489,181,96193,2,0,P|431:162|391:96,1,135,2|0,0:0|0:0,0:0:0:0:
293,81,96818,2,0,P|262:43|266:-9,1,90,2|0,0:0|0:0,0:0:0:0:
293,81,97193,1,0,0:0:0:0:
179,112,97318,6,0,P|132:175|74:176,1,135,2|0,0:0|0:0,0:0:0:0:
99,100,97818,2,0,P|74:76|18:67,1,90
152,265,98193,2,0,P|185:320|250:331,1,135,2|0,0:0|0:0,0:0:0:0:
403,374,98818,2,0,P|414:330|425:286,1,90
495,228,99193,1,2,0:0:0:0:
430,161,99318,6,0,B|334:177|353:130|250:142,1,180,2|0,0:0|0:0,0:0:0:0:
19,33,100068,1,0,0:0:0:0:
24,41,100193,2,0,P|38:67|149:72,1,135,2|0,0:0|0:0,0:0:0:0:
221,0,100818,2,0,P|265:-1|302:22,1,90
451,157,101193,5,2,0:0:0:0:
451,157,101255,1,2,0:0:0:0:
451,157,101318,2,0,B|399:159|399:159|352:113|276:116,1,180,2|0,0:0|0:0,0:0:0:0:
282,115,102068,2,0,P|264:128|243:136,1,45,0|2,0:0|0:0,0:0:0:0:
160,185,102255,5,2,0:0:0:0:
160,185,102318,2,0,P|89:129|0:112,1,180,2|0,0:0|0:0,0:0:0:0:
330,240,103318,6,0,P|346:284|322:319,1,90,2|0,0:0|0:0,0:0:0:0:
239,166,103693,2,0,L|263:66,1,90,2|0,0:0|0:0,0:0:0:0:
108,205,104068,2,0,L|71:215,8,22.5,2|0|0|0|0|0|0|0|2,0:3|0:0|0:0|0:0|0:0|0:0|0:0|0:0|0:3,0:0:0:0:
202,264,104818,1,2,0:0:0:0:
316,86,105193,5,2,0:0:0:0:
316,86,105255,1,2,0:0:0:0:
316,86,105318,2,2,B|231:28|285:-13|335:11|402:14|375:87|281:83|224:179|266:253|311:240,1,378,2|0,0:1|0:1,0:1:0:0:
311,237,106693,6,0,B|340:228,1,22.5,0|0,1:0|1:0,0:0:0:0:
512,282,106818,2,0,B|490:268|490:268|392:256|359:355,1,180,14|8,0:0|0:0,0:0:0:0:
429,381,107193,1,8,0:0:0:0:
207,246,107318,6,0,B|165:255|133:218|133:218|46:220|27:292,1,222.75000212431,6|0,3:1|0:0,0:0:0:0:
171,133,107818,2,0,P|176:56|224:-4,1,148.500001416206,10|0,0:0|0:0,0:0:0:0:
333,154,108193,1,0,3:0:0:0:
331,58,108318,2,0,P|299:63|267:89,1,74.2500007081032,2|8,0:0|0:0,0:0:0:0:
459,67,108568,2,0,P|490:29|489:-9,1,74.2500007081032,0|0,3:0|0:0,0:0:0:0:
334,155,108818,2,0,P|362:214|441:224,1,148.500001416206,10|0,0:0|0:0,0:0:0:0:
496,302,109193,5,0,1:2:0:0:
496,302,109255,1,0,1:2:0:0:
496,302,109318,2,0,L|467:380,1,74.2500007081032,2|0,3:2|0:0,0:0:0:0:
243,159,109568,2,0,L|267:87,1,74.2500007081032,0|0,3:0|0:0,0:0:0:0:
230,363,109818,2,0,P|308:366|345:311,1,148.500001416206,10|2,0:0|0:0,0:0:0:0:
216,240,110130,5,2,0:0:0:0:
216,240,110193,2,0,P|146:220|85:177,1,148.500001416206,2|8,3:2|0:0,0:0:0:0:
94,88,110568,2,0,P|60:88|25:117,1,74.2500007081032,0|0,3:2|0:0,0:0:0:0:
0,346,110818,6,0,L|77:324,1,74.2500007081032,14|0,0:0|0:0,0:0:0:0:
278,114,111068,2,0,L|200:134,1,74.2500007081032,2|0,3:2|0:0,0:0:0:0:
362,350,111318,6,0,P|424:340|470:236,1,148.50000453186,14|0,0:0|0:0,0:0:0:0:
479,271,111568,2,0,P|453:251|429:248,1,49.5000015106202,0|0,3:0|0:0,0:0:0:0:
147,366,111693,6,0,P|222:355|266:278,1,148.50000453186,14|0,0:0|0:0,0:0:0:0:
254,288,111943,2,0,P|239:308|237:333,1,49.5000015106202,0|0,3:0|0:0,0:0:0:0:
495,144,112068,6,0,B|449:137|432:95|432:95|392:57|331:57,1,180,14|0,0:0|1:0,0:0:0:0:
345,57,112630,1,0,1:0:0:0:
345,57,112693,1,0,1:0:0:0:
209,5,112818,5,10,0:0:0:0:
146,85,112943,2,0,P|111:115|66:112,1,90,0|0,3:0|0:0,0:0:0:0:
74,34,113318,6,0,B|87:52|87:52|191:98|191:98|202:90|202:90|258:88|258:88|269:99|269:99|374:136|374:136|361:171,1,360,6|2,3:2|0:3,0:0:0:0:
497,368,114568,5,0,1:0:0:0:
487,343,114630,1,0,1:0:0:0:
467,326,114693,1,0,1:0:0:0:
442,320,114755,1,0,1:0:0:0:
417,327,114818,1,10,0:0:0:0:
336,368,114943,1,8,0:0:0:0:
250,323,115068,1,4,0:3:0:0:
447,208,115318,6,0,L|481:49,1,161.999995056153,6|0,3:2|0:0,0:0:0:0:
339,123,115818,2,0,P|298:157|245:161,1,107.999996704102,8|0,0:0|0:0,0:0:0:0:
339,123,116193,1,0,3:0:0:0:
169,204,116318,6,0,P|144:192|124:174,1,53.9999983520508,2|8,0:0|0:0,0:0:0:0:
272,18,116568,2,0,L|255:84,1,53.9999983520508,0|0,3:2|0:0,0:0:0:0:
354,222,116818,2,0,B|379:233|379:233|401:250|401:250|450:237|523:264,1,161.999995056153,10|0,0:0|0:0,0:0:0:0:
327,307,117318,6,0,P|315:333|312:359,1,53.9999983520508,2|0,3:2|0:0,0:0:0:0:
447,335,117568,2,0,P|471:346|501:355,1,53.9999983520508,0|0,3:0|0:0,0:0:0:0:
354,222,117818,2,0,P|327:176|320:109,1,107.999996704102,10|0,0:0|0:0,0:0:0:0:
407,9,118193,2,0,L|423:68,1,53.9999983520508,0|0,3:0|0:0,0:0:0:0:
481,114,118443,5,8,0:0:0:0:
320,31,118568,2,0,P|267:30|226:70,1,107.999996704102,0|8,3:0|0:0,0:0:0:0:
98,140,118943,1,2,0:0:0:0:
169,216,119068,2,0,P|183:178|183:155,1,53.9999983520508,2|2,0:0|0:0,0:0:0:0:
10,309,119318,6,0,B|38:354|38:354|98:377|133:315,1,161.999995056153,2|0,3:2|0:0,0:0:0:0:
251,360,119818,2,0,P|290:324|343:325,1,107.999996704102,8|0,0:0|0:0,0:0:0:0:
421,365,120193,2,0,L|484:345,1,53.9999983520508,2|0,3:2|0:0,0:0:0:0:
342,197,120443,5,8,0:0:0:0:
428,270,120568,2,0,P|443:225|445:209,1,53.9999983520508,0|0,3:2|0:0,0:0:0:0:
348,106,120818,2,0,P|330:55|297:12,1,107.999996704102,8|0,0:0|0:0,0:0:0:0:
348,106,121193,1,0,0:0:0:0:
207,42,121318,6,0,P|182:27|157:20,1,53.9999983520508,2|0,3:2|0:0,0:0:0:0:
16,182,121568,2,0,P|41:174|64:160,1,53.9999983520508,0|0,3:0|0:0,0:0:0:0:
143,203,121818,2,0,L|170:316,1,107.999996704102,10|0,0:0|0:0,0:0:0:0:
321,375,122193,6,0,P|289:332|291:279,1,107.999996704102,0|8,3:0|0:0,0:0:0:0:
325,174,122568,2,0,L|251:199,1,53.9999983520508,0|0,3:0|0:0,0:0:0:0:
417,311,122818,2,0,P|437:343|445:369,1,53.9999983520508,8|0,0:0|0:0,0:0:0:0:
434,172,123068,5,2,3:2:0:0:
488,89,123193,1,10,0:0:0:0:
371,26,123318,2,0,L|208:57,1,161.999995056153,6|0,3:2|0:0,0:0:0:0:
131,92,123818,2,0,P|85:65|58:13,1,107.999996704102,8|0,0:0|0:0,0:0:0:0:
157,221,124193,6,0,L|124:330,1,107.999996704102,2|8,3:2|0:0,0:0:0:0:
194,384,124568,2,0,P|207:353|211:322,1,53.9999983520508,0|0,3:0|0:0,0:0:0:0:
85,173,124818,2,0,P|34:157|1:116,1,107.999996704102,8|0,0:0|0:0,0:0:0:0:
115,50,125193,5,0,1:0:0:0:
115,50,125255,1,0,1:0:0:0:
115,50,125318,2,0,L|176:37,1,53.9999983520508,2|0,3:2|0:0,0:0:0:0:
261,80,125568,2,0,P|271:55|274:28,1,53.9999983520508,0|0,3:0|0:0,0:0:0:0:
168,181,125818,6,0,P|195:229|248:239,1,107.999996704102,10|0,0:0|0:0,0:0:0:0:
309,315,126193,2,0,L|291:374,1,53.9999983520508,2|0,3:2|0:0,0:0:0:0:
431,241,126443,1,8,0:0:0:0:
478,349,126568,2,0,P|452:340|431:323,1,53.9999983520508,0|0,3:2|0:0,0:0:0:0:
330,186,126818,2,0,L|303:71,1,107.999996704102,10|2,0:0|0:3,0:0:0:0:
305,80,127193,1,0,0:0:0:0:
53,28,127318,6,0,B|77:22|104:16|104:16|131:35|160:47,1,107.999996704102,6|0,3:2|3:0,0:0:0:0:
232,16,127693,1,2,0:0:0:0:
104,146,127818,2,0,P|78:153|53:163,1,53.9999983520508,10|0,0:0|0:0,0:0:0:0:
212,232,128068,5,2,0:0:0:0:
118,372,128193,2,0,P|97:323|103:270,1,107.999996704102,2|8,3:2|0:0,0:0:0:0:
244,323,128568,2,0,P|263:352|270:377,1,53.9999983520508,2|0,3:2|0:0,0:0:0:0:
364,214,128818,2,0,L|415:193,1,53.9999983520508,10|2,0:0|0:0,0:0:0:0:
413,193,129068,1,2,0:3:0:0:
475,106,129193,5,0,1:0:0:0:
475,106,129255,1,0,1:0:0:0:
475,106,129318,2,0,P|487:77|489:49,1,53.9999983520508,6|0,3:2|0:0,0:0:0:0:
295,170,129568,2,0,P|283:199|281:227,1,53.9999983520508,0|0,3:2|0:0,0:0:0:0:
384,384,129818,2,0,L|409:274,1,107.999996704102,10|0,0:0|0:0,0:0:0:0:
359,90,130193,5,0,3:0:0:0:
324,55,130255,1,0,3:0:0:0:
281,59,130318,1,10,0:0:0:0:
206,111,130443,1,8,0:0:0:0:
113,125,130568,1,0,3:0:0:0:
53,53,130693,1,8,0:0:0:0:
99,312,130818,5,10,0:0:0:0:
163,243,130943,1,0,3:0:0:0:
256,349,131068,5,8,0:0:0:0:
173,253,131193,1,8,0:0:0:0:
297,161,131318,6,0,B|322:186|361:172|361:172|403:176|430:215,1,144,6|0,3:2|3:0,0:0:0:0:
352,339,131693,1,0,1:0:0:0:
352,339,131755,1,0,1:0:0:0:
352,339,131818,2,0,P|323:363|288:368,1,72,10|0,0:0|0:0,0:0:0:0:
274,249,132068,5,10,0:0:0:0:
478,367,132193,2,0,L|457:297,1,72,10|0,0:0|0:0,0:0:0:0:
209,43,133318,6,0,B|169:46|126:24|126:24|69:43,1,144,6|0,3:2|3:0,0:0:0:0:
27,121,133693,1,2,0:0:0:0:
285,104,133818,2,0,L|359:81,1,72,10|0,0:0|0:0,0:0:0:0:
398,5,134068,5,10,0:0:0:0:
216,181,134193,2,0,P|198:215|199:253,1,72,10|0,0:0|0:0,0:0:0:0:
197,247,134568,6,0,L|287:270,1,90,2|8,3:0|0:0,0:0:0:0:
473,134,135318,6,0,B|442:149|418:179|418:179|324:168|316:89,1,216,6|0,3:2|0:0,0:0:0:0:
197,67,135818,2,0,P|145:25|64:26,1,144,10|0,0:0|0:0,0:0:0:0:
9,92,136193,1,8,0:0:0:0:
78,376,136318,6,0,P|106:321|117:233,1,144,6|0,3:2|3:0,0:0:0:0:
23,284,136693,1,2,0:0:0:0:
239,377,136818,2,0,P|222:336|197:319,1,72,10|0,0:0|0:0,0:0:0:0:
78,376,137068,2,0,P|97:345|109:310,1,72,2|8,0:0|0:0,0:0:0:0:
226,161,137318,6,0,P|244:192|243:240,1,72,6|0,3:2|0:0,0:0:0:0:
130,71,137568,2,0,L|147:1,1,72,0|0,3:2|0:0,0:0:0:0:
446,226,137818,2,0,P|426:176|334:164,1,144,10|0,0:0|0:0,0:0:0:0:
436,22,138193,6,0,P|366:42|297:61,1,144,2|8,3:2|0:0,0:0:0:0:
209,34,138568,2,0,P|174:23|146:0,1,72,0|0,3:2|0:0,0:0:0:0:
259,195,138818,2,0,L|239:274,1,72,10|0,0:0|0:0,0:0:0:0:
423,357,139068,1,0,3:2:0:0:
330,380,139193,5,0,1:0:0:0:
330,380,139255,1,0,1:0:0:0:
330,380,139318,2,0,P|325:306|351:239,1,144,6|2,3:2|3:0,0:0:0:0:
440,215,139693,1,0,1:0:0:0:
316,95,139818,2,0,P|280:82|252:61,1,72,10|0,0:0|0:0,0:0:0:0:
401,46,140068,5,2,0:3:0:0:
231,162,140193,2,0,P|159:167|102:224,1,144,2|8,3:2|0:0,0:0:0:0:
10,202,140568,2,0,L|31:281,1,72,2|0,3:0|0:0,0:0:0:0:
171,384,140818,2,0,P|187:347|185:228,1,144,10|2,0:0|0:3,0:0:0:0:
85,121,141193,5,0,1:0:0:0:
85,121,141255,1,0,1:0:0:0:
85,121,141318,2,0,L|65:42,1,72,2|0,3:2|0:0,0:0:0:0:
263,177,141568,2,0,L|280:246,1,72,2|0,3:0|0:0,0:0:0:0:
359,314,141818,2,0,P|428:304|469:246,1,144,8|2,0:0|0:3,0:0:0:0:
362,45,142193,6,0,P|353:79|341:114,1,72,2|0,3:2|0:0,0:0:0:0:
467,104,142443,1,8,0:0:0:0:
264,222,142568,2,0,P|210:175|137:174,1,144,2|10,3:0|0:0,0:0:0:0:
56,107,142943,1,2,0:0:0:0:
150,72,143068,2,0,P|166:39|170:3,1,72,2|2,0:3|0:0,0:0:0:0:
51,200,143255,5,2,0:0:0:0:
51,200,143318,2,0,L|18:363,1,144,6|2,3:2|0:3,0:0:0:0:
126,312,143693,1,0,1:0:0:0:
255,359,143818,2,0,P|291:352|322:334,1,72,10|0,0:0|0:0,0:0:0:0:
416,373,144068,5,2,1:3:0:0:
273,232,144193,2,0,P|224:181|153:176,1,144,2|8,3:2|0:0,0:0:0:0:
50,199,144568,2,0,L|69:130,1,72,2|0,3:0|0:0,0:0:0:0:
186,68,144818,2,0,P|239:64|304:4,1,144,10|2,0:0|3:0,0:0:0:0:
303,6,145193,1,2,0:0:0:0:
480,234,145318,6,0,B|489:263|489:263|430:212|340:199,1,180,6|0,3:2|0:0,0:0:0:0:
354,201,145693,1,10,0:0:0:0:
468,21,146068,6,0,B|439:62|439:62|354:73|329:2,1,180,6|0,3:2|0:0,0:0:0:0:
331,9,146443,1,8,0:0:0:0:
265,135,146568,2,0,P|237:157|202:162,1,72,0|0,3:0|0:0,0:0:0:0:
79,144,146818,2,0,L|46:-3,1,144,8|0,0:0|3:0,0:0:0:0:
47,3,147193,1,2,0:0:0:0:
142,246,147318,6,0,B|153:298|209:313|209:313|277:295|311:354,1,216,6|0,3:2|0:0,0:0:0:0:
418,380,147818,2,0,P|463:340|446:257,1,144,10|0,0:0|0:0,0:0:0:0:
346,136,148193,1,0,1:0:0:0:
346,136,148255,1,0,1:0:0:0:
346,136,148318,2,0,L|324:208,1,72,2|0,3:2|0:0,0:0:0:0:
464,93,148568,6,0,P|464:55|448:18,1,72,0|0,3:0|0:0,0:0:0:0:
246,88,148818,2,0,P|187:67|125:9,1,144,10|2,0:0|0:0,0:0:0:0:
127,12,149193,1,2,0:0:0:0:
17,220,149318,6,0,B|47:190|47:190|131:198|162:266,1,180,6|0,3:2|0:0,0:0:0:0:
158,259,149693,2,0,P|146:305|137:339,1,72,2|0,3:2|0:0,0:0:0:0:
468,136,150068,6,0,B|412:127|367:50|367:50|351:90|391:120,1,216,6|0,1:2|0:0,0:0:0:0:
397,227,150568,2,0,L|370:307,1,72,0|0,3:2|0:0,0:0:0:0:
209,144,150818,2,0,P|178:79|194:0,1,144,8|2,0:0|0:0,0:0:0:0:
279,43,151193,1,2,1:2:0:0:
157,245,151318,6,0,P|111:292|29:310,1,144,6|0,3:2|0:0,0:0:0:0:
87,186,151693,1,0,0:0:0:0:
207,333,151818,2,0,P|231:359|263:374,1,72,10|0,0:0|0:0,0:0:0:0:
373,295,152068,2,0,L|397:227,1,72,2|0,0:0|1:0,0:0:0:0:
395,225,152255,5,0,1:0:0:0:
395,225,152318,2,0,P|428:238|462:248,1,72,2|0,3:2|0:0,0:0:0:0:
311,117,152568,2,0,P|286:142|263:171,1,72,0|0,3:2|0:0,0:0:0:0:
454,131,152818,2,0,P|495:75|463:-12,1,144,10|2,0:0|0:0,0:0:0:0:
480,6,153193,1,2,0:0:0:0:
253,174,153318,6,0,B|225:199|182:188|182:188|112:193|98:245,1,180,6|0,3:2|0:0,0:0:0:0:
99,240,153693,2,0,P|123:265|126:309,1,72,2|0,3:2|0:0,0:0:0:0:
0,0,154068,6,0,P|99:44|206:70,1,216,14|8,0:0|0:0,0:0:0:0:
330,65,154568,2,0,P|348:33|357:0,1,72,0|0,3:2|0:0,0:0:0:0:
153,156,154818,2,0,P|110:202|20:212,1,144,10|2,0:0|3:2,0:0:0:0:
32,215,155193,1,2,0:0:0:0:
303,374,155318,6,0,B|327:310|327:310|324:260|261:224|209:260,1,216,6|0,3:2|0:0,0:0:0:0:
96,320,155818,2,0,P|78:371|111:329,1,144,10|0,0:2|0:0,0:0:0:0:
319,161,156193,6,0,B|326:83|406:77|406:77|444:140|388:165,1,216,6|0,3:2|3:0,0:0:0:0:
231,58,156818,2,0,P|163:37|89:18,1,144,8|2,0:0|0:0,0:0:0:0:
92,18,157193,1,2,0:0:0:0:
215,187,157318,6,0,B|217:248|271:272|271:272|317:319|285:384,1,216,6|0,3:2|0:0,0:0:0:0:
380,253,157818,2,0,P|423:202|497:199,1,144,10|0,0:0|0:0,0:0:0:0:
209,342,158193,6,0,L|131:367,1,72,6|0,3:2|0:0,0:0:0:0:
42,307,158443,1,8,0:0:0:0:
190,219,158568,2,0,P|204:185|206:149,1,72,2|0,3:2|0:0,0:0:0:0:
62,0,158818,2,0,P|34:68|29:138,1,144,10|0,0:0|3:0,0:0:0:0:
188,41,159193,5,0,1:0:0:0:
188,41,159255,1,0,1:0:0:0:
188,41,159318,2,0,B|265:71|265:71|305:53|346:53,1,144,6|0,3:2|0:0,0:0:0:0:
416,99,159693,1,0,1:0:0:0:
345,258,159818,2,0,P|329:224|325:189,1,72,8|0,0:0|0:0,0:0:0:0:
477,243,160068,5,0,1:0:0:0:
499,343,160193,1,0,1:0:0:0:
399,377,160318,2,0,P|329:368|279:313,1,144,6|0,3:2|3:0,0:0:0:0:
178,351,160693,1,0,1:0:0:0:
282,144,160818,2,0,L|301:225,1,72,8|0,0:0|0:0,0:0:0:0:
96,153,161068,5,2,1:2:0:0:
31,81,161193,1,2,1:2:0:0:
105,17,161318,2,0,B|182:-19|246:63|246:63|219:42|186:40,1,216,6|0,3:2|0:0,0:0:0:0:
96,153,161818,2,0,P|77:222|60:292,1,144,8|0,0:0|0:0,0:0:0:0:
136,374,162193,2,0,P|150:345|151:306,1,72,0|0,3:2|0:0,0:0:0:0:
1,193,162443,5,8,0:0:0:0:
192,120,162568,2,0,B|236:100|266:112|266:112|308:102|331:65,1,144,0|8,3:2|0:0,0:0:0:0:
399,25,162943,1,2,0:0:0:0:
460,96,163068,2,0,P|452:135|435:172,1,72,2|0,3:2|0:0,0:0:0:0:
273,323,163318,5,10,0:0:0:0:
394,375,163443,2,0,L|377:311,1,53.9999983520508,10|0,0:0|0:0,0:0:0:0:
230,168,163693,2,0,L|197:39,1,121.499996292114,14|0,0:0|0:0,0:0:0:0:
199,50,163943,5,10,0:0:0:0:
66,256,164068,2,0,P|23:222|71:249,1,161.999995056153,14|12,0:0|3:3,0:0:0:0:
235,322,165318,6,0,P|201:346|160:341,1,80.9999975280763,6|0,3:1|0:0,0:0:0:0:
355,180,165568,2,0,L|371:100,1,80.9999975280763,0|0,3:2|0:0,0:0:0:0:
271,81,165818,2,0,P|218:83|166:-16,1,161.999995056153,10|0,0:0|0:0,0:0:0:0:
385,284,166193,6,0,P|438:282|490:381,1,161.999995056153,2|8,3:2|0:0,0:0:0:0:
286,244,166568,2,0,P|268:205|271:159,1,80.9999975280763,2|2,3:2|0:0,0:0:0:0:
268,167,166755,1,2,0:0:0:0:
268,167,166818,1,10,0:0:0:0:
370,102,166943,5,2,0:0:0:0:
163,214,167068,2,0,L|70:192,1,80.9999975280763,2|0,3:2|0:0,0:0:0:0:
8,234,167318,6,0,B|19:273|59:278|59:278|101:316|83:360,1,161.999995056153,2|0,3:2|3:0,0:0:0:0:
192,311,167693,1,0,1:0:0:0:
270,384,167818,2,0,P|296:354|304:315,1,80.9999975280763,10|0,0:0|0:0,0:0:0:0:
162,49,168068,5,2,0:0:0:0:
244,214,168193,2,0,P|166:195|120:130,1,161.999995056153,2|8,3:2|0:0,0:0:0:0:
53,59,168568,2,0,P|26:86|22:131,1,80.9999975280763,0|0,3:2|0:0,0:0:0:0:
232,110,168818,2,0,L|252:26,1,80.9999975280763,10|0,0:0|0:0,0:0:0:0:
12,289,169068,6,0,B|68:266|68:266|32:289,1,94.499997116089,2|0,3:2|0:0,0:0:0:0:
39,284,169318,6,0,B|48:344|111:354|111:354|171:322,1,161.999995056153,6|0,3:2|3:0,0:0:0:0:
324,236,169693,1,2,0:0:0:0:
343,335,169818,2,0,P|261:317|228:240,1,161.999995056153,10|0,0:0|0:0,0:0:0:0:
436,285,170193,6,0,L|460:373,1,80.9999975280763,2|0,3:2|0:0,0:0:0:0:
324,236,170443,1,8,0:0:0:0:
422,54,170568,2,0,P|380:57|346:80,1,80.9999975280763,2|0,3:2|0:0,0:0:0:0:
259,112,170818,2,0,P|179:97|131:35,1,161.999995056153,10|0,0:0|3:0,0:0:0:0:
494,227,171318,6,0,P|472:194|435:182,1,80.9999975280763,2|0,3:2|0:0,0:0:0:0:
349,78,171568,2,0,L|328:-5,1,80.9999975280763,0|0,3:0|0:0,0:0:0:0:
26,162,171818,2,0,B|57:189|93:177|93:177|145:184|157:241,1,161.999995056153,10|0,0:0|0:0,0:0:0:0:
101,319,172193,6,0,P|73:348|32:352,1,80.9999975280763,2|0,3:2|0:0,0:0:0:0:
286,200,172443,1,8,0:0:0:0:
272,382,172568,2,0,L|245:296,1,80.9999975280763,0|0,3:2|0:0,0:0:0:0:
300,18,172818,6,0,P|374:27|400:85,1,135,10|0,0:0|0:0,0:0:0:0:
357,149,173068,2,0,P|348:177|370:156,1,80.9999975280763,6|8,3:2|0:0,0:0:0:0:
188,11,173318,6,0,B|149:42|106:24|106:24|35:24|9:85,1,198.000006042481,6|0,3:2|3:0,0:0:0:0:
150,155,173693,1,2,0:0:0:0:
79,256,173818,2,0,P|42:242|14:208,1,80.9999975280763,10|0,0:0|0:0,0:0:0:0:
258,157,174068,5,2,0:0:0:0:
128,354,174193,2,0,B|167:371|167:371|249:350|272:296,1,161.999995056153,2|8,3:2|0:0,0:0:0:0:
357,368,174568,2,0,P|377:314|363:269,1,80.9999975280763,2|0,3:2|0:0,0:0:0:0:
180,165,174818,2,0,L|19:199,1,161.999995056153,10|0,0:0|3:0,0:0:0:0:
375,26,175193,5,2,0:0:0:0:
375,26,175255,1,2,0:0:0:0:
375,26,175318,2,0,B|366:87|289:92|289:92|235:59,1,180,6|0,3:2|3:0,0:0:0:0:
236,60,175693,1,0,0:0:0:0:
490,318,175818,6,0,P|435:310|361:188,1,188.999994232178,14|0,0:0|0:0,0:0:0:0:
360,208,176193,1,0,1:0:0:0:
207,338,176318,6,0,B|159:364|159:364|69:347|38:274,1,198.000006042481,6|0,3:2|3:0,0:0:0:0:
44,286,176693,1,0,0:0:0:0:
281,120,176818,6,2,B|382:120|319:-89|132:10|203:99,1,310.500005922318,14|0,0:0|0:1,0:1:0:0:
281,120,177318,6,0,B|206:104|151:159|151:159|117:127|73:127,1,215.999993408203,6|0,3:2|0:0,0:0:0:0:
235,295,177693,1,2,0:0:0:0:
176,380,177818,2,0,P|120:317|142:236,1,161.999995056153,10|2,0:0|0:0,0:0:0:0:
328,294,178193,6,0,P|390:347|477:364,1,161.999995056153,2|2,3:2|1:2,0:0:0:0:
469,368,178505,1,2,0:0:0:0:
469,368,178568,2,0,L|491:282,1,80.9999975280763,2|0,3:2|0:0,0:0:0:0:
323,113,178818,6,0,P|284:112|250:136,1,80.9999975280763,10|0,0:0|0:0,0:0:0:0:
450,85,179068,2,0,P|470:50|475:9,1,80.9999975280763,2|0,3:2|0:0,0:0:0:0:
304,205,179318,6,0,P|258:275|255:358,1,161.999995056153,6|0,3:2|3:0,0:0:0:0:
253,351,179693,1,0,1:0:0:0:
8,131,179818,6,0,B|36:173|87:168|87:168|136:172|157:233,1,180,10|0,0:0|3:0,0:0:0:0:
338,303,180193,6,0,P|435:272|458:179,1,198.000006042481,14|8,0:0|0:0,0:0:0:0:
292,18,180568,5,2,1:0:0:0:
271,54,180630,1,0,1:0:0:0:
294,95,180693,1,0,1:0:0:0:
363,156,180818,5,10,0:0:0:0:
284,240,180943,5,8,0:0:0:0:
151,220,181068,5,8,0:0:0:0:
102,72,181193,5,8,0:0:0:0:
283,240,181318,6,0,P|260:280|219:297,1,90,6|0,3:1|0:0,0:0:0:0:
351,54,181568,2,0,L|482:85,1,135,8|0,0:0|0:0,0:0:0:0:
486,89,181818,2,0,P|486:138|474:182,1,90,2|0,3:2|0:0,0:0:0:0:
339,147,182068,5,8,0:0:0:0:
493,360,182193,2,0,P|448:285|361:280,1,180,2|0,3:2|3:0,0:0:0:0:
283,330,182568,2,0,P|242:355|198:352,1,90,10|0,0:0|0:0,0:0:0:0:
339,147,182818,6,0,L|357:52,1,90,2|0,3:2|0:0,0:0:0:0:
115,284,183068,2,0,L|98:372,1,90,10|0,0:0|0:0,0:0:0:0:
0,98,183318,6,0,P|28:132|73:145,1,90,6|0,3:2|0:0,0:0:0:0:
248,53,183568,2,0,P|211:16|212:68,1,135,8|0,0:0|0:0,0:0:0:0:
269,127,183818,2,0,P|297:160|354:167,1,90,2|0,3:2|0:0,0:0:0:0:
475,59,184068,1,8,0:0:0:0:
247,304,184193,6,0,B|207:313|185:344|185:344|125:349|100:284,1,180,6|0,3:2|0:0,0:0:0:0:
363,248,184568,2,0,P|398:301|469:308,1,135,8|0,0:0|0:0,0:0:0:0:
464,309,184818,2,0,P|476:266|488:223,1,90,2|0,3:2|0:0,0:0:0:0:
296,11,185068,2,0,P|284:54|272:97,1,90,10|0,0:0|0:0,0:0:0:0:
204,170,185318,6,0,B|143:189|143:189|98:172|98:172|24:198,1,180,6|8,3:2|0:0,0:0:0:0:
187,298,185693,1,0,1:0:0:0:
62,375,185818,2,0,P|70:326|90:282,1,90,2|0,3:2|0:0,0:0:0:0:
280,208,186068,5,8,0:0:0:0:
13,14,186193,2,0,P|99:28|145:102,1,180,6|0,3:2|3:0,0:0:0:0:
287,83,186568,2,0,P|313:47|319:0,1,90,8|0,0:0|0:0,0:0:0:0:
111,184,186818,6,0,P|68:197|25:212,1,90,2|0,3:2|3:0,0:0:0:0:
379,351,187068,2,0,P|421:335|464:322,1,90,10|0,0:0|0:0,0:0:0:0:
245,366,187318,6,0,B|211:307|211:307|237:232|311:263,1,180,6|8,3:2|0:0,0:0:0:0:
490,89,187818,6,0,B|455:38|384:28|384:28|451:24,1,180,6|8,3:2|0:0,0:0:0:0:
374,148,188193,6,2,B|339:252|205:232|222:92|303:130,1,247.500007553101,6|0,3:2|0:1,0:1:0:0:
290,125,188568,6,0,P|326:167|318:220,1,90,10|0,0:0|0:0,0:0:0:0:
122,90,188818,2,0,P|140:37|190:18,1,90,2|0,3:2|3:0,0:0:0:0:
254,285,189068,6,0,P|299:296|345:309,1,94.499997116089,10|0,0:0|0:0,0:0:0:0:
345,309,189318,6,0,P|374:333|397:384,1,90,6|0,3:2|0:0,0:0:0:0:
177,206,189568,2,0,P|109:193|62:142,1,135,8|0,0:0|0:0,0:0:0:0:
64,147,189818,2,0,P|78:104|91:61,1,90,2|0,3:2|3:0,0:0:0:0:
165,293,190068,2,0,P|152:336|137:378,1,90,8|0,0:0|0:0,0:0:0:0:
280,159,190318,6,0,P|344:100|436:98,1,180,6|8,3:2|0:0,0:0:0:0:
433,97,190693,1,0,1:0:0:0:
192,195,190818,2,0,P|147:177|121:144,1,90,2|0,3:2|3:0,0:0:0:0:
306,384,191068,2,0,L|335:252,1,135,8|0,0:0|0:0,0:0:0:0:
335,252,191318,6,0,P|381:243|420:227,1,90,6|0,3:2|0:0,0:0:0:0:
235,73,191568,2,0,P|196:28|116:34,1,135,10|0,0:0|0:0,0:0:0:0:
45,80,191818,2,0,P|31:109|59:84,1,90,2|0,3:2|3:0,0:0:0:0:
315,0,192068,5,8,0:0:0:0:
479,140,192193,2,0,B|443:163|443:163|355:156|334:82,1,180,6|0,3:2|3:0,0:0:0:0:
235,73,192568,2,0,P|188:83|155:112,1,90,10|0,0:0|0:0,0:0:0:0:
365,303,192818,1,0,3:0:0:0:
298,370,192943,1,0,3:0:0:0:
206,339,193068,6,0,P|192:293|178:248,1,94.499997116089,10|0,0:0|0:0,0:0:0:0:
178,248,193318,6,0,P|223:237|254:205,1,80.9999975280763,6|0,3:2|0:0,0:0:0:0:
134,103,193568,2,0,P|56:80|21:5,1,161.999995056153,8|0,0:0|3:0,0:0:0:0:
21,12,193943,1,0,3:0:0:0:
493,189,194193,6,0,B|454:191|425:164|425:164|341:167|329:247,1,198.000006042481,14|0,0:0|3:0,0:0:0:0:
402,384,194568,2,0,P|430:341|422:293,1,80.9999975280763,10|0,0:0|0:0,0:0:0:0:
203,207,194818,5,0,3:0:0:0:
156,303,194943,1,0,3:0:0:0:
229,372,195068,1,10,0:0:0:0:
332,230,195193,1,2,0:0:0:0:
161,121,195318,6,0,P|122:132|85:149,1,80.9999975280763,6|0,3:2|0:0,0:0:0:0:
317,143,195568,2,0,P|364:88|353:-6,1,161.999995056153,8|0,0:0|3:0,0:0:0:0:
358,2,195943,1,0,3:0:0:0:
485,326,196193,6,0,B|410:401|340:260|446:246,1,198.000006042481,14|0,0:0|3:0,0:0:0:0:
307,363,196568,2,0,P|228:359|178:298,1,161.999995056153,10|0,0:0|3:0,0:0:0:0:
228,202,196943,1,0,3:0:0:0:
82,134,197068,2,0,P|42:141|10:165,1,80.9999975280763,10|0,0:0|0:0,0:0:0:0:
256,88,197318,6,0,P|272:46|268:2,1,80.9999975280763,6|0,3:2|0:0,0:0:0:0:
107,217,197568,2,0,L|79:335,1,121.499996292114,8|0,0:0|0:0,0:0:0:0:
79,335,197818,2,0,P|90:356|83:329,1,80.9999975280763,0|0,3:0|3:0,0:0:0:0:
10,165,198068,5,10,0:0:0:0:
215,268,198193,2,0,P|285:270|342:204,1,161.999995056153,0|0,3:2|3:0,0:0:0:0:
450,225,198568,2,0,P|440:186|429:145,1,80.9999975280763,8|0,0:0|0:0,0:0:0:0:
207,43,198818,1,0,3:0:0:0:
287,120,198943,1,0,3:0:0:0:
498,13,199068,6,0,P|422:17|384:78,1,135,8|0,0:0|0:0,0:0:0:0:
387,59,199318,6,0,L|413:147,1,90,14|0,0:0|0:0,0:0:0:0:
459,375,200693,5,0,3:0:0:0:
492,332,200755,1,0,3:0:0:0:
464,300,200818,2,0,L|369:275,1,90,10|2,0:0|0:3,0:0:0:0:
376,277,201193,1,2,0:3:0:0:
69,359,201318,6,0,B|109:321|156:335|156:335|228:304|206:213,1,222.75000212431,6|0,3:1|0:0,0:0:0:0:
103,131,201818,2,0,L|75:48,1,74.2500007081032,10|0,0:0|0:0,0:0:0:0:
257,0,202068,1,2,0:0:0:0:
260,112,202193,2,0,P|224:102|196:78,1,74.2500007081032,0|0,3:2|0:0,0:0:0:0:
431,198,202443,5,8,0:0:0:0:
344,304,202568,2,0,L|322:223,1,74.2500007081032,0|0,3:2|0:0,0:0:0:0:
419,103,202818,2,0,P|451:81|487:71,1,74.2500007081032,10|0,0:0|0:0,0:0:0:0:
323,12,203068,1,0,3:2:0:0:
238,96,203193,5,2,0:0:0:0:
238,96,203255,1,2,0:0:0:0:
238,96,203318,2,0,P|167:74|111:26,1,148.500001416206,2|0,3:2|0:0,0:0:0:0:
27,92,203693,1,0,1:0:0:0:
96,243,203818,2,0,P|114:212|120:174,1,74.2500007081032,10|0,0:0|0:0,0:0:0:0:
12,187,204068,5,2,0:0:0:0:
259,371,204193,2,0,P|249:297|203:239,1,148.500001416206,2|8,3:2|0:0,0:0:0:0:
108,329,204568,2,0,P|78:352|42:360,1,74.2500007081032,0|0,3:2|0:0,0:0:0:0:
213,146,204818,2,0,P|243:123|278:114,1,74.2500007081032,8|0,0:2|0:0,0:0:0:0:
423,279,205068,5,0,3:0:0:0:
489,198,205193,1,8,0:0:0:0:
400,132,205318,2,0,B|368:49|391:-17|391:-17|343:60,1,222.75000212431,6|0,3:2|0:0,0:0:0:0:
176,78,205818,2,0,P|114:57|29:27,1,148.500001416206,10|0,0:0|0:0,0:0:0:0:
102,163,206193,6,0,P|129:188|167:197,1,74.2500007081032,0|0,3:2|0:0,0:0:0:0:
222,278,206443,1,8,0:0:0:0:
99,380,206568,2,0,P|83:336|85:304,1,74.2500007081032,0|0,3:2|0:0,0:0:0:0:
314,287,206818,2,0,L|393:308,1,74.2500007081032,8|0,0:0|0:0,0:0:0:0:
445,380,207068,1,0,3:0:0:0:
369,216,207193,1,8,0:0:0:0:
445,380,207318,6,0,P|478:316|491:226,1,148.500001416206,2|0,3:2|0:0,0:0:0:0:
356,217,207693,1,2,0:0:0:0:
408,78,207818,2,0,P|424:111|432:147,1,74.2500007081032,10|0,0:0|0:0,0:0:0:0:
301,56,208068,5,0,1:0:0:0:
217,123,208193,2,0,P|145:120|102:62,1,148.500001416206,2|8,3:2|0:0,0:0:0:0:
112,204,208568,2,0,L|86:283,1,74.2500007081032,0|0,3:2|0:0,0:0:0:0:
241,384,208818,2,0,P|260:335|265:301,1,74.2500007081032,10|0,0:0|0:0,0:0:0:0:
225,223,209068,1,0,3:0:0:0:
377,146,209193,5,0,1:0:0:0:
377,146,209255,1,0,1:0:0:0:
377,146,209318,2,0,B|320:146|291:83|291:83|238:43|183:67,1,222.75000212431,6|0,3:2|0:0,0:0:0:0:
78,146,209818,2,0,P|62:99|29:2,1,148.500001416206,10|0,0:0|0:0,0:0:0:0:
183,156,210193,6,0,P|180:195|167:227,1,74.2500007081032,0|0,3:2|0:0,0:0:0:0:
4,270,210443,1,8,0:0:0:0:
74,381,210568,2,0,L|100:294,1,74.2500007081032,0|0,3:2|0:0,0:0:0:0:
263,222,210818,2,0,P|298:254|312:357,1,148.500001416206,10|0,0:0|3:0,0:0:0:0:
211,311,211193,1,8,0:0:0:0:
401,219,211318,6,0,P|414:146|429:73,1,148.500001416206,2|0,3:2|0:0,0:0:0:0:
496,12,211693,1,0,1:0:0:0:
316,92,211818,2,0,P|269:72|244:47,1,74.2500007081032,10|0,0:0|0:0,0:0:0:0:
336,4,212068,1,2,0:0:0:0:
179,125,212193,6,0,P|108:127|39:177,1,148.500001416206,2|8,3:2|0:0,0:0:0:0:
152,307,212568,1,0,1:0:0:0:
141,273,212630,1,0,1:0:0:0:
123,231,212693,1,10,0:0:0:0:
221,248,212818,1,8,0:0:0:0:
272,170,212943,1,8,0:0:0:0:
395,298,213068,6,0,L|488:324,1,80.9999975280763,0|0,3:0|0:0,0:0:0:0:
473,319,213318,6,0,B|498:238|498:238|380:203|380:203|329:228|329:228|287:358|287:358|352:379,1,450,14|0,0:0|0:0,0:0:0:0:
334,373,214693,6,0,L|292:362,1,22.5,0|0,3:0|3:0,0:0:0:0:
152,360,214818,1,10,0:0:0:0:
214,315,214943,1,2,3:0:0:0:
0,321,215318,6,0,P|46:257|124:256,1,161.999995056153,6|0,3:2|0:0,0:0:0:0:
201,189,215818,2,0,P|222:145|211:80,1,107.999996704102,10|0,0:0|0:0,0:0:0:0:
121,19,216193,2,0,L|111:75,1,53.9999983520508,0|0,3:2|0:0,0:0:0:0:
218,9,216443,1,8,0:0:0:0:
34,137,216568,2,0,L|19:82,1,53.9999983520508,0|0,3:0|0:0,0:0:0:0:
206,276,216818,2,0,L|237:393,1,107.999996704102,10|0,0:0|0:0,0:0:0:0:
233,380,217193,1,0,0:0:0:0:
376,258,217318,6,0,P|364:284|361:310,1,53.9999983520508,2|0,3:2|0:0,0:0:0:0:
432,384,217568,2,0,P|458:377|484:370,1,53.9999983520508,0|0,3:0|0:0,0:0:0:0:
282,226,217818,2,0,P|255:180|253:114,1,107.999996704102,10|0,0:0|0:0,0:0:0:0:
396,118,218193,2,0,L|448:132,1,53.9999983520508,0|0,3:0|0:0,0:0:0:0:
482,230,218443,5,8,0:0:0:0:
416,31,218568,2,0,P|363:30|322:70,1,107.999996704102,0|8,3:0|0:0,0:0:0:0:
253,131,218943,1,2,0:0:0:0:
175,81,219068,2,0,P|155:45|155:22,1,53.9999983520508,2|2,0:0|0:0,0:0:0:0:
243,250,219318,6,0,B|183:233|183:233|138:266|84:255,1,161.999995056153,2|0,3:2|0:0,0:0:0:0:
246,375,219818,2,0,P|285:339|338:340,1,107.999996704102,8|0,0:0|0:0,0:0:0:0:
423,369,220193,1,0,3:0:0:0:
494,294,220318,2,0,L|443:278,1,53.9999983520508,2|8,0:0|0:0,0:0:0:0:
338,208,220568,6,0,P|327:183|324:154,1,53.9999983520508,0|0,3:2|0:0,0:0:0:0:
447,9,220818,2,0,P|467:58|474:116,1,107.999996704102,8|0,0:2|0:0,0:0:0:0:
474,112,221193,1,0,0:0:0:0:
358,62,221318,6,0,P|329:49|301:47,1,53.9999983520508,2|0,3:2|0:0,0:0:0:0:
209,124,221568,2,0,L|191:66,1,53.9999983520508,0|0,3:0|0:0,0:0:0:0:
400,257,221818,2,0,L|427:370,1,107.999996704102,10|0,0:0|0:0,0:0:0:0:
316,328,222193,6,0,P|284:285|286:232,1,107.999996704102,0|8,3:0|0:0,0:0:0:0:
198,356,222568,2,0,P|169:376|130:389,1,53.9999983520508,0|0,3:0|0:0,0:0:0:0:
298,144,222818,2,0,P|324:155|347:167,1,53.9999983520508,8|0,0:0|0:0,0:0:0:0:
141,172,223068,5,2,3:2:0:0:
48,122,223193,1,10,0:0:0:0:
116,50,223318,2,0,L|275:19,1,161.999995056153,6|0,3:2|0:0,0:0:0:0:
369,77,223818,2,0,P|422:60|449:8,1,107.999996704102,8|0,0:0|0:0,0:0:0:0:
316,205,224193,6,0,L|292:316,1,107.999996704102,2|8,3:2|0:0,0:0:0:0:
369,369,224568,2,0,P|379:336|380:305,1,53.9999983520508,0|0,3:0|0:0,0:0:0:0:
195,245,224818,2,0,P|144:229|111:188,1,107.999996704102,8|0,0:0|0:0,0:0:0:0:
63,107,225193,5,0,1:0:0:0:
63,107,225255,1,0,1:0:0:0:
63,107,225318,2,0,L|124:94,1,53.9999983520508,2|0,3:2|0:0,0:0:0:0:
243,56,225568,2,0,P|253:31|256:4,1,53.9999983520508,0|0,3:0|0:0,0:0:0:0:
65,274,225818,6,0,P|45:323|46:377,1,107.999996704102,10|0,0:0|0:0,0:0:0:0:
172,333,226193,2,0,L|237:349,1,53.9999983520508,2|0,3:2|0:0,0:0:0:0:
418,289,226443,1,8,0:0:0:0:
398,382,226568,2,0,P|372:373|351:356,1,53.9999983520508,0|0,3:2|0:0,0:0:0:0:
476,176,226818,2,0,L|501:282,1,107.999996704102,10|2,0:0|0:3,0:0:0:0:
501,282,227193,1,2,0:3:0:0:
337,149,227318,6,0,P|285:137|251:96,1,107.999996704102,6|0,3:2|3:0,0:0:0:0:
217,8,227693,1,2,0:0:0:0:
104,144,227818,2,0,P|80:157|53:163,1,53.9999983520508,10|0,0:0|0:0,0:0:0:0:
140,70,228068,5,2,0:0:0:0:
42,348,228193,2,0,P|21:299|27:246,1,107.999996704102,2|8,3:2|0:0,0:0:0:0:
151,318,228568,2,0,P|170:347|177:372,1,53.9999983520508,2|0,3:2|0:0,0:0:0:0:
305,259,228818,2,0,P|315:234|317:204,1,53.9999983520508,10|2,0:0|0:0,0:0:0:0:
317,207,229068,1,2,0:3:0:0:
232,96,229193,5,0,1:0:0:0:
232,96,229255,1,0,1:0:0:0:
232,96,229318,2,0,L|290:113,1,53.9999983520508,6|0,3:2|0:0,0:0:0:0:
480,267,229568,2,0,P|476:239|459:214,1,53.9999983520508,0|0,3:2|0:0,0:0:0:0:
363,384,229818,2,0,L|391:273,1,107.999996704102,10|0,0:0|0:0,0:0:0:0:
484,140,230193,5,0,3:0:0:0:
450,106,230255,1,0,3:0:0:0:
474,60,230318,1,10,0:0:0:0:
401,6,230443,1,8,0:0:0:0:
297,20,230568,1,0,3:0:0:0:
226,96,230693,1,8,0:0:0:0:
290,208,230818,5,10,0:0:0:0:
347,137,230943,1,0,3:0:0:0:
377,247,231068,5,8,0:0:0:0:
338,124,231193,1,8,0:0:0:0:
134,235,231318,6,0,B|163:260|205:253|205:253|266:286,1,135.000005149842,6|2,3:2|3:0,0:0:0:0:
217,360,231693,1,0,1:0:0:0:
410,306,231818,2,0,P|445:301|475:279,1,67.5000025749208,10|0,0:0|0:0,0:0:0:0:
505,368,232068,1,2,0:3:0:0:
402,221,232193,6,0,P|349:179|328:116,1,135.000005149842,2|8,3:2|0:0,0:0:0:0:
450,61,232568,2,0,P|440:103|420:129,1,67.5000025749208,2|0,3:0|0:0,0:0:0:0:
226,78,232818,2,0,L|202:2,1,67.5000025749208,10|0,0:0|0:0,0:0:0:0:
30,82,233068,1,2,0:3:0:0:
106,135,233193,1,2,1:2:0:0:
59,317,233318,6,0,P|25:259|28:192,1,135.000005149842,2|2,3:2|0:3,0:0:0:0:
186,257,233693,1,0,1:0:0:0:
276,184,233818,2,0,P|242:170|211:158,1,67.5000025749208,10|0,0:0|0:0,0:0:0:0:
297,311,234068,5,2,0:3:0:0:
468,198,234193,2,0,P|439:139|354:131,1,135.000005149842,2|8,3:2|0:0,0:0:0:0:
411,282,234568,2,0,L|476:298,1,67.5000025749208,2|0,3:0|0:0,0:0:0:0:
293,98,234818,2,0,P|277:64|277:33,1,67.5000025749208,10|0,0:0|0:0,0:0:0:0:
385,203,235068,1,2,0:3:0:0:
297,311,235193,5,0,1:0:0:0:
297,311,235255,1,0,1:0:0:0:
297,311,235318,2,0,P|231:326|165:340,1,135.000005149842,6|2,3:2|0:3,0:0:0:0:
63,312,235693,1,0,1:0:0:0:
161,166,235818,2,0,P|181:196|187:231,1,67.5000025749208,10|0,0:0|0:0,0:0:0:0:
43,132,236068,2,0,L|58:66,1,67.5000025749208,2|0,0:3|1:0,0:0:0:0:
232,4,236318,6,0,P|251:18|226:11,1,67.5000025749208,6|0,3:2|1:0,0:0:0:0:
360,158,236568,2,0,P|393:169|426:176,1,67.5000025749208,0|0,3:0|0:0,0:0:0:0:
292,239,236818,2,0,P|261:192|271:113,1,135.000005149842,10|2,0:0|0:0,0:0:0:0:
367,5,237193,5,0,1:0:0:0:
367,5,237255,1,0,1:0:0:0:
367,5,237318,2,0,L|382:77,1,67.5000025749208,6|0,3:2|0:0,0:0:0:0:
188,265,237568,2,0,L|174:198,1,67.5000025749208,2|0,3:2|0:0,0:0:0:0:
125,111,237818,2,0,P|64:73|-2:91,1,135.000005149842,10|2,0:0|0:0,0:0:0:0:
248,328,238193,6,0,P|313:343|381:358,1,135.000005149842,6|8,3:2|0:0,0:0:0:0:
459,281,238568,2,0,P|424:260|391:263,1,67.5000025749208,0|0,3:0|0:0,0:0:0:0:
272,153,238818,2,0,P|243:92|244:25,1,135.000005149842,10|0,0:0|3:0,0:0:0:0:
428,48,239193,5,0,1:0:0:0:
428,48,239255,1,0,1:0:0:0:
428,48,239318,2,0,P|398:63|365:72,1,67.5000025749208,6|0,3:2|0:0,0:0:0:0:
398,260,239568,2,0,P|416:218|418:190,1,67.5000025749208,2|0,3:0|0:0,0:0:0:0:
244,25,239818,2,0,P|208:109|204:165,1,135.000005149842,10|2,0:0|0:3,0:0:0:0:
151,233,240193,6,0,P|123:253|90:258,1,67.5000025749208,2|0,3:2|0:0,0:0:0:0:
305,241,240443,1,8,0:0:0:0:
246,378,240568,2,0,L|226:308,1,67.5000025749208,2|0,3:3|0:0,0:0:0:0:
397,175,240818,2,0,P|405:240|385:305,1,135.000005149842,10|2,0:0|0:3,0:0:0:0:
385,304,241193,1,2,0:3:0:0:
233,171,241318,6,0,L|303:149,1,67.5000025749208,2|0,3:2|0:0,0:0:0:0:
405,72,241568,2,0,P|422:23|419:0,1,67.5000025749208,2|0,3:0|0:0,0:0:0:0:
215,85,241818,2,0,P|146:103|88:148,1,135.000005149842,10|2,0:0|0:3,0:0:0:0:
267,322,242193,6,0,P|263:288|244:259,1,67.5000025749208,2|0,3:2|0:0,0:0:0:0:
53,317,242443,1,8,0:0:0:0:
147,381,242568,2,0,L|166:307,1,67.5000025749208,2|0,3:0|0:0,0:0:0:0:
343,241,242818,2,0,L|381:93,1,135.000005149842,10|2,0:0|0:3,0:0:0:0:
451,5,243193,5,0,1:0:0:0:
451,5,243255,1,0,1:0:0:0:
451,5,243318,2,0,B|421:25|388:15|388:15|339:14|320:49,1,135.000005149842,6|2,3:2|0:3,0:0:0:0:
262,106,243693,1,0,1:0:0:0:
156,32,243818,2,0,P|125:18|91:13,1,67.5000025749208,10|0,0:0|0:0,0:0:0:0:
13,66,244068,5,2,0:3:0:0:
69,248,244193,2,0,P|99:187|99:120,1,135.000005149842,2|8,3:2|0:0,0:0:0:0:
159,295,244568,2,0,L|137:373,1,67.5000025749208,2|0,3:0|0:0,0:0:0:0:
354,293,244818,2,0,P|337:247|243:235,1,135.000005149842,10|2,0:0|3:0,0:0:0:0:
259,226,245193,1,2,0:0:0:0:
441,136,245318,6,0,B|492:115|500:47|467:10|467:10|451:47,1,168.750006437302,6|0,3:2|0:0,0:0:0:0:
459,27,245693,1,10,0:0:0:0:
260,316,246068,6,0,P|184:297|104:275,1,135.000005149842,6|8,3:2|0:0,0:0:0:0:
31,311,246443,1,8,0:0:0:0:
89,176,246568,2,0,P|118:160|153:153,1,67.5000025749208,0|0,3:2|0:0,0:0:0:0:
256,88,246818,2,0,P|265:56|273:19,1,67.5000025749208,10|0,0:0|0:0,0:0:0:0:
272,22,247068,1,0,3:0:0:0:
483,331,247318,6,0,B|434:340|404:294|404:294|321:283|306:349,1,216,6|0,3:2|0:0,0:0:0:0:
453,211,247818,2,0,P|486:154|469:71,1,144,10|0,0:0|0:0,0:0:0:0:
392,15,248193,1,0,1:0:0:0:
392,15,248255,1,0,1:0:0:0:
392,15,248318,2,0,L|370:87,1,72,2|0,3:2|0:0,0:0:0:0:
270,141,248568,6,0,P|236:133|204:110,1,72,0|0,3:0|0:0,0:0:0:0:
355,274,248818,2,0,P|423:290|487:336,1,144,10|2,0:0|0:0,0:0:0:0:
483,331,249193,1,2,0:0:0:0:
89,304,249318,6,0,B|152:295|205:350|205:350|262:347,1,180,6|0,3:2|0:0,0:0:0:0:
254,347,249693,2,0,P|263:312|272:277,1,72,2|0,3:2|0:0,0:0:0:0:
410,108,250068,6,0,B|421:55|368:19|309:22|309:22|293:62|333:92,1,216,6|0,1:2|0:0,0:0:0:0:
480,182,250568,2,0,P|499:149|498:113,1,72,0|0,3:2|0:0,0:0:0:0:
220,1,250818,2,0,P|210:72|241:136,1,144,8|2,0:0|0:0,0:0:0:0:
240,135,251193,1,2,1:2:0:0:
0,350,251318,6,0,P|69:334|120:284,1,144,6|0,3:2|0:0,0:0:0:0:
57,205,251693,1,0,0:0:0:0:
197,348,251818,2,0,P|231:359|267:371,1,72,10|0,0:0|0:0,0:0:0:0:
373,295,252068,2,0,L|397:227,1,72,2|0,0:0|1:0,0:0:0:0:
395,225,252255,5,0,1:0:0:0:
395,225,252318,2,0,P|428:229|462:253,1,72,2|0,3:2|0:0,0:0:0:0:
324,129,252568,2,0,L|308:57,1,72,0|0,3:2|0:0,0:0:0:0:
72,232,252818,2,0,P|140:217|196:258,1,144,10|2,0:0|0:0,0:0:0:0:
196,258,253193,1,2,0:0:0:0:
473,59,253318,6,0,B|442:132|372:103|372:103|339:38,1,180,6|0,3:2|0:0,0:0:0:0:
347,54,253693,2,0,P|322:30|278:27,1,72,2|0,3:2|0:0,0:0:0:0:
11,331,254068,6,0,B|54:344|54:344|131:342|192:243,1,216,14|8,0:0|0:0,0:0:0:0:
262,306,254568,2,0,P|278:272|273:223,1,72,0|0,3:2|0:0,0:0:0:0:
92,181,254818,1,10,0:0:0:0:
172,130,254943,1,8,0:0:0:0:
132,44,255068,1,2,3:2:0:0:
227,8,255193,1,2,3:2:0:0:
305,148,255318,6,0,B|350:115|413:151|419:184|419:184|417:237|461:253,1,216,6|0,3:2|0:0,0:0:0:0:
321,372,255818,2,0,P|319:303|252:278,1,144,10|0,0:2|0:0,0:0:0:0:
126,354,256193,6,0,B|99:357|58:367|58:367|16:337|2:275|54:239,1,216,6|0,3:2|3:0,0:0:0:0:
200,37,256818,2,0,P|179:108|160:175,1,144,8|2,0:0|0:0,0:0:0:0:
159,175,257193,1,2,0:0:0:0:
405,277,257318,6,0,B|369:321|414:374|414:374|483:361|478:299,1,216,6|0,3:2|0:0,0:0:0:0:
372,157,257818,2,0,P|302:158|255:211,1,144,10|0,0:0|0:0,0:0:0:0:
170,308,258193,6,0,P|133:296|108:268,1,72,6|0,3:2|0:0,0:0:0:0:
24,310,258443,1,8,0:0:0:0:
167,199,258568,2,0,L|183:129,1,72,2|0,3:2|0:0,0:0:0:0:
81,0,258818,2,0,P|53:68|55:138,1,144,10|0,0:0|3:0,0:0:0:0:
254,19,259193,5,0,1:0:0:0:
254,19,259255,1,0,1:0:0:0:
254,19,259318,2,0,B|336:50|336:50|371:31|412:31,1,144,6|0,3:2|0:0,0:0:0:0:
488,111,259693,1,0,1:0:0:0:
404,216,259818,2,0,P|388:182|384:147,1,72,8|0,0:0|0:0,0:0:0:0:
485,360,260068,5,0,1:0:0:0:
369,303,260193,1,0,1:0:0:0:
256,365,260318,2,0,P|186:356|136:301,1,144,6|0,3:2|3:0,0:0:0:0:
247,223,260693,1,0,1:0:0:0:
151,143,260818,2,0,P|136:110|132:74,1,72,8|0,0:0|0:0,0:0:0:0:
304,0,261068,5,2,0:0:0:0:
395,14,261193,1,2,0:0:0:0:
369,105,261318,2,0,B|446:141|510:59|510:59|483:80|450:82,1,216,6|0,3:2|0:0,0:0:0:0:
404,204,261818,2,0,P|385:273|368:343,1,144,8|0,0:0|0:0,0:0:0:0:
456,384,262193,2,0,P|470:355|471:316,1,72,0|0,3:2|0:0,0:0:0:0:
312,209,262443,5,8,0:0:0:0:
145,308,262568,2,0,B|108:288|71:300|71:300|29:290|6:253,1,144,0|8,3:2|0:0,0:0:0:0:
152,196,262943,1,2,0:0:0:0:
64,155,263068,2,0,P|50:121|43:86,1,72,2|0,3:2|0:0,0:0:0:0:
267,360,263318,5,6,3:2:0:0:
354,316,263443,2,0,P|388:326|424:339,1,72,2|8,1:2|0:0,0:0:0:0:
320,162,263693,5,10,0:0:0:0:
440,106,263818,2,0,P|460:56|452:3,1,108,0|0,3:2|0:0,0:0:0:0:
452,3,264068,5,10,0:0:0:0:
439,223,264193,2,0,P|476:237|510:248,1,72,2|4,3:2|0:3,0:0:0:0:
348,311,264443,2,0,P|313:299|280:286,1,72,2|0,0:2|1:0,0:0:0:0:
218,338,264693,5,2,1:2:0:0:
218,338,264755,1,0,1:2:0:0:
218,338,264818,1,10,0:0:0:0:
124,353,264943,1,2,3:2:0:0:
58,278,265068,1,2,1:2:0:0:
132,207,265193,1,2,1:2:0:0:
214,254,265318,6,0,P|241:195|235:104,1,153.000002918243,6|0,3:1|1:0,0:0:0:0:
159,52,265693,1,0,1:0:0:0:
320,0,265818,2,0,P|363:25|383:46,1,76.5000014591217,10|0,0:0|0:0,0:0:0:0:
340,135,266068,5,2,3:2:0:0:
477,70,266193,2,0,P|498:31|501:-6,1,76.5000014591217,2|0,3:3|0:0,0:0:0:0:
357,208,266443,2,0,L|324:370,1,153.000002918243,10|2,0:0|0:0,0:0:0:0:
440,281,266818,1,10,0:0:0:0:
509,368,266943,1,2,0:3:0:0:
416,371,267068,1,2,3:2:0:0:
416,371,267130,1,2,0:0:0:0:
416,371,267193,1,2,0:0:0:0:
257,265,267318,5,2,3:2:0:0:
52,378,267443,2,0,P|117:366|169:290,1,153.000002918243,2|2,0:3|0:0,0:0:0:0:
43,222,267818,1,10,0:0:0:0:
73,143,267943,1,2,0:0:0:0:
152,163,268068,1,2,0:0:0:0:
222,115,268193,1,2,3:2:0:0:
75,26,268318,5,2,0:2:0:0:
145,83,268443,1,10,0:0:0:0:
220,25,268568,2,0,P|257:32|289:52,1,76.5000014591217,2|0,3:2|0:0,0:0:0:0:
490,202,268818,1,10,0:0:0:0:
405,238,268943,1,2,0:0:0:0:
343,169,269068,1,2,3:2:0:0:
442,105,269193,5,0,1:2:0:0:
442,105,269255,1,0,1:2:0:0:
442,105,269318,2,0,P|463:73|468:34,1,76.5000014591217,6|0,3:2|0:0,0:0:0:0:
230,155,269568,1,2,0:0:0:0:
321,242,269693,2,0,L|343:167,1,76.5000014591217,2|8,0:0|0:0,0:0:0:0:
436,381,269943,2,0,L|458:306,1,76.5000014591217,2|0,3:2|0:0,0:0:0:0:
217,360,270193,1,2,3:2:0:0:
308,372,270318,5,2,0:0:0:0:
272,287,270443,1,10,0:0:0:0:
181,274,270568,1,2,3:2:0:0:
125,346,270693,1,2,0:0:0:0:
232,192,270818,2,0,B|239:82|399:105|366:207|314:196,1,229.500004377365,8|0,0:0|1:0,0:0:0:0:
324,199,271255,1,0,1:0:0:0:
324,199,271318,2,0,P|177:154|11:115,1,306.000005836487,6|8,3:2|0:0,0:0:0:0:
181,15,271943,5,2,0:0:0:0:
198,23,272068,1,2,0:0:0:0:
202,42,272193,1,2,3:2:0:0:
285,36,272318,5,2,0:0:0:0:
272,82,272443,1,10,0:0:0:0:
239,109,272568,1,2,3:2:0:0:
354,0,272693,5,2,0:0:0:0:
394,81,272818,1,10,0:0:0:0:
330,138,272943,1,2,0:0:0:0:
471,37,273068,5,2,1:2:0:0:
501,78,273130,1,0,1:2:0:0:
482,130,273193,1,0,1:2:0:0:
444,158,273255,1,0,1:2:0:0:
399,159,273318,2,0,P|381:208|366:247,1,76.5000014591217,6|0,3:2|0:0,0:0:0:0:
169,361,273568,2,0,P|182:325|195:289,1,76.5000014591217,2|0,0:0|0:0,0:0:0:0:
193,149,273818,5,10,0:0:0:0:
130,81,273943,1,2,0:0:0:0:
39,96,274068,2,0,P|23:141|9:178,1,76.5000014591217,2|0,0:0|3:0,0:0:0:0:
10,374,274318,5,2,0:0:0:0:
100,329,274443,1,10,0:0:0:0:
100,329,274505,1,2,0:0:0:0:
100,329,274568,1,2,3:2:0:0:
50,246,274693,1,2,0:0:0:0:
221,352,274818,5,10,0:0:0:0:
310,366,274943,1,2,0:0:0:0:
392,328,275068,1,2,3:2:0:0:
471,368,275193,2,0,P|479:368|526:401,2,38.2500007295609,2|0|0,1:2|1:0|3:0,0:0:0:0:
313,190,275443,6,0,P|282:142|279:34,1,153.000002918243,2|2,0:3|0:0,0:0:0:0:
491,181,275818,1,10,0:0:0:0:
401,111,275943,2,0,P|436:97|472:83,1,76.5000014591217,2|0,0:0|0:0,0:0:0:0:
214,253,276193,6,0,P|266:268|284:321,1,114.750002188683,2|0,3:3|0:0,0:0:0:0:
361,375,276443,6,0,P|394:357|428:338,1,76.5000014591217,10|0,0:0|0:0,0:0:0:0:
58,365,276693,5,0,1:0:0:0:
58,365,276755,1,0,1:0:0:0:
58,365,276818,2,0,P|89:325|88:277,1,76.5000014591217,2|0,3:0|0:0,0:0:0:0:
174,326,277005,6,0,P|212:357|223:387,1,76.5000014591217,2|0,0:3|0:0,0:0:0:0:
39,234,277193,6,0,L|73:216,1,38.2500007295609,2|0,1:3|0:0,0:0:0:0:
260,96,277318,6,0,B|303:110|336:146|336:146|376:129|428:135|428:135|483:168,1,229.500004377365,6|0,3:2|0:0,0:0:0:0:
377,263,277818,2,0,P|346:311|336:357,1,76.5000014591217,10|0,0:0|0:0,0:0:0:0:
173,372,278068,1,2,0:0:0:0:
244,303,278193,1,2,3:2:0:0:
187,208,278318,2,0,P|157:161|-24:110,1,229.500004377365,2|0,1:2|0:0,0:0:0:0:
223,69,278818,6,0,P|246:24|244:-7,1,76.5000014591217,10|0,0:0|0:0,0:0:0:0:
57,211,279068,2,0,L|78:301,1,76.5000014591217,0|0,3:2|1:0,0:0:0:0:
74,285,279255,5,0,1:0:0:0:
74,285,279318,1,6,3:2:0:0:
147,340,279443,1,8,0:0:0:0:
224,290,279568,1,0,1:0:0:0:
399,351,279693,5,2,3:0:0:0:
308,326,279818,1,0,3:0:0:0:
440,194,279943,5,2,3:0:0:0:
464,285,280068,1,0,3:0:0:0:
284,236,280193,5,2,3:0:0:0:
350,170,280318,1,4,3:0:0:0:
484,25,280443,5,8,0:3:0:0:
432,83,280568,1,8,0:3:0:0:
355,72,280693,1,8,0:3:0:0:
496,202,280818,5,0,3:2:0:0:
415,206,280943,5,0,3:2:0:0:
361,186,281068,5,8,0:0:0:0:
336,147,281193,5,8,0:0:0:0:
345,131,281318,6,0,B|369:103|403:106|403:106|445:95|448:55,2,135,6|0|0,3:1|3:0|3:1,0:0:0:0:
255,171,282318,2,0,P|172:148|115:68,1,180,2|0,1:2|0:0,0:0:0:0:
117,75,283068,1,0,3:0:0:0:
100,260,283318,6,0,P|75:321|21:362,2,135,2|0|0,3:2|3:0|3:0,0:0:0:0:
255,171,284318,2,0,P|338:194|395:274,1,180,2|2,1:2|0:0,0:0:0:0:
376,342,284943,1,0,0:0:0:0:
450,368,285068,2,0,P|479:358|495:342,1,45,0|0,3:0|3:0,0:0:0:0:
282,263,285318,6,0,B|254:270|254:270|192:261|165:203,2,135,6|0|0,3:2|3:0|3:0,0:0:0:0:
465,15,286318,2,0,P|421:26|350:144,1,180,2|0,1:2|0:0,0:0:0:0:
349,132,287068,1,0,3:0:0:0:
266,349,287318,6,0,B|298:328|338:337|338:337|367:318|373:279,2,135,6|0|0,3:2|3:0|3:0,0:0:0:0:
56,54,288318,2,0,P|70:105|82:148,1,90,2|0,1:2|3:0,0:0:0:0:
166,191,288693,1,0,1:0:0:0:
166,191,288755,1,0,1:0:0:0:
166,191,288818,1,0,1:0:0:0:
222,118,288943,1,8,0:3:0:0:
308,118,289068,1,4,0:3:0:0:
370,169,289193,1,2,0:0:0:0:
505,268,289318,6,0,P|446:287|409:310,1,90,6|0,3:2|0:0,0:0:0:0:
321,274,289693,2,0,P|284:293|268:385,1,135,0|0,3:2|3:0,0:0:0:0:
428,182,290318,2,0,P|453:115|438:2,1,180,14|0,0:0|0:0,0:0:0:0:
192,81,291068,5,0,3:0:0:0:
116,42,291193,1,0,1:0:0:0:
58,101,291318,2,0,P|79:180|85:201,1,90,6|0,3:2|0:0,0:0:0:0:
153,235,291693,2,0,P|168:280|133:362,1,135,0|0,3:0|3:0,0:0:0:0:
263,212,292318,2,0,P|286:177|287:128,1,90,10|0,0:0|0:0,0:0:0:0:
171,3,292818,2,0,L|183:52,1,45,2|0,3:2|0:0,0:0:0:0:
136,121,293068,5,0,1:0:0:0:
119,107,293131,1,0,1:0:0:0:
99,97,293193,1,0,1:0:0:0:
77,94,293256,1,0,1:0:0:0:
55,96,293318,2,0,B|30:139|46:173|46:173|21:227,2,135,6|0|0,3:2|3:0|3:0,0:0:0:0:
261,6,294318,2,0,P|279:54|402:99,1,180,10|0,0:0|0:0,0:0:0:0:
390,101,295068,5,0,1:0:0:0:
364,17,295193,1,0,1:0:0:0:
287,65,295318,2,0,B|275:104|275:104|296:147|291:199,2,135,6|0|0,3:2|3:0|3:2,0:0:0:0:
491,342,296318,2,0,P|466:308|420:296,1,90,10|0,0:0|1:0,0:0:0:0:
421,295,296630,1,0,1:0:0:0:
428,302,296693,1,0,1:0:0:0:
318,371,296818,5,10,0:0:0:0:
253,293,296943,5,0,1:0:0:0:
166,272,297068,5,0,1:0:0:0:
95,316,297193,5,0,1:0:0:0:
90,363,297318,5,10,0:1:0:0:
441,55,305068,6,0,L|434:31,3,22.5
424,36,305318,2,0,B|413:122|309:116|227:-18|160:105|249:261|376:135|344:103,1,377.999988464356,2|0,0:0|0:0,0:0:0:0:
347,107,307193,1,0,0:0:0:0:
189,244,307318,6,0,B|167:273|125:286|125:286|238:277|204:469|435:340|307:245|252:300,1,404.999987640381,2|0,0:0|0:0,0:0:0:0:
470,359,309318,6,0,B|403:289|574:263|499:50|337:159|409:264|460:220,1,323.999990112305,2|2,0:0|0:3,0:0:0:0:
457,222,311068,1,0,0:0:0:0:
230,90,311318,6,0,P|202:56|173:53,1,67.4999979400635,2|0,0:0|0:0,0:0:0:0:
171,58,311693,2,0,P|169:68|153:62,1,26.9999991760254,2|0,0:0|0:0,0:0:0:0:
0,6,312068,1,2,0:0:0:0:
0,6,312318,6,0,L|96:28,1,94.4999971160889,2|0,0:1|0:0,0:0:0:0:
161,62,313318,5,10,0:0:0:0:
58,229,313443,2,0,P|38:191|41:147,1,72,0|0,3:0|0:0,0:0:0:0:
218,237,313693,6,0,L|248:370,1,108,10|0,0:0|0:0,0:0:0:0:
241,342,313943,1,0,3:0:0:0:
449,265,314068,2,0,P|416:244|382:240,1,72,10|0,0:0|3:0,0:0:0:0:
274,26,314443,5,8,0:0:0:0:
243,61,314505,1,0,1:0:0:0:
264,106,314568,1,0,1:0:0:0:
324,165,314693,1,8,0:3:0:0:
404,141,314818,1,8,0:0:0:0:
295,243,314943,1,8,0:3:0:0:
407,369,315068,1,4,0:3:0:0:
307,331,315193,1,4,0:3:0:0:
214,379,315318,6,2,L|205:347,1,31.5,2|0,0:2|0:1,0:1:0:0:
205,348,315818,6,0,B|243:298|309:323|309:323|385:300|370:240,1,225,6|0,1:0|0:0,0:0:0:0:
276,185,316193,2,0,P|251:129|272:95,1,80.9999975280763,2|0,3:2|0:0,0:0:0:0:
475,48,316443,1,8,0:0:0:0:
502,163,316568,2,0,P|462:154|426:131,1,80.9999975280763,2|0,3:2|0:0,0:0:0:0:
349,80,316818,6,0,L|370:2,1,80.9999975280763,10|0,0:0|0:0,0:0:0:0:
455,269,317068,2,0,L|434:347,1,80.9999975280763,2|2,3:2|0:0,0:0:0:0:
433,347,317255,5,2,0:0:0:0:
433,347,317318,2,0,P|402:321|362:318,1,80.9999975280763,2|0,3:2|0:0,0:0:0:0:
100,258,317568,2,0,P|139:254|170:229,1,80.9999975280763,0|0,3:2|0:0,0:0:0:0:
259,162,317818,2,0,L|222:-10,1,161.999995056153,10|0,0:0|0:0,0:0:0:0:
118,368,318193,6,0,P|196:349|242:284,1,161.999995056153,2|8,3:2|0:0,0:0:0:0:
352,256,318568,2,0,L|337:350,1,80.9999975280763,0|0,3:2|0:0,0:0:0:0:
162,148,318818,2,0,P|141:107|147:56,1,80.9999975280763,10|0,0:0|0:0,0:0:0:0:
421,124,319068,6,0,B|435:101|468:104|468:104|447:111|432:127,1,94.499997116089,2|0,3:2|0:0,0:0:0:0:
433,124,319318,6,0,B|392:120|360:141|360:141|306:139|286:94,1,161.999995056153,6|0,3:2|3:0,0:0:0:0:
226,32,319693,1,2,0:0:0:0:
26,243,319818,2,0,P|63:174|144:170,1,161.999995056153,10|0,0:0|0:0,0:0:0:0:
242,261,320193,6,0,L|218:349,1,80.9999975280763,2|0,3:2|0:0,0:0:0:0:
124,265,320443,1,8,0:0:0:0:
355,221,320568,2,0,P|397:224|431:247,1,80.9999975280763,2|0,3:2|0:0,0:0:0:0:
341,85,320818,2,0,P|261:70|213:8,1,161.999995056153,10|0,0:0|3:0,0:0:0:0:
352,373,321193,5,0,1:0:0:0:
352,373,321255,1,0,1:0:0:0:
352,373,321318,2,0,P|330:340|323:297,1,80.9999975280763,2|0,3:2|0:0,0:0:0:0:
455,94,321568,2,0,L|474:172,1,80.9999975280763,0|0,3:0|0:0,0:0:0:0:
279,155,321818,2,0,B|242:178|191:161|191:161|124:191,1,161.999995056153,10|0,0:0|0:0,0:0:0:0:
72,274,322193,6,0,P|32:269|0:242,1,80.9999975280763,2|0,3:2|0:0,0:0:0:0:
271,299,322443,1,8,0:0:0:0:
192,381,322568,2,0,P|171:338|167:292,1,80.9999975280763,0|0,3:2|0:0,0:0:0:0:
363,121,322818,6,0,P|437:130|463:188,1,135,10|0,0:0|0:0,0:0:0:0:
423,252,323068,2,0,B|413:294|413:294|436:259,1,80.9999975280763,6|8,3:2|0:0,0:0:0:0:
314,33,323318,6,0,B|243:62|243:62|193:50|193:50|111:79,1,198.000006042481,6|0,3:2|3:0,0:0:0:0:
58,175,323693,1,2,0:0:0:0:
176,294,323818,2,0,P|199:248|194:203,1,80.9999975280763,10|0,0:0|0:0,0:0:0:0:
82,353,324068,5,2,0:0:0:0:
301,184,324193,2,0,B|361:170|395:232|395:232|374:277,1,161.999995056153,2|8,3:2|0:0,0:0:0:0:
300,367,324568,2,0,P|281:330|281:283,1,80.9999975280763,2|0,3:2|0:0,0:0:0:0:
479,173,324818,2,0,P|478:95|441:12,1,161.999995056153,10|0,0:0|3:0,0:0:0:0:
209,124,325193,5,2,0:0:0:0:
209,124,325255,1,2,0:0:0:0:
209,124,325318,2,0,B|244:132|270:157|270:157|338:150|347:89,1,180,6|0,3:2|3:0,0:0:0:0:
346,91,325693,1,0,0:0:0:0:
214,365,325818,6,0,P|262:284|355:289,1,188.999994232178,14|0,0:0|0:0,0:0:0:0:
349,284,326193,1,0,1:0:0:0:
31,232,326318,6,0,B|49:186|105:165|153:202|153:202|119:200|90:229,1,198.000006042481,6|0,3:2|3:0,0:0:0:0:
105,216,326693,1,0,0:0:0:0:
419,340,326818,6,2,B|471:336|540:247|452:98|287:221|297:306|447:256|410:353,1,362.250006909371,14|0,0:0|0:1,0:1:0:0:
414,340,327318,6,0,B|352:344|317:276|317:276|234:251|166:311|177:374,1,323.999990112305,6|0,3:2|0:0,0:0:0:0:
65,220,327818,2,0,P|9:157|31:76,1,161.999995056153,10|2,0:0|0:0,0:0:0:0:
257,0,328193,6,0,L|300:165,1,161.999995056153,2|0,3:2|1:0,0:0:0:0:
300,160,328505,1,0,1:0:0:0:
298,158,328568,2,0,P|337:179|383:181,1,80.9999975280763,2|0,3:2|0:0,0:0:0:0:
470,316,328818,6,0,P|493:276|484:237,1,80.9999975280763,10|0,0:0|0:0,0:0:0:0:
302,296,329068,2,0,L|284:375,1,80.9999975280763,2|0,3:2|0:0,0:0:0:0:
21,199,329318,6,0,B|38:216|38:216|117:232|162:158,1,161.999995056153,6|0,3:2|3:0,0:0:0:0:
462,0,329818,6,0,B|434:42|383:37|383:37|334:41|313:102,1,180,10|0,0:0|3:0,0:0:0:0:
318,89,330193,1,8,0:0:0:0:
400,256,330318,5,0,1:0:0:0:
391,233,330380,1,0,1:0:0:0:
373,216,330443,1,0,1:0:0:0:
349,211,330505,1,0,1:0:0:0:
331,215,330568,1,0,3:0:0:0:
285,233,330630,1,0,3:0:0:0:
236,227,330693,1,0,3:0:0:0:
198,199,330755,1,0,3:0:0:0:
176,154,330818,6,0,L|193:86,1,49.5000015106202,2|0,3:2|3:0,0:0:0:0:
346,16,330943,2,0,L|333:64,1,49.5000015106202,2|0,3:2|3:0,0:0:0:0:
375,137,331068,6,0,P|395:150|422:156,1,49.5000015106202,10|0,0:0|3:0,0:0:0:0:
248,33,331193,2,0,P|227:19|200:13,1,49.5000015106202,10|0,0:0|3:0,0:0:0:0:
75,9,331318,6,0,L|95:99,1,90,6|0,3:1|0:0,0:0:0:0:
269,372,331568,2,0,P|200:367|153:321,1,135,8|0,0:0|0:0,0:0:0:0:
154,323,331818,2,0,P|165:279|175:235,1,90,2|0,3:2|0:0,0:0:0:0:
356,159,332068,5,8,0:0:0:0:
489,364,332193,2,0,P|444:289|357:284,1,180,2|0,3:2|3:0,0:0:0:0:
273,230,332568,2,0,L|250:129,1,90,10|0,0:0|0:0,0:0:0:0:
370,0,332818,6,0,P|387:41|394:85,1,90,2|0,3:2|0:0,0:0:0:0:
205,326,333068,2,0,P|187:284|180:240,1,90,10|0,0:2|0:0,0:0:0:0:
96,181,333318,6,0,P|49:172|20:138,1,90,6|0,3:2|0:0,0:0:0:0:
237,51,333568,2,0,P|284:10|356:15,1,135,8|0,0:0|0:0,0:0:0:0:
353,13,333818,2,0,P|369:65|385:119,1,90,2|0,3:2|0:0,0:0:0:0:
483,198,334068,5,8,0:0:0:0:
251,356,334193,2,0,B|197:379|197:379|124:355|131:280,1,180,6|0,3:2|0:0,0:0:0:0:
275,202,334568,2,0,P|311:149|293:75,1,135,8|0,0:0|0:0,0:0:0:0:
299,82,334818,2,0,P|256:70|213:58,1,90,2|0,3:2|0:0,0:0:0:0:
361,369,335068,2,0,P|373:326|385:283,1,90,10|0,0:0|0:0,0:0:0:0:
508,135,335318,6,0,B|465:138|441:161|441:161|385:134|328:163,1,180,6|8,3:2|0:0,0:0:0:0:
175,261,335693,1,0,1:0:0:0:
252,379,335818,2,0,P|273:336|280:286,1,90,2|0,3:2|0:0,0:0:0:0:
207,180,336068,5,8,0:0:0:0:
107,361,336193,2,0,P|74:259|-8:229,1,180,6|0,3:2|3:0,0:0:0:0:
224,91,336568,2,0,L|206:180,1,90,8|0,0:0|0:0,0:0:0:0:
283,363,336818,1,2,3:2:0:0:
387,227,336943,1,0,3:2:0:0:
411,328,337068,2,0,P|346:314|303:247,1,135,10|0,0:0|0:0,0:0:0:0:
306,261,337318,6,0,B|257:260|230:294|230:294|164:281|153:227,1,180,6|8,3:2|0:0,0:0:0:0:
384,91,337818,6,0,B|430:109|483:81|494:28|494:28|449:50,1,180,6|8,3:2|0:0,0:0:0:0:
254,21,338193,6,2,B|241:72|197:111|127:69|127:69|136:9|188:7,1,247.500007553101,6|0,3:2|0:1,0:1:0:0:
175,8,338568,6,0,P|219:32|220:96,1,90,10|0,0:0|0:0,0:0:0:0:
45,252,338818,2,0,P|63:199|113:180,1,90,2|0,3:2|3:0,0:0:0:0:
333,323,339068,6,0,P|287:310|241:298,1,94.499997116089,10|0,0:0|0:0,0:0:0:0:
241,298,339318,6,0,P|212:322|189:373,1,90,6|0,3:2|0:0,0:0:0:0:
463,229,339568,2,0,P|395:216|348:165,1,135,8|0,0:0|0:0,0:0:0:0:
350,170,339818,2,0,P|364:127|377:84,1,90,2|0,3:2|3:0,0:0:0:0:
138,0,340068,2,0,P|125:43|112:87,1,90,8|0,0:0|0:0,0:0:0:0:
22,184,340318,6,0,P|110:186|168:254,1,180,6|8,3:2|0:0,0:0:0:0:
350,309,340693,1,0,1:0:0:0:
272,384,340818,2,0,P|249:331|256:292,1,90,2|0,3:2|3:0,0:0:0:0:
453,124,341068,2,0,L|479:257,1,135,8|0,0:0|0:0,0:0:0:0:
441,331,341318,6,0,P|442:368|472:347,1,90,6|0,3:2|0:0,0:0:0:0:
301,209,341568,2,0,P|262:164|182:170,1,135,10|0,0:0|0:0,0:0:0:0:
190,164,341818,2,0,P|178:210|166:256,1,90,2|0,3:2|3:0,0:0:0:0:
350,358,342068,5,8,0:0:0:0:
99,337,342193,2,0,B|137:361|137:361|216:358|253:291,1,180,6|0,3:2|3:0,0:0:0:0:
397,227,342568,2,0,P|441:229|480:264,1,90,10|0,0:0|0:0,0:0:0:0:
254,152,342818,1,0,3:0:0:0:
192,67,342943,1,0,3:0:0:0:
288,13,343068,6,0,P|334:25|383:33,1,94.499997116089,10|0,0:0|0:0,0:0:0:0:
380,32,343318,6,0,P|410:60|419:106,1,80.9999975280763,6|0,3:2|0:0,0:0:0:0:
298,323,343568,2,0,P|243:263|158:252,1,161.999995056153,8|0,0:0|3:0,0:0:0:0:
166,250,343943,1,0,3:0:0:0:
9,71,344193,6,0,B|18:8|99:1|99:1|136:43|96:77,1,198.000006042481,14|0,0:0|3:0,0:0:0:0:
27,271,344568,2,0,P|-1:228|7:180,1,80.9999975280763,10|0,0:0|0:0,0:0:0:0:
166,250,344818,5,0,3:0:0:0:
201,335,344943,1,0,3:0:0:0:
119,377,345068,1,10,0:0:0:0:
283,262,345193,1,2,0:0:0:0:
431,369,345318,6,0,P|469:357|506:341,1,80.9999975280763,6|0,3:2|0:0,0:0:0:0:
335,179,345568,2,0,P|288:124|299:30,1,161.999995056153,8|0,0:0|3:0,0:0:0:0:
293,38,345943,1,0,3:0:0:0:
203,278,346193,6,0,B|160:304|160:304|75:291|28:358,1,198.000006042481,14|0,0:0|3:0,0:0:0:0:
322,271,346568,2,0,P|372:331|450:335,1,161.999995056153,10|0,0:0|3:0,0:0:0:0:
403,230,346943,1,0,3:0:0:0:
487,165,347068,2,0,P|504:122|499:82,1,80.9999975280763,10|0,0:0|0:0,0:0:0:0:
366,13,347318,6,0,L|384:94,1,80.9999975280763,6|0,3:2|0:0,0:0:0:0:
242,253,347568,2,0,P|195:213|130:217,1,121.499996292114,8|0,0:0|0:0,0:0:0:0:
137,214,347818,2,0,L|117:295,1,80.9999975280763,0|0,3:0|3:0,0:0:0:0:
294,158,348068,5,10,0:0:0:0:
129,115,348193,2,0,B|84:130|84:130|17:111|26:40,1,161.999995056153,0|0,3:2|3:0,0:0:0:0:
294,158,348568,2,0,P|304:197|314:236,1,80.9999975280763,8|0,0:0|0:0,0:0:0:0:
509,369,348818,1,0,3:0:0:0:
434,284,348943,1,0,3:0:0:0:
299,363,349068,6,0,L|211:382,1,90,8|0,0:0|0:0,0:0:0:0:
14,275,349443,6,0,B|36:306|87:310|87:310|114:286|148:266,1,148.50000453186,14|0,0:0|0:0,0:0:0:0:
215,291,349693,2,0,P|235:291|223:274,1,49.5000015106202,0|0,3:0|0:0,0:0:0:0:
62,1,349818,6,0,P|85:74|106:148,1,148.50000453186,14|0,0:0|0:0,0:0:0:0:
114,148,350068,2,0,P|133:165|158:169,1,49.5000015106202,0|0,3:0|0:0,0:0:0:0:
494,4,350193,6,0,B|485:78|412:77|412:77|323:57|286:132,1,270.000010299683,14|0,0:0|1:0,0:0:0:0:
287,128,350755,1,0,1:0:0:0:
287,128,350818,1,0,1:0:0:0:
354,232,350943,1,8,0:3:0:0:
279,367,351068,6,0,L|268:328,1,40.4999987640381,4|0,0:3|0:0,0:0:0:0:
268,328,351318,5,14,0:0:0:0:
256,192,351380,12,0,355318,0:0:0:0:
