osu file format v14

[General]
AudioFilename: audio.mp3
AudioLeadIn: 0
PreviewTime: 305193
Countdown: 0
SampleSet: Soft
StackLeniency: 0.7
Mode: 0
LetterboxInBreaks: 0
WidescreenStoryboard: 1

[Editor]
Bookmarks: 89318,107318,131318,147318,165318,181318,201318,231318,247318,265318,281318,315318,331318
DistanceSpacing: 1.1
BeatDivisor: 4
GridSize: 4
TimelineZoom: 2.299999

[Metadata]
Title:Irony
TitleUnicode:Irony
Artist:Uema Emi
ArtistUnicode:上間江望
Creator:Hanakumo Rin
Version:Collab Extra
Source:NOeSIS 歌う影の戯曲
Tags:dog food dahkjdas garden Misure NOeSIS03 Utau Kage no Gikyoku cutlass visual novel ending japanese video game rock 仄かな旋律の記憶 Honoka na Senritsu no Kioku japanese rock jrock pop jpop female vocals visual novel vn video game
BeatmapID:3721348
BeatmapSetID:1813945

[Difficulty]
HPDrainRate:6
CircleSize:4
OverallDifficulty:8.5
ApproachRate:9.5
SliderMultiplier:2
SliderTickRate:1

[Events]
//Background and Video events
0,0,"velia xiao mei mei.jpg",0,0
//Break Periods
//Storyboard Layer 0 (Background)
//Storyboard Layer 1 (Fail)
//Storyboard Layer 2 (Pass)
//Storyboard Layer 3 (Foreground)
//Storyboard Layer 4 (Overlay)
//Storyboard Sound Samples

[TimingPoints]
23235,952.380952380952,4,2,1,30,1,0
23235,-133.333333333333,4,2,1,30,0,0
79425,1132.07547169811,4,2,1,30,1,0
79991,1578.94736842105,4,2,1,30,1,0
80780,1020.40816326531,4,2,1,30,1,0
80907,-100,4,2,1,20,0,0
88943,500,4,2,1,30,1,0
89318,500,4,2,1,40,1,0
103318,-111.111111111111,4,2,1,30,0,0
105068,-111.111111111111,4,2,1,10,0,0
105318,-90.9090909090908,4,2,1,30,0,0
106568,-100,4,2,1,50,0,0
107318,-62.5,4,2,1,60,0,0
110818,-55.5555555555556,4,2,1,60,0,0
111005,-55.5555555555556,4,2,1,5,0,0
111068,-55.5555555555556,4,2,1,60,0,0
111318,-41.6666666666667,4,2,1,60,0,0
111505,-41.6666666666667,4,2,1,5,0,0
111568,-41.6666666666667,4,2,1,60,0,0
111693,-50,4,2,1,60,0,0
111880,-50,4,2,1,5,0,0
111943,-50,4,2,1,60,0,0
112068,-83.3333333333333,4,2,1,60,0,0
112568,-62.5,4,2,1,60,0,0
113318,-133.333333333333,4,2,1,60,0,0
114818,-66.6666666666667,4,2,1,60,0,0
115255,-66.6666666666667,4,2,1,5,0,0
115318,-71.4285714285714,4,2,1,60,0,0
127318,-66.6666666666667,4,2,1,60,0,0
131318,-45.4545454545455,4,2,1,60,0,0
134818,-100,4,2,1,60,0,0
135318,-66.6666666666667,4,2,1,60,0,0
138818,-55.5555555555556,4,2,1,60,0,0
139318,-50,4,2,1,60,0,0
139818,-66.6666666666667,4,2,1,60,0,0
143318,-55.5555555555556,4,2,1,60,0,0
144068,-66.6666666666667,4,2,1,60,0,0
145318,-62.5,4,2,1,60,0,0
145693,-83.3333333333333,4,2,1,60,0,0
146068,-62.5,4,2,1,60,0,0
147318,-83.3333333333333,4,2,1,60,0,0
148318,-66.6666666666667,4,2,1,60,0,0
150068,-83.3333333333333,4,2,1,60,0,0
150818,-66.6666666666667,4,2,1,60,0,0
152818,-55.5555555555556,4,2,1,60,0,0
153005,-55.5555555555556,4,2,1,10,0,0
153068,-55.5555555555556,4,2,1,60,0,0
153318,-83.3333333333333,4,2,1,60,0,0
154068,-66.6666666666667,4,2,1,60,0,0
156193,-55.5555555555556,4,2,1,60,0,0
156568,-66.6666666666667,4,2,1,60,0,0
157318,-55.5555555555556,4,2,1,60,0,0
157818,-66.6666666666667,4,2,1,60,0,0
158193,-47.6190476190476,4,2,1,60,0,0
158568,-55.5555555555556,4,2,1,60,0,0
159318,-66.6666666666667,4,2,1,60,0,0
160068,-55.5555555555556,4,2,1,60,0,0
160505,-55.5555555555556,4,2,1,10,0,0
160568,-55.5555555555556,4,2,1,60,0,0
161318,-66.6666666666667,4,2,1,60,0,0
161818,-55.5555555555556,4,2,1,60,0,0
162193,-47.6190476190476,4,2,1,60,0,0
165318,-50,4,2,1,70,0,1
167318,-41.6666666666667,4,2,1,70,0,1
167568,-50,4,2,1,70,0,1
168193,-35.7142857142858,4,2,1,70,0,1
168568,-41.6666666666668,4,2,1,70,0,1
168818,-45.4545454545455,4,2,1,70,0,1
169318,-50,4,2,1,70,0,1
172193,-41.6666666666667,4,2,1,70,0,1
172818,-45.4545454545455,4,2,1,70,0,1
173318,-50,4,2,1,70,0,1
175318,-41.6666666666667,4,2,1,70,0,1
175818,-35.7142857142857,4,2,1,70,0,1
176318,-41.6666666666667,4,2,1,70,0,1
176818,-35.7142857142857,4,2,1,70,0,1
177318,-41.6666666666667,4,2,1,70,0,1
177818,-50,4,2,1,70,0,1
178818,-45.4545454545455,4,2,1,70,0,1
179068,-41.6666666666667,4,2,1,70,0,1
179818,-35.7142857142857,4,2,1,70,0,1
180193,-38.4615384615385,4,2,1,70,0,1
181193,-100,4,2,1,70,0,0
181318,-66.6666666666667,4,2,1,80,0,1
181568,-50,4,2,1,80,0,1
183318,-33.3333333333333,4,2,1,80,0,1
183568,-50,4,2,1,80,0,1
185318,-33.3333333333333,4,2,1,80,0,1
185568,-50,4,2,1,80,0,1
187318,-33.3333333333333,4,2,1,80,0,1
187818,-40,4,2,1,80,0,1
188193,-50,4,2,1,80,0,1
189818,-40,4,2,1,80,0,1
190568,-47.6190476190476,4,2,1,80,0,1
193568,-100,4,2,1,80,0,1
194193,-50,4,2,1,80,0,1
195568,-100,4,2,1,80,0,1
196193,-50,4,2,1,80,0,1
199318,-166.666666666667,4,2,1,80,0,0
200818,-66.6666666666667,4,2,1,80,0,0
201318,-62.5,4,2,1,80,0,0
202818,-55.5555555555556,4,2,1,80,0,0
203318,-62.5,4,2,1,80,0,0
206818,-55.5555555555556,4,2,1,80,0,0
207318,-62.5,4,2,1,80,0,0
210818,-55.5555555555556,4,2,1,80,0,0
211318,-62.5,4,2,1,80,0,0
213318,-133.333333333333,4,2,1,80,0,0
215068,-133.333333333333,4,2,1,10,0,0
215318,-66.6666666666667,4,2,1,80,0,0
227318,-62.5,4,2,1,80,0,0
247318,-71.4285714285714,4,2,1,80,0,0
249318,-62.5,4,2,1,80,0,0
250068,-71.4285714285714,4,2,1,80,0,0
250818,-62.5,4,2,1,80,0,0
251818,-71.4285714285714,4,2,1,80,0,0
252818,-62.5,4,2,1,80,0,0
253005,-62.5,4,2,1,10,0,0
253068,-62.5,4,2,1,80,0,0
253318,-71.4285714285714,4,2,1,80,0,0
254068,-50,4,2,1,80,0,0
254568,-62.5,4,2,1,80,0,0
254818,-55.5555555555556,4,2,1,80,0,0
255318,-62.5,4,2,1,80,0,0
256193,-55.5555555555556,4,2,1,80,0,0
256818,-62.5,4,2,1,80,0,0
258193,-55.5555555555556,4,2,1,80,0,0
259318,-62.5,4,2,1,80,0,0
261318,-55.5555555555556,4,2,1,80,0,0
261818,-62.5,4,2,1,80,0,0
262193,-50,4,2,1,80,0,0
263318,-71.4285714285714,4,2,1,80,0,0
263693,-55.5555555555556,4,2,1,80,0,0
264068,-45.4545454545455,4,2,1,80,0,0
264443,-45.4545454545455,4,2,1,80,0,0
265318,-40,4,2,1,80,0,1
265568,-55.5555555555556,4,2,1,80,0,1
280943,-55.5555555555556,4,2,1,60,0,1
281068,-55.5555555555556,4,2,1,80,0,1
281193,-55.5555555555556,4,2,1,60,0,1
281255,-62.5,4,2,1,80,0,0
281318,-76.9230769230769,4,2,1,80,0,1
281380,-76.9230769230769,4,2,1,65,0,0
287318,-66.6666666666667,4,2,1,65,0,0
288818,-76.9230769230769,4,2,1,65,0,0
290318,-66.6666666666667,4,2,1,65,0,0
292318,-76.9230769230769,4,2,1,65,0,0
293318,-66.6666666666667,4,2,1,65,0,0
294318,-76.9230769230769,4,2,1,65,0,0
295318,-66.6666666666667,4,2,1,65,0,0
296318,-76.9230769230769,4,2,1,65,0,0
297318,-100,4,2,1,50,0,0
313318,-100,4,2,1,65,0,0
314318,-83.3333333333333,4,2,1,75,0,0
314568,-71.4285714285714,4,2,1,75,0,0
314818,-62.5,4,2,1,75,0,0
315068,-55.5555555555556,4,2,1,75,0,0
315318,-100,4,2,1,75,0,0
315818,-50,4,2,1,80,0,1
325818,-41.6666666666667,4,2,1,80,0,1
326318,-45.4545454545455,4,2,1,80,0,1
326818,-50,4,2,1,80,0,1
329318,-62.5,4,2,1,80,0,1
329818,-41.6666666666667,4,2,1,80,0,1
330193,-45.4545454545455,4,2,1,80,0,1
331193,-50,4,2,1,70,0,0
331318,-40,4,2,1,80,0,1
331568,-50,4,2,1,80,0,1
331818,-40,4,2,1,80,0,1
332193,-50,4,2,1,80,0,1
333318,-40,4,2,1,80,0,1
333568,-50,4,2,1,80,0,1
334193,-33.3333333333333,4,2,1,80,0,1
334568,-50,4,2,1,80,0,1
335318,-33.3333333333333,4,2,1,80,0,1
335568,-50,4,2,1,80,0,1
336568,-40,4,2,1,80,0,1
337068,-50,4,2,1,80,0,1
337318,-35.7142857142857,4,2,1,80,0,1
337818,-33.3333333333333,4,2,1,80,0,1
338568,-50,4,2,1,80,0,1
340318,-33.3333333333333,4,2,1,80,0,1
340568,-50,4,2,1,80,0,1
341318,-33.3333333333333,4,2,1,80,0,1
341568,-50,4,2,1,80,0,1
342193,-33.3333333333333,4,2,1,80,0,1
342568,-50,4,2,1,80,0,1
344193,-33.3333333333333,4,2,1,80,0,1
345318,-50,4,2,1,80,0,1
346193,-33.3333333333333,4,2,1,80,0,1
347068,-50,4,2,1,80,0,1
347318,-40,4,2,1,80,0,1
348193,-50,4,2,1,80,0,1
349443,-33.3333333333333,4,2,1,80,0,1
350193,-50,4,2,1,80,0,1
350943,-66.6666666666667,4,2,1,80,0,1
351318,-100,4,2,1,80,0,0
353443,-100,4,2,1,5,0,0

[Colours]
Combo1 : 120,0,240
Combo2 : 128,128,192
Combo3 : 175,96,255
Combo4 : 113,113,255

[HitObjects]
392,338,88943,5,0,0:0:0:0:
397,288,89068,1,2,0:0:0:0:
432,252,89193,1,0,0:0:0:0:
508,269,89318,6,0,P|410:263|349:188,1,200,2|2,0:0|0:0,0:0:0:0:
165,321,90068,1,0,0:0:0:0:
165,321,90193,2,0,P|235:335|290:287,1,150,2|0,0:0|0:0,0:0:0:0:
440,124,90818,1,2,0:0:0:0:
397,288,91068,1,0,0:0:0:0:
259,198,91318,6,0,P|211:174|164:155,1,100,2|0,0:0|0:0,0:0:0:0:
176,66,91693,1,0,0:0:0:0:
176,66,91818,2,0,P|195:51|217:37,1,50,2|0,0:0|0:0,0:0:0:0:
106,10,92068,1,0,0:0:0:0:
106,10,92193,2,0,P|141:128|121:251,1,250,2|0,0:0|0:0,0:0:0:0:
47,357,92943,1,0,0:0:0:0:
3,331,93068,1,2,0:0:0:0:
7,281,93193,1,0,0:0:0:0:
46,249,93318,6,0,P|106:291|180:293,2,150,2|2|0,0:0|0:0|0:0,0:0:0:0:
62,160,94193,2,0,P|96:125|145:120,1,100,2|0,0:0|0:0,0:0:0:0:
202,188,94568,1,2,0:0:0:0:
430,123,94818,1,2,0:0:0:0:
297,9,95068,1,2,0:0:0:0:
310,47,95193,1,0,0:0:0:0:
323,85,95318,6,0,P|306:158|290:231,1,150,2|0,0:0|0:0,0:0:0:0:
367,358,95818,2,0,P|360:333|351:310,1,50,2|0,0:0|0:0,0:0:0:0:
290,232,96068,1,0,0:0:0:0:
209,277,96193,2,0,P|316:321|384:227,1,250,2|0,0:0|0:0,0:0:0:0:
390,69,97068,1,2,0:0:0:0:
352,55,97193,1,0,0:0:0:0:
312,46,97318,6,0,P|265:64|220:86,1,100,2|0,0:0|0:0,0:0:0:0:
116,248,97818,1,2,0:0:0:0:
6,140,98068,1,0,0:0:0:0:
20,100,98193,2,0,B|88:90|130:146|130:146|173:200|239:190,1,250,2|0,0:0|0:0,0:0:0:0:
452,272,99068,1,2,0:0:0:0:
439,234,99193,1,0,0:0:0:0:
427,194,99318,6,0,P|445:143|462:100,1,100,2|0,0:0|0:0,0:0:0:0:
355,336,99818,2,0,P|399:359|442:384,1,100,2|0,0:0|0:0,0:0:0:0:
349,250,100193,2,0,P|280:349|160:360,1,250,2|0,0:0|0:0,0:0:0:0:
22,259,101068,1,2,0:0:0:0:
35,221,101193,1,0,0:0:0:0:
47,181,101318,6,0,P|28:130|12:87,1,100,2|0,0:0|0:0,0:0:0:0:
123,0,101693,1,0,0:0:0:0:
136,37,101818,2,0,P|125:59|116:83,1,50,2|0,0:0|0:0,0:0:0:0:
194,204,102068,2,0,P|173:189|150:179,1,50,0|0,0:0|0:0,0:0:0:0:
224,97,102318,2,0,P|290:126|357:97,1,150,2|0,0:0|0:0,0:0:0:0:
446,127,102818,2,0,P|452:78|429:34,1,100,2|0,0:0|0:0,0:0:0:0:
366,250,103318,6,0,B|337:310|156:410|84:249|84:249|173:178|280:252|285:352,1,629.999980773926,2|0,0:0|0:0,0:0:0:0:
343,123,105318,6,0,B|242:87|184:178|184:178|-12:195|-5:50|-5:50|80:13|125:88,1,605.000018463135,2|0,0:0|1:0,0:0:0:0:
125,88,106755,1,0,1:0:0:0:
125,88,106818,1,0,1:0:0:0:
125,88,107068,5,0,1:0:0:0:
156,172,107193,1,0,1:0:0:0:
2,196,107318,6,0,P|116:139|248:100,1,240,12|0,0:0|0:0,0:0:0:0:
261,19,107818,2,0,P|252:100|309:152,1,160,2|2,1:2|0:0,0:0:0:0:
425,260,108193,6,0,L|439:181,1,80,8|2,0:0|0:0,0:0:0:0:
384,112,108443,1,0,1:0:0:0:
305,151,108568,2,0,L|290:229,1,80,8|0,0:0|0:0,0:0:0:0:
484,331,108818,2,0,P|417:290|340:307,1,160,2|0,1:2|0:0,0:0:0:0:
183,374,109193,1,0,3:0:0:0:
183,374,109255,1,0,3:0:0:0:
183,374,109318,6,0,L|286:350,1,80,10|0,0:0|0:0,0:0:0:0:
216,277,109568,2,0,L|139:295,1,80,8|0,0:0|0:0,0:0:0:0:
16,131,109818,2,0,P|91:128|123:197,1,160,2|0,1:2|0:0,0:0:0:0:
41,332,110193,6,0,L|55:253,1,80,8|2,0:0|0:0,0:0:0:0:
123,197,110443,1,0,1:0:0:0:
204,157,110568,2,0,L|212:77,1,80,8|0,0:0|0:0,0:0:0:0:
346,4,110818,6,0,P|407:30|410:94,1,134.999995880127,2|0,1:2|0:0,0:0:0:0:
396,99,111068,2,0,L|293:120,1,89.9999972534181,10|0,0:0|0:0,0:0:0:0:
134,289,111318,6,0,P|182:216|269:205,1,179.999994506836,4|0,1:2|0:0,0:0:0:0:
282,214,111568,1,10,0:0:0:0:
396,99,111693,6,0,P|415:180|377:236,1,150,4|0,1:2|0:0,0:0:0:0:
369,242,111943,1,10,0:0:0:0:
442,375,112068,6,0,P|355:373|299:306,1,179.999994506836,4|8,1:2|0:0,0:0:0:0:
149,374,112568,6,0,L|236:361,1,80,10|8,0:0|0:0,0:0:0:0:
298,305,112818,1,0,1:0:0:0:
245,234,112943,2,0,L|271:74,1,160,10|0,0:0|0:0,0:0:0:0:
355,19,113318,6,0,B|406:69|492:49|492:49|421:82|415:167|415:167|397:121|339:124,1,375.000014305115,4|0,1:2|1:0,0:0:0:0:
354,125,114630,1,0,1:0:0:0:
354,125,114693,1,0,1:0:0:0:
245,234,114818,6,0,L|322:217,1,75.0000028610231,0|0,1:0|1:0,0:0:0:0:
490,271,115068,2,0,L|365:298,1,112.500004291535,10|0,0:0|0:0,0:0:0:0:
380,294,115318,6,0,P|417:201|353:124,1,209.999993591309,12|0,0:0|0:0,0:0:0:0:
336,38,115818,2,0,P|278:73|266:140,1,139.999995727539,2|0,1:2|0:0,0:0:0:0:
203,280,116193,6,0,L|291:263,1,69.9999978637696,10|0,0:0|0:0,0:0:0:0:
324,201,116443,1,0,1:0:0:0:
266,140,116568,2,0,L|197:153,1,69.9999978637696,10|0,0:0|0:0,0:0:0:0:
96,354,116818,2,0,L|132:209,1,139.999995727539,2|0,1:2|0:0,0:0:0:0:
129,218,117193,1,2,0:0:0:0:
33,123,117318,6,0,P|37:161|71:201,1,69.9999978637696,10|0,0:0|0:0,0:0:0:0:
197,153,117568,2,0,P|194:118|176:88,1,69.9999978637696,8|0,0:0|0:0,0:0:0:0:
94,58,117818,2,0,P|165:54|217:-2,1,139.999995727539,2|0,1:2|0:0,0:0:0:0:
366,173,118193,6,0,L|296:163,1,69.9999978637696,10|0,0:0|0:0,0:0:0:0:
264,85,118443,1,0,1:0:0:0:
343,35,118568,2,0,L|368:191,1,139.999995727539,10|0,0:0|1:0,0:0:0:0:
391,325,118943,1,2,0:0:0:0:
462,280,119068,1,2,0:0:0:0:
447,197,119193,1,2,0:0:0:0:
365,173,119318,6,0,B|300:154|258:209|280:205|253:265|162:238,1,209.999993591309,10|0,0:0|0:0,0:0:0:0:
105,281,119818,2,0,P|97:223|152:165,1,139.999995727539,2|0,1:2|0:0,0:0:0:0:
108,37,120193,6,0,L|92:113,1,69.9999978637696,10|0,0:0|0:0,0:0:0:0:
148,166,120443,1,0,1:0:0:0:
226,135,120568,2,0,L|240:66,1,69.9999978637696,10|0,0:0|0:0,0:0:0:0:
465,13,120818,2,0,L|329:46,1,139.999995727539,2|0,1:2|0:0,0:0:0:0:
329,46,121193,1,2,0:0:0:0:
225,134,121318,6,0,P|250:158|284:168,1,69.9999978637696,10|0,0:0|0:0,0:0:0:0:
492,147,121568,2,0,P|466:123|433:113,1,69.9999978637696,8|0,0:0|0:0,0:0:0:0:
368,170,121818,2,0,P|386:260|436:295,1,139.999995727539,2|0,1:2|0:0,0:0:0:0:
494,384,122193,6,0,L|506:315,1,69.9999978637696,10|0,0:0|0:0,0:0:0:0:
420,288,122443,1,0,1:0:0:0:
362,349,122568,2,0,L|271:363,1,69.9999978637696,10|0,0:0|0:0,0:0:0:0:
71,302,122818,2,0,L|236:279,1,139.999995727539,2|2,1:2|0:0,0:0:0:0:
268,200,123193,1,0,1:0:0:0:
199,384,123318,6,0,B|184:323|230:282|237:302|291:269|265:188,1,209.999993591309,12|0,0:0|0:0,0:0:0:0:
353,174,123818,2,0,P|309:121|241:117,1,139.999995727539,2|0,1:2|0:0,0:0:0:0:
106,191,124193,6,0,L|120:122,1,69.9999978637696,10|0,0:0|0:0,0:0:0:0:
179,62,124443,1,0,1:0:0:0:
113,9,124568,2,0,L|40:25,1,69.9999978637696,10|0,0:0|0:0,0:0:0:0:
241,117,124818,2,0,L|391:83,1,139.999995727539,2|0,1:2|0:0,0:0:0:0:
377,86,125193,1,2,0:0:0:0:
512,140,125318,6,0,P|514:174|499:205,1,69.9999978637696,10|0,0:0|0:0,0:0:0:0:
355,286,125568,2,0,P|352:251|366:219,1,69.9999978637696,10|0,0:0|0:0,0:0:0:0:
427,160,125818,2,0,L|276:195,1,139.999995727539,2|0,1:2|0:0,0:0:0:0:
112,337,126193,6,0,L|180:321,1,69.9999978637696,10|0,0:0|0:0,0:0:0:0:
234,256,126443,1,0,1:0:0:0:
159,217,126568,2,0,L|174:147,1,69.9999978637696,10|0,0:0|0:0,0:0:0:0:
80,9,126818,2,0,P|147:8|192:60,1,139.999995727539,2|0,1:2|0:0,0:0:0:0:
191,59,127193,1,2,0:0:0:0:
385,114,127318,6,0,L|274:137,1,112.500004291535,12|0,0:0|0:0,0:0:0:0:
265,127,127568,2,0,L|351:109,1,75.0000028610231,10|0,0:0|0:0,0:0:0:0:
485,82,127818,2,0,P|425:124|419:196,1,150.000005722046,2|0,1:2|0:0,0:0:0:0:
483,332,128193,6,0,L|495:258,1,75.0000028610231,10|0,0:0|0:0,0:0:0:0:
419,196,128443,1,0,1:0:0:0:
373,273,128568,2,0,L|299:288,1,75.0000028610231,10|0,0:0|0:0,0:0:0:0:
129,231,128818,2,0,L|245:206,1,112.500004291535,2|0,1:2|0:0,0:0:0:0:
257,202,129068,2,0,L|265:127,1,75.0000028610231,4|0,0:0|1:0,0:0:0:0:
265,127,129255,1,0,1:0:0:0:
265,127,129318,5,12,0:0:0:0:
199,65,129443,1,10,0:0:0:0:
350,83,129568,2,0,P|321:56|279:45,1,75.0000028610231,10|0,0:0|0:0,0:0:0:0:
92,17,129818,2,0,P|129:60|197:65,1,112.500004291535,2|0,1:2|0:0,0:0:0:0:
198,64,130068,2,0,L|189:139,1,75.0000028610231,2|8,0:0|0:0,0:0:0:0:
16,313,130318,5,2,1:2:0:0:
79,248,130443,1,0,1:0:0:0:
161,284,130568,1,8,0:0:0:0:
224,219,130693,1,0,1:0:0:0:
306,255,130818,5,2,1:2:0:0:
316,237,130943,1,8,0:0:0:0:
335,244,131068,1,2,1:2:0:0:
325,262,131193,1,0,1:2:0:0:
512,117,131318,6,0,P|465:61|369:60,1,165.000005035401,12|0,0:0|0:0,0:0:0:0:
359,68,131568,1,10,0:0:0:0:
268,148,131693,2,0,L|324:159,1,55.0000016784668,0|0,1:0|1:0,0:0:0:0:
443,309,131818,6,0,L|418:146,1,165.000005035401,4|0,1:2|0:0,0:0:0:0:
431,138,132068,2,0,L|439:192,1,55.0000016784668,2|0,1:2|0:0,0:0:0:0:
315,0,132193,1,2,1:2:0:0:
315,0,133318,6,0,P|268:56|172:57,1,165.000005035401,12|0,0:0|0:0,0:0:0:0:
167,43,133568,1,8,0:0:0:0:
70,141,133693,2,0,L|123:152,1,55.0000016784668,0|0,1:0|1:0,0:0:0:0:
10,62,133818,6,0,L|40:224,1,165.000005035401,0|0,1:0|0:0,0:0:0:0:
28,232,134068,2,0,L|18:178,1,55.0000016784668,2|0,0:0|0:0,0:0:0:0:
0,384,134193,1,0,1:0:0:0:
0,384,134568,5,8,0:0:0:0:
0,384,134818,6,0,B|-9:339|34:310|34:310|88:306|110:344,1,175,2|0,1:2|0:0,0:0:0:0:
124,365,135318,6,0,L|151:217,1,150.000005722046,12|0,0:0|0:0,0:0:0:0:
124,69,135693,1,2,0:0:0:0:
75,157,135818,2,0,P|145:174|201:129,1,150.000005722046,2|2,1:2|0:0,0:0:0:0:
407,52,136193,1,0,1:0:0:0:
315,8,136317,6,0,L|298:81,1,75.0000028610231,12|0,0:0|0:0,0:0:0:0:
407,52,136568,2,0,L|390:125,1,75.0000028610231,10|0,0:0|0:0,0:0:0:0:
430,261,136818,2,0,P|359:278|303:233,1,150.000005722046,2|2,1:2|0:0,0:0:0:0:
131,154,137193,1,0,1:0:0:0:
132,257,137318,6,0,L|202:231,1,75.0000028610231,12|0,0:0|0:0,0:0:0:0:
131,154,137568,2,0,L|201:128,1,75.0000028610231,10|0,0:0|0:0,0:0:0:0:
379,199,137818,2,0,L|407:51,1,150.000005722046,2|0,1:2|0:0,0:0:0:0:
324,1,138193,2,0,P|310:36|315:73,1,75.0000028610231,10|0,0:0|0:0,0:0:0:0:
485,100,138443,1,0,1:0:0:0:
485,100,138568,2,0,P|500:65|500:28,1,75.0000028610231,8|0,0:0|0:0,0:0:0:0:
273,188,138818,6,0,B|244:159|206:134|206:134|260:163|295:165,1,179.999994506836,2|8,1:2|0:0,0:0:0:0:
466,273,139193,5,0,1:0:0:0:
466,273,139255,1,0,1:0:0:0:
466,272,139318,2,0,P|399:300|339:260,1,150,12|0,0:0|0:0,0:0:0:0:
407,224,139568,2,0,L|383:321,1,100,10|0,0:0|0:0,0:0:0:0:
302,375,139818,5,2,1:2:0:0:
224,329,139943,1,2,0:0:0:0:
134,332,140068,1,2,0:0:0:0:
59,382,140193,6,0,P|40:344|22:316,1,75.0000028610231,10|0,0:0|0:0,0:0:0:0:
119,107,140443,1,0,1:0:0:0:
200,165,140568,2,0,P|185:199|172:234,1,75.0000028610231,10|0,0:0|0:0,0:0:0:0:
276,377,140818,2,0,P|204:349|134:332,1,150.000005722046,2|2,1:2|0:0,0:0:0:0:
134,332,141193,1,0,1:0:0:0:
9,180,141318,6,0,P|47:118|119:107,1,150.000005722046,10|0,0:0|0:0,0:0:0:0:
119,107,141693,1,2,0:0:0:0:
318,77,141818,2,0,P|246:65|208:3,1,150.000005722046,0|2,1:0|0:0,0:0:0:0:
224,114,142193,6,0,P|212:149|204:186,1,75.0000028610231,10|0,0:0|0:0,0:0:0:0:
309,378,142443,1,0,1:0:0:0:
213,359,142568,2,0,P|199:325|188:289,1,75.0000028610231,10|0,0:0|0:0,0:0:0:0:
418,255,142818,2,0,B|324:287|324:287|299:277|286:255,1,150.000005722046,2|2,1:2|0:0,0:0:0:0:
286,255,143193,1,0,1:0:0:0:
451,349,143318,6,0,B|472:301|451:263|451:263|427:220|455:177,2,179.999994506836,12|2|0,0:0|0:0|1:0,0:0:0:0:
213,360,144068,5,2,0:0:0:0:
135,258,144193,2,0,P|120:292|123:329,1,75.0000028610231,8|0,0:0|0:0,0:0:0:0:
213,360,144443,1,0,1:0:0:0:
297,326,144568,2,0,P|299:288|285:254,1,75.0000028610231,8|0,0:0|0:0,0:0:0:0:
73,157,144818,5,0,1:0:0:0:
162,161,144943,1,2,0:0:0:0:
226,98,145068,1,10,0:0:0:0:
226,8,145193,1,2,0:0:0:0:
44,1,145318,6,0,B|57:70|57:70|54:77|54:77|58:82|72:156,1,160,12|0,0:0|0:0,0:0:0:0:
66,327,145693,6,0,B|105:273|145:259|145:259|121:276|114:290,1,149.999995422363,2|0,1:2|0:0,0:0:0:0:
140,302,146068,6,0,P|103:287|86:252,1,80,12|0,0:0|0:0,0:0:0:0:
316,77,146318,5,0,1:0:0:0:
296,162,146443,1,0,1:0:0:0:
277,248,146568,2,0,L|303:323,1,80,10|0,0:0|0:0,0:0:0:0:
466,238,146818,5,0,1:0:0:0:
381,200,146943,1,0,1:0:0:0:
296,162,147068,1,10,0:0:0:0:
211,124,147193,1,10,0:0:0:0:
81,216,147318,6,0,P|166:200|211:125,1,179.999994506836,12|0,0:0|0:0,0:0:0:0:
323,46,147818,2,0,L|296:163,1,119.999996337891,2|0,1:2|0:0,0:0:0:0:
370,270,148193,1,0,3:0:0:0:
370,270,148255,1,0,3:0:0:0:
370,270,148318,6,0,L|387:192,1,75.0000028610231,10|0,0:0|0:0,0:0:0:0:
427,0,148568,2,0,L|411:73,1,75.0000028610231,10|0,0:0|0:0,0:0:0:0:
296,163,148818,2,0,B|376:187|411:129|383:129|438:76|495:96,1,225.000008583069,2|0,1:2|3:0,0:0:0:0:
512,119,149255,1,0,3:0:0:0:
512,119,149318,6,0,B|477:170|477:170|510:258,1,150.000005722046,12|0,0:0|0:0,0:0:0:0:
497,269,149693,2,0,L|469:191,1,75.0000028610231,10|0,0:0|0:0,0:0:0:0:
316,363,150068,6,0,B|171:368|226:305|81:314,1,239.999992675781,4|8,1:2|0:0,0:0:0:0:
85,313,150818,2,0,P|149:251|129:185,1,150.000005722046,2|0,1:2|0:0,0:0:0:0:
84,119,151193,1,0,1:0:0:0:
84,119,151255,1,0,1:0:0:0:
84,119,151318,6,0,P|16:97|66:191,1,225.000008583069,12|0,0:0|0:0,0:0:0:0:
139,198,151818,2,0,P|202:146|294:162,1,150.000005722046,2|0,1:2|0:0,0:0:0:0:
319,60,152193,1,0,3:0:0:0:
319,60,152255,1,0,3:0:0:0:
319,60,152318,6,0,P|276:57|229:33,1,75.0000028610231,10|0,0:0|0:0,0:0:0:0:
364,252,152568,2,0,P|329:239|292:238,1,75.0000028610231,10|0,0:0|0:0,0:0:0:0:
472,71,152818,6,0,B|424:96|424:96|454:190,1,134.999995880127,2|0,1:2|0:0,0:0:0:0:
505,236,153068,2,0,B|470:237|470:237|454:184,1,89.9999972534181,2|2,0:0|0:0,0:0:0:0:
341,152,153318,6,0,B|302:147|272:152|272:152|256:134|256:134|213:130|153:111,1,179.999994506836,12|8,0:0|0:0,0:0:0:0:
171,116,154068,6,0,P|270:118|227:28,1,225.000008583069,4|0,1:2|1:0,0:0:0:0:
208,30,154568,2,0,P|175:46|160:82,1,75.0000028610231,10|0,0:2|0:0,0:0:0:0:
189,263,154818,2,0,P|257:225|261:141,1,150.000005722046,2|8,1:2|0:0,0:0:0:0:
268,158,155193,1,2,0:0:0:0:
284,384,155318,6,0,P|210:303|93:300,1,225.000008583069,12|0,0:0|0:0,0:0:0:0:
268,158,155818,2,0,P|203:191|188:262,1,150.000005722046,2|8,1:2|0:0,0:0:0:0:
215,281,156193,6,0,B|319:285|282:226|389:235,1,179.999994506836,12|0,0:0|0:0,0:0:0:0:
493,65,156568,2,0,L|419:80,1,75.0000028610231,10|0,0:0|0:0,0:0:0:0:
362,146,156818,2,0,L|395:0,1,150.000005722046,2|0,1:2|0:0,0:0:0:0:
395,0,157193,1,2,0:0:0:0:
510,170,157318,6,0,B|452:182|452:182|424:318|424:318|502:300,1,269.999991760254,12|0,0:0|0:0,0:0:0:0:
470,282,157818,2,0,B|373:303|373:303|351:349,1,150.000005722046,2|2,1:2|0:0,0:0:0:0:
162,327,158193,6,0,P|257:358|247:279,1,209.999993591309,12|0,0:0|1:0,0:0:0:0:
230,263,158568,2,0,P|186:263|156:295,1,89.9999972534181,10|0,0:0|0:0,0:0:0:0:
8,91,158818,2,0,P|101:117|111:209,1,179.999994506836,2|10,1:2|0:0,0:0:0:0:
21,187,159193,1,0,1:0:0:0:
21,187,159255,1,0,1:0:0:0:
21,187,159318,6,0,B|211:81|211:81|199:134|198:180,1,300.000011444092,12|2,0:0|1:2,0:0:0:0:
199,162,160068,2,0,P|227:194|271:192,1,89.9999972534181,2|0,0:0|1:0,0:0:0:0:
297,210,160255,1,0,1:0:0:0:
297,210,160318,6,0,P|337:151|412:166,1,134.999995880127,12|0,0:0|0:0,0:0:0:0:
399,188,160568,2,0,P|371:222|328:230,1,89.9999972534181,10|0,0:0|0:0,0:0:0:0:
126,384,160818,2,0,P|179:313|285:305,1,179.999994506836,2|0,1:2|0:0,0:0:0:0:
264,298,161193,1,2,0:0:0:0:
474,365,161318,6,0,B|444:243|375:321|352:188,1,225.000008583069,12|0,0:0|0:0,0:0:0:0:
418,123,161818,2,0,B|308:122|364:191|234:186,1,179.999994506836,2|0,1:2|0:0,0:0:0:0:
97,161,162193,6,0,B|176:139|176:139|130:274,1,209.999993591309,10|0,0:0|1:0,0:0:0:0:
123,289,162568,2,0,B|58:305|58:305|73:257,1,104.999996795654,10|0,0:0|0:0,0:0:0:0:
259,89,162818,6,0,P|187:110|135:56,1,157.499995193482,4|0,1:2|0:0,0:0:0:0:
152,46,163068,2,0,P|203:41|244:71,1,104.999996795654,12|0,0:0|0:0,0:0:0:0:
443,116,163318,5,4,1:2:0:0:
475,8,163443,1,2,1:2:0:0:
256,192,163693,5,4,1:2:0:0:
37,376,163943,5,10,0:2:0:0:
69,268,164068,1,4,1:2:0:0:
69,268,165318,6,0,B|123:271|151:226|151:226|181:174|235:176,1,200,12|8,0:0|0:0,0:0:0:0:
330,246,165693,1,2,0:0:0:0:
304,340,165818,6,0,P|258:318|236:274,1,100,2|0,1:2|0:0,0:0:0:0:
274,89,166068,1,2,0:0:0:0:
141,199,166193,6,0,P|135:149|164:109,1,100,10|0,0:0|0:0,0:0:0:0:
233,0,166443,1,0,1:0:0:0:
234,176,166568,6,0,P|137:163|70:91,2,200,10|2|10,0:0|1:2|0:0,0:0:0:0:
436,151,167193,1,2,0:0:0:0:
355,63,167318,6,0,B|339:100|335:147|335:147|327:114,1,119.999996337891,12|0,0:0|0:0,0:0:0:0:
424,349,167568,2,0,B|389:299|388:244|388:244|397:264|418:284,1,150,10|0,0:0|0:0,0:0:0:0:
493,296,167818,2,0,B|435:287|403:328|403:328|371:368|313:355,1,200,2|0,1:2|0:0,0:0:0:0:
94,360,168193,6,0,P|38:266|143:296,1,279.999991455078,10|0,0:0|1:0,0:0:0:0:
127,286,168568,2,0,P|52:275|77:345,1,179.999994506836,10|0,0:0|0:0,0:0:0:0:
218,384,168818,2,0,B|229:290|229:290|226:282|226:282|231:274|231:274|244:167,1,220.000006713867,2|8,1:2|0:0,0:0:0:0:
258,10,169193,1,2,0:0:0:0:
329,87,169318,6,0,B|280:93|246:136|246:136|219:87|174:68,1,200,12|8,0:0|0:0,0:0:0:0:
44,50,169693,1,2,0:0:0:0:
0,178,169818,6,0,P|42:149|91:152,1,100,2|0,1:2|0:0,0:0:0:0:
140,241,170068,1,2,0:0:0:0:
174,68,170193,6,0,P|203:106|199:155,1,100,10|0,0:0|0:0,0:0:0:0:
140,241,170443,1,8,0:0:0:0:
250,313,170568,6,0,P|211:342|162:337,1,100,10|0,0:0|0:0,0:0:0:0:
299,206,170818,6,0,B|315:252|355:252|355:252|470:214,1,200,2|10,1:2|0:0,0:0:0:0:
470,214,171193,1,2,0:0:0:0:
468,382,171318,6,0,P|434:347|385:344,1,100,10|0,0:0|0:0,0:0:0:0:
373,140,171568,2,0,B|347:104|367:59|367:59|369:99|384:119,1,150,10|0,0:0|0:0,0:0:0:0:
470,214,171818,2,0,P|393:195|274:170,1,200,2|0,1:2|0:0,0:0:0:0:
41,184,172193,6,0,B|83:166|163:142|163:142|162:106|149:78|149:78|121:78|104:85,1,239.999992675781,10|0,0:0|1:0,0:0:0:0:
215,0,172568,2,0,P|200:88|188:178,1,179.999994506836,10|0,0:2|0:0,0:0:0:0:
118,370,172818,2,0,P|99:320|120:271,1,110.000003356934,2|0,1:2|0:0,0:0:0:0:
324,232,173068,5,8,0:0:0:0:
252,368,173193,1,0,1:0:0:0:
31,205,173318,6,0,B|89:196|121:237|121:237|153:277|211:264,1,200,12|8,0:0|0:0,0:0:0:0:
261,110,173693,1,2,0:0:0:0:
166,89,173818,6,0,P|160:137|188:178,1,100,2|0,1:2|0:0,0:0:0:0:
308,24,174068,1,2,0:0:0:0:
318,197,174193,6,0,P|358:227|407:222,1,100,10|0,0:0|0:0,0:0:0:0:
457,133,174443,1,0,1:0:0:0:
422,327,174568,6,0,P|466:304|512:284,1,100,10|0,0:0|0:0,0:0:0:0:
261,110,174818,6,0,B|289:257|289:257|280:282|278:303,1,200,2|8,1:2|0:0,0:0:0:0:
278,306,175193,1,2,0:0:0:0:
151,154,175318,6,0,B|104:84|149:13|149:13|135:56|139:109,1,239.999992675781,12|8,0:0|0:0,0:0:0:0:
136,301,175693,1,2,0:0:0:0:
232,234,175818,6,0,B|91:172|91:172|33:218|41:282,1,279.999991455078,4|8,1:2|0:0,0:0:0:0:
261,110,176193,1,2,0:0:0:0:
278,306,176318,6,0,P|328:223|232:235,1,239.999992675781,12|8,0:0|0:0,0:0:0:0:
169,384,176693,1,2,0:0:0:0:
9,372,176818,6,0,B|145:338|145:338|151:332|151:332|160:334|160:334|278:306,1,279.999991455078,4|8,1:2|0:0,0:0:0:0:
425,140,177193,1,2,0:0:0:0:
512,350,177318,6,0,B|387:318|387:318|343:297|345:250|366:209|417:199|460:228|466:267|451:294,1,359.999989013672,12|0,0:0|0:0,0:0:0:0:
407,273,177818,6,0,L|367:76,1,200,2|0,1:2|0:0,0:0:0:0:
268,143,178193,2,0,L|289:240,1,100,10|0,0:0|0:0,0:0:0:0:
273,376,178443,5,0,1:0:0:0:
131,353,178568,2,0,P|173:332|190:281,1,100,10|0,0:0|0:0,0:0:0:0:
370,298,178818,6,0,P|317:286|290:240,1,110.000003356934,2|0,1:2|0:0,0:0:0:0:
80,189,179068,6,0,P|138:188|175:144,1,119.999996337891,10|0,0:0|0:0,0:0:0:0:
317,126,179318,6,0,B|315:100|307:72|257:31|257:31|183:124|233:207|290:240,1,359.999989013672,12|0,0:0|0:0,0:0:0:0:
317,126,179818,6,0,B|379:106|446:127|472:185|472:185|437:183|420:214|381:213,1,279.999991455078,4|8,1:2|0:0,0:0:0:0:
290,240,180193,6,0,B|279:282|301:318|342:340|342:340|374:306|389:266|380:214,1,259.999988098145,4|0,1:2|1:0,0:0:0:0:
459,0,180568,1,2,1:2:0:0:
439,46,180693,1,0,1:0:0:0:
365,73,180818,5,2,1:2:0:0:
269,27,180943,1,0,1:0:0:0:
141,43,181068,1,2,1:2:0:0:
52,156,181193,1,0,1:0:0:0:
81,336,181318,6,0,P|131:292|124:245,1,112.500004291535,12|0,0:0|0:0,0:0:0:0:
111,235,181568,2,0,B|90:252|90:252|-6:237,1,100,2|0,1:2|0:0,0:0:0:0:
216,349,181818,2,0,B|274:319|274:319|294:325|294:325|335:391|424:366,1,200,10|0,0:0|1:0,0:0:0:0:
417,200,182193,6,0,P|379:231|379:279,1,100,10|0,0:0|0:0,0:0:0:0:
512,203,182443,1,10,0:0:0:0:
328,147,182568,2,0,B|316:105|316:105|306:99|306:99|293:56,1,100,2|0,1:2|0:0,0:0:0:0:
238,172,182818,1,10,0:0:0:0:
388,39,182943,1,8,0:0:0:0:
238,172,183068,2,0,B|196:184|196:184|189:194|189:194|146:206,1,100,2|0,1:2|0:0,0:0:0:0:
8,60,183318,6,0,B|45:119|115:116|115:116|62:134|53:191,1,225.000008583069,12|0,0:0|0:0,0:0:0:0:
118,290,183568,2,0,B|144:273|156:238|156:238|146:205,1,100,2|0,1:2|0:0,0:0:0:0:
14,307,183818,6,0,B|75:282|118:318|94:327|137:371|207:340,1,200,10|0,0:0|1:0,0:0:0:0:
421,349,184193,2,0,B|380:346|351:377|351:377|271:357|292:244,1,200,12|8,0:0|0:0,0:0:0:0:
443,93,184568,2,0,B|421:153|421:153|405:165|405:165|378:242,1,150,2|0,1:2|0:0,0:0:0:0:
379,254,184818,1,10,0:0:0:0:
188,132,184943,1,8,0:0:0:0:
379,254,185068,2,0,B|424:245|424:245|441:249|441:249|493:239,1,100,2|0,1:2|0:0,0:0:0:0:
322,97,185318,6,0,B|258:104|204:50|204:50|198:52|198:52|224:102|184:136,1,225.000008583069,12|0,0:0|0:0,0:0:0:0:
117,189,185568,2,0,B|73:168|73:168|71:161|71:161|107:103,1,100,2|0,1:2|0:0,0:0:0:0:
176,360,185818,2,0,P|262:320|272:225,1,200,10|0,0:0|1:0,0:0:0:0:
155,351,186193,6,0,B|113:362|113:362|107:373|107:373|64:384,1,100,10|0,0:0|0:0,0:0:0:0:
176,256,186443,1,8,0:0:0:0:
34,213,186568,2,0,B|102:229|102:229|112:240|112:240|177:256,1,150,2|0,1:2|0:0,0:0:0:0:
194,258,186818,1,10,0:0:0:0:
383,170,186943,1,8,0:0:0:0:
303,308,187068,2,0,B|281:283|281:283|301:214,1,100,2|0,1:2|0:0,0:0:0:0:
448,4,187318,6,0,B|583:-20|538:166|460:144|431:101|449:85|420:72|395:71|367:82,1,300.000011444092,12|0,0:0|1:0,0:0:0:0:
370,80,187818,6,0,B|437:52|437:52|262:15,1,250,12|0,0:0|1:0,0:0:0:0:
86,0,188193,2,0,B|119:11|119:11|143:37|139:71,1,100,12|0,0:0|0:0,0:0:0:0:
310,171,188443,1,8,0:0:0:0:
208,207,188568,2,0,L|234:87,1,100,2|0,1:2|0:0,0:0:0:0:
13,283,188818,1,10,0:0:0:0:
208,207,188943,1,8,0:0:0:0:
97,340,189068,2,0,L|118:242,1,100,2|0,1:2|0:0,0:0:0:0:
0,120,189318,6,0,B|89:120|40:60|146:55,1,150,12|0,0:0|0:0,0:0:0:0:
138,70,189568,2,0,B|108:95|108:95|145:167,1,100,2|0,1:2|0:0,0:0:0:0:
335,113,189818,2,0,B|412:132|376:68|376:68|306:89|207:114,1,250,10|0,0:0|1:0,0:0:0:0:
458,210,190193,1,8,0:0:0:0:
401,283,190318,6,0,P|348:259|362:204,1,125,12|0,0:0|0:0,0:0:0:0:
118,242,190568,2,0,B|185:261|185:261|202:279|202:279|262:296,1,157.499995193482,2|0,1:2|0:0,0:0:0:0:
286,310,190818,1,10,0:0:0:0:
81,357,190943,1,8,0:0:0:0:
286,310,191068,2,0,B|240:320|240:320|232:327|232:327|171:338,1,104.999996795654,2|0,1:2|0:0,0:0:0:0:
20,153,191318,6,0,B|0:174|0:174|27:250|120:228,1,157.499995193482,12|0,0:0|0:0,0:0:0:0:
118,242,191568,2,0,B|136:193|136:193|143:187|143:187|157:138,1,104.999996795654,2|0,1:2|0:0,0:0:0:0:
243,27,191818,2,0,B|256:53|252:73|252:73|204:54|134:38,1,157.499995193482,10|0,0:0|0:0,0:0:0:0:
122,33,192068,1,0,1:0:0:0:
251,172,192193,6,0,B|320:153|366:142|366:142|391:198|465:182,1,209.999993591309,12|0,0:0|0:0,0:0:0:0:
375,346,192568,2,0,P|316:344|319:260,1,157.499995193482,2|0,1:2|0:0,0:0:0:0:
332,251,192818,1,10,0:0:0:0:
450,92,192943,1,8,0:0:0:0:
332,251,193068,2,0,B|284:264|284:264|275:258|275:258|207:276,1,104.999996795654,2|0,1:2|0:0,0:0:0:0:
0,141,193318,6,0,B|63:157|63:157|77:173|77:173|145:192,1,157.499995193482,12|0,0:0|0:0,0:0:0:0:
165,197,193568,2,0,L|149:98,1,100,0|10,1:0|0:0,0:0:0:0:
252,82,193943,1,8,0:0:0:0:
251,82,194193,6,0,P|155:80|97:3,1,200,4|0,1:2|0:0,0:0:0:0:
415,0,194568,2,0,B|419:61|370:85|364:66|312:100|329:174,1,200,2|10,1:2|0:0,0:0:0:0:
422,152,194943,1,8,0:0:0:0:
242,311,195068,2,0,B|227:303|227:303|313:280,1,100,2|0,1:2|0:0,0:0:0:0:
499,348,195318,6,0,P|429:333|411:265,1,150,12|0,0:0|0:0,0:0:0:0:
421,247,195568,2,0,P|471:239|505:198,1,100,2|8,1:2|0:0,0:0:0:0:
502,203,195943,1,10,0:0:0:0:
125,311,196193,6,0,P|226:334|318:379,1,200,4|8,1:2|0:0,0:0:0:0:
389,120,196568,2,0,P|348:182|320:252,1,150,2|0,1:2|0:0,0:0:0:0:
315,273,196818,1,10,0:0:0:0:
176,144,196943,1,8,0:0:0:0:
315,273,197068,2,0,P|294:217|253:168,1,100,2|0,1:2|0:0,0:0:0:0:
113,9,197318,6,0,B|249:25|160:75|309:91,2,200,12|0|10,0:0|1:0|0:0,0:0:0:0:
176,144,197943,1,8,0:0:0:0:
176,144,198068,1,0,1:0:0:0:
7,286,198193,2,0,P|97:282|93:192,1,200,10|8,0:0|0:0,0:0:0:0:
30,90,198568,2,0,P|13:133|0:185,1,100,2|0,1:2|0:0,0:0:0:0:
315,255,198818,5,10,0:0:0:0:
176,144,198943,1,8,0:0:0:0:
293,88,199068,1,0,1:0:0:0:
204,37,199193,1,8,0:0:0:0:
238,10,199318,6,0,B|227:29|227:29|171:79|206:176|234:153|278:186|292:251|234:317,1,329.9999899292,12|0,0:0|3:0,0:0:0:0:
242,306,200818,2,0,P|283:296|339:288,1,75.0000028610231,2|8,1:2|0:0,0:0:0:0:
413,275,201068,6,0,L|423:233,1,37.5000014305115,2|0,0:0|0:0,0:0:0:0:
433,227,201193,2,0,L|424:263,1,37.5000014305115,2|0,0:0|0:0,0:0:0:0:
512,176,201318,6,0,P|401:197|343:100,1,240,12|0,0:0|0:0,0:0:0:0:
353,78,201818,2,0,L|202:131,1,160,2|2,1:2|0:0,0:0:0:0:
14,129,202193,6,0,P|37:160|75:171,1,80,8|2,0:0|0:0,0:0:0:0:
98,81,202443,1,0,1:0:0:0:
75,171,202568,2,0,L|59:249,1,80,8|0,0:0|0:0,0:0:0:0:
237,307,202818,2,0,L|202:131,1,179.999994506836,2|0,1:2|0:0,0:0:0:0:
92,384,203193,1,0,3:0:0:0:
92,384,203255,1,0,3:0:0:0:
92,384,203318,6,0,P|109:348|140:322,1,80,10|0,0:0|0:0,0:0:0:0:
300,353,203568,2,0,P|273:323|237:307,1,80,8|0,0:0|0:0,0:0:0:0:
75,171,203818,2,0,P|150:187|202:131,1,160,2|0,1:2|0:0,0:0:0:0:
355,41,204193,6,0,P|280:56|228:1,1,160,10|0,0:0|1:0,0:0:0:0:
311,157,204568,2,0,L|328:234,1,80,8|0,0:0|0:0,0:0:0:0:
424,282,204818,2,0,L|455:125,1,160,2|10,1:2|0:0,0:0:0:0:
244,335,205193,1,0,3:0:0:0:
244,335,205255,1,0,3:0:0:0:
244,335,205318,6,0,B|304:314|354:355|354:355|406:400|468:372,1,240,12|0,0:2|0:2,0:0:0:0:
328,235,205818,2,0,P|272:289|196:278,1,160,2|0,1:2|0:2,0:0:0:0:
0,163,206193,6,0,P|37:155|72:128,1,80,10|0,0:0|0:0,0:0:0:0:
127,215,206443,1,0,1:0:0:0:
78,306,206568,2,0,P|46:281|7:273,1,80,10|0,0:2|0:0,0:0:0:0:
0,163,206818,6,0,B|41:134|87:153|87:153|132:172|171:147,1,179.999994506836,0|0,1:0|0:0,0:0:0:0:
354,77,207193,1,0,3:0:0:0:
354,77,207255,1,0,3:0:0:0:
354,77,207318,6,0,L|333:0,1,80,10|0,0:2|0:0,0:0:0:0:
238,26,207568,2,0,L|258:103,1,80,2|0,0:0|0:0,0:0:0:0:
497,80,207818,2,0,P|425:108|354:77,1,160,0|0,1:2|0:0,0:0:0:0:
233,230,208193,6,0,P|303:197|376:226,1,160,10|0,0:0|1:0,0:0:0:0:
485,352,208568,2,0,L|469:273,1,80,0|0,1:0|0:0,0:0:0:0:
376,226,208818,2,0,L|352:384,1,160,0|10,1:0|0:0,0:0:0:0:
234,380,209193,1,0,3:0:0:0:
234,380,209255,1,0,3:0:0:0:
234,380,209318,6,0,B|89:316|89:316|50:334|47:381,1,240,12|0,0:0|0:0,0:0:0:0:
0,212,209818,2,0,P|77:223|143:180,1,160,2|0,1:2|0:0,0:0:0:0:
376,226,210193,6,0,L|390:147,1,80,10|0,0:0|0:0,0:0:0:0:
332,80,210443,1,0,1:0:0:0:
251,118,210568,2,0,L|237:197,1,80,10|0,0:0|0:0,0:0:0:0:
439,321,210818,2,0,P|370:268|289:296,1,179.999994506836,2|0,1:2|0:0,0:0:0:0:
105,341,211193,1,0,3:0:0:0:
105,341,211255,1,0,3:0:0:0:
105,341,211318,6,0,L|180:315,1,80,10|0,0:0|0:0,0:0:0:0:
237,197,211568,2,0,L|160:220,1,80,2|0,0:0|0:0,0:0:0:0:
2,169,211818,2,0,L|155:122,1,160,2|0,1:2|0:0,0:0:0:0:
387,174,212193,6,0,B|348:155|309:183|309:183|272:211|237:197,1,160,10|8,0:0|0:0,0:0:0:0:
155,122,212568,2,0,L|170:43,1,80,10|0,0:0|1:0,0:0:0:0:
170,44,212755,1,0,1:0:0:0:
170,44,212818,1,0,1:0:0:0:
238,105,212943,1,0,1:0:0:0:
328,88,213068,1,8,0:0:0:0:
365,4,213193,1,0,1:0:0:0:
454,27,213318,6,0,B|514:56|530:132|530:132|470:179|459:254|459:254|399:196|341:205,1,412.500015735627,12|0,0:0|1:0,0:0:0:0:
341,205,214755,1,0,1:0:0:0:
341,205,214818,1,0,1:0:0:0:
377,289,214943,2,0,P|371:307|367:325,1,37.5000014305115,10|0,0:0|0:0,0:0:0:0:
367,326,215318,6,0,P|257:352|150:385,1,225.000008583069,12|0,0:0|0:0,0:0:0:0:
78,219,215818,2,0,P|127:273|200:271,1,150.000005722046,2|0,1:2|0:0,0:0:0:0:
187,116,216193,6,0,P|176:152|167:189,1,75.0000028610231,10|0,0:0|0:0,0:0:0:0:
214,31,216443,1,0,1:0:0:0:
60,49,216568,2,0,P|77:82|92:116,1,75.0000028610231,10|0,0:0|0:0,0:0:0:0:
27,243,216818,2,0,P|95:213|166:188,1,150.000005722046,2|0,1:2|0:0,0:0:0:0:
166,188,217193,1,2,0:0:0:0:
160,368,217318,6,0,P|124:357|99:329,1,75.0000028610231,10|0,0:0|0:0,0:0:0:0:
233,316,217568,2,0,P|232:278|251:246,1,75.0000028610231,8|0,0:0|0:0,0:0:0:0:
376,354,217818,2,0,L|341:209,1,150.000005722046,2|0,1:2|0:0,0:0:0:0:
264,61,218193,6,0,P|312:114|383:102,1,150.000005722046,10|0,0:0|1:0,0:0:0:0:
486,250,218568,2,0,P|414:228|341:209,1,150.000005722046,10|0,0:0|1:0,0:0:0:0:
265,257,218943,1,2,0:0:0:0:
177,234,219068,1,2,0:0:0:0:
158,145,219193,1,2,0:0:0:0:
209,70,219318,6,0,P|123:136|19:105,1,225.000008583069,10|0,0:0|0:0,0:0:0:0:
92,260,219818,2,0,P|99:188|158:145,1,150.000005722046,2|0,1:2|0:0,0:0:0:0:
294,245,220193,6,0,P|260:227|226:212,1,75.0000028610231,10|0,0:0|0:0,0:0:0:0:
285,120,220443,1,0,1:0:0:0:
427,144,220568,2,0,P|392:158|359:176,1,75.0000028610231,10|0,0:0|0:0,0:0:0:0:
503,104,220818,2,0,P|433:82|408:14,1,150.000005722046,2|0,1:2|0:0,0:0:0:0:
408,14,221193,1,2,0:0:0:0:
194,34,221318,6,0,P|191:71|207:105,1,75.0000028610231,10|0,0:0|0:0,0:0:0:0:
307,84,221568,2,0,P|308:47|290:15,1,75.0000028610231,8|0,0:0|0:0,0:0:0:0:
226,227,221818,2,0,B|249:191|285:183|285:183|325:194|356:174,1,150.000005722046,2|0,1:2|0:0,0:0:0:0:
207,105,222193,6,0,P|142:65|77:28,1,150.000005722046,10|0,0:0|1:0,0:0:0:0:
0,180,222568,2,0,P|31:159|63:140,1,75.0000028610231,10|0,0:0|0:0,0:0:0:0:
200,300,222818,2,0,P|129:298|101:233,1,150.000005722046,2|2,1:2|0:0,0:0:0:0:
101,233,223193,1,0,1:0:0:0:
1,369,223318,6,0,B|60:388|98:336|98:336|134:288|199:299,1,225.000008583069,12|0,0:0|0:0,0:0:0:0:
270,364,223818,2,0,P|294:294|264:227,1,150.000005722046,2|0,1:2|0:0,0:0:0:0:
162,107,224193,6,0,P|171:138|184:178,1,75.0000028610231,10|0,0:0|0:0,0:0:0:0:
264,228,224443,1,0,1:0:0:0:
305,144,224568,2,0,P|294:106|283:73,1,75.0000028610231,10|0,0:0|0:0,0:0:0:0:
74,50,224818,2,0,P|147:57|200:7,1,150.000005722046,2|0,1:2|0:0,0:0:0:0:
200,8,225193,1,2,1:2:0:0:
344,108,225318,6,0,P|307:99|282:72,1,75.0000028610231,10|0,0:0|0:0,0:0:0:0:
432,71,225568,2,0,P|428:34|441:-1,1,75.0000028610231,10|0,0:0|0:0,0:0:0:0:
489,161,225818,2,0,P|444:217|372:209,1,150.000005722046,2|0,1:2|0:0,0:0:0:0:
278,339,226193,6,0,P|312:324|348:313,1,75.0000028610231,10|0,0:0|0:0,0:0:0:0:
226,253,226443,1,0,1:0:0:0:
184,384,226568,2,0,P|145:368|113:358,1,75.0000028610231,10|0,0:0|0:0,0:0:0:0:
70,121,226818,2,0,L|124:260,1,150.000005722046,2|0,1:2|0:0,0:0:0:0:
124,260,227193,1,2,0:0:0:0:
217,148,227318,6,0,P|227:89|202:36,1,120,12|0,0:0|0:0,0:0:0:0:
179,42,227568,2,0,P|166:78|177:116,1,80,10|0,0:0|0:0,0:0:0:0:
226,253,227818,2,0,B|266:260|297:226|297:226|329:191|369:202,1,160,2|0,1:2|0:0,0:0:0:0:
440,335,228193,6,0,L|366:302,1,80,10|0,0:0|0:0,0:0:0:0:
463,148,228443,1,0,1:0:0:0:
348,125,228568,2,0,L|368:202,1,80,10|0,0:0|0:0,0:0:0:0:
279,343,228818,2,0,B|248:379|248:379|208:379|183:352,1,120,2|0,1:2|0:0,0:0:0:0:
186,329,229068,2,0,L|111:303,1,80,4|0,0:0|1:0,0:0:0:0:
111,303,229255,1,0,1:0:0:0:
111,303,229318,5,12,0:0:0:0:
0,158,229443,1,10,0:0:0:0:
106,128,229568,2,0,P|108:167|95:205,1,80,10|0,0:0|0:0,0:0:0:0:
33,16,229818,2,0,P|84:73|162:68,1,160,2|2,1:2|0:0,0:0:0:0:
162,68,230193,1,8,0:0:0:0:
368,23,230318,5,2,1:2:0:0:
369,118,230443,1,0,1:0:0:0:
296,180,230568,1,8,0:0:0:0:
203,152,230693,1,0,1:0:0:0:
204,306,230818,5,2,1:2:0:0:
296,180,230943,1,8,0:0:0:0:
147,229,231068,1,2,1:2:0:0:
298,276,231193,1,0,1:2:0:0:
401,117,231318,6,0,B|389:172|389:172|395:181|395:181|382:247,1,120,12|0,0:0|0:0,0:0:0:0:
380,255,231568,2,0,L|471:241,1,80,10|0,0:0|0:0,0:0:0:0:
499,149,231818,1,2,1:2:0:0:
499,149,232068,1,2,0:0:0:0:
401,117,232193,6,0,L|422:20,1,80,10|0,0:0|0:0,0:0:0:0:
303,88,232443,1,0,1:0:0:0:
286,167,232568,2,0,L|307:71,1,80,10|0,0:0|0:0,0:0:0:0:
169,43,232818,2,0,B|231:34|231:34|249:10|249:10|315:0,1,160,2|2,1:2|0:0,0:0:0:0:
195,132,233193,2,0,L|147:138,1,40,0|0,1:0|0:0,0:0:0:0:
71,18,233318,6,0,B|61:70|61:70|70:77|70:77|59:133,1,120,10|0,0:0|0:0,0:0:0:0:
40,142,233568,2,0,L|25:220,1,80,2|0,0:0|0:0,0:0:0:0:
159,274,233818,2,0,B|92:284|92:284|74:308|74:308|12:317,1,160,2|2,1:2|0:0,0:0:0:0:
228,384,234193,6,0,L|258:226,1,160,10|0,0:0|1:0,0:0:0:0:
258,226,234568,2,0,L|349:211,1,80,10|0,0:0|0:0,0:0:0:0:
506,311,234818,1,2,1:2:0:0:
506,311,235068,2,0,L|414:326,1,80,2|0,0:0|3:0,0:0:0:0:
399,327,235255,1,0,1:0:0:0:
399,327,235318,6,0,B|408:273|408:273|422:262|422:262|429:215,1,120,12|0,0:0|0:0,0:0:0:0:
447,205,235568,2,0,L|462:107,1,80,2|0,0:0|0:0,0:0:0:0:
373,0,235818,2,0,L|354:118,1,120,2|0,1:2|0:0,0:0:0:0:
352,140,236068,1,2,0:0:0:0:
469,24,236193,1,0,1:0:0:0:
268,81,236318,5,12,0:0:0:0:
255,90,236443,1,8,0:0:0:0:
242,98,236568,2,0,L|231:185,1,80,10|0,0:0|0:0,0:0:0:0:
111,296,236818,2,0,L|125:176,1,120,2|0,1:2|0:0,0:0:0:0:
130,157,237068,1,2,0:0:0:0:
17,270,237193,1,0,1:0:0:0:
206,330,237318,5,12,0:0:0:0:
209,314,237443,1,8,0:0:0:0:
211,299,237568,2,0,L|305:281,1,80,10|0,0:0|0:0,0:0:0:0:
466,344,237818,2,0,L|347:364,1,120,2|0,1:2|0:0,0:0:0:0:
328,368,238068,1,2,0:0:0:0:
452,256,238193,6,0,B|466:189|466:189|490:174|490:174|506:112,1,160,12|0,0:0|1:0,0:0:0:0:
290,0,238568,2,0,L|269:90,1,80,10|0,0:0|0:0,0:0:0:0:
402,125,238818,2,0,B|337:138|337:138|322:157|322:157|253:171,1,160,2|8,1:2|0:0,0:0:0:0:
90,272,239193,1,0,1:0:0:0:
90,272,239255,1,0,1:0:0:0:
90,272,239318,6,0,P|133:281|147:182,1,160,12|8,0:0|0:0,0:0:0:0:
158,190,239818,2,0,L|176:109,1,80,2|0,1:2|0:0,0:0:0:0:
34,70,240068,1,2,0:0:0:0:
181,19,240193,6,0,B|97:16|126:74|31:69,1,160,10|0,0:0|1:0,0:0:0:0:
175,111,240568,2,0,P|219:103|264:96,1,80,10|0,0:0|0:0,0:0:0:0:
396,186,240818,2,0,P|348:152|352:95,1,120,2|0,1:2|0:0,0:0:0:0:
364,80,241068,1,2,0:0:0:0:
498,186,241193,1,0,1:0:0:0:
469,29,241318,6,0,P|460:68|453:107,1,80,10|0,0:0|0:0,0:0:0:0:
307,178,241568,2,0,P|298:220|289:278,1,80,10|0,0:0|0:0,0:0:0:0:
512,332,241818,2,0,P|468:272|375:286,1,160,2|2,1:2|0:0,0:0:0:0:
241,384,242193,6,0,B|239:299|175:337|186:232,1,160,10|0,0:0|1:0,0:0:0:0:
419,359,242568,2,0,P|388:364|340:379,1,80,10|0,0:0|0:0,0:0:0:0:
291,256,242818,2,0,P|300:217|322:167,1,80,2|0,1:2|0:0,0:0:0:0:
469,59,243068,2,0,P|486:97|499:143,1,80,2|0,0:0|3:0,0:0:0:0:
483,159,243255,1,0,1:0:0:0:
483,159,243318,6,0,P|441:168|402:137,1,80,12|0,0:0|0:0,0:0:0:0:
196,54,243568,2,0,P|255:34|312:11,1,120,2|0,0:0|0:0,0:0:0:0:
327,9,243818,2,0,P|357:33|359:72,1,80,2|0,1:2|0:0,0:0:0:0:
315,180,244068,1,2,0:0:0:0:
434,238,244193,6,0,P|368:168|296:196,1,160,10|0,0:0|1:0,0:0:0:0:
194,367,244568,2,0,P|256:347|315:335,1,120,10|0,0:0|0:0,0:0:0:0:
327,344,244818,2,0,P|335:306|346:265,1,80,2|0,1:2|0:0,0:0:0:0:
109,173,245068,5,10,0:0:0:0:
85,272,245193,1,2,0:0:0:0:
62,372,245318,2,0,P|176:329|162:218,1,240,12|2,0:0|1:2,0:0:0:0:
0,27,246068,6,0,P|37:81|147:67,1,160,12|0,0:0|1:0,0:0:0:0:
319,48,246443,1,0,1:0:0:0:
235,0,246568,2,0,P|226:36|218:94,1,80,10|0,0:0|0:0,0:0:0:0:
371,212,246818,2,0,P|384:144|398:88,1,120,2|0,1:2|0:0,0:0:0:0:
402,75,247068,2,0,P|453:65|501:59,1,80,10|0,0:0|0:0,0:0:0:0:
485,288,247318,6,0,P|387:248|289:211,1,209.999993591309,12|0,0:0|0:0,0:0:0:0:
263,311,247818,2,0,P|330:314|375:263,1,139.999995727539,2|0,1:2|0:0,0:0:0:0:
144,317,248193,1,0,3:0:0:0:
144,317,248255,1,0,3:0:0:0:
144,317,248318,6,0,L|161:384,1,69.9999978637696,10|0,0:0|0:0,0:0:0:0:
177,158,248568,2,0,L|194:225,1,69.9999978637696,10|0,0:0|0:0,0:0:0:0:
42,309,248818,2,0,L|9:173,1,139.999995727539,2|0,1:2|0:0,0:0:0:0:
0,54,249193,1,0,3:0:0:0:
0,54,249255,1,0,3:0:0:0:
0,54,249318,6,0,B|106:86|106:86|143:54,1,160,12|0,0:0|0:0,0:0:0:0:
101,126,249693,2,0,L|29:90,1,80,10|0,0:0|0:0,0:0:0:0:
20,377,250068,6,0,B|149:396|132:236|257:257,1,279.999991455078,4|8,1:2|0:0,0:0:0:0:
254,256,250818,2,0,P|179:267|141:202,1,160,2|0,1:2|0:0,0:0:0:0:
279,371,251193,1,0,1:0:0:0:
279,371,251255,1,0,1:0:0:0:
279,371,251318,6,0,L|324:135,1,240,12|0,0:0|0:0,0:0:0:0:
390,343,251818,2,0,L|418:205,1,139.999995727539,2|0,1:2|0:0,0:0:0:0:
244,46,252193,1,0,3:0:0:0:
244,46,252255,1,0,3:0:0:0:
244,46,252318,6,0,P|227:76|225:110,1,69.9999978637696,10|0,0:0|0:0,0:0:0:0:
324,135,252568,2,0,P|340:104|342:70,1,69.9999978637696,10|0,0:0|0:0,0:0:0:0:
169,290,252818,6,0,P|224:267|280:245,1,120,2|0,1:2|0:0,0:0:0:0:
252,222,253068,2,0,B|217:223|217:223|186:189,1,80,2|2,0:0|0:0,0:0:0:0:
90,75,253318,6,0,P|40:17|111:47,1,209.999993591309,12|8,0:0|0:0,0:0:0:0:
111,45,254068,6,0,P|5:85|113:118,1,300,4|0,1:2|1:0,0:0:0:0:
104,282,254568,2,0,P|67:264|31:250,1,80,10|0,0:2|0:0,0:0:0:0:
167,204,254818,2,0,B|214:204|238:250|238:250|263:295|312:291,1,179.999994506836,2|8,1:2|0:0,0:0:0:0:
312,291,255193,1,2,0:0:0:0:
281,384,255318,6,0,P|359:297|476:299,1,240,12|0,0:0|0:0,0:0:0:0:
356,167,255818,2,0,P|380:239|455:258,1,160,2|8,1:2|0:0,0:0:0:0:
256,157,256193,6,0,P|341:129|425:96,1,179.999994506836,12|0,0:0|0:0,0:0:0:0:
203,0,256568,2,0,P|240:24|278:48,1,89.9999972534181,10|0,0:0|0:0,0:0:0:0:
57,209,256818,2,0,P|79:132|102:55,1,160,2|0,1:2|0:0,0:0:0:0:
102,56,257193,1,2,0:0:0:0:
367,41,257318,6,0,P|310:136|203:103,1,240,12|0,0:0|0:0,0:0:0:0:
245,264,257818,2,0,P|248:188|182:151,1,160,2|2,1:2|0:0,0:0:0:0:
339,280,258193,6,0,P|253:306|168:335,1,179.999994506836,12|0,0:0|1:0,0:0:0:0:
494,383,258568,2,0,P|450:382|425:348,1,89.9999972534181,10|0,0:0|0:0,0:0:0:0:
466,121,258818,2,0,B|438:250|438:250|439:218|434:202,1,179.999994506836,2|10,1:2|0:0,0:0:0:0:
320,366,259193,1,0,1:0:0:0:
320,366,259255,1,0,1:0:0:0:
320,366,259318,6,0,L|250:53,1,320,12|2,0:0|1:2,0:0:0:0:
250,53,260068,2,0,P|226:83|230:122,1,80,2|0,0:0|1:0,0:0:0:0:
328,175,260318,6,0,P|367:131|360:73,1,120,12|0,0:0|0:0,0:0:0:0:
344,52,260568,2,0,P|385:38|420:26,1,80,10|0,0:0|0:0,0:0:0:0:
375,249,260818,2,0,P|303:214|230:179,1,160,2|0,1:2|0:0,0:0:0:0:
247,383,261193,1,2,0:0:0:0:
247,383,261255,1,2,0:0:0:0:
247,383,261318,6,0,B|368:405|351:245|470:265,1,269.999991760254,12|0,0:0|0:0,0:0:0:0:
375,249,261818,2,0,P|300:243|282:170,1,160,2|0,1:2|0:0,0:0:0:0:
146,49,262193,6,0,B|189:244,1,200,10|0,0:0|1:0,0:0:0:0:
282,171,262568,2,0,B|301:73,1,100,10|0,0:0|0:0,0:0:0:0:
122,176,262818,6,0,P|61:214|2:174,1,150,4|0,1:2|0:0,0:0:0:0:
10,159,263068,2,0,P|45:125|93:131,1,100,12|0,0:0|0:0,0:0:0:0:
282,171,263318,5,4,1:2:0:0:
146,49,263443,2,0,P|175:67|203:88,1,69.9999978637696,0|8,1:0|0:0,0:0:0:0:
282,171,263693,5,4,1:2:0:0:
279,370,263818,2,0,P|270:325|264:281,1,89.9999972534181,0|8,1:0|0:0,0:0:0:0:
282,171,264068,5,4,1:2:0:0:
460,41,264193,2,0,P|422:80|381:118,1,110.000003356934,0|8,1:0|0:0,0:0:0:0:
171,189,264443,6,0,B|264:179|277:295|360:282,1,220.000006713867,4|10,1:2|0:0,0:0:0:0:
359,282,264755,1,10,0:0:0:0:
359,282,264818,1,2,1:2:0:0:
171,189,264943,1,0,1:0:0:0:
282,171,265068,1,8,0:0:0:0:
205,51,265193,1,8,0:0:0:0:
137,329,265318,6,0,B|200:339|232:294|201:293|243:238|300:254,1,187.5,4|0,1:2|0:0,0:0:0:0:
367,290,265568,2,0,P|377:244|397:198,1,89.9999972534181,2|0,0:0|0:0,0:0:0:0:
505,34,265818,1,0,1:0:0:0:
342,93,265943,1,2,0:0:0:0:
336,103,266005,1,2,0:0:0:0:
337,115,266068,1,2,0:0:0:0:
510,159,266193,6,0,P|485:135|429:115,1,89.9999972534181,10|0,0:0|0:0,0:0:0:0:
228,127,266443,1,0,1:0:0:0:
342,1,266568,2,0,P|337:45|317:85,1,89.9999972534181,10|0,0:0|0:0,0:0:0:0:
85,48,266818,5,0,1:0:0:0:
284,192,266943,1,2,0:0:0:0:
135,122,267068,1,2,0:0:0:0:
228,127,267193,1,2,0:0:0:0:
145,139,267318,6,0,P|136:152|133:182,1,44.999998626709,8|0,0:0|0:0,0:0:0:0:
192,238,267443,2,0,B|205:211|205:211|201:204|201:204|56:250,1,179.999994506836,2|0,0:0|0:0,0:0:0:0:
227,323,267818,5,0,1:0:0:0:
359,225,267943,1,2,0:0:0:0:
444,291,268068,1,2,0:0:0:0:
509,238,268193,1,2,0:0:0:0:
433,303,268318,5,2,0:0:0:0:
375,232,268443,1,0,1:0:0:0:
465,142,268568,1,2,0:0:0:0:
361,71,268693,1,2,0:0:0:0:
500,5,268818,5,0,1:0:0:0:
455,124,268943,1,2,0:0:0:0:
282,37,269068,1,8,0:0:0:0:
181,215,269193,1,2,0:0:0:0:
91,181,269318,6,0,P|64:145|59:99,1,89.9999972534181,12|0,0:0|0:0,0:0:0:0:
187,205,269568,1,2,0:0:0:0:
25,337,269693,2,0,B|-15:315|-15:315|-10:307|-10:307|115:273,1,179.999994506836,2|0,0:0|0:0,0:0:0:0:
211,299,270068,2,0,L|191:386,1,89.9999972534181,2|0,0:0|0:0,0:0:0:0:
442,272,270318,5,8,0:0:0:0:
278,235,270443,1,0,1:0:0:0:
326,384,270568,1,2,0:0:0:0:
346,302,270693,2,0,L|368:214,1,89.9999972534181,2|8,0:0|0:0,0:0:0:0:
368,214,271068,2,0,B|389:226|389:226|470:203,1,89.9999972534181,8|0,0:0|3:0,0:0:0:0:
491,195,271255,1,0,3:0:0:0:
491,195,271318,6,0,P|494:129|374:98,1,179.999994506836,10|2,0:0|0:0,0:0:0:0:
387,86,271818,2,0,L|367:38,1,44.999998626709,0|0,1:0|0:0,0:0:0:0:
289,18,271943,5,2,0:0:0:0:
249,32,272068,1,2,0:0:0:0:
238,68,272193,1,0,0:0:0:0:
251,153,272318,5,10,0:0:0:0:
170,124,272443,1,2,0:0:0:0:
156,39,272568,1,2,0:0:0:0:
331,113,272693,5,2,0:0:0:0:
304,224,272818,1,0,1:0:0:0:
196,260,272943,1,2,0:0:0:0:
330,97,273068,5,10,0:0:0:0:
454,131,273193,1,2,0:0:0:0:
473,258,273318,2,0,B|447:295|447:295|477:360,1,89.9999972534181,12|0,0:0|0:0,0:0:0:0:
281,370,273568,2,0,L|374:345,1,89.9999972534181,2|0,0:0|0:0,0:0:0:0:
246,156,273818,5,0,1:0:0:0:
214,269,273943,1,2,0:0:0:0:
234,156,274068,5,2,0:0:0:0:
206,260,274193,1,10,0:0:0:0:
168,361,274318,6,0,L|78:385,1,89.9999972534181,10|0,0:0|1:0,0:0:0:0:
11,325,274505,1,0,1:0:0:0:
11,325,274568,2,0,L|30:212,1,89.9999972534181,2|0,1:2|0:0,0:0:0:0:
107,139,274818,5,0,1:0:0:0:
215,245,274943,1,0,1:0:0:0:
334,188,275068,1,0,1:0:0:0:
420,273,275193,1,0,3:0:0:0:
420,273,275255,1,0,3:0:0:0:
420,273,275318,5,12,0:0:0:0:
496,232,275443,2,0,B|468:165|468:165|440:155|440:155|413:82,1,179.999994506836,2|0,0:0|0:0,0:0:0:0:
230,0,275818,1,0,1:0:0:0:
420,71,275943,1,2,0:0:0:0:
428,59,276193,2,0,P|382:68|322:107,1,89.9999972534181,10|0,0:0|0:0,0:0:0:0:
117,27,276443,6,0,P|158:47|195:86,1,89.9999972534181,0|0,1:0|0:0,0:0:0:0:
196,96,276630,2,0,P|180:116|171:145,1,44.999998626709,2|0,0:0|0:0,0:0:0:0:
400,224,276818,6,0,P|364:197|320:186,1,89.9999972534181,0|0,1:0|0:0,0:0:0:0:
302,199,277005,2,0,P|283:233|281:255,1,44.999998626709,2|0,0:0|0:0,0:0:0:0:
398,320,277193,1,0,3:0:0:0:
398,320,277255,1,0,3:0:0:0:
398,320,277318,6,0,P|419:280|454:132,1,179.999994506836,12|0,0:0|0:0,0:0:0:0:
299,327,277693,2,0,B|181:328|235:381|102:380,1,179.999994506836,2|0,0:0|0:0,0:0:0:0:
6,227,278068,1,0,1:0:0:0:
141,284,278193,1,2,0:0:0:0:
23,384,278318,6,0,P|34:332|71:283,1,89.9999972534181,2|0,1:2|1:0,0:0:0:0:
131,123,278568,2,0,P|122:166|100:206,1,89.9999972534181,2|0,1:2|1:0,0:0:0:0:
144,290,278818,6,0,B|246:289|197:344|327:344,1,179.999994506836,2|8,1:2|0:0,0:0:0:0:
311,343,279130,1,0,3:0:0:0:
311,343,279193,1,0,3:0:0:0:
493,244,279318,1,4,1:2:0:0:
342,216,279443,1,0,1:0:0:0:
457,384,279568,1,0,1:0:0:0:
403,300,279693,6,0,B|418:225|452:256|452:163,1,134.999995880127,2|0,1:2|2:0,0:0:0:0:
432,161,279943,2,0,B|481:155|460:135|512:125,1,89.9999972534181,2|0,1:2|0:0,0:0:0:0:
330,22,280193,1,2,0:0:0:0:
336,8,280318,5,4,1:3:0:0:
306,101,280443,1,4,1:3:0:0:
240,30,280568,1,4,1:3:0:0:
399,77,280693,1,4,1:3:0:0:
235,33,280818,6,0,L|135:49,1,89.9999972534181,2|0,1:2|1:0,0:0:0:0:
404,82,281068,2,0,L|474:152,1,89.9999972534181,2|0,1:2|1:0,0:0:0:0:
238,320,281318,5,4,1:0:0:0:
244,295,281693,1,8,0:0:0:0:
251,273,282068,1,10,0:0:0:0:
251,273,282318,2,0,P|220:217|235:155,1,129.999994049073,2|0,1:2|0:0,0:0:0:0:
334,147,282818,2,0,P|364:202|349:264,1,129.999994049073,2|8,0:0|0:0,0:0:0:0:
218,354,283318,6,0,B|268:372|311:338|311:338|352:305|402:323,2,194.999991073609,10|8|8,0:0|0:0|0:0,0:0:0:0:
72,384,284318,2,0,L|0:134,1,259.999988098145,2|8,1:2|0:0,0:0:0:0:
29,54,284943,1,2,0:0:0:0:
107,22,285068,1,8,0:0:0:0:
181,62,285193,1,2,0:0:0:0:
200,144,285318,5,12,0:0:0:0:
181,157,285693,1,8,0:0:0:0:
162,170,286068,1,10,0:0:0:0:
162,170,286318,2,0,L|144:298,1,129.999994049073,2|0,1:2|0:0,0:0:0:0:
208,373,286818,1,2,0:0:0:0:
162,170,287068,1,0,1:0:0:0:
14,310,287318,6,0,B|112:335|112:335|125:310|143:298,1,150.000005722046,12|0,0:0|0:0,0:0:0:0:
260,293,287693,2,0,P|271:237|231:278,1,150.000005722046,8|0,0:0|0:0,0:0:0:0:
208,373,288068,1,10,0:0:0:0:
380,280,288318,2,0,B|441:276|455:350|518:346,1,150.000005722046,2|0,1:2|0:0,0:0:0:0:
492,49,288818,1,0,1:0:0:0:
472,131,288943,1,8,0:0:0:0:
401,176,289068,1,8,0:0:0:0:
317,163,289193,1,8,0:0:0:0:
266,95,289318,5,12,0:0:0:0:
278,74,289693,1,8,0:0:0:0:
290,55,290068,1,10,0:0:0:0:
290,55,290318,6,0,B|318:133|315:207|315:207|347:215|372:237|372:237|382:178|409:155,1,300.000011444092,4|0,1:2|0:0,0:0:0:0:
457,359,291068,1,8,0:0:0:0:
470,365,291193,1,8,0:0:0:0:
474,268,291318,6,0,B|363:242|382:372|282:353,2,225.000008583069,12|0|0,0:0|3:0|3:0,0:0:0:0:
457,359,292318,2,0,B|368:243|229:263,1,259.999988098145,2|10,1:2|0:0,0:0:0:0:
30,154,293068,2,0,L|36:111,2,43.3333313496908,2|0|0,3:2|3:0|3:0,0:0:0:0:
0,194,293318,6,0,B|46:181|88:209|88:209|119:128|184:132,2,225.000008583069,12|8|10,0:0|0:0|0:0,0:0:0:0:
246,256,294318,2,0,L|202:0,1,259.999988098145,2|2,1:2|0:0,0:0:0:0:
202,0,295068,1,8,0:0:0:0:
468,37,295318,5,12,0:0:0:0:
358,179,295693,1,8,0:0:0:0:
184,132,296068,1,8,0:0:0:0:
23,260,296318,6,0,P|4:320|42:370,1,129.999994049073,2|0,1:2|1:0,0:0:0:0:
46,363,296630,1,0,1:0:0:0:
52,357,296693,1,0,1:0:0:0:
144,361,296818,5,2,1:2:0:0:
211,304,296943,5,2,1:2:0:0:
288,331,297068,5,2,1:2:0:0:
323,370,297193,5,2,1:2:0:0:
332,355,297318,5,2,0:2:0:0:
512,33,298568,5,2,0:0:0:0:
466,110,298818,1,2,0:0:0:0:
377,109,299068,1,0,0:0:0:0:
311,0,299318,6,0,B|351:195,1,200,2|0,0:0|0:0,0:0:0:0:
254,342,300193,2,0,P|199:264|240:178,1,200,2|0,0:0|0:0,0:0:0:0:
240,179,301068,1,0,0:0:0:0:
286,74,301318,6,0,P|225:148|129:140,1,200,2|0,0:0|0:0,0:0:0:0:
97,8,302193,1,2,0:0:0:0:
43,193,302568,2,0,P|85:166|129:141,2,100,0|2|0,0:0|0:0|0:0,0:0:0:0:
0,309,303318,6,0,L|198:374,1,200,2|0,0:0|0:0,0:0:0:0:
428,282,304193,1,0,0:0:0:0:
428,282,304318,2,0,P|356:294|322:358,2,150,2|2|0,0:0|0:0|0:0,0:0:0:0:
222,284,305318,6,0,L|165:92,1,200,2|0,0:0|0:0,0:0:0:0:
259,0,306193,1,2,0:0:0:0:
348,101,306568,2,0,L|323:197,2,100,0|2|0,0:0|0:0|0:0,0:0:0:0:
432,158,307318,5,2,0:0:0:0:
79,225,307818,1,2,0:0:0:0:
289,368,308318,1,2,0:0:0:0:
222,15,308818,1,2,0:0:0:0:
408,184,309318,2,0,P|261:198|153:298,1,300,2|0,0:0|0:0,0:0:0:0:
112,383,310193,6,0,P|63:328|69:255,1,150,2|0,0:0|0:0,0:0:0:0:
212,229,310818,2,0,P|240:269|239:318,1,100,2|0,0:0|0:0,0:0:0:0:
113,153,311318,2,0,P|192:206|281:167,1,200,2|0,0:0|0:0,0:0:0:0:
281,167,312318,6,0,B|194:145|153:227|153:227|114:305|33:285,1,300,2|0,0:0|0:0,0:0:0:0:
127,180,313318,5,2,1:2:0:0:
183,273,313443,1,8,0:0:0:0:
371,219,313693,1,0,1:0:0:0:
160,365,313943,1,8,0:0:0:0:
183,273,314068,1,0,1:0:0:0:
371,219,314193,1,8,0:0:0:0:
236,8,314318,6,0,P|224:17|213:27,3,29.9999990844727,2|2|2|2,0:0|0:0|0:0|0:0,0:0:0:0:
134,55,314568,6,0,P|138:71|146:87,3,34.9999989318848,0|8|8|8,1:0|0:0|0:0|0:0,0:0:0:0:
127,180,314818,6,0,P|146:179|166:174,3,40,0|8|8|8,1:0|0:0|0:0|0:0,0:0:0:0:
252,223,315068,6,0,P|258:201|260:179,3,44.999998626709,0|8|8|8,1:0|0:0|0:0|0:0,0:0:0:0:
308,98,315318,6,0,P|303:87|294:78,2,16.6666666666667,2|2|2,0:0|0:0|0:0,0:0:0:0:
308,98,315818,6,0,B|423:118|349:166|498:189,1,200,2|0,1:2|0:0,0:0:0:0:
502,182,316193,2,0,P|488:132|473:69,1,100,10|0,0:0|0:0,0:0:0:0:
449,290,316443,1,0,1:0:0:0:
306,341,316568,6,0,B|391:327|341:288|436:278,1,150,10|0,0:0|0:0,0:0:0:0:
437,367,316818,2,0,P|378:289|284:260,1,200,2|10,1:2|0:0,0:0:0:0:
196,290,317193,1,2,0:0:0:0:
291,100,317318,6,0,P|333:123|344:172,1,100,12|0,0:0|0:0,0:0:0:0:
137,355,317568,2,0,P|152:285|179:195,1,150,10|0,0:0|0:0,0:0:0:0:
259,183,317818,2,0,B|201:196|169:156|169:156|137:115|79:124,1,200,2|0,1:2|0:0,0:0:0:0:
285,96,318193,6,0,P|402:56|374:-6,1,200,10|0,0:0|1:0,0:0:0:0:
272,93,318568,2,0,P|302:174|327:258,1,150,10|0,0:0|0:0,0:0:0:0:
249,303,318818,2,0,B|379:278|298:229|424:205,1,200,2|8,1:2|0:0,0:0:0:0:
418,315,319193,1,2,0:0:0:0:
512,189,319318,6,0,B|472:166|428:189|428:189|379:170|370:121|405:87,1,200,12|8,0:0|0:0,0:0:0:0:
489,82,319693,1,2,0:0:0:0:
313,49,319818,6,0,P|347:13|396:6,1,100,2|0,1:2|0:0,0:0:0:0:
270,149,320068,1,2,0:0:0:0:
340,283,320193,2,0,B|325:158|389:219|395:98,1,200,10|8,0:0|0:0,0:0:0:0:
131,0,320568,2,0,P|155:71|177:150,1,150,10|0,0:0|0:0,0:0:0:0:
270,149,320818,6,0,B|213:140|170:193|170:193|167:227|150:256|96:262,1,200,2|10,1:2|0:0,0:0:0:0:
71,177,321193,1,2,0:0:0:0:
124,347,321318,6,0,P|75:344|41:308,1,100,10|0,0:0|0:0,0:0:0:0:
259,243,321568,2,0,B|296:260|296:260|322:303|289:363,1,150,10|0,0:0|0:0,0:0:0:0:
210,320,321818,2,0,B|336:296|258:255|390:232,1,200,2|0,1:2|0:0,0:0:0:0:
471,39,322193,6,0,B|408:85|414:138|414:138|472:149|475:219,1,200,10|0,0:0|1:0,0:0:0:0:
330,55,322568,2,0,P|260:27|188:5,1,150,10|0,0:2|0:0,0:0:0:0:
176,21,322818,2,0,P|151:63|77:72,1,100,2|0,1:2|0:0,0:0:0:0:
2,242,323068,5,8,0:0:0:0:
160,162,323193,1,0,1:0:0:0:
5,79,323318,6,0,B|15:187|86:139|100:261,1,200,12|8,0:0|0:0,0:0:0:0:
252,366,323693,1,2,0:0:0:0:
79,346,323818,6,0,P|136:343|175:300,1,100,2|0,1:2|0:0,0:0:0:0:
312,193,324068,1,2,0:0:0:0:
252,366,324193,6,0,P|282:326|277:277,1,100,10|0,0:0|0:0,0:0:0:0:
158,90,324443,1,0,1:0:0:0:
312,193,324568,6,0,P|265:177|217:166,1,100,10|0,0:0|0:0,0:0:0:0:
459,41,324818,2,0,B|397:47|376:109|376:109|430:139|412:203,1,200,2|8,1:2|0:0,0:0:0:0:
312,193,325193,1,2,0:0:0:0:
507,120,325318,6,0,B|432:142|354:84|404:73|343:-2|226:43,1,300,12|8,0:0|0:0,0:0:0:0:
263,384,325818,6,0,P|348:305|334:190,1,239.999992675781,4|8,1:2|0:0,0:0:0:0:
334,191,326193,1,2,0:0:0:0:
129,37,326318,6,0,B|159:164|208:95|241:219,1,220.000006713867,12|8,0:0|0:0,0:0:0:0:
241,218,326693,1,2,0:0:0:0:
413,265,326818,6,0,B|277:299|277:299|271:305|271:305|262:303|262:303|123:335,1,300,4|2,1:2|0:0,0:0:0:0:
330,384,327318,6,0,B|390:201|390:201|407:193|407:193|435:108,1,300,12|0,0:0|0:0,0:0:0:0:
224,7,327818,6,0,P|322:67|302:145,1,200,2|0,1:2|0:0,0:0:0:0:
297,150,328193,2,0,P|247:163|196:188,1,100,10|0,0:0|0:0,0:0:0:0:
114,138,328443,1,0,1:0:0:0:
78,325,328568,2,0,P|128:296|181:277,1,100,10|0,0:0|0:0,0:0:0:0:
339,384,328818,6,0,P|271:349|286:272,1,150,2|0,1:2|0:0,0:0:0:0:
289,268,329068,2,0,P|344:240|395:220,1,100,10|0,0:0|0:0,0:0:0:0:
380,38,329318,6,0,B|392:172|471:111|486:244,1,240,12|0,0:0|0:0,0:0:0:0:
498,55,329818,6,0,B|364:67|425:146|292:161,1,240,4|8,1:2|0:0,0:0:0:0:
294,372,330193,6,0,B|166:360|224:295|102:277,1,220.000006713867,4|0,1:2|1:0,0:0:0:0:
140,136,330568,5,0,1:0:0:0:
145,119,330693,1,2,1:2:0:0:
82,42,330818,5,2,1:2:0:0:
49,185,330943,1,0,1:0:0:0:
205,222,331068,1,2,1:2:0:0:
238,79,331193,1,0,1:0:0:0:
411,148,331318,6,0,B|386:185|411:232|411:232|441:284|415:326,1,187.5,12|0,0:0|0:0,0:0:0:0:
341,284,331568,2,0,P|292:288|259:324,1,100,0|0,1:0|0:0,0:0:0:0:
490,186,331818,2,0,P|371:182|322:74,1,250,10|0,0:0|1:0,0:0:0:0:
93,109,332193,6,0,B|129:140|129:140|153:131|173:113,1,100,10|0,0:0|0:0,0:0:0:0:
135,17,332443,1,8,0:0:0:0:
99,262,332568,2,0,P|142:237|188:216,1,100,2|0,1:2|0:0,0:0:0:0:
268,271,332818,1,10,0:0:0:0:
34,191,332943,1,2,0:0:0:0:
268,271,333068,2,0,P|285:225|276:176,1,100,0|0,1:0|0:0,0:0:0:0:
372,1,333318,6,0,B|339:43|364:110|399:131|399:131|420:96,1,187.5,12|0,0:0|0:0,0:0:0:0:
321,74,333568,2,0,P|272:68|246:27,1,100,0|0,1:0|0:0,0:0:0:0:
178,316,333818,2,0,P|222:292|267:271,1,100,10|0,0:0|0:0,0:0:0:0:
354,327,334068,1,0,1:0:0:0:
321,74,334193,6,0,B|205:41|127:152|127:152|35:107,1,300.000011444092,12|8,0:0|0:0,0:0:0:0:
13,286,334568,2,0,P|56:261|101:239,1,100,0|0,1:0|0:0,0:0:0:0:
26,29,334818,2,0,P|55:69|60:119,1,100,10|0,0:0|0:0,0:0:0:0:
177,380,335068,2,0,L|197:281,1,100,0|0,1:0|0:0,0:0:0:0:
276,0,335318,6,0,B|229:21|221:75|246:116|246:116|291:143|290:188,1,225.000008583069,12|0,0:0|0:0,0:0:0:0:
197,282,335568,2,0,P|182:235|208:195,1,100,0|0,1:0|0:0,0:0:0:0:
512,289,335818,2,0,P|463:293|428:259,1,100,10|0,0:0|0:0,0:0:0:0:
512,108,336068,1,0,1:0:0:0:
377,54,336193,6,0,L|401:152,1,100,10|0,0:0|0:0,0:0:0:0:
331,288,336443,1,0,1:0:0:0:
137,130,336568,2,0,P|199:195|290:187,1,187.5,2|0,1:2|0:0,0:0:0:0:
291,150,336818,1,10,0:0:0:0:
246,338,336943,1,8,0:0:0:0:
81,240,337068,2,0,P|32:240|1:276,1,100,2|0,1:2|0:0,0:0:0:0:
134,341,337318,6,0,B|81:66,1,279.999991455078,12|0,0:0|1:0,0:0:0:0:
110,62,337818,6,0,B|164:143|25:235|122:357,1,300.000011444092,12|0,0:0|1:0,0:0:0:0:
295,190,338193,6,0,B|120:136|180:296|10:250,1,300.000011444092,12|8,0:0|0:0,0:0:0:0:
59,151,338568,1,0,1:0:0:0:
59,151,338818,1,8,0:0:0:0:
148,356,338943,1,8,0:0:0:0:
241,281,339068,2,0,P|307:245|375:215,1,150,2|0,1:2|0:0,0:0:0:0:
355,185,339318,6,0,B|303:186|303:186|274:147,1,100,12|0,0:0|0:0,0:0:0:0:
156,1,339568,2,0,P|172:48|187:95,1,100,2|0,1:2|0:0,0:0:0:0:
346,86,339818,2,0,P|395:6|487:22,1,200,10|0,0:0|1:0,0:0:0:0:
391,360,340193,1,2,0:0:0:0:
367,242,340318,6,0,B|428:266|428:266|441:279|441:279|503:302,1,150.000005722046,12|0,0:0|0:0,0:0:0:0:
512,202,340568,1,0,1:0:0:0:
440,106,340693,1,2,0:0:0:0:
297,165,340818,2,0,B|267:185|267:185|257:248,1,100,10|0,0:0|0:0,0:0:0:0:
184,353,341068,2,0,B|154:333|154:333|144:269,1,100,0|0,1:0|0:0,0:0:0:0:
177,51,341318,6,0,P|122:144|14:158,1,225.000008583069,12|0,0:0|0:0,0:0:0:0:
22,132,341568,2,0,P|70:137|95:178,1,100,2|0,1:2|0:0,0:0:0:0:
257,248,341818,5,10,0:0:0:0:
55,300,341943,1,2,0:0:0:0:
278,368,342068,1,0,1:0:0:0:
325,26,342193,6,0,B|271:82|332:158|332:158|393:233|331:294,1,300.000011444092,12|8,0:0|0:0,0:0:0:0:
203,319,342568,2,0,P|167:255|189:186,1,150,2|0,1:2|0:0,0:0:0:0:
257,248,342818,1,10,0:0:0:0:
121,101,342943,1,8,0:0:0:0:
275,163,343068,1,0,1:0:0:0:
447,5,343193,1,2,0:0:0:0:
434,294,343318,6,0,B|401:270|401:270|397:150|397:150|364:127,2,200,12|0|8,0:0|1:0|0:0,0:0:0:0:
512,210,343943,1,10,0:0:0:0:
512,210,344193,6,0,B|436:191|401:282|401:282|366:373|282:349,1,300.000011444092,4|8,1:2|0:0,0:0:0:0:
178,278,344568,2,0,P|113:194|203:249,1,300.000011444092,2|8,1:2|0:0,0:0:0:0:
193,371,344943,1,8,0:0:0:0:
306,259,345068,1,2,1:2:0:0:
204,97,345193,1,8,0:0:0:0:
0,245,345318,6,0,B|51:235|88:292|88:292|102:246|153:231,1,200,12|0,0:0|1:0,0:0:0:0:
466,174,345818,1,10,0:0:0:0:
435,294,345943,1,10,0:0:0:0:
435,294,346193,6,0,B|291:243|291:243|340:181|340:181|367:244,1,300.000011444092,4|8,1:2|0:0,0:0:0:0:
279,382,346568,2,0,L|211:90,1,300.000011444092,0|8,1:0|0:0,0:0:0:0:
433,4,346943,1,8,0:0:0:0:
367,191,347068,2,0,P|343:148|357:101,1,100,2|0,1:2|0:0,0:0:0:0:
503,103,347318,6,0,B|533:149|487:223|487:223|444:291|481:335,2,250,12|0|8,0:0|1:0|0:0,0:0:0:0:
202,261,347943,1,8,0:0:0:0:
367,191,348068,1,2,1:2:0:0:
316,339,348193,6,0,B|261:146,1,200,10|8,0:0|0:0,0:0:0:0:
108,212,348568,6,0,P|83:280|113:347,1,150,2|0,1:2|0:0,0:0:0:0:
156,339,348818,2,0,P|194:309|202:261,1,100,10|0,0:0|0:0,0:0:0:0:
200,81,349068,1,0,1:0:0:0:
360,239,349193,1,8,0:0:0:0:
360,239,349443,6,0,B|398:182|427:108|366:53|366:53|317:93|327:134,1,300.000011444092,4|8,1:2|0:0,0:0:0:0:
246,259,349818,2,0,B|321:227|371:310|371:310|422:394|496:357,1,300.000011444092,4|8,1:2|0:0,0:0:0:0:
282,341,350193,2,0,P|160:286|228:172,1,300,4|0,1:2|0:0,0:0:0:0:
371,287,350693,1,0,1:0:0:0:
367,306,350755,1,0,1:0:0:0:
363,324,350817,1,0,1:0:0:0:
246,259,350943,2,0,L|315:230,1,75.0000028610231,0|8,1:0|0:0,0:0:0:0:
50,243,351318,6,0,B|39:271|39:297|54:328|76:346|127:351|157:335|172:315|187:276|182:235|134:205|134:205|92:183|69:149|72:107|84:65|108:30|151:25|205:29|243:56|260:97|249:142|241:173|208:186,1,700,12|0,0:0|0:0,0:0:0:0:
164,128,353193,5,2,0:0:0:0:
168,132,353318,2,0,B|464:91|464:91|509:90|528:135|517:176|475:185|475:185|326:206|326:206|282:218|275:256|290:303|337:301|337:301|409:291,1,800,2|0,0:0|0:0,0:0:0:0:
