osu file format v14

[General]
AudioFilename: audio.mp3
AudioLeadIn: 0
PreviewTime: 305193
Countdown: 0
SampleSet: Soft
StackLeniency: 0.7
Mode: 0
LetterboxInBreaks: 0
WidescreenStoryboard: 1

[Editor]
DistanceSpacing: 1.2
BeatDivisor: 4
GridSize: 32
TimelineZoom: 1

[Metadata]
Title:Irony
TitleUnicode:Irony
Artist:Uema Emi
ArtistUnicode:上間江望
Creator:Hanakumo Rin
Version:Advanced
Source:NOeSIS 歌う影の戯曲
Tags:dog food dahkjdas garden Misure NOeSIS03 Utau Kage no Gikyoku cutlass visual novel ending japanese video game rock 仄かな旋律の記憶 Honoka na Senritsu no Kioku japanese rock jrock pop jpop female vocals visual novel vn video game
BeatmapID:3721347
BeatmapSetID:1813945

[Difficulty]
HPDrainRate:3.5
CircleSize:3.5
OverallDifficulty:5
ApproachRate:6
SliderMultiplier:1.4
SliderTickRate:1

[Events]
//Background and Video events
0,0,"velia xiao mei mei.jpg",0,0
//Break Periods
2,201518,211938
2,297518,311938
//Storyboard Layer 0 (Background)
//Storyboard Layer 1 (Fail)
//Storyboard Layer 2 (Pass)
//Storyboard Layer 3 (Foreground)
//Storyboard Layer 4 (Overlay)
//Storyboard Sound Samples

[TimingPoints]
23235,952.380952380952,4,2,3,30,1,0
79425,1132.07547169811,4,2,3,30,1,0
79991,1578.94736842105,4,2,3,30,1,0
80780,1020.40816326531,4,2,3,30,1,0
88943,500,4,2,3,30,1,0
89318,500,4,2,3,40,1,0
106693,-100,4,2,3,60,0,0
107318,-100,4,2,3,70,0,0
115318,-100,4,2,3,55,0,0
131318,-100,4,2,3,60,0,0
135318,-100,4,2,3,65,0,0
163693,-100,4,2,3,55,0,0
165318,-90.9090909090909,4,2,3,75,0,1
181318,-90.9090909090909,4,2,3,80,0,1
200818,-100,4,2,3,80,0,0
215318,-100,4,2,3,55,0,0
231318,-100,4,2,3,60,0,0
265318,-100,4,2,3,70,0,0
281318,-100,4,2,3,60,0,0
305318,-100,4,2,3,45,0,0
312318,-100,4,2,3,40,0,0
313318,-100,4,2,3,65,0,0
315318,-100,4,2,3,45,0,0
315818,-90.9090909090909,4,2,3,85,0,1
316193,-90.9090909090909,4,2,3,75,0,1
331318,-90.9090909090909,4,2,3,80,0,1
351318,-90.9090909090909,4,2,3,80,0,0
353318,-90.9090909090909,4,2,3,50,0,0
355318,-90.9090909090909,4,2,3,20,0,0

[Colours]
Combo1 : 128,128,255
Combo2 : 0,128,128

[HitObjects]
337,107,88943,6,0,P|296:102|264:84,1,70,2|0,0:0|0:0,0:0:0:0:
233,61,89318,2,0,P|163:66|102:118,1,140,6|0,0:0|0:0,0:0:0:0:
46,216,90193,2,0,P|59:266|73:317,1,105,2|0,0:0|0:0,0:0:0:0:
142,364,90818,2,0,P|178:360|205:340,1,70,2|2,0:0|0:3,0:0:0:0:
288,353,91318,2,0,P|283:291|257:205,1,140,2|0,0:0|0:0,0:0:0:0:
313,101,92193,2,0,P|349:66|411:63,1,105,2|0,0:0|0:0,0:0:0:0:
486,63,92818,2,0,P|478:97|472:131,1,70,0|2,0:0|0:0,0:0:0:0:
415,194,93318,6,0,P|409:272|395:334,1,140,2|0,0:0|0:0,0:0:0:0:
273,363,94193,2,0,P|228:335|169:329,1,105,2|0,0:0|0:0,0:0:0:0:
101,366,94818,1,0,0:0:0:0:
42,305,95068,1,2,0:0:0:0:
84,232,95318,2,0,P|98:171|113:86,1,140,2|0,0:0|0:0,0:0:0:0:
199,4,96193,2,0,B|247:14|257:65|257:65|302:94|367:49,1,175,2|2,0:0|0:0,0:0:0:0:
414,30,97068,1,0,0:0:0:0:
473,89,97318,6,0,P|478:162|456:227,1,140,2|0,0:0|0:0,0:0:0:0:
487,347,98193,2,0,B|457:365|457:365|391:363|336:291,1,175,2|0,0:0|0:0,0:0:0:0:
275,349,99068,1,0,0:0:0:0:
197,315,99318,2,0,P|164:251|177:172,1,140,2|0,0:0|0:0,0:0:0:0:
131,65,100193,2,0,P|170:76|239:94,1,105,2|0,0:0|0:0,0:0:0:0:
313,71,100818,2,0,P|329:24|331:-5,1,70
413,20,101318,6,0,L|380:161,1,140,2|0,0:0|0:0,0:0:0:0:
429,224,102068,1,0,0:0:0:0:
369,283,102318,2,0,B|324:260|273:271|273:271|221:231,1,140,2|0,0:0|0:0,0:0:0:0:
94,162,103318,2,0,P|70:126|77:56,1,105,2|2,0:0|0:0,0:0:0:0:
188,18,104068,2,0,B|263:45|263:45|288:37|332:35,1,140,2|2,0:3|0:3,0:0:0:0:
376,99,104818,2,0,P|407:114|442:119,1,70,2|0,0:0|0:0,0:0:0:0:
475,196,105318,6,2,B|441:363|441:363|367:181,1,350,2|0,0:1|0:1,0:1:0:0:
295,134,106818,2,0,P|277:155|285:212,1,70,14|8,0:0|0:0,0:0:0:0:
296,232,107193,1,8,0:0:0:0:
277,269,107318,6,0,P|208:282|139:296,1,140,6|10,3:1|0:0,0:0:0:0:
71,345,108068,2,0,P|43:284|65:195,1,140,0|0,0:0|3:0,0:0:0:0:
104,146,108818,2,0,P|96:113|90:77,1,70,10|0,0:0|0:0,0:0:0:0:
155,24,109318,2,0,P|209:13|265:79,1,140,2|10,3:2|0:0,0:0:0:0:
316,135,110068,2,0,P|379:125|448:91,1,140,2|0,0:0|3:2,0:0:0:0:
501,156,110818,1,14,0:0:0:0:
431,202,111068,1,2,3:2:0:0:
479,270,111318,6,0,L|460:347,1,70,14|0,0:0|3:0,0:0:0:0:
431,366,111693,2,0,P|405:351|365:344,1,70,14|0,0:0|3:0,0:0:0:0:
330,322,112068,2,0,P|256:354|187:357,1,140,14|0,0:0|1:0,0:0:0:0:
119,326,112818,1,10,0:0:0:0:
119,326,112943,1,0,3:0:0:0:
37,229,113318,6,0,B|85:30|85:30|81:175,1,350,6|0,3:2|1:0,0:0:0:0:
151,220,114818,2,0,L|189:231,2,35,10|8|4,0:0|0:0|0:3,0:0:0:0:
183,142,115318,6,0,P|232:111|314:127,1,140,6|8,3:2|0:0,0:0:0:0:
369,183,116068,1,2,0:0:0:0:
446,151,116318,2,0,P|461:120|460:85,1,70,2|0,0:0|3:2,0:0:0:0:
401,26,116818,1,10,0:0:0:0:
239,72,117318,2,0,P|197:85|165:94,1,70,2|0,3:2|3:0,0:0:0:0:
111,150,117818,2,0,P|87:225|80:258,2,105,10|0|0,0:0|3:0|3:0,0:0:0:0:
187,184,118818,1,8,0:0:0:0:
350,145,119318,6,0,P|402:150|448:223,1,140,2|8,3:2|0:0,0:0:0:0:
493,288,120068,1,2,0:0:0:0:
436,350,120318,2,0,P|367:332|297:317,1,140,0|8,0:0|0:0,0:0:0:0:
139,370,121318,2,0,P|125:328|127:287,1,70,2|0,3:2|3:0,0:0:0:0:
171,233,121818,2,0,L|145:121,1,105,10|0,0:0|3:0,0:0:0:0:
82,22,122568,2,0,P|41:1|8:5,1,70,0|8,3:0|0:0,0:0:0:0:
31,94,123068,5,2,3:2:0:0:
31,94,123193,1,10,0:0:0:0:
31,94,123318,2,0,B|49:131|49:131|39:178|52:244,1,140,6|8,3:2|0:0,0:0:0:0:
3,299,124068,1,2,0:0:0:0:
66,354,124318,2,0,P|97:342|134:341,2,70,2|0|8,0:0|3:0|0:0,0:0:0:0:
164,214,125318,6,0,P|228:239|276:289,1,140,2|10,3:2|0:0,0:0:0:0:
313,365,126068,1,2,0:0:0:0:
391,335,126318,2,0,P|410:292|408:262,1,70,2|0,0:0|3:2,0:0:0:0:
347,212,126818,1,10,0:0:0:0:
498,140,127318,6,0,P|411:110|367:77,1,140,6|10,3:2|0:0,0:0:0:0:
294,112,128068,1,2,0:0:0:0:
214,83,128318,2,0,L|194:2,1,70,2|2,0:0|3:2,0:0:0:0:
113,18,128818,2,0,L|129:85,1,70,10|2,0:0|0:3,0:0:0:0:
75,149,129318,6,0,P|112:191|101:296,1,140,6|10,3:2|0:0,0:0:0:0:
75,346,130068,1,0,0:0:0:0:
154,372,130318,2,0,L|192:362,1,35,10|8,0:0|0:0,0:0:0:0:
229,370,130568,1,0,3:0:0:0:
299,323,130818,2,0,L|305:288,1,35,10|0,0:0|3:0,0:0:0:0:
333,256,131068,2,0,L|327:220,1,35,8|8,0:0|0:0,0:0:0:0:
295,193,131318,6,0,P|277:162|278:127,1,70,6|0,3:2|3:0,0:0:0:0:
240,52,131818,2,0,P|278:40|321:21,1,70,10|10,0:0|0:0,0:0:0:0:
348,30,132193,1,10,0:0:0:0:
478,138,133318,6,0,P|457:167|450:201,1,70,6|0,3:2|3:0,0:0:0:0:
382,250,133818,2,0,L|397:333,1,70,10|10,0:0|0:0,0:0:0:0:
414,355,134193,1,10,0:0:0:0:
289,334,134568,2,0,P|247:358|210:354,1,70,2|8,3:0|0:0,0:0:0:0:
61,326,135318,6,0,P|79:256|98:180,1,140,6|10,3:2|0:0,0:0:0:0:
48,119,136068,1,2,0:0:0:0:
113,66,136318,2,0,P|150:51|184:58,1,70,6|0,3:2|3:0,0:0:0:0:
249,101,136818,2,0,P|263:44|265:22,1,70,10|2,0:0|0:0,0:0:0:0:
348,32,137318,6,0,P|331:95|314:171,1,140,6|10,3:2|0:0,0:0:0:0:
242,210,138068,1,2,0:0:0:0:
283,283,138318,2,0,P|332:331|408:336,1,140,2|10,3:2|0:0,0:0:0:0:
467,286,139068,5,0,3:2:0:0:
467,286,139193,1,0,1:0:0:0:
467,286,139318,2,0,P|452:236|446:212,1,70,6|2,3:2|3:0,0:0:0:0:
363,226,139818,2,0,P|339:166|347:114,1,105,10|2,0:0|3:2,0:0:0:0:
420,27,140568,2,0,P|384:16|347:6,1,70,2|10,3:0|0:0,0:0:0:0:
277,45,141068,1,2,0:3:0:0:
199,13,141318,6,0,P|158:7|81:69,1,140,2|8,3:2|0:0,0:0:0:0:
40,136,142068,1,2,0:3:0:0:
40,136,142193,2,0,P|52:190|70:270,1,105,2|2,3:2|3:0,0:0:0:0:
129,289,142818,2,0,P|146:260|143:214,1,70,10|2,0:0|0:3,0:0:0:0:
188,151,143318,6,0,P|254:157|300:217,1,140,6|10,3:2|0:0,0:0:0:0:
367,269,144068,1,2,1:3:0:0:
367,269,144193,2,0,P|404:275|451:229,1,105,2|2,3:2|3:0,0:0:0:0:
480,152,144818,2,0,P|466:121|456:87,1,70,10|2,0:0|3:0,0:0:0:0:
485,57,145193,1,2,0:0:0:0:
474,16,145318,6,0,P|423:5|373:43,1,105,6|10,3:2|0:0,0:0:0:0:
271,96,146068,2,0,P|229:90|160:51,1,105,6|8,3:2|0:0,0:0:0:0:
142,33,146568,1,0,3:0:0:0:
67,72,146818,1,8,0:0:0:0:
110,146,147068,1,0,3:0:0:0:
58,212,147318,6,0,P|77:306|91:360,1,140,6|10,3:2|0:0,0:0:0:0:
254,372,148318,2,0,P|254:330|240:296,1,70,2|0,3:2|3:0,0:0:0:0:
204,230,148818,2,0,P|251:215|282:206,1,70,10|2,0:0|0:0,0:0:0:0:
308,189,149193,1,2,0:0:0:0:
344,209,149318,2,0,P|399:224|448:245,1,105,6|2,3:2|3:2,0:0:0:0:
502,131,150068,2,0,P|435:111|370:82,1,140,6|0,1:2|3:2,0:0:0:0:
315,19,150818,1,8,0:0:0:0:
261,83,151068,5,2,0:0:0:0:
261,83,151193,1,2,1:2:0:0:
261,83,151318,2,0,P|198:132|124:115,1,140,6|10,3:2|0:0,0:0:0:0:
31,252,152318,2,0,P|48:300|55:328,1,70,2|0,3:2|3:2,0:0:0:0:
125,361,152818,1,10,0:0:0:0:
190,308,153068,5,2,0:0:0:0:
190,308,153193,1,2,0:0:0:0:
190,308,153318,2,0,P|234:301|293:353,1,105,6|2,3:2|3:2,0:0:0:0:
401,374,154068,2,0,P|410:322|421:270,1,105,14|8,0:0|0:0,0:0:0:0:
452,242,154568,1,0,3:2:0:0:
407,170,154818,2,0,P|392:134|399:99,1,70,10|2,0:0|3:2,0:0:0:0:
472,66,155318,6,0,P|397:55|345:10,1,140,6|10,3:2|0:2,0:0:0:0:
244,85,156193,2,0,P|189:86|134:118,1,105,6|0,3:2|3:0,0:0:0:0:
61,103,156818,2,0,P|76:156|83:184,1,70,8|2,0:0|0:0,0:0:0:0:
59,207,157193,1,2,0:0:0:0:
80,243,157318,2,0,P|128:238|198:296,1,140,6|10,3:2|0:0,0:0:0:0:
296,369,158193,2,0,P|356:356|414:340,1,105,6|2,3:2|3:2,0:0:0:0:
478,367,158818,2,0,P|492:309|492:290,1,70,10|0,0:0|3:0,0:0:0:0:
489,215,159318,6,0,P|384:236|341:241,1,140,6|8,3:2|0:0,0:0:0:0:
322,318,160068,1,0,1:0:0:0:
251,364,160318,2,0,P|197:321|104:326,1,140,6|8,3:2|0:0,0:0:0:0:
58,364,161068,1,2,1:2:0:0:
21,288,161318,6,0,P|43:210|63:141,1,140,6|8,3:2|0:0,0:0:0:0:
181,122,162193,2,0,P|155:74|168:13,1,105,0|0,3:2|3:2,0:0:0:0:
240,53,162818,1,8,0:0:0:0:
406,14,163318,1,10,0:0:0:0:
406,14,163443,2,0,L|483:29,1,70,10|14,0:0|0:0,0:0:0:0:
471,114,163943,1,10,0:0:0:0:
471,114,164068,1,14,0:0:0:0:
58,323,165318,6,0,P|91:301|128:295,1,77.0000023498536,6|0,3:1|3:2,0:0:0:0:
201,351,165818,1,10,0:0:0:0:
308,262,166193,2,0,P|343:298|413:303,1,115.50000352478,2|2,3:2|3:2,0:0:0:0:
481,252,166818,2,0,P|487:214|499:177,1,77.0000023498536,10|2,0:0|3:2,0:0:0:0:
429,115,167318,2,0,P|410:59|420:35,1,77.0000023498536,2|0,3:2|3:0,0:0:0:0:
331,3,167818,1,10,0:0:0:0:
219,85,168193,2,0,B|153:82|136:127|136:127|94:157|33:129,1,192.500005874634,2|10,3:2|0:0,0:0:0:0:
24,224,169068,1,2,3:2:0:0:
91,287,169318,6,0,P|162:285|223:224,1,154.000004699707,6|10,3:2|0:0,0:0:0:0:
348,179,170193,2,0,P|358:141|365:102,1,77.0000023498536,2|8,3:2|0:0,0:0:0:0:
336,67,170568,1,2,3:2:0:0:
408,9,170818,2,0,P|457:21|478:42,1,77.0000023498536,10|0,0:0|3:0,0:0:0:0:
465,130,171318,2,0,P|454:167|447:204,1,77.0000023498536,2|0,3:2|3:0,0:0:0:0:
490,286,171818,1,10,0:0:0:0:
358,329,172193,2,0,B|327:354|327:354|273:287|182:307,1,192.500005874634,2|10,3:2|0:0,0:0:0:0:
112,351,173068,5,6,3:2:0:0:
112,351,173193,1,8,0:0:0:0:
112,351,173318,2,0,P|102:313|93:276,1,77.0000023498536,6|0,3:2|3:0,0:0:0:0:
16,224,173818,1,10,0:0:0:0:
100,114,174193,2,0,P|132:85|207:82,1,115.50000352478,2|2,3:2|3:2,0:0:0:0:
293,73,174818,2,0,P|309:21|305:-7,1,77.0000023498536,10|0,0:0|3:0,0:0:0:0:
388,42,175318,2,0,L|351:201,1,154.000004699707,6|14,3:2|0:0,0:0:0:0:
166,229,176318,2,0,L|200:79,1,154.000004699707,6|14,3:2|0:0,0:0:0:0:
269,250,177318,6,0,B|318:281|318:281|361:282|361:282|420:313,1,154.000004699707,6|10,3:2|0:0,0:0:0:0:
497,345,178068,1,2,0:0:0:0:
497,345,178193,2,0,P|501:293|482:222,1,115.50000352478,2|2,3:2|3:2,0:0:0:0:
409,180,178818,2,0,P|426:143|429:102,1,77.0000023498536,10|2,0:0|3:2,0:0:0:0:
431,14,179318,2,0,P|394:26|357:38,1,77.0000023498536,6|0,3:2|3:0,0:0:0:0:
293,104,179818,1,10,0:0:0:0:
221,48,180068,5,0,3:0:0:0:
221,48,180193,2,0,P|158:24|90:27,1,115.50000352478,14|2,0:0|1:0,0:0:0:0:
71,47,180693,1,0,1:0:0:0:
43,84,180818,2,0,L|28:141,1,38.5000011749268,10|8,0:0|0:0,0:0:0:0:
43,166,181068,2,0,L|52:221,1,38.5000011749268,8|8,0:0|0:0,0:0:0:0:
29,245,181318,6,0,P|60:284|62:323,1,77.0000023498536,6|8,3:1|0:0,0:0:0:0:
137,365,181818,1,2,3:2:0:0:
209,307,182068,1,8,0:0:0:0:
209,307,182193,2,0,P|251:286|324:282,1,115.50000352478,2|10,3:2|0:0,0:0:0:0:
394,333,182818,1,2,3:2:0:0:
456,264,183068,1,10,0:0:0:0:
388,200,183318,6,0,P|374:162|375:123,1,77.0000023498536,6|8,3:2|0:0,0:0:0:0:
467,119,183818,2,0,L|447:34,1,77.0000023498536,2|8,3:2|0:0,0:0:0:0:
403,34,184193,2,0,P|346:7|274:20,1,115.50000352478,6|8,3:2|0:0,0:0:0:0:
221,66,184818,2,0,P|180:55|138:41,1,77.0000023498536,2|10,3:2|0:0,0:0:0:0:
55,31,185318,6,0,P|72:88|77:123,1,77.0000023498536,6|8,3:2|0:0,0:0:0:0:
138,172,185818,2,0,P|117:221|119:247,1,77.0000023498536,2|8,3:2|0:0,0:0:0:0:
137,286,186193,2,0,P|202:270|262:262,1,115.50000352478,6|8,3:2|0:0,0:0:0:0:
325,316,186818,2,0,L|313:362,2,38.5000011749268,2|0|10,3:2|3:0|0:0,0:0:0:0:
402,264,187318,6,0,P|420:220|420:182,1,77.0000023498536,6|8,3:2|0:0,0:0:0:0:
488,134,187818,2,0,P|471:87|426:79,1,77.0000023498536,6|8,3:2|0:0,0:0:0:0:
402,76,188193,2,2,P|364:112|289:108,1,115.50000352478,6|10,3:2|0:0,0:1:0:0:
234,52,188818,1,2,3:2:0:0:
143,33,189068,1,10,0:0:0:0:
64,82,189318,6,0,P|81:166|94:240,1,154.000004699707,6|2,3:2|3:2,0:0:0:0:
37,307,190068,1,8,0:0:0:0:
111,362,190318,2,0,P|153:353|177:319,1,77.0000023498536,6|8,3:2|0:0,0:0:0:0:
230,254,190818,2,0,L|218:216,2,38.5000011749268,2|0|8,3:2|3:0|0:0,0:0:0:0:
305,307,191318,6,0,P|346:317|382:329,1,77.0000023498536,6|10,3:2|0:0,0:0:0:0:
461,285,191818,1,2,3:2:0:0:
396,226,192068,1,8,0:0:0:0:
396,226,192193,2,0,P|392:161|420:81,1,115.50000352478,6|10,3:2|0:0,0:0:0:0:
465,42,192818,2,0,P|433:22|395:15,1,77.0000023498536,0|10,3:0|0:0,0:0:0:0:
349,24,193193,1,2,0:0:0:0:
319,59,193318,6,0,L|294:154,1,77.0000023498536,6|8,3:2|0:0,0:0:0:0:
239,205,193818,1,0,3:0:0:0:
239,205,193943,1,0,3:0:0:0:
168,145,194193,2,0,P|121:117|61:117,1,115.50000352478,14|10,0:0|0:0,0:0:0:0:
40,206,194818,2,0,L|-4:198,2,38.5000011749268,0|0|10,3:0|3:0|0:0,0:0:0:0:
98,277,195318,6,0,P|111:316|118:360,1,77.0000023498536,6|8,3:2|0:0,0:0:0:0:
202,315,195818,1,0,3:0:0:0:
202,315,195943,1,0,3:0:0:0:
286,352,196193,2,0,P|360:349|401:318,1,115.50000352478,14|10,0:0|0:0,0:0:0:0:
485,331,196818,2,0,P|463:268|457:246,1,77.0000023498536,0|10,3:0|0:0,0:0:0:0:
377,216,197318,6,0,P|378:164|390:134,1,77.0000023498536,6|8,3:2|0:0,0:0:0:0:
295,126,197818,2,0,L|276:42,1,77.0000023498536,0|10,3:0|0:0,0:0:0:0:
232,42,198193,2,0,P|188:20|111:25,1,115.50000352478,0|8,3:2|0:0,0:0:0:0:
52,81,198818,1,0,3:0:0:0:
111,151,199068,1,8,0:0:0:0:
36,205,199318,5,14,0:0:0:0:
256,192,199443,12,6,201318,3:1:0:0:
51,45,214818,5,10,0:0:0:0:
101,205,215318,2,0,P|139:227|238:244,1,140,6|10,3:2|0:0,0:0:0:0:
287,307,216068,1,0,0:0:0:0:
359,264,216318,2,0,P|374:233|373:198,1,70,2|0,0:0|3:0,0:0:0:0:
324,129,216818,1,10,0:0:0:0:
470,46,217318,2,0,P|436:36|402:25,1,70,2|0,3:2|3:0,0:0:0:0:
319,31,217818,2,0,P|268:18|218:1,2,105,10|0|0,0:0|3:0|3:0,0:0:0:0:
402,25,218818,1,8,0:0:0:0:
363,188,219318,6,0,P|415:193|461:266,1,140,2|8,3:2|0:0,0:0:0:0:
500,335,220068,1,2,0:0:0:0:
422,367,220318,2,0,P|353:349|283:334,1,140,2|8,0:0|0:2,0:0:0:0:
122,375,221318,2,0,P|108:333|110:292,1,70,2|0,3:2|3:0,0:0:0:0:
167,248,221818,2,0,L|141:136,1,105,10|0,0:0|3:0,0:0:0:0:
150,19,222568,2,0,P|185:16|223:32,1,70,0|8,3:0|0:0,0:0:0:0:
278,101,223068,5,2,3:2:0:0:
278,101,223193,1,10,0:0:0:0:
278,101,223318,2,0,B|320:87|320:87|361:110|420:114,1,140,6|8,3:2|0:0,0:0:0:0:
471,172,224068,1,2,0:0:0:0:
421,239,224318,2,0,P|422:272|436:309,2,70,0|0|8,0:0|3:0|0:0,0:0:0:0:
262,295,225318,6,0,P|180:260|149:219,1,140,2|10,3:2|0:0,0:0:0:0:
24,224,226193,2,0,P|36:182|50:121,1,105,2|0,3:2|3:2,0:0:0:0:
16,44,226818,1,10,0:0:0:0:
100,16,227068,5,2,0:3:0:0:
100,16,227193,1,2,0:3:0:0:
100,16,227318,2,0,P|169:32|235:57,1,140,6|10,3:2|0:0,0:0:0:0:
291,117,228068,1,2,0:0:0:0:
371,92,228318,2,0,P|386:59|391:11,1,70,0|2,0:0|3:2,0:0:0:0:
472,47,228818,2,0,L|451:113,1,70,10|2,0:0|0:3,0:0:0:0:
404,183,229318,6,0,P|434:239|426:325,1,140,6|10,3:2|0:0,0:0:0:0:
367,369,230068,1,0,0:0:0:0:
298,322,230318,2,0,L|306:278,2,35,10|8|0,0:0|0:0|3:0,0:0:0:0:
225,364,230818,2,0,P|208:361|190:352,1,35,10|0,0:0|3:0,0:0:0:0:
174,314,231068,1,8,0:0:0:0:
90,323,231318,6,0,P|80:287|74:252,1,70,6|2,3:2|3:0,0:0:0:0:
29,183,231818,2,0,P|67:171|105:148,1,70,10|2,0:0|0:3,0:0:0:0:
122,126,232193,2,0,P|192:107|240:110,1,105,2|2,3:2|3:0,0:0:0:0:
307,109,232818,2,0,L|291:184,1,70,10|2,0:0|0:3,0:0:0:0:
269,212,233193,1,2,1:2:0:0:
282,251,233318,6,0,P|268:284|270:319,1,70,2|2,3:2|0:3,0:0:0:0:
335,370,233818,2,0,P|366:362|405:354,1,70,10|2,0:0|0:3,0:0:0:0:
442,340,234193,2,0,P|456:287|451:259,1,70,2|8,3:2|0:0,0:0:0:0:
437,234,234568,1,2,3:0:0:0:
485,165,234818,2,0,L|416:149,1,70,10|2,0:0|0:3,0:0:0:0:
332,146,235318,6,0,P|353:78|363:-1,1,140,6|10,3:2|0:0,0:0:0:0:
279,25,236068,1,2,0:3:0:0:
198,1,236318,2,0,P|163:8|131:22,1,70,6|0,3:2|3:0,0:0:0:0:
47,18,236818,2,0,L|66:85,1,70,10|2,0:0|0:0,0:0:0:0:
127,143,237318,6,0,P|124:218|105:284,1,140,6|10,3:2|0:0,0:0:0:0:
148,359,238068,1,2,0:0:0:0:
148,359,238193,2,0,P|216:351|245:304,1,105,6|0,3:2|3:0,0:0:0:0:
304,276,238818,2,0,L|327:354,1,70,10|0,0:0|3:0,0:0:0:0:
358,366,239193,1,0,1:0:0:0:
399,368,239318,6,0,L|477:345,1,70,6|2,3:2|3:0,0:0:0:0:
415,280,239818,2,0,P|401:243|404:193,1,70,10|2,0:0|0:3,0:0:0:0:
416,174,240193,2,0,P|411:112|380:57,1,105,2|2,3:2|3:3,0:0:0:0:
311,94,240818,2,0,L|293:20,1,70,10|2,0:0|0:3,0:0:0:0:
218,61,241318,6,0,P|166:57|100:117,1,140,2|10,3:2|0:0,0:0:0:0:
55,182,242068,1,2,0:3:0:0:
55,182,242193,2,0,P|67:236|85:316,1,105,2|2,3:2|3:0,0:0:0:0:
109,362,242818,2,0,P|138:360|178:336,1,70,10|2,0:0|0:3,0:0:0:0:
235,283,243318,6,0,P|301:289|347:349,1,140,6|10,3:2|0:0,0:0:0:0:
431,368,244068,1,2,0:3:0:0:
431,368,244193,2,0,L|453:266,1,105,2|2,3:2|3:0,0:0:0:0:
391,207,244818,2,0,P|377:176|373:141,1,70,10|2,0:0|3:0,0:0:0:0:
394,104,245193,1,2,0:0:0:0:
375,66,245318,6,0,P|327:29|277:41,1,105,6|10,3:2|0:0,0:0:0:0:
164,2,246068,2,0,L|146:78,1,70,6|8,3:2|0:0,0:0:0:0:
120,101,246443,1,8,0:0:0:0:
139,138,246568,1,0,3:2:0:0:
196,199,246818,1,10,0:0:0:0:
274,168,247068,1,0,3:0:0:0:
340,219,247318,6,0,P|361:152|363:80,1,140,6|10,3:2|0:0,0:0:0:0:
201,38,248318,2,0,P|218:68|228:101,1,70,2|0,3:2|3:0,0:0:0:0:
206,182,248818,2,0,P|172:192|139:202,1,70,10|2,0:0|0:0,0:0:0:0:
118,239,249193,1,2,0:0:0:0:
130,279,249318,2,0,P|176:301|235:263,1,105,6|2,3:2|3:2,0:0:0:0:
316,365,250068,2,0,P|383:345|451:329,1,140,6|0,1:2|3:2,0:0:0:0:
432,247,250818,1,8,0:0:0:0:
417,173,251068,5,2,0:0:0:0:
417,173,251193,1,2,1:2:0:0:
417,173,251318,2,0,P|348:170|297:215,1,140,6|10,3:2|0:0,0:0:0:0:
143,150,252318,2,0,P|131:117|124:83,1,70,2|0,3:2|3:2,0:0:0:0:
171,12,252818,1,10,0:0:0:0:
254,56,253068,5,2,0:0:0:0:
254,56,253193,1,2,0:0:0:0:
254,56,253318,2,0,P|298:49|363:31,1,105,6|2,3:2|3:2,0:0:0:0:
479,7,254068,2,0,P|468:58|459:110,1,105,14|8,0:0|0:0,0:0:0:0:
451,151,254568,1,0,3:2:0:0:
487,226,254818,2,0,L|479:260,2,35,10|8|2,0:0|0:0|3:2,0:0:0:0:
403,227,255318,6,0,P|328:216|276:171,1,140,6|10,3:2|0:2,0:0:0:0:
219,287,256193,2,0,P|164:288|117:325,1,105,6|0,3:2|3:0,0:0:0:0:
48,352,256818,2,0,P|39:318|29:284,1,70,8|2,0:0|0:0,0:0:0:0:
5,250,257193,1,2,0:0:0:0:
19,210,257318,2,0,B|59:216|59:216|120:206|158:134,1,140,6|10,3:2|0:0,0:0:0:0:
210,58,258193,2,0,P|250:26|320:39,1,105,6|2,3:2|3:2,0:0:0:0:
371,74,258818,2,0,P|385:16|385:-3,1,70,10|0,0:0|3:0,0:0:0:0:
467,25,259318,6,0,P|451:93|437:163,1,140,6|8,3:2|0:0,0:0:0:0:
469,239,260068,1,0,1:0:0:0:
412,300,260318,2,0,P|358:257|265:262,1,140,6|8,3:2|0:0,0:0:0:0:
230,313,261068,1,2,0:0:0:0:
172,252,261318,6,0,P|194:174|208:101,1,140,6|8,3:2|0:0,0:0:0:0:
331,120,262193,2,0,P|305:72|317:17,1,105,0|0,3:2|3:2,0:0:0:0:
389,58,262818,1,8,0:0:0:0:
468,30,263068,1,2,3:2:0:0:
490,115,263318,5,6,3:2:0:0:
490,115,263443,2,0,L|472:186,1,70,2|10,1:2|0:0,0:0:0:0:
440,209,263818,1,0,3:2:0:0:
477,289,264068,1,10,0:0:0:0:
477,289,264193,2,0,P|479:334|462:373,1,70,2|2,3:2|0:2,0:0:0:0:
431,372,264568,1,0,1:0:0:0:
389,298,264818,2,0,L|341:307,1,35,10|2,0:0|3:2,0:0:0:0:
320,329,265068,2,0,L|285:322,1,35,2|2,1:2|1:2,0:0:0:0:
246,306,265318,6,0,P|207:310|176:334,1,70,6|0,3:1|1:0,0:0:0:0:
152,356,265693,1,0,1:0:0:0:
110,356,265818,1,10,0:0:0:0:
6,284,266193,1,2,0:3:0:0:
56,214,266443,2,0,P|45:162|34:110,1,105,10|10,0:0|0:0,0:0:0:0:
80,40,267068,1,2,3:2:0:0:
154,79,267318,6,0,P|215:81|258:11,1,140,2|10,3:2|0:0,0:0:0:0:
331,62,268068,1,2,0:0:0:0:
400,15,268318,2,0,L|441:27,2,35,2|10|2,0:2|0:0|3:2,0:0:0:0:
331,61,268818,2,0,P|340:95|347:130,1,70,10|2,0:0|3:2,0:0:0:0:
411,184,269318,6,0,P|426:249|410:327,1,140,6|8,3:2|0:0,0:0:0:0:
336,356,270068,1,0,0:0:0:0:
257,325,270318,2,0,P|209:339|184:350,2,70,2|2|8,0:0|3:2|0:0,0:0:0:0:
324,171,271318,6,0,P|345:119|328:35,1,140,6|8,3:2|0:0,0:0:0:0:
292,20,271943,2,0,P|233:36|205:43,1,70,2|2,0:0|3:2,0:0:0:0:
199,72,272318,1,2,0:0:0:0:
121,56,272568,1,2,3:2:0:0:
121,56,272693,2,0,P|98:126|96:162,1,105,2|2,0:0|1:2,0:0:0:0:
156,215,273318,6,0,L|145:259,2,35,6|0|2,3:2|0:0|0:0,0:0:0:0:
239,227,273818,2,0,P|271:211|305:207,1,70,10|2,0:0|0:0,0:0:0:0:
372,257,274318,2,0,P|380:222|387:188,1,70,2|2,0:0|3:2,0:0:0:0:
461,138,274818,1,10,0:0:0:0:
314,55,275318,6,0,P|259:10|184:15,1,140,0|10,3:0|0:0,0:0:0:0:
162,41,275943,1,2,0:0:0:0:
96,93,276193,2,0,P|85:145|77:167,2,70,2|10|0,3:3|0:0|1:0,0:0:0:0:
75,56,276818,1,2,3:0:0:0:
9,108,277068,1,0,0:0:0:0:
0,191,277318,6,0,P|49:202|87:252,1,105,6|0,3:2|0:0,0:0:0:0:
209,213,278068,1,2,0:0:0:0:
209,213,278193,2,0,P|192:283|181:327,1,105,2|0,3:2|0:0,0:0:0:0:
249,367,278818,2,0,P|268:333|269:293,1,70,10|0,0:0|3:2,0:0:0:0:
319,234,279318,6,0,P|353:215|389:215,1,70,6|0,3:2|1:0,0:0:0:0:
421,231,279693,2,0,L|435:299,2,70,2|2|2,3:0|3:0|3:0,0:0:0:0:
456,208,280318,1,4,3:0:0:0:
486,42,280818,2,0,P|453:58|419:64,1,70,0|8,3:2|0:0,0:0:0:0:
391,94,281193,1,8,0:0:0:0:
353,74,281318,6,0,P|301:47|243:48,2,105,6|0|0,3:1|3:0|3:1,0:0:0:0:
334,155,282318,1,2,1:2:0:0:
460,265,282818,2,0,P|446:297|434:334,1,70,0|0,0:0|3:0,0:0:0:0:
350,330,283318,2,0,P|314:360|244:347,2,105,2|0|0,3:2|3:0|3:0,0:0:0:0:
369,248,284318,1,2,1:2:0:0:
253,126,284818,2,0,P|257:109|260:91,2,35,2|0|0,0:0|0:0|3:0,0:0:0:0:
184,175,285318,6,0,P|139:148|86:147,2,105,6|0|0,3:2|3:0|3:0,0:0:0:0:
226,247,286318,1,2,1:2:0:0:
362,149,286818,2,0,P|396:142|429:132,1,70,0|0,0:0|3:0,0:0:0:0:
379,65,287318,2,0,P|330:70|274:90,2,105,6|0|0,3:2|3:0|3:0,0:0:0:0:
453,25,288318,1,2,1:2:0:0:
493,187,288818,2,0,L|482:222,1,35,0|8,1:0|0:3,0:0:0:0:
487,262,289068,1,4,0:3:0:0:
428,321,289318,6,0,P|387:320|338:360,1,105,6|0,3:2|3:2,0:0:0:0:
257,262,290068,1,0,3:0:0:0:
179,294,290318,2,0,P|107:279|47:226,1,140,14|0,0:0|0:0,0:0:0:0:
28,169,291068,1,0,3:0:0:0:
28,169,291193,1,0,1:0:0:0:
28,169,291318,2,0,P|48:108|60:59,1,105,6|0,3:2|3:0,0:0:0:0:
171,13,292068,1,0,3:0:0:0:
219,81,292318,2,0,P|279:74|337:5,1,140,10|2,0:0|3:2,0:0:0:0:
363,184,293318,6,0,P|394:222|449:236,2,105,6|0|0,3:2|3:0|3:0,0:0:0:0:
285,216,294318,2,0,P|263:282|242:349,1,140,10|0,0:0|0:0,0:0:0:0:
159,368,295068,1,0,1:0:0:0:
82,333,295318,2,0,P|75:271|99:233,2,105,6|0|0,3:2|3:0|3:2,0:0:0:0:
159,368,296318,1,10,0:0:0:0:
194,203,296818,2,0,L|186:154,1,35,10|0,0:0|1:0,0:0:0:0:
159,137,297068,2,0,L|167:88,1,35,0|0,1:0|1:0,0:0:0:0:
191,70,297318,5,10,0:1:0:0:
378,56,313318,5,10,0:0:0:0:
377,55,313443,2,0,P|406:73|439:83,1,70,0|10,3:0|0:0,0:0:0:0:
485,160,313943,1,0,3:0:0:0:
485,160,314068,2,0,L|465:241,1,70,10|0,0:0|0:0,0:0:0:0:
415,293,314568,1,0,1:0:0:0:
337,260,314818,2,0,L|293:270,2,35,8|8|4,0:0|0:3|0:3,0:0:0:0:
385,190,315318,5,2,0:2:0:0:
237,78,315818,6,0,P|186:41|126:42,1,115.50000352478,6|2,1:0|3:2,0:0:0:0:
53,76,316443,1,8,0:0:0:0:
53,76,316568,2,0,P|39:126|27:160,1,77.0000023498536,2|10,3:2|0:0,0:0:0:0:
75,230,317068,1,2,3:2:0:0:
157,188,317318,6,0,P|195:197|228:217,1,77.0000023498536,2|0,3:2|3:2,0:0:0:0:
270,298,317818,1,10,0:0:0:0:
399,248,318193,2,0,B|407:197|460:156|460:156|456:111|421:78,1,192.500005874634,2|10,3:2|0:0,0:0:0:0:
345,42,319068,1,2,3:2:0:0:
261,82,319318,6,0,P|203:123|123:113,1,154.000004699707,6|10,3:2|0:0,0:0:0:0:
28,211,320193,2,0,P|34:248|42:290,1,77.0000023498536,2|8,3:2|0:0,0:0:0:0:
75,318,320568,1,2,3:2:0:0:
158,277,320818,2,0,P|200:286|239:294,1,77.0000023498536,10|0,0:0|3:0,0:0:0:0:
310,343,321318,2,0,P|325:309|328:268,1,77.0000023498536,2|0,3:2|3:0,0:0:0:0:
282,188,321818,1,10,0:0:0:0:
415,150,322193,2,0,B|446:90|396:51|396:51|349:53|312:14,1,192.500005874634,2|10,3:2|0:0,0:0:0:0:
238,46,323068,5,6,3:2:0:0:
238,46,323193,1,8,0:0:0:0:
238,46,323318,2,0,P|227:87|219:121,1,77.0000023498536,6|0,3:2|3:0,0:0:0:0:
139,168,323818,1,10,0:0:0:0:
177,301,324193,2,0,P|209:272|284:273,1,115.50000352478,2|2,3:2|3:2,0:0:0:0:
365,239,324818,2,0,P|382:195|377:160,1,77.0000023498536,10|0,0:0|3:0,0:0:0:0:
432,90,325318,2,0,L|282:55,1,154.000004699707,6|14,3:2|0:0,0:0:0:0:
238,234,326318,2,0,L|88:199,1,154.000004699707,6|14,3:2|0:0,0:0:0:0:
13,29,327318,6,0,B|54:69|93:57|93:57|164:92,1,154.000004699707,6|10,3:2|0:0,0:0:0:0:
235,135,328068,1,2,0:0:0:0:
235,135,328193,2,0,P|247:83|220:12,1,115.50000352478,2|2,3:2|3:2,0:0:0:0:
321,34,328818,2,0,P|355:22|405:7,1,77.0000023498536,10|2,0:0|3:2,0:0:0:0:
466,67,329318,6,0,P|490:101|485:146,1,77.0000023498536,6|0,3:2|3:0,0:0:0:0:
453,220,329818,1,10,0:0:0:0:
376,178,330068,1,0,3:0:0:0:
376,178,330193,2,0,P|313:154|245:157,1,115.50000352478,8|0,0:0|3:0,0:0:0:0:
189,206,330818,2,0,L|174:264,1,38.5000011749268,2|2,3:2|3:2,0:0:0:0:
154,282,331068,2,0,L|163:337,1,38.5000011749268,10|10,0:0|0:0,0:0:0:0:
193,352,331318,6,0,P|230:350|277:372,1,77.0000023498536,6|8,3:1|0:0,0:0:0:0:
357,344,331818,1,2,3:2:0:0:
445,384,332068,1,8,0:0:0:0:
445,384,332193,2,0,P|464:332|465:267,1,115.50000352478,2|10,3:2|0:0,0:0:0:0:
406,201,332818,1,2,3:2:0:0:
323,242,333068,1,10,0:2:0:0:
241,199,333318,6,0,P|227:161|233:121,1,77.0000023498536,6|8,3:2|0:0,0:0:0:0:
322,108,333818,2,0,L|302:23,1,77.0000023498536,2|8,3:2|0:0,0:0:0:0:
341,5,334193,2,0,P|396:-6|452:22,1,115.50000352478,6|8,3:2|0:0,0:0:0:0:
481,104,334818,2,0,P|472:146|465:179,1,77.0000023498536,2|10,3:2|0:0,0:0:0:0:
388,231,335318,6,0,P|409:268|399:320,1,77.0000023498536,6|8,3:2|0:0,0:0:0:0:
338,362,335818,2,0,P|297:351|255:339,1,77.0000023498536,2|8,3:2|0:0,0:0:0:0:
225,315,336193,2,0,P|159:316|114:348,1,115.50000352478,6|8,3:2|0:0,0:0:0:0:
32,310,336818,2,0,L|20:356,2,38.5000011749268,2|0|10,3:2|3:2|0:0,0:0:0:0:
89,237,337318,6,0,P|107:193|99:156,1,77.0000023498536,6|8,3:2|0:0,0:0:0:0:
101,72,337818,2,0,P|137:82|175:91,1,77.0000023498536,6|8,3:2|0:0,0:0:0:0:
210,121,338193,2,2,P|266:123|308:82,1,115.50000352478,6|10,3:2|0:0,0:1:0:0:
362,10,338818,1,2,3:2:0:0:
454,3,339068,1,10,0:0:0:0:
500,82,339318,6,0,P|483:166|466:240,1,154.000004699707,6|2,3:2|3:2,0:0:0:0:
493,321,340068,1,8,0:0:0:0:
410,361,340318,2,0,P|368:352|344:318,1,77.0000023498536,6|8,3:2|0:0,0:0:0:0:
280,261,340818,2,0,L|289:223,2,38.5000011749268,2|0|8,3:2|3:0|0:0,0:0:0:0:
203,313,341318,6,0,P|165:321|128:333,1,77.0000023498536,6|10,3:2|0:0,0:0:0:0:
45,374,341818,1,2,3:2:0:0:
8,294,342068,1,8,0:0:0:0:
8,294,342193,2,0,P|4:229|32:159,1,115.50000352478,6|10,3:2|0:0,0:0:0:0:
19,88,342818,2,0,P|55:100|92:111,1,77.0000023498536,0|10,3:0|0:0,0:0:0:0:
122,146,343193,1,0,0:0:0:0:
167,136,343318,6,0,L|186:61,1,77.0000023498536,6|8,3:2|0:0,0:0:0:0:
270,18,343818,1,0,3:0:0:0:
270,18,343943,1,0,3:0:0:0:
329,88,344193,2,0,P|386:87|435:116,1,115.50000352478,14|10,0:0|0:0,0:0:0:0:
452,206,344818,2,0,L|496:198,2,38.5000011749268,0|0|10,3:0|3:0|0:0,0:0:0:0:
364,234,345318,6,0,P|374:277|384:317,1,77.0000023498536,6|8,3:2|0:0,0:0:0:0:
313,370,345818,1,0,3:0:0:0:
313,370,345943,1,0,3:0:0:0:
231,327,346193,2,0,P|174:324|126:360,1,115.50000352478,14|10,0:0|0:0,0:0:0:0:
54,300,346818,2,0,P|38:265|36:225,1,77.0000023498536,0|10,3:0|0:0,0:0:0:0:
108,169,347318,6,0,L|126:243,1,77.0000023498536,6|8,3:2|0:0,0:0:0:0:
204,194,347818,2,0,L|185:110,1,77.0000023498536,0|10,3:0|0:0,0:0:0:0:
184,72,348193,2,0,P|232:41|293:50,1,115.50000352478,0|8,3:2|0:0,0:0:0:0:
360,105,348818,1,0,3:0:0:0:
448,78,349068,1,8,0:0:0:0:
500,206,349443,6,0,P|470:257|471:315,1,115.50000352478,14|14,0:0|0:0,0:0:0:0:
395,362,350068,1,0,3:0:0:0:
395,362,350193,2,0,P|343:345|282:322,1,115.50000352478,14|0,0:0|0:0,0:0:0:0:
196,347,350818,2,0,L|188:309,2,38.5000011749268,0|8|4,1:0|0:3|0:3,0:0:0:0:
103,352,351318,5,14,0:0:0:0:
256,192,351443,12,0,355318,0:0:0:0:
