osu file format v14

[General]
AudioFilename: audio.mp3
AudioLeadIn: 0
PreviewTime: 72225
Countdown: 0
SampleSet: Soft
StackLeniency: 0.5
Mode: 0
LetterboxInBreaks: 0
WidescreenStoryboard: 1

[Editor]
Bookmarks: 1449,4207,5242,15242,26276,32138,32311,32483,35931,37311,40069,46793,47138,48345,51104,51190,53862,56621,57138,74897,75155,80069,86104,86190,98776,99035,99207,99552,99983,100155,103517,108000
DistanceSpacing: 1.4
BeatDivisor: 4
GridSize: 4
TimelineZoom: 3.099999

[Metadata]
Title:Catch Light
TitleUnicode:キャッチライト
Artist:Uema Emi
ArtistUnicode:上間江望
Creator:Misure
Version:tomatas' Hard
Source:キミの瞳にヒットミー
Tags:Kazato Asa Shizuku- tomatas95 Garden Agatsu 戯画 giga entergram kimi no hitomi ni hit me eroge visual novel Kyaachiraito Japanese video game pop opening op LIBRA galgame
BeatmapID:2748783
BeatmapSetID:1322295

[Difficulty]
HPDrainRate:4
CircleSize:3.5
OverallDifficulty:6
ApproachRate:8
SliderMultiplier:1.4
SliderTickRate:1

[Events]
//Background and Video events
Video,-100,"video.flv"
0,0,"hitomi.jpg",0,0
//Break Periods
//Storyboard Layer 0 (Background)
//Storyboard Layer 1 (Fail)
//Storyboard Layer 2 (Pass)
//Storyboard Layer 3 (Foreground)
//Storyboard Layer 4 (Overlay)
//Storyboard Sound Samples

[TimingPoints]
1449,344.827586206897,4,2,1,50,1,0
3345,-166.666666666667,4,2,1,50,0,0
13862,-142.857142857143,4,2,1,55,0,0
14207,-125,4,2,1,60,0,0
14552,-100,4,2,1,75,0,0
15242,-117.647058823529,4,2,1,80,0,0
20759,-117.647058823529,4,2,1,60,0,0
22138,-117.647058823529,4,2,1,65,0,0
23517,-117.647058823529,4,2,1,70,0,0
24207,-100,4,2,1,75,0,0
24552,-100,4,2,1,80,0,0
24897,-100,4,2,1,70,0,0
25586,-100,4,2,1,60,0,0
25931,-100,4,2,1,55,0,0
26276,-100,4,2,1,75,0,0
37311,-111.111111111111,4,2,1,60,0,0
48345,-100,4,2,1,70,0,0
57138,-83.3333333333333,4,2,1,50,0,0
59380,-125,4,2,1,60,0,0
67655,-111.111111111111,4,2,1,70,0,0
70414,-100,4,2,1,50,0,0
73173,-90.9090909090909,4,2,1,80,0,1
82311,-90.9090909090909,4,2,1,70,0,1
82655,-90.9090909090909,4,2,1,80,0,1
83345,-90.9090909090909,4,2,1,70,0,1
84121,-90.9090909090909,4,2,1,50,0,0
84207,-90.9090909090909,4,2,1,80,0,1
89724,-90.9090909090909,4,2,1,70,0,1
92483,-90.9090909090909,4,2,1,75,0,1
93173,-90.9090909090909,4,2,1,80,0,1
93862,-125,4,2,1,80,0,1
94208,-125,4,2,1,60,0,1
95070,-90.9090909090909,4,2,1,65,0,1
95156,-90.9090909090909,4,2,1,70,0,1
95242,-100,4,2,1,75,0,0
103518,-100,4,2,1,70,0,0
106104,-125,4,2,1,65,0,0
108345,-125,4,2,1,70,0,0
108862,-125,4,2,1,65,0,0
109207,-125,4,2,1,15,0,0

[Colours]
Combo1 : 255,188,115
Combo2 : 87,171,255
Combo3 : 250,135,233
Combo4 : 9,255,132

[HitObjects]
70,49,3345,6,0,L|13:45,2,41.9999987182618,2|0|0,0:0|0:0|0:0,0:0:0:0:
149,69,3862,2,0,L|144:125,1,41.9999987182618
151,194,4207,6,0,B|196:185|196:185|242:199|258:249,2,125.999996154785,2|2|0,0:0|0:1|0:0,0:0:0:0:
90,252,5414,2,0,B|59:217|59:217|49:170|84:131,1,125.999996154785,2|0,0:0|0:0,0:0:0:0:
111,63,6104,2,0,P|83:58|53:64,2,41.9999987182618,2|0|0,0:1|0:0|0:0,0:0:0:0:
167,129,6621,2,0,P|195:134|227:130,1,41.9999987182618
284,160,6966,6,0,B|310:64|247:10|247:10|222:16|210:49,1,209.999993591309,2|0,0:0|0:0,0:0:0:0:
167,129,8000,1,2,0:0:0:0:
167,129,8173,2,0,B|160:168|189:220|189:220|196:262|170:297,1,167.999994873047
199,370,9035,1,2,0:1:0:0:
270,327,9207,1,0,0:0:0:0:
349,354,9380,1,2,0:0:0:0:
351,371,9724,6,0,L|356:270,1,83.9999974365235,2|0,0:0|0:0,0:0:0:0:
354,205,10242,1,2,0:1:0:0:
354,185,10586,1,0,0:0:0:0:
355,167,10931,6,0,P|313:183|229:152,1,125.999996154785,2|0,0:0|0:0,0:0:0:0:
168,58,11793,1,2,0:1:0:0:
168,40,12138,1,0,0:0:0:0:
173,20,12483,6,0,B|193:9|215:18|215:18|234:10|271:20,1,83.9999974365235,2|0,0:0|0:0,0:0:0:0:
340,8,13000,2,0,B|369:63|335:121|335:121|367:118|382:86,1,167.999994873047,2|0,0:1|0:0,0:0:0:0:
468,41,13862,5,2,0:0:0:0:
468,41,14035,2,0,L|473:109,1,48.9999985046387
466,182,14380,1,0,0:0:0:0:
375,96,14552,5,0,1:0:0:0:
361,214,14724,1,0,1:0:0:0:
360,236,15242,6,0,B|329:221|329:221|300:245|248:228,2,119.000002269745,6|8|8,0:0|0:0|0:3,0:0:0:0:
446,259,16104,1,4,0:3:0:0:
449,348,16276,1,4,0:3:0:0:
366,381,16449,1,0,3:0:0:0:
278,323,16621,6,0,B|243:315|222:322|222:322|201:361|164:358,1,119.000002269745,6|8,0:0|0:0,0:0:0:0:
81,349,17138,1,4,0:3:0:0:
136,277,17311,2,0,P|135:242|119:210,1,59.5000011348725,8|4,0:3|0:3,0:0:0:0:
187,147,17655,2,0,P|156:130|120:128,1,59.5000011348725,4|0,0:3|3:0,0:0:0:0:
32,220,18000,6,0,B|8:190|8:190|10:88,2,119.000002269745,6|8|8,0:0|0:0|0:3,0:0:0:0:
125,219,18862,1,4,0:3:0:0:
84,297,19035,1,4,0:3:0:0:
162,338,19207,1,0,3:0:0:0:
234,249,19380,6,0,B|253:235|253:235|281:256|267:333,1,119.000002269745,6|8,0:0|0:0,0:0:0:0:
345,373,19897,1,8,0:0:0:0:
361,274,20069,6,0,L|349:217,2,39.6666674232483,4|4|8,3:0|0:3|0:3,0:0:0:0:
387,156,20414,2,0,L|436:149,2,39.6666674232483,4|4|8,3:0|0:3|0:3,0:0:0:0:
502,233,20759,6,0,B|496:217|498:199|498:199|507:181|517:166|517:166|517:141|508:104,1,119.000002269745,4|8,0:0|0:0,0:0:0:0:
475,38,21276,2,0,P|441:44|400:33,1,59.5000011348725,0|8,0:0|0:3,0:0:0:0:
309,33,21621,2,0,P|331:59|337:150,1,119.000002269745,0|0,3:0|0:0,0:0:0:0:
305,239,22138,6,0,B|269:264|221:240|221:240|219:215|239:195,1,119.000002269745,4|8,0:0|0:0,0:0:0:0:
227,124,22655,1,0,0:0:0:0:
158,70,22828,2,0,P|121:67|80:77,1,59.5000011348725,0|8,0:0|0:0,0:0:0:0:
41,133,23173,1,8,0:3:0:0:
95,201,23345,1,8,0:3:0:0:
31,301,23517,6,0,B|75:286|75:286|165:317,1,119.000002269745,0|0,3:0|1:0,0:0:0:0:
222,350,24035,1,8,0:0:0:0:
295,284,24207,6,0,P|300:245|290:209,2,46.6666666666667,8|8|0,3:0|3:0|3:0,0:0:0:0:
216,253,24552,2,0,P|195:241|178:226,2,46.6666666666667,8|4|0,3:0|3:0|3:0,0:0:0:0:
244,173,24897,5,4,3:2:0:0:
256,192,24983,12,2,25931,0:0:0:0:
427,330,26276,6,0,B|449:336|463:350|463:350|462:236,1,140,4|8,0:0|0:1,0:0:0:0:
489,144,26793,2,0,P|437:170|356:129,1,140,2|8,0:0|0:3,0:0:0:0:
307,65,27311,1,2,1:2:0:0:
389,23,27483,1,2,0:0:0:0:
364,141,27655,6,0,B|359:183|359:183|370:211|370:211|355:277,1,140,8|8,0:3|0:1,0:0:0:0:
335,364,28173,1,2,0:0:0:0:
270,295,28345,2,0,P|232:290|198:300,1,70,8|8,0:3|0:3,0:0:0:0:
129,358,28690,1,2,1:2:0:0:
68,287,28862,1,0,0:0:0:0:
139,226,29035,6,0,B|123:191|145:161|145:161|171:131|151:67,2,140,8|8|8,0:3|0:1|0:3,0:0:0:0:
201,298,29897,1,8,0:3:0:0:
129,358,30069,1,2,1:2:0:0:
39,285,30242,6,0,L|27:141,1,140,4|8,0:0|0:3,0:0:0:0:
21,44,30759,2,0,P|59:52|99:38,1,70,8|0,0:1|0:0,0:0:0:0:
134,119,31104,2,0,P|159:90|167:48,1,70,8|8,0:3|0:3,0:0:0:0:
255,58,31449,2,0,P|242:21|210:-6,1,70,2|8,1:2|0:3,0:0:0:0:
229,154,31793,6,0,P|289:140|373:175,1,140,4|8,0:0|0:1,0:0:0:0:
447,196,32311,2,0,L|460:118,1,70,2|8,0:0|0:3,0:0:0:0:
361,165,32655,2,0,L|349:95,1,70,8|2,0:3|1:2,0:0:0:0:
389,19,33000,1,2,0:0:0:0:
458,126,33173,6,0,B|460:170|495:202|495:202|506:238|472:260,1,140,8|8,0:3|0:1,0:0:0:0:
434,333,33690,2,0,P|395:325|353:336,1,70,2|8,0:0|0:3,0:0:0:0:
254,342,34035,2,0,P|280:312|291:270,1,70,8|2,0:3|1:2,0:0:0:0:
223,186,34380,1,0,0:0:0:0:
218,176,34466,1,0,0:0:0:0:
210,168,34552,6,0,B|194:149|163:146|132:153|123:191|123:191|145:218|171:210,1,140,4|8,0:0|0:1,0:0:0:0:
166,294,35069,1,8,0:3:0:0:
166,306,35155,1,8,0:3:0:0:
166,316,35242,1,8,0:3:0:0:
114,384,35414,1,0,1:0:0:0:
33,363,35586,1,2,0:0:0:0:
18,247,35759,6,0,B|31:197|9:159|9:159|22:123|64:123,1,140,4|8,0:0|0:3,0:0:0:0:
146,100,36276,2,0,P|157:137|141:189,1,70,8|0,0:1|0:0,0:0:0:0:
76,40,36621,2,0,P|102:11|155:-1,1,70,4|8,0:3|0:3,0:0:0:0:
209,30,36966,1,8,3:0:0:0:
245,109,37138,1,0,3:0:0:0:
216,228,37311,6,0,B|259:227|259:227|286:243|286:243|352:239,1,125.999996154785,6|0,0:0|0:0,0:0:0:0:
419,209,37828,1,8,0:3:0:0:
507,283,38000,2,0,B|501:260|507:240|507:240|501:229|501:229|526:197|506:151,1,125.999996154785,0|0,3:0|0:0,0:0:0:0:
491,81,38517,1,8,0:3:0:0:
420,27,38690,5,2,3:2:0:0:
246,58,39035,1,2,3:2:0:0:
277,232,39380,1,2,3:2:0:0:
451,201,39724,1,0,3:0:0:0:
499,273,39897,1,8,0:3:0:0:
432,335,40069,6,0,B|420:314|387:324|387:324|358:356|317:358,1,125.999996154785,0|0,3:0|0:0,0:0:0:0:
239,337,40586,1,8,0:3:0:0:
277,232,40759,2,0,B|300:195|274:143|274:143|246:140|238:163,1,125.999996154785,0|0,3:0|0:0,0:0:0:0:
177,212,41276,1,8,0:3:0:0:
126,292,41449,5,2,3:2:0:0:
126,292,41966,1,8,0:3:0:0:
23,138,42311,2,0,P|26:99|16:72,2,62.9999980773926,2|0|8,3:2|3:0|0:3,0:0:0:0:
24,222,42828,6,0,B|19:250|19:250|26:274|26:274|18:322,1,94.499997116089,0|0,3:0|0:0,0:0:0:0:
17,361,43173,2,0,P|69:347|144:380,1,125.999996154785,2|0,0:0|3:0,0:0:0:0:
220,377,43690,1,8,0:3:0:0:
245,292,43862,1,2,0:0:0:0:
185,216,44035,6,0,B|184:184|184:184|195:149|195:149|194:85,1,125.999996154785,0|8,3:0|0:3,0:0:0:0:
247,12,44552,1,0,0:0:0:0:
279,96,44724,2,0,B|303:124|351:128|400:118|415:59|415:59|379:17|338:29,1,251.999992309571,2|0,0:0|0:0,0:0:0:0:
246,13,45586,5,2,0:0:0:0:
246,13,45931,2,0,L|169:17,2,62.9999980773926,0|0|8,0:0|0:0|0:3,0:0:0:0:
346,28,46449,1,8,0:3:0:0:
439,3,46621,1,0,0:0:0:0:
415,126,46793,1,8,0:0:0:0:
415,126,47138,6,0,P|446:121|477:125,2,62.9999980773926,2|2|2,0:0|0:0|0:0,0:0:0:0:
410,223,47655,2,0,P|441:227|472:223,2,62.9999980773926,2|4|4,0:0|0:3|0:3,0:0:0:0:
334,169,48173,1,8,0:3:0:0:
300,294,48345,6,0,B|345:282|345:282|377:320|441:304,1,140,6|8,0:0|0:0,0:0:0:0:
472,222,48862,1,0,0:0:0:0:
472,222,49035,2,0,P|454:187|489:93,1,140,8|8,0:3|0:0,0:0:0:0:
482,6,49552,1,8,0:3:0:0:
374,42,49724,6,0,L|298:34,1,70,8|2,0:3|0:0,0:0:0:0:
211,18,50069,2,0,L|203:87,1,70,8|2,0:0|0:0,0:0:0:0:
187,181,50414,1,8,0:3:0:0:
376,130,50759,2,0,P|396:175|380:244,1,105,10|0,0:0|0:0,0:0:0:0:
420,274,51104,6,0,P|362:249|289:269,1,140,8|8,0:3|0:0,0:0:0:0:
219,351,51621,1,0,0:0:0:0:
219,351,51793,2,0,P|202:284|149:241,1,140,8|8,0:3|0:0,0:0:0:0:
60,230,52311,1,8,0:3:0:0:
61,329,52483,2,0,P|97:322|141:339,1,70,8|2,0:3|0:0,0:0:0:0:
219,351,52828,1,8,0:0:0:0:
288,264,53000,6,0,B|296:245|301:215|301:215|267:190|273:122,1,140,8|2,0:3|0:0,0:0:0:0:
261,42,53517,1,8,0:0:0:0:
171,51,53690,1,8,0:3:0:0:
180,141,53862,6,0,B|154:159|154:159|118:143|73:157,1,105,6|0,0:0|0:0,0:0:0:0:
43,162,54207,2,0,P|29:105|87:37,1,140,8|8,0:0|0:3,0:0:0:0:
172,52,54724,1,8,0:3:0:0:
180,141,54897,1,8,0:0:0:0:
254,217,55069,6,0,B|295:215|295:215|314:188|343:182|343:182|398:187,1,140,8|8,0:3|0:3,0:0:0:0:
476,176,55586,1,8,0:0:0:0:
485,270,55759,2,0,L|481:357,2,70,2|8|8,0:0|0:3|0:3,0:0:0:0:
476,176,56276,1,8,0:0:0:0:
382,185,56449,1,0,0:0:0:0:
387,305,56621,6,0,B|340:321|310:278|310:278|246:278,1,140,4|8,0:0|0:0,0:0:0:0:
157,362,57138,6,0,L|164:185,1,167.999994873047,4|8,0:0|0:3,0:0:0:0:
171,107,57655,1,8,0:0:0:0:
61,200,57828,6,0,L|67:32,1,167.999994873047,6|10,0:0|0:0,0:0:0:0:
150,14,58345,1,8,0:3:0:0:
171,107,58517,2,0,L|166:156,2,41.9999987182618,0|0|4,3:0|3:0|0:3,0:0:0:0:
243,54,58862,1,4,0:3:0:0:
324,88,59035,1,4,0:3:0:0:
329,176,59207,1,8,0:3:0:0:
275,260,59380,6,0,B|246:262|246:262|222:237|193:239|193:239|146:247,1,112,6|0,0:0|0:0,0:0:0:0:
76,256,59897,1,0,0:0:0:0:
30,354,60069,2,0,P|60:351|161:367,1,112,8|0,0:0|0:0,0:0:0:0:
223,379,60586,6,0,L|216:302,1,56,2|0,3:2|0:0,0:0:0:0:
292,285,60931,2,0,L|285:208,1,56,10|0,0:0|0:0,0:0:0:0:
345,164,61276,1,8,0:3:0:0:
394,245,61449,2,0,L|399:300,2,56,8|0|0,0:0|0:0|0:0,0:0:0:0:
303,92,62138,6,0,P|275:87|239:96,1,56,8|0,0:3|0:0,0:0:0:0:
387,81,62483,2,0,P|377:54|351:27,1,56
349,169,62828,2,0,P|392:156|468:180,1,112,8|0,0:0|0:0,0:0:0:0:
485,277,63345,6,0,L|426:269,1,56,2|0,3:2|0:0,0:0:0:0:
419,354,63690,2,0,L|478:362,1,56,8|4,0:0|0:3,0:0:0:0:
350,296,64035,1,0,3:0:0:0:
284,360,64207,2,0,P|240:376|168:348,1,112,8|4,0:0|0:3,0:0:0:0:
111,308,64724,1,8,0:3:0:0:
145,222,64897,6,0,P|115:217|76:234,1,56,6|0,0:0|0:0,0:0:0:0:
209,172,65242,2,0,P|198:143|164:118,1,56
284,202,65586,2,0,P|312:166|294:88,1,112,8|8,0:0|0:0,0:0:0:0:
215,58,66104,6,0,B|175:36|133:61|133:61|136:38|158:27,1,112,6|8,0:0|0:3,0:0:0:0:
56,2,66621,1,8,0:0:0:0:
25,119,66793,2,0,L|16:250,1,112,6|8,0:0|0:0,0:0:0:0:
9,321,67311,1,8,0:0:0:0:
116,384,67483,1,8,3:0:0:0:
118,373,67569,1,0,3:0:0:0:
122,362,67655,6,0,L|132:227,1,125.999996154785,6|0,0:0|1:0,0:0:0:0:
128,146,68173,1,0,3:0:0:0:
200,88,68345,2,0,P|236:106|323:80,1,125.999996154785,8|0,0:3|1:0,0:0:0:0:
363,7,68862,1,0,3:0:0:0:
424,106,69035,6,0,P|390:128|369:216,1,125.999996154785,8|0,0:3|1:0,0:0:0:0:
371,293,69552,1,0,3:0:0:0:
468,353,69724,2,0,L|475:284,1,62.9999980773926,8|0,0:3|3:0,0:0:0:0:
492,204,70069,2,0,L|499:135,1,62.9999980773926,0|0,1:0|3:0,0:0:0:0:
485,38,70414,6,0,B|445:27|415:45|415:45|387:34|387:1,1,105,6|0,0:0|0:0,0:0:0:0:
353,12,70759,2,0,P|316:20|273:9,1,70,0|0,1:0|3:0,0:0:0:0:
257,126,71104,2,0,P|231:97|219:55,1,70,8|0,0:3|3:0,0:0:0:0:
110,99,71449,2,0,P|121:62|152:31,1,70,0|0,1:0|3:0,0:0:0:0:
220,68,71793,5,0,1:0:0:0:
168,167,71966,1,0,1:0:0:0:
262,225,72138,1,0,1:0:0:0:
191,310,72311,1,0,3:0:0:0:
191,310,73173,6,0,B|147:282|86:313|86:313|83:345|117:366,2,154.000004699707,4|8|8,0:0|0:1|0:3,0:0:0:0:
264,364,74035,1,8,0:3:0:0:
318,291,74207,1,2,1:2:0:0:
245,237,74380,1,0,0:0:0:0:
322,143,74552,6,0,B|316:182|316:182|333:220|333:220|315:306,1,154.000004699707,8|8,0:3|0:1,0:0:0:0:
377,366,75069,1,2,0:0:0:0:
448,310,75242,2,0,L|456:228,1,77.0000023498536,8|8,0:3|0:3,0:0:0:0:
469,147,75586,1,2,1:2:0:0:
427,65,75759,1,0,0:0:0:0:
328,124,75931,6,0,B|310:170|310:170|351:211|323:272,2,154.000004699707,8|8|8,0:3|0:1|0:3,0:0:0:0:
337,36,76793,1,8,0:3:0:0:
254,5,76966,1,2,1:2:0:0:
230,126,77138,6,0,P|156:101|82:135,1,154.000004699707,4|8,0:0|0:3,0:0:0:0:
11,195,77655,2,0,L|2:103,1,77.0000023498536,8|0,0:1|0:0,0:0:0:0:
95,224,78000,2,0,L|170:170,1,77.0000023498536,8|8,0:3|0:3,0:0:0:0:
30,279,78345,2,0,P|42:319|108:351,1,115.50000352478,2|0,1:2|0:0,0:0:0:0:
135,335,78690,6,0,B|184:308|237:339|237:339|233:310|205:296,1,154.000004699707,4|8,0:0|0:1,0:0:0:0:
252,217,79207,2,0,P|287:238|309:279,1,77.0000023498536,2|8,0:0|0:3,0:0:0:0:
363,349,79552,2,0,P|383:317|416:297,1,77.0000023498536,8|2,0:3|1:2,0:0:0:0:
496,188,79897,6,0,P|460:212|345:181,1,154.000004699707,4|8,0:0|0:3,0:0:0:0:
258,140,80414,2,0,L|250:240,1,77.0000023498536,8|0,0:1|0:0,0:0:0:0:
248,51,80759,2,0,L|157:94,1,77.0000023498536,8|8,0:3|0:3,0:0:0:0:
325,86,81104,2,0,L|368:-5,1,77.0000023498536,2|8,1:2|0:3,0:0:0:0:
458,31,81449,6,0,B|469:73|446:114|446:114|446:152|486:162,1,154.000004699707,4|8,0:0|0:1,0:0:0:0:
503,258,81966,2,0,P|462:251|423:259,1,77.0000023498536,2|8,0:0|0:3,0:0:0:0:
348,341,82311,1,4,0:0:0:0:
290,138,82655,6,0,B|252:143|202:116|202:116|162:109|129:135,1,154.000004699707,4|8,1:2|0:3,0:0:0:0:
44,81,83173,1,8,0:1:0:0:
31,182,83345,1,8,0:0:0:0:
32,193,83431,1,8,0:0:0:0:
32,204,83517,2,0,L|24:297,1,77.0000023498536,8|0,3:0|3:0,0:0:0:0:
50,376,83862,1,0,1:0:0:0:
143,298,84035,1,4,0:3:0:0:
146,286,84121,1,4,0:3:0:0:
148,274,84207,6,0,B|137:244|144:234|144:234|148:219|148:219|121:171|150:102,2,154.000004699707,4|8|8,0:0|0:1|0:3,0:0:0:0:
197,357,85069,1,8,0:3:0:0:
287,330,85242,1,2,1:2:0:0:
250,206,85414,6,0,B|298:183|298:183|400:222,1,154.000004699707,8|8,0:3|0:3,0:0:0:0:
484,248,85931,2,0,P|491:291|480:334,1,77.0000023498536,8|2,0:1|0:0,0:0:0:0:
387,378,86276,2,0,P|394:335|383:292,1,77.0000023498536,8|8,0:3|0:3,0:0:0:0:
319,231,86621,1,0,1:0:0:0:
237,288,86793,1,0,0:0:0:0:
310,341,86966,6,0,L|152:326,2,154.000004699707,4|8|8,0:0|0:1|0:3,0:0:0:0:
408,359,87828,1,8,0:0:0:0:
419,361,87914,1,8,0:0:0:0:
429,365,88000,1,0,1:0:0:0:
459,250,88173,6,0,B|448:204|474:161|474:161|475:120|433:108,1,154.000004699707,4|8,0:0|0:3,0:0:0:0:
373,42,88690,1,8,0:1:0:0:
337,132,88862,2,0,L|344:172,2,38.5000011749268,0|0|8,3:0|3:0|3:0,0:0:0:0:
266,59,89207,2,0,L|273:19,2,38.5000011749268,0|0|0,3:0|3:0|1:0,0:0:0:0:
226,175,89552,1,4,0:3:0:0:
224,186,89638,1,4,0:3:0:0:
223,197,89724,6,0,B|187:186|154:189|154:189|124:223|66:206,1,154.000004699707,4|8,0:0|0:1,0:0:0:0:
11,111,90242,2,0,L|1:26,1,77.0000023498536,0|8,0:0|0:3,0:0:0:0:
104,33,90586,2,0,L|94:118,1,77.0000023498536,8|0,0:3|1:0,0:0:0:0:
200,1,90931,6,0,B|234:31|234:31|204:87|228:151,1,154.000004699707,4|8,0:0|0:3,0:0:0:0:
199,232,91449,2,0,P|240:223|278:234,1,77.0000023498536,8|0,0:1|0:0,0:0:0:0:
317,153,91793,2,0,P|345:184|354:222,1,77.0000023498536,8|8,0:3|0:3,0:0:0:0:
326,303,92138,1,2,1:2:0:0:
396,361,92311,1,8,0:3:0:0:
487,286,92483,6,0,B|491:242|491:242|480:202|480:202|489:118,1,154.000004699707,4|8,0:0|0:1,0:0:0:0:
491,40,93000,2,0,P|443:47|409:35,1,77.0000023498536,8|0,0:3|1:0,0:0:0:0:
323,38,93345,2,0,L|318:-5,2,38.5000011749268,8|8|8,0:3|0:3|0:1,0:0:0:0:
332,132,93690,1,8,0:3:0:0:
221,64,93862,6,0,B|194:121|219:194|244:150|269:244|233:304|233:304|200:275|213:224,1,336,4|2,0:0|0:0,0:0:0:0:
128,177,95069,1,2,0:0:0:0:
120,173,95155,1,2,0:0:0:0:
111,166,95242,6,0,B|76:150|76:150|78:261,1,140,4|8,0:0|0:1,0:0:0:0:
170,355,95759,2,0,L|31:349,1,140,2|8,0:0|0:3,0:0:0:0:
275,351,96276,1,2,1:2:0:0:
216,268,96449,1,2,0:0:0:0:
297,182,96621,6,0,P|369:175|451:191,1,140,8|8,0:3|0:1,0:0:0:0:
480,272,97138,1,2,0:0:0:0:
433,349,97311,2,0,P|397:358|349:346,1,70,8|8,0:3|0:3,0:0:0:0:
304,271,97655,1,2,1:2:0:0:
241,334,97828,1,0,0:0:0:0:
179,237,98000,6,0,L|39:251,2,140,8|8|8,0:3|0:1|0:3,0:0:0:0:
261,200,98862,1,8,0:3:0:0:
306,125,99035,1,2,1:2:0:0:
230,36,99207,6,0,B|185:14|185:14|144:48|79:26,1,140,4|8,0:0|0:3,0:0:0:0:
13,74,99724,2,0,L|3:157,1,70,8|0,0:1|0:0,0:0:0:0:
12,247,100069,2,0,L|67:204,1,70,8|8,0:3|0:3,0:0:0:0:
155,151,100414,2,0,L|90:123,1,70,2|0,1:2|0:0,0:0:0:0:
153,249,100759,6,0,B|185:239|185:239|213:261|240:279|299:251,1,140,4|8,0:0|0:1,0:0:0:0:
369,287,101276,2,0,P|373:250|362:215,1,70,2|8,0:0|0:3,0:0:0:0:
301,154,101621,2,0,P|297:117|308:82,1,70,8|2,0:3|1:2,0:0:0:0:
372,26,101966,1,2,0:0:0:0:
485,68,102138,6,0,B|480:105|480:105|498:145|498:145|493:225,1,140,8|8,0:3|0:1,0:0:0:0:
512,298,102655,2,0,P|477:289|425:308,1,70,2|8,0:0|0:3,0:0:0:0:
364,344,103000,2,0,L|368:383,2,35,0|0|0,3:0|3:0|1:2,0:0:0:0:
348,260,103345,1,4,0:3:0:0:
349,249,103431,1,8,0:3:0:0:
348,238,103517,5,8,3:0:0:0:
274,311,103690,1,4,3:2:0:0:
238,217,103862,2,0,L|243:145,1,70,8|8,0:1|3:0,0:0:0:0:
238,46,104207,1,4,3:0:0:0:
164,103,104380,1,4,0:3:0:0:
73,20,104552,1,8,0:3:0:0:
71,30,104638,1,8,0:3:0:0:
68,40,104724,6,0,B|80:62|80:62|30:104|71:187,1,140,4|0,3:2|3:0,0:0:0:0:
95,257,105242,1,0,1:0:0:0:
33,328,105414,1,4,0:3:0:0:
122,366,105586,2,0,L|202:372,2,70,4|8|0,0:0|0:3|1:0,0:0:0:0:
95,257,106104,6,0,B|60:198|55:107|111:5|111:5|196:79|207:187|190:246|190:246|218:190|293:157|358:202,1,728,6|8,0:0|0:3,0:0:0:0:
447,252,108517,1,4,0:3:0:0:
497,162,108690,1,0,1:0:0:0:
407,111,108862,6,0,B|386:95|382:75|382:75|356:78|331:66|331:66|326:36|306:10|271:6,1,168,4|0,0:0|0:0,0:0:0:0:
