osu file format v14

[General]
AudioFilename: audio.mp3
AudioLeadIn: 0
PreviewTime: 72225
Countdown: 0
SampleSet: Soft
StackLeniency: 0.5
Mode: 0
LetterboxInBreaks: 0
WidescreenStoryboard: 1

[Editor]
DistanceSpacing: 1.5
BeatDivisor: 4
GridSize: 4
TimelineZoom: 3.099999

[Metadata]
Title:Catch Light
TitleUnicode:キャッチライト
Artist:Uema Emi
ArtistUnicode:上間江望
Creator:Misure
Version:Insane
Source:キミの瞳にヒットミー
Tags:Kazato Asa Shizuku- tomatas95 Garden Agatsu 戯画 giga entergram kimi no hitomi ni hit me eroge visual novel Kyaachiraito Japanese video game pop opening op LIBRA galgame
BeatmapID:2750746
BeatmapSetID:1322295

[Difficulty]
HPDrainRate:5
CircleSize:4
OverallDifficulty:7
ApproachRate:9
SliderMultiplier:1.6
SliderTickRate:1

[Events]
//Background and Video events
Video,-100,"video.flv"
0,0,"hitomi.jpg",0,0
//Break Periods
//Storyboard Layer 0 (Background)
//Storyboard Layer 1 (Fail)
//Storyboard Layer 2 (Pass)
//Storyboard Layer 3 (Foreground)
//Storyboard Layer 4 (Overlay)
//Storyboard Sound Samples

[TimingPoints]
1449,344.827586206897,4,2,1,50,1,0
4207,-133.333333333333,4,2,1,50,0,0
13862,-117.647058823529,4,2,1,55,0,0
14207,-105.263157894737,4,2,1,60,0,0
14552,-100,4,2,1,75,0,0
15242,-100,4,2,1,80,0,0
20759,-117.647058823529,4,2,1,60,0,0
22138,-117.647058823529,4,2,1,65,0,0
23517,-100,4,2,1,70,0,0
24207,-100,4,2,1,75,0,0
24552,-100,4,2,1,80,0,0
24897,-117.647058823529,4,2,1,70,0,0
25242,-117.647058823529,4,2,1,10,0,0
25328,-117.647058823529,4,2,1,70,0,0
25586,-117.647058823529,4,2,1,60,0,0
25931,-100,4,2,1,55,0,0
26017,-100,4,2,1,60,0,0
26104,-100,4,2,1,65,0,0
26190,-100,4,2,1,70,0,0
26276,-100,4,2,1,75,0,0
37311,-133.333333333333,4,2,1,60,0,0
37655,-133.333333333333,4,2,1,10,0,0
37742,-133.333333333333,4,2,1,60,0,0
38345,-133.333333333333,4,2,1,10,0,0
38431,-133.333333333333,4,2,1,60,0,0
40414,-133.333333333333,4,2,1,10,0,0
40500,-133.333333333333,4,2,1,60,0,0
41104,-133.333333333333,4,2,1,10,0,0
41190,-133.333333333333,4,2,1,60,0,0
48345,-100,4,2,1,70,0,0
59380,-133.333333333333,4,2,1,60,0,0
66104,-117.647058823529,4,2,1,60,0,0
67655,-100,4,2,1,70,0,0
72483,-100,4,2,1,65,0,0
72828,-100,4,2,1,60,0,0
72914,-100,4,2,1,65,0,0
73000,-100,4,2,1,70,0,0
73086,-100,4,2,1,75,0,0
73173,-90.9090909090909,4,2,1,80,0,1
82311,-90.9090909090909,4,2,1,70,0,1
82655,-90.9090909090909,4,2,1,80,0,1
83345,-90.9090909090909,4,2,1,70,0,1
84035,-90.9090909090909,4,2,1,70,0,0
84207,-90.9090909090909,4,2,1,80,0,1
89724,-117.647058823529,4,2,1,70,0,0
92483,-90.9090909090909,4,2,1,75,0,1
93173,-90.9090909090909,4,2,1,80,0,1
93862,-117.647058823529,4,2,1,80,0,1
94207,-117.647058823529,4,2,1,10,0,1
94293,-117.647058823529,4,2,1,80,0,1
94552,-117.647058823529,4,2,1,60,0,1
94897,-100,4,2,1,55,0,1
94983,-100,4,2,1,60,0,1
95070,-100,4,2,1,65,0,1
95156,-100,4,2,1,70,0,1
95242,-100,4,2,1,75,0,0
103518,-100,4,2,1,70,0,0
106104,-100,4,2,1,65,0,0
108345,-100,4,2,1,70,0,0
108862,-100,4,2,1,65,0,0
109207,-100,4,2,1,15,0,0

[Colours]
Combo1 : 255,188,115
Combo2 : 87,171,255
Combo3 : 250,135,233
Combo4 : 9,255,132

[HitObjects]
256,192,1449,12,0,3862,0:0:0:0:
44,93,4207,5,2,0:0:0:0:
126,129,4380,1,0,0:0:0:0:
169,30,4552,1,0,0:0:0:0:
233,123,4724,2,0,L|212:241,1,120.000004577637,2|0,0:1|0:0,0:0:0:0:
344,215,5242,2,0,L|328:152,1,60.0000022888184,0|0,0:0|0:0,0:0:0:0:
477,64,5586,5,2,0:0:0:0:
438,154,5759,1,0,0:0:0:0:
503,231,5931,1,0,0:0:0:0:
452,329,6104,2,0,L|338:368,1,120.000004577637,2|0,0:1|0:0,0:0:0:0:
221,321,6621,2,0,L|243:376,1,60.0000022888184,0|0,0:0|0:0,0:0:0:0:
313,216,6966,6,0,B|284:223|264:235|264:235|229:217|201:210,1,120.000004577637,2|0,0:0|0:0,0:0:0:0:
20,323,7483,2,0,P|90:296|133:282,1,120.000004577637,2|0,0:1|0:0,0:0:0:0:
122,123,8000,2,0,P|106:148|103:177,1,60.0000022888184,2|0,0:0|0:0,0:0:0:0:
299,239,8345,5,0,0:0:0:0:
274,140,8517,1,0,0:0:0:0:
201,210,8690,1,2,0:0:0:0:
299,239,8862,1,0,0:0:0:0:
397,178,9035,2,0,P|386:149|374:122,1,60.0000022888184,2|0,0:1|0:0,0:0:0:0:
277,32,9380,2,0,P|299:12|327:3,1,60.0000022888184,2|0,0:0|0:0,0:0:0:0:
273,140,9724,6,0,P|215:138|173:97,1,120.000004577637,2|0,0:0|0:0,0:0:0:0:
68,0,10242,2,0,B|43:76|43:76|49:96|67:104,1,120.000004577637,2|0,0:1|0:0,0:0:0:0:
68,104,10931,1,0,0:0:0:0:
2,197,11104,6,0,B|41:194|60:216|60:216|78:237|111:234,2,120.000004577637,2|0|2,0:0|0:0|0:1,0:0:0:0:
11,384,12138,2,0,P|37:366|70:352,1,60.0000022888184,0|0,0:0|0:0,0:0:0:0:
229,297,12483,5,2,0:0:0:0:
167,384,12655,1,0,0:0:0:0:
111,233,12828,1,0,0:0:0:0:
223,313,13000,2,0,P|281:312|320:269,1,120.000004577637,2|0,0:1|0:0,0:0:0:0:
214,160,13517,2,0,L|234:216,1,60.0000022888184,0|0,0:0|0:0,0:0:0:0:
383,294,13863,6,0,P|350:279|320:268,1,68.0000012969971,2|0,0:0|0:0,0:0:0:0:
143,189,14207,2,0,P|178:173|219:158,1,75.9999979705811,0|0,0:0|0:0,0:0:0:0:
355,16,14553,5,0,1:0:0:0:
300,155,14725,1,0,1:0:0:0:
204,20,14897,1,2,0:0:0:0:
165,10,14983,1,2,0:0:0:0:
132,33,15069,1,2,0:0:0:0:
129,72,15155,1,2,0:0:0:0:
154,103,15242,6,0,B|115:90|80:121|80:121|44:150|5:137,2,160,6|8|8,0:0|0:0|0:3,0:0:0:0:
281,67,16104,1,4,0:3:0:0:
231,194,16277,1,4,0:3:0:0:
154,103,16449,1,0,3:0:0:0:
94,245,16622,6,0,P|167:272|243:302,1,160,6|8,0:0|0:0,0:0:0:0:
342,176,17138,1,4,0:3:0:0:
342,176,17224,1,0,3:0:0:0:
342,176,17311,2,0,P|350:214|331:248,1,80,8|4,0:3|0:3,0:0:0:0:
314,383,17655,2,0,P|350:367|387:353,1,80,4|0,0:3|3:0,0:0:0:0:
474,376,17914,1,0,3:0:0:0:
482,384,18001,6,0,B|486:358|486:358|486:351|486:351|489:345|489:345|512:226,2,160,6|8|8,0:0|0:0|0:3,0:0:0:0:
296,238,18863,1,4,0:3:0:0:
386,283,19035,1,4,0:3:0:0:
436,168,19208,1,0,3:0:0:0:
307,74,19380,6,0,P|324:108|340:146,2,80,6|0|8,0:0|0:0|0:0,0:0:0:0:
387,7,19897,1,8,0:0:0:0:
216,116,20069,6,0,P|197:97|173:85,2,53.3333333333333,4|4|8,3:0|0:3|0:3,0:0:0:0:
92,113,20414,2,0,P|81:138|80:164,2,53.3333333333333,4|4|8,3:0|0:3|0:3,0:0:0:0:
0,202,20759,6,0,P|48:247|114:245,1,136.000002593994,4|8,0:0|0:0,0:0:0:0:
99,359,21276,1,0,0:0:0:0:
99,359,21449,2,0,P|67:370|36:385,2,68.0000012969971,8|0|8,0:3|0:0|0:0,0:0:0:0:
273,266,21966,1,0,0:0:0:0:
262,374,22138,6,0,B|227:370|227:370|203:347,1,68.0000012969971,4|0,0:0|0:0,0:0:0:0:
273,266,22483,1,8,0:0:0:0:
363,358,22655,2,0,L|399:227,1,136.000002593994,0|8,0:0|0:0,0:0:0:0:
331,90,23173,1,8,0:3:0:0:
331,90,23345,1,8,0:3:0:0:
314,180,23517,5,0,3:0:0:0:
241,73,23690,1,0,3:0:0:0:
348,0,23862,1,0,1:0:0:0:
421,107,24035,1,8,0:0:0:0:
328,269,24207,5,8,3:0:0:0:
328,269,24322,2,0,P|305:282|283:298,1,53.3333333333333,8|0,3:0|3:0,0:0:0:0:
196,267,24552,1,8,3:0:0:0:
196,267,24667,2,0,P|187:241|175:217,1,53.3333333333333,4|0,3:0|3:0,0:0:0:0:
73,234,24897,6,0,P|200:233|238:112,1,272.000005187988,4|2,3:2|0:0,0:0:0:0:
238,112,25931,1,2,0:0:0:0:
222,157,26017,1,2,0:0:0:0:
246,198,26104,1,2,0:0:0:0:
293,206,26190,1,2,0:0:0:0:
331,177,26277,6,0,P|385:152|441:129,1,120,4|0,0:0|0:0,0:0:0:0:
430,100,26621,2,0,P|391:91|371:58,1,80,8|0,0:1|0:0,0:0:0:0:
134,90,26966,1,8,0:3:0:0:
222,157,27139,1,8,0:3:0:0:
261,7,27311,1,2,1:2:0:0:
305,187,27483,6,0,B|257:183|230:212|230:212|203:243|159:239,1,160,8|0,0:3|0:0,0:0:0:0:
193,384,28000,1,8,0:1:0:0:
260,296,28173,1,2,0:0:0:0:
99,323,28345,1,8,0:3:0:0:
193,384,28517,1,8,0:3:0:0:
331,331,28690,2,0,P|297:311|260:296,1,80,2|0,1:2|0:0,0:0:0:0:
112,129,29035,6,0,P|137:183|160:239,1,120,8|0,0:3|0:0,0:0:0:0:
189,228,29379,2,0,P|198:188|231:169,1,80,8|0,0:1|0:0,0:0:0:0:
380,143,29725,1,8,0:3:0:0:
321,237,29898,1,8,0:3:0:0:
255,77,30070,1,2,1:2:0:0:
129,168,30242,6,0,P|54:181|7:121,1,160,4|8,0:0|0:3,0:0:0:0:
136,0,30759,2,0,P|148:38|158:77,1,80,8|0,0:1|0:0,0:0:0:0:
237,217,31104,1,8,0:3:0:0:
129,168,31277,1,8,0:3:0:0:
248,77,31449,2,0,P|257:38|269:0,1,80,2|8,1:2|0:3,0:0:0:0:
495,1,31794,6,0,P|455:43|397:43,1,120,4|0,0:0|0:0,0:0:0:0:
381,4,32139,1,8,0:1:0:0:
357,137,32311,2,0,P|393:152|428:171,2,80,2|8|8,0:0|0:3|0:3,0:0:0:0:
302,232,32828,1,2,1:2:0:0:
357,353,33001,6,0,P|429:320|504:291,1,160,8|0,0:3|0:0,0:0:0:0:
265,312,33518,1,8,0:1:0:0:
186,383,33690,2,0,P|168:346|149:311,1,80,2|8,0:0|0:3,0:0:0:0:
118,141,34035,1,8,0:3:0:0:
190,217,34207,2,0,P|224:196|260:179,1,80,2|0,1:2|0:0,0:0:0:0:
398,112,34553,6,0,B|381:117|357:116|357:116|341:104|329:88,1,80,4|8,0:0|0:3,0:0:0:0:
257,1,34897,1,8,0:1:0:0:
260,178,35069,1,8,0:3:0:0:
260,178,35155,1,8,0:3:0:0:
260,178,35242,2,0,P|248:215|238:255,2,80,8|8|2,0:3|0:3|0:0,0:0:0:0:
95,307,35759,6,0,B|142:303|169:332|169:332|196:363|240:359,1,160,4|8,0:0|0:3,0:0:0:0:
411,319,36277,2,0,P|385:348|346:353,1,80,8|0,0:1|0:0,0:0:0:0:
257,154,36622,1,4,0:3:0:0:
310,259,36793,1,8,0:3:0:0:
409,230,36966,1,8,3:0:0:0:
428,136,37137,1,0,3:0:0:0:
352,73,37311,6,0,P|278:119|195:93,1,180.000006866455,6|8,0:0|0:3,0:0:0:0:
160,182,38000,2,0,P|85:135|3:163,1,180.000006866455,0|8,3:0|0:3,0:0:0:0:
76,228,38690,5,2,3:2:0:0:
160,182,38862,1,0,0:0:0:0:
195,92,39035,1,2,3:2:0:0:
166,0,39207,1,0,0:0:0:0:
45,24,39380,2,0,P|62:73|83:139,1,120.000004577637,2|0,3:2|3:0,0:0:0:0:
83,138,39897,1,8,0:3:0:0:
0,239,40069,6,0,B|60:225|116:255|116:255|168:225,1,180.000006866455,0|8,3:0|0:3,0:0:0:0:
229,152,40759,2,0,B|219:211|219:211|212:219|212:219|215:230|215:230|199:327,1,180.000006866455,0|8,3:0|0:3,0:0:0:0:
114,384,41449,6,0,P|89:366|63:351,2,60.0000022888184,2|0|0,3:2|0:0|3:2,0:0:0:0:
199,327,41966,2,0,P|240:285|298:290,1,120.000004577637,8|2,0:3|3:2,0:0:0:0:
494,240,42483,1,0,3:0:0:0:
409,296,42655,1,8,0:3:0:0:
358,207,42828,1,0,3:0:0:0:
149,20,43173,6,0,B|128:105|128:105|134:117|152:126,1,120.000004577637,2|0,0:0|3:0,0:0:0:0:
235,190,43691,1,8,0:3:0:0:
259,89,43862,1,2,0:0:0:0:
235,190,44035,6,0,P|190:227|131:226,1,120.000004577637,0|8,3:0|0:3,0:0:0:0:
47,157,44552,1,0,0:0:0:0:
0,244,44724,2,0,L|23:302,1,60.0000022888184,2|8,0:0|0:3,0:0:0:0:
109,344,45069,2,0,L|131:226,1,120.000004577637,0|0,3:0|0:0,0:0:0:0:
131,226,45500,1,0,0:0:0:0:
131,226,45586,1,2,0:0:0:0:
288,7,45931,6,0,P|301:33|309:62,1,60.0000022888184
381,132,46276,2,0,P|364:157|343:178,1,60.0000022888184,8|8,0:3|0:3,0:0:0:0:
249,137,46621,1,0,0:0:0:0:
306,283,46793,1,8,0:0:0:0:
306,283,47138,6,0,L|249:263,2,60.0000022888184,2|2|2,0:0|0:0|0:0,0:0:0:0:
485,209,47656,1,2,0:0:0:0:
385,336,47828,1,4,0:3:0:0:
463,302,48000,1,4,0:3:0:0:
343,178,48173,1,8,0:3:0:0:
152,326,48346,6,0,L|306:284,1,160,4|8,0:0|0:0,0:0:0:0:
469,140,48863,1,0,0:0:0:0:
427,230,49035,2,0,P|446:265|462:301,1,80,8|8,0:3|0:3,0:0:0:0:
306,284,49380,1,8,0:0:0:0:
252,202,49553,1,8,0:3:0:0:
307,55,49724,6,0,P|345:46|373:17,1,80,8|2,0:3|0:0,0:0:0:0:
469,64,50069,2,0,P|456:101|468:140,1,80,8|2,0:0|0:0,0:0:0:0:
380,199,50414,2,0,P|353:169|314:160,1,80,8|0,0:3|0:0,0:0:0:0:
244,281,50759,2,0,P|278:327|336:327,1,120,10|0,0:0|0:0,0:0:0:0:
363,341,51104,6,0,L|208:382,1,160,8|8,0:3|0:0,0:0:0:0:
62,225,51621,1,0,0:0:0:0:
111,310,51793,2,0,P|94:346|81:384,1,80,8|8,0:3|0:3,0:0:0:0:
244,279,52139,1,8,0:0:0:0:
265,183,52311,1,8,0:3:0:0:
199,68,52483,6,0,P|173:97|134:104,1,80,8|2,0:3|0:0,0:0:0:0:
61,24,52829,1,8,0:0:0:0:
0,108,53000,2,0,L|58:256,1,160,8|2,0:3|0:0,0:0:0:0:
29,353,53517,1,8,0:0:0:0:
83,178,53691,1,8,0:3:0:0:
164,283,53862,1,4,0:0:0:0:
394,274,54207,6,0,B|356:273|328:306|328:306|295:346|254:334,1,160,8|8,0:0|0:3,0:0:0:0:
164,283,54724,1,8,0:3:0:0:
250,229,54897,1,8,0:0:0:0:
138,362,55070,6,0,P|111:286|83:211,1,160,8|8,0:3|0:3,0:0:0:0:
152,10,55587,1,8,0:0:0:0:
201,103,55759,2,0,P|185:139|172:177,2,80,2|8|8,0:0|0:3|0:3,0:0:0:0:
353,5,56277,1,8,0:0:0:0:
306,97,56449,1,0,0:0:0:0:
381,178,56622,6,0,P|416:160|454:147,1,80,4|0,0:0|0:0,0:0:0:0:
512,232,56966,1,8,0:0:0:0:
452,349,57138,2,0,P|416:331|378:318,1,80,4|0,0:0|0:0,0:0:0:0:
298,384,57482,1,8,0:3:0:0:
257,222,57655,1,8,0:0:0:0:
84,263,57828,6,0,B|121:262|149:295|149:295|182:335|223:323,1,160,6|10,0:0|0:0,0:0:0:0:
304,69,58346,1,8,0:3:0:0:
257,222,58517,1,0,3:0:0:0:
257,222,58604,1,0,3:0:0:0:
257,222,58690,1,4,0:3:0:0:
150,105,58862,1,4,0:3:0:0:
237,132,59035,1,4,0:3:0:0:
257,222,59207,1,8,0:3:0:0:
96,242,59380,6,0,P|70:187|43:134,2,120.000004577637,6|0|8,0:0|0:0|0:0,0:0:0:0:
96,242,60414,1,0,0:0:0:0:
171,167,60586,6,0,P|192:129|177:88,1,90.0000034332277,2|0,3:2|0:0,0:0:0:0:
91,84,60931,2,0,P|69:121|84:162,1,90.0000034332277,10|0,0:0|0:0,0:0:0:0:
122,237,61276,1,8,0:3:0:0:
128,358,61449,2,0,P|100:369|74:385,2,60.0000022888184,8|0|0,0:0|0:0|0:0,0:0:0:0:
351,326,62138,6,0,P|387:370|444:365,2,120.000004577637,8|0|8,0:3|0:0|0:0,0:0:0:0:
351,326,63172,1,0,0:0:0:0:
412,244,63345,6,0,P|423:198|434:156,1,90.0000034332277,2|0,3:2|0:0,0:0:0:0:
444,132,63690,1,8,0:0:0:0:
434,9,63863,1,4,0:3:0:0:
346,87,64035,1,0,3:0:0:0:
346,87,64121,1,0,3:0:0:0:
346,87,64207,2,0,P|322:105|293:106,1,60.0000022888184,8|4,0:0|0:3,0:0:0:0:
202,7,64552,1,4,0:3:0:0:
202,7,64724,1,8,0:3:0:0:
133,89,64897,6,0,L|21:43,2,120.000004577637,6|0|8,0:0|0:0|0:0,0:0:0:0:
133,89,65931,1,8,0:0:0:0:
210,162,66104,6,0,B|191:262|191:262|172:219,1,136.000002593994,6|8,0:0|0:3,0:0:0:0:
69,263,66622,1,8,0:0:0:0:
116,367,66793,2,0,L|247:333,1,136.000002593994,6|8,0:0|0:0,0:0:0:0:
273,344,67224,1,8,0:0:0:0:
298,355,67311,2,0,L|309:322,3,34.0000006484985,8|8|8|0,0:0|0:3|3:0|3:0,0:0:0:0:
367,384,67655,6,0,B|335:227,1,160,6|0,0:0|1:0,0:0:0:0:
476,257,68173,1,0,3:0:0:0:
476,257,68260,1,0,3:0:0:0:
476,257,68346,2,0,L|456:334,1,80,8|0,0:3|3:0,0:0:0:0:
367,384,68690,1,0,1:0:0:0:
335,227,68862,1,0,3:0:0:0:
211,343,69035,6,0,P|250:343|284:322,1,80,8|0,0:3|3:0,0:0:0:0:
214,233,69380,1,0,1:0:0:0:
96,337,69553,1,0,3:0:0:0:
96,337,69639,1,0,3:0:0:0:
96,337,69724,2,0,L|64:263,1,80,8|0,0:3|3:0,0:0:0:0:
252,127,70069,1,0,1:0:0:0:
214,233,70241,1,0,3:0:0:0:
25,120,70415,6,0,P|63:163|121:162,1,120,6|0,0:0|0:0,0:0:0:0:
140,132,70760,1,0,1:0:0:0:
214,233,70932,1,0,3:0:0:0:
206,0,71104,2,0,L|131:29,1,80,8|0,0:3|3:0,0:0:0:0:
131,29,71362,1,0,3:0:0:0:
131,29,71449,1,0,1:0:0:0:
252,127,71622,1,0,3:0:0:0:
497,44,71793,5,0,1:0:0:0:
393,117,71966,1,0,1:0:0:0:
327,4,72139,1,0,1:0:0:0:
252,127,72311,2,0,L|274:203,2,80,0|2|2,3:0|0:0|0:0,0:0:0:0:
375,211,72828,1,2,0:0:0:0:
373,217,72914,1,2,0:0:0:0:
371,223,73000,1,2,0:0:0:0:
369,229,73086,1,2,0:0:0:0:
367,235,73173,6,0,B|312:231|287:269|287:269|262:307|214:302,2,176.000005371094,4|8|8,0:0|0:1|0:3,0:0:0:0:
438,330,74035,1,8,0:3:0:0:
502,238,74207,2,0,L|476:153,1,88.000002685547,2|0,1:2|0:0,0:0:0:0:
451,17,74552,6,0,P|412:66|349:59,1,132.00000402832,8|0,0:3|0:0,0:0:0:0:
336,29,74897,2,0,L|253:58,1,88.000002685547,8|2,0:1|0:0,0:0:0:0:
125,2,75242,1,8,0:3:0:0:
246,159,75415,1,8,0:3:0:0:
149,140,75586,1,2,1:2:0:0:
253,58,75760,1,0,0:0:0:0:
33,91,75932,6,0,L|77:215,1,132.00000402832,8|0,0:3|0:0,0:0:0:0:
14,280,76277,2,0,P|14:237|46:208,1,88.000002685547,8|0,0:1|0:0,0:0:0:0:
161,288,76621,1,8,0:3:0:0:
240,209,76794,1,8,0:3:0:0:
149,140,76966,1,2,1:2:0:0:
108,363,77138,6,0,P|190:331|273:301,1,176.000005371094,4|8,0:0|0:3,0:0:0:0:
446,373,77655,2,0,P|403:375|374:343,1,88.000002685547,8|0,0:1|0:0,0:0:0:0:
473,161,78000,1,8,0:3:0:0:
436,278,78173,1,8,0:3:0:0:
325,209,78345,2,0,P|243:176|202:161,1,132.00000402832,2|0,1:2|0:0,0:0:0:0:
198,130,78690,6,0,P|173:165|131:175,1,88.000002685547,4|0,0:0|0:0,0:0:0:0:
45,110,79035,1,8,0:1:0:0:
0,205,79207,2,0,P|21:243|41:282,1,88.000002685547,2|8,0:0|0:3,0:0:0:0:
0,384,79553,1,8,0:3:0:0:
161,272,79724,1,2,1:2:0:0:
56,305,79897,6,0,L|86:131,1,176.000005371094,4|8,0:0|0:3,0:0:0:0:
70,0,80414,2,0,P|44:35|2:44,1,88.000002685547,8|0,0:1|0:0,0:0:0:0:
178,128,80759,2,0,P|160:88|173:49,1,88.000002685547,8|8,0:3|0:3,0:0:0:0:
13,157,81104,2,0,P|55:161|85:192,1,88.000002685547,2|8,1:2|0:3,0:0:0:0:
0,340,81449,6,0,B|48:349|76:313|76:313|104:278|159:287,1,176.000005371094,4|8,0:0|0:1,0:0:0:0:
321,303,81966,1,2,0:0:0:0:
247,198,82139,1,8,0:3:0:0:
235,384,82311,1,4,0:0:0:0:
97,165,82655,6,0,P|119:106|121:169,1,176.000005371094,4|8,1:2|0:3,0:0:0:0:
158,286,83173,1,8,0:1:0:0:
247,198,83346,1,0,0:0:0:0:
247,198,83432,1,8,0:0:0:0:
247,198,83517,2,0,P|262:182|280:170,3,44.0000013427735,8|0|0|0,3:0|3:0|3:0|3:0,0:0:0:0:
355,182,83862,5,0,1:0:0:0:
388,216,83949,1,0,1:0:0:0:
435,222,84035,1,4,0:3:0:0:
480,209,84121,1,4,0:3:0:0:
512,172,84207,6,0,B|476:0,2,176.000005371094,4|8|8,0:0|0:1|0:3,0:0:0:0:
434,260,85069,1,8,0:3:0:0:
376,155,85242,1,2,1:2:0:0:
346,342,85415,6,0,P|428:310|512:285,1,176.000005371094,8|8,0:3|0:3,0:0:0:0:
376,155,85931,1,8,0:1:0:0:
316,239,86104,1,2,0:0:0:0:
208,209,86276,2,0,P|183:173|178:129,1,88.000002685547,8|8,0:3|0:3,0:0:0:0:
323,23,86622,1,0,1:0:0:0:
276,139,86794,1,0,0:0:0:0:
156,18,86966,6,0,B|127:50|127:50|82:54,1,88.000002685547,4|0,0:0|0:0,0:0:0:0:
1,144,87311,2,0,B|55:165|55:165|71:182|71:182|119:198,1,132.00000402832,8|0,0:1|0:0,0:0:0:0:
160,181,87655,2,0,L|147:223,3,44.0000013427735,8|8|8|8,0:3|0:3|0:0|0:0,0:0:0:0:
181,256,88000,1,0,1:0:0:0:
295,215,88173,6,0,L|259:42,1,176.000005371094,4|8,0:0|0:3,0:0:0:0:
438,10,88691,1,8,0:1:0:0:
436,131,88863,5,0,3:0:0:0:
430,143,88949,1,0,3:0:0:0:
425,156,89035,1,8,3:0:0:0:
384,129,89121,1,0,3:0:0:0:
335,132,89207,1,0,3:0:0:0:
302,167,89293,1,0,3:0:0:0:
295,215,89380,2,0,L|315:254,3,44.0000013427735,0|0|4|4,1:0|1:0|0:3|0:3,0:0:0:0:
369,319,89724,6,0,L|237:282,1,136.000002593994,4|8,0:0|0:1,0:0:0:0:
67,332,90241,1,0,0:0:0:0:
73,228,90414,2,0,P|39:228|8:242,2,68.0000012969971,8|8|0,0:3|0:3|1:0,0:0:0:0:
173,363,90931,5,4,0:0:0:0:
173,363,91276,1,8,0:3:0:0:
248,170,91448,1,8,0:1:0:0:
238,282,91620,2,0,L|175:255,1,68.0000012969971,0|8,0:0|0:3,0:0:0:0:
48,164,91966,2,0,L|72:227,2,68.0000012969971,8|2|8,0:3|1:2|0:3,0:0:0:0:
248,6,92483,5,4,0:0:0:0:
152,139,92655,1,8,0:3:0:0:
307,88,92828,1,8,0:1:0:0:
152,38,93000,1,8,0:3:0:0:
248,170,93173,1,0,1:0:0:0:
400,115,93345,1,8,0:3:0:0:
400,115,93431,1,8,0:3:0:0:
400,115,93517,2,0,L|417:28,1,88.000002685547,8|8,0:1|0:3,0:0:0:0:
512,136,93862,6,0,B|390:108|399:209|385:145|393:244|272:220,1,272.000005187988,4|2,0:0|0:0,0:0:0:0:
273,220,94897,1,2,0:0:0:0:
316,199,94983,1,2,0:0:0:0:
359,217,95069,1,2,0:0:0:0:
372,262,95155,1,2,0:0:0:0:
365,310,95242,6,0,P|318:343|263:324,1,120,4|0,0:0|0:0,0:0:0:0:
233,356,95586,2,0,L|207:280,1,80,8|0,0:1|0:0,0:0:0:0:
304,104,95931,1,8,0:3:0:0:
273,220,96104,1,8,0:3:0:0:
138,182,96276,1,2,1:2:0:0:
77,324,96448,6,0,P|154:335|207:280,1,160,8|0,0:3|0:0,0:0:0:0:
371,261,96965,1,8,0:1:0:0:
299,361,97138,1,2,0:0:0:0:
456,381,97310,2,0,L|480:304,1,80,8|8,0:3|0:3,0:0:0:0:
346,184,97655,2,0,L|371:261,1,80,2|0,1:2|0:0,0:0:0:0:
455,159,98000,6,0,P|488:111|472:55,1,120,8|0,0:3|0:0,0:0:0:0:
477,23,98344,2,0,L|401:50,1,80,8|0,0:1|0:0,0:0:0:0:
303,103,98690,1,8,0:3:0:0:
223,31,98863,1,8,0:3:0:0:
53,114,99035,1,2,1:2:0:0:
159,160,99207,6,0,B|122:4,1,160,4|8,0:0|0:3,0:0:0:0:
21,42,99724,2,0,L|4:120,1,80,8|0,0:1|0:0,0:0:0:0:
137,268,100069,1,8,0:3:0:0:
63,197,100242,1,8,0:3:0:0:
0,384,100414,2,0,L|74:355,1,80,2|0,1:2|0:0,0:0:0:0:
315,372,100759,6,0,P|257:374|230:324,1,120,4|0,0:0|0:0,0:0:0:0:
243,295,101104,1,8,0:1:0:0:
335,198,101276,2,0,L|360:273,1,80,2|8,0:0|0:3,0:0:0:0:
220,185,101621,1,8,0:3:0:0:
280,75,101793,1,2,1:2:0:0:
467,148,101966,6,0,P|412:203|335:198,1,160,8|0,0:3|0:0,0:0:0:0:
124,115,102483,1,8,0:1:0:0:
149,223,102655,2,0,L|220:185,1,80,2|8,0:0|0:3,0:0:0:0:
277,23,103001,1,0,3:0:0:0:
260,63,103087,1,0,3:0:0:0:
216,68,103173,1,0,1:2:0:0:
14,107,103345,1,4,0:3:0:0:
26,73,103431,1,8,0:3:0:0:
36,36,103517,6,0,L|18:0,2,40,8|8|4,3:0|0:3|3:2,0:0:0:0:
111,157,103862,1,8,0:1:0:0:
31,282,104035,2,0,L|17:319,2,40,8|8|4,3:0|3:0|3:0,0:0:0:0:
127,195,104380,1,4,0:3:0:0:
247,330,104552,2,0,B|268:324|268:324|278:308,1,40,8|8,0:3|0:3,0:0:0:0:
317,229,104724,6,0,P|280:212|243:197,1,80,4|0,3:2|0:0,0:0:0:0:
159,54,105069,1,0,3:0:0:0:
195,78,105155,1,0,3:0:0:0:
239,73,105242,1,0,1:0:0:0:
276,49,105329,1,0,1:0:0:0:
286,6,105414,1,4,0:3:0:0:
461,53,105585,5,4,0:0:0:0:
476,181,105759,1,8,0:3:0:0:
358,130,105931,1,0,1:0:0:0:
461,53,106104,1,6,0:0:0:0:
256,192,106190,12,0,108001,0:0:0:0:
192,79,108173,5,0,3:0:0:0:
192,79,108260,1,0,3:0:0:0:
192,79,108345,1,8,0:3:0:0:
227,202,108517,1,4,0:3:0:0:
317,111,108689,1,0,1:0:0:0:
353,306,108862,6,0,B|323:304|300:269|300:269|278:304|241:298|241:298|213:329|176:315|176:315|169:328|154:336,1,240,4|0,0:0|0:0,0:0:0:0:
