osu file format v14

[General]
AudioFilename: audio.mp3
AudioLeadIn: 0
PreviewTime: 72225
Countdown: 0
SampleSet: Soft
StackLeniency: 0.5
Mode: 0
LetterboxInBreaks: 0
WidescreenStoryboard: 0

[Editor]
DistanceSpacing: 0.4
BeatDivisor: 4
GridSize: 4
TimelineZoom: 3.099999

[Metadata]
Title:Catch Light
TitleUnicode:キャッチライト
Artist:Uema Emi
ArtistUnicode:上間江望
Creator:Misure
Version:Hitome
Source:キミの瞳にヒットミー
Tags:Kazato Asa Shizuku- tomatas95 Garden Agatsu 戯画 giga entergram kimi no hitomi ni hit me eroge visual novel Kyaachiraito Japanese video game pop opening op LIBRA galgame
BeatmapID:2738772
BeatmapSetID:1322295

[Difficulty]
HPDrainRate:6.5
CircleSize:4
OverallDifficulty:8.7
ApproachRate:9.2
SliderMultiplier:1.7
SliderTickRate:1

[Events]
//Background and Video events
Video,-100,"video.flv"
0,0,"hitomi.jpg",0,0
//Break Periods
//Storyboard Layer 0 (Background)
//Storyboard Layer 1 (Fail)
//Storyboard Layer 2 (Pass)
//Storyboard Layer 3 (Foreground)
//Storyboard Layer 4 (Overlay)
//Storyboard Sound Samples

[TimingPoints]
1449,344.827586206897,4,2,1,50,1,0
4207,-133.333333333333,4,2,1,50,0,0
13862,-133.333333333333,4,2,1,55,0,0
14207,-100,4,2,1,60,0,0
14552,-100,4,2,1,75,0,0
15242,-100,4,2,1,80,0,0
16621,-90.9090909090909,4,2,1,80,0,0
16966,-100,4,2,1,80,0,0
18345,-90.9090909090909,4,2,1,80,0,0
18690,-100,4,2,1,80,0,0
20759,-100,4,2,1,60,0,0
22138,-100,4,2,1,65,0,0
23517,-100,4,2,1,70,0,0
24207,-100,4,2,1,75,0,0
24552,-100,4,2,1,80,0,0
24897,-100,4,2,1,70,0,0
25586,-100,4,2,1,60,0,0
25931,-100,4,2,1,55,0,0
26017,-100,4,2,1,60,0,0
26104,-100,4,2,1,65,0,0
26190,-100,4,2,1,70,0,0
26276,-83.3333333333333,4,2,1,75,0,0
26621,-90.9090909090909,4,2,1,75,0,0
30242,-83.3333333333333,4,2,1,75,0,0
30759,-90.9090909090909,4,2,1,75,0,0
31793,-83.3333333333333,4,2,1,75,0,0
32138,-90.9090909090909,4,2,1,75,0,0
34552,-83.3333333333333,4,2,1,75,0,0
34897,-90.9090909090909,4,2,1,75,0,0
35759,-83.3333333333333,4,2,1,75,0,0
36104,-90.9090909090909,4,2,1,75,0,0
37311,-133.333333333333,4,2,1,60,0,0
37655,-133.333333333333,4,2,1,10,0,0
37742,-133.333333333333,4,2,1,60,0,0
38345,-133.333333333333,4,2,1,10,0,0
38431,-133.333333333333,4,2,1,60,0,0
40414,-133.333333333333,4,2,1,10,0,0
40501,-133.333333333333,4,2,1,60,0,0
41104,-133.333333333333,4,2,1,10,0,0
41190,-133.333333333333,4,2,1,60,0,0
48345,-100,4,2,1,70,0,0
56621,-90.9090909090909,4,2,1,70,0,0
59380,-133.333333333333,4,2,1,60,0,0
66104,-111.111111111111,4,2,1,60,0,0
67655,-100,4,2,1,70,0,0
72483,-100,4,2,1,65,0,0
72828,-100,4,2,1,60,0,0
72914,-100,4,2,1,65,0,0
73000,-100,4,2,1,70,0,0
73086,-100,4,2,1,75,0,0
73173,-83.3333333333333,4,2,1,80,0,1
78690,-76.9230769230769,4,2,1,80,0,1
79035,-83.3333333333333,4,2,1,80,0,1
82311,-100,4,2,1,70,0,1
82655,-83.3333333333333,4,2,1,80,0,1
83345,-83.3333333333333,4,2,1,70,0,1
84035,-83.3333333333333,4,2,1,70,0,0
84207,-83.3333333333333,4,2,1,80,0,1
87311,-76.9230769230769,4,2,1,80,0,1
87655,-83.3333333333333,4,2,1,80,0,1
88173,-76.9230769230769,4,2,1,80,0,1
89724,-100,4,2,1,70,0,0
92483,-83.3333333333333,4,2,1,75,0,1
93173,-83.3333333333333,4,2,1,80,0,1
93862,-66.6666666666667,4,2,1,80,0,1
94208,-83.3333333333333,4,2,1,40,0,1
94552,-83.3333333333333,4,2,1,60,0,1
95070,-83.3333333333333,4,2,1,65,0,1
95156,-83.3333333333333,4,2,1,70,0,1
95242,-83.3333333333333,4,2,1,75,0,0
95586,-90.9090909090909,4,2,1,75,0,0
98345,-83.3333333333333,4,2,1,75,0,0
98690,-90.9090909090909,4,2,1,75,0,0
100759,-83.3333333333333,4,2,1,75,0,0
101104,-90.9090909090909,4,2,1,75,0,0
103518,-90.9090909090909,4,2,1,70,0,0
104724,-83.3333333333333,4,2,1,70,0,0
105069,-90.9090909090909,4,2,1,70,0,0
106104,-100,4,2,1,65,0,0
108345,-100,4,2,1,70,0,0
108862,-100,4,2,1,65,0,0
109207,-100,4,2,1,15,0,0

[Colours]
Combo1 : 255,188,115
Combo2 : 87,171,255
Combo3 : 250,135,233
Combo4 : 9,255,132

[HitObjects]
256,192,1449,12,0,3862,0:0:0:0:
79,156,4207,5,2,0:0:0:0:
220,273,4380,1,0,0:0:0:0:
137,302,4552,1,0,0:0:0:0:
257,189,4725,1,2,0:1:0:0:
257,189,5070,1,0,0:0:0:0:
255,195,5242,1,0,0:0:0:0:
253,201,5414,1,0,0:0:0:0:
317,277,5586,5,2,0:0:0:0:
445,144,5759,1,0,0:0:0:0:
408,246,5931,1,0,0:0:0:0:
293,95,6104,1,2,0:1:0:0:
293,95,6449,1,0,0:0:0:0:
291,101,6621,1,0,0:0:0:0:
289,107,6793,1,0,0:0:0:0:
307,210,6966,6,0,P|244:206|199:163,1,127.500004863739,2|0,0:0|0:0,0:0:0:0:
52,331,7483,2,0,P|110:305|170:282,1,127.500004863739,2|0,0:1|0:0,0:0:0:0:
96,79,8000,2,0,P|71:135|97:191,1,127.500004863739,2|0,0:0|0:0,0:0:0:0:
276,324,8518,5,0,0:0:0:0:
170,282,8691,1,2,0:0:0:0:
165,378,8863,1,0,0:0:0:0:
282,229,9035,1,2,0:1:0:0:
425,349,9208,1,0,0:0:0:0:
392,380,9380,1,2,0:0:0:0:
381,335,9552,1,0,0:0:0:0:
434,172,9725,5,2,0:0:0:0:
282,229,9898,1,0,0:0:0:0:
369,244,10070,1,0,0:0:0:0:
265,97,10242,1,2,0:1:0:0:
265,97,10586,1,0,0:0:0:0:
267,103,10758,1,0,0:0:0:0:
269,109,10930,1,0,0:0:0:0:
367,166,11104,6,0,P|385:106|367:46,1,127.500004863739,2|0,0:0|0:0,0:0:0:0:
177,156,11622,1,0,0:0:0:0:
90,97,11794,2,0,P|96:62|104:34,2,63.7500024318696,2|0|0,0:1|0:0|0:0,0:0:0:0:
177,156,12311,1,0,0:0:0:0:
121,289,12483,6,0,P|59:295|15:252,1,127.500004863739,2|0,0:0|0:0,0:0:0:0:
297,243,13000,2,0,P|354:214|412:189,1,127.500004863739,2|0,0:1|0:0,0:0:0:0:
177,156,13518,2,0,P|187:186|196:216,1,63.7500024318696
353,268,13863,6,0,P|309:254|295:241,1,63.7500024318696,2|0,0:0|0:0,0:0:0:0:
61,342,14207,2,0,P|99:326|121:290,1,85
269,111,14553,5,0,1:0:0:0:
213,334,14725,1,0,1:0:0:0:
27,107,14898,5,2,0:0:0:0:
54,69,14984,1,2,0:0:0:0:
99,62,15069,1,2,0:0:0:0:
142,80,15156,1,2,0:0:0:0:
169,117,15242,6,0,L|324:48,2,170,6|8|8,0:0|0:0|0:3,0:0:0:0:
102,263,16104,1,4,0:3:0:0:
203,233,16277,1,4,0:3:0:0:
48,155,16449,1,0,3:0:0:0:
36,361,16622,6,0,P|84:314|153:315,1,140.25000428009,6|0,0:0|0:0,0:0:0:0:
203,381,16966,1,8,0:0:0:0:
378,243,17139,2,0,L|360:281,1,42.5,4|0,0:3|0:0,0:0:0:0:
402,367,17311,5,8,0:3:0:0:
203,233,17484,1,4,0:3:0:0:
278,307,17656,1,4,0:3:0:0:
314,168,17829,1,0,3:0:0:0:
348,143,17915,1,0,3:0:0:0:
390,145,18001,6,0,P|431:142|458:111,1,85,6|0,0:0|0:0,0:0:0:0:
508,294,18346,2,0,L|378:243,1,140.25000428009,8|0,0:0|0:0,0:0:0:0:
278,307,18691,5,8,0:3:0:0:
214,160,18863,1,4,0:3:0:0:
365,326,19035,1,4,0:3:0:0:
436,123,19208,1,0,3:0:0:0:
246,0,19380,6,0,P|263:38|277:79,1,85,6|0,0:0|0:0,0:0:0:0:
131,294,19725,1,8,0:0:0:0:
214,160,19898,1,8,0:0:0:0:
68,58,20069,5,4,3:0:0:0:
68,58,20184,2,0,P|43:43|18:31,1,56.6666666666667,4|8,0:3|0:3,0:0:0:0:
22,198,20414,1,4,3:0:0:0:
22,198,20529,2,0,P|35:172|51:150,1,56.6666666666667,4|8,0:3|0:3,0:0:0:0:
125,209,20760,5,4,0:0:0:0:
125,209,21104,1,8,0:0:0:0:
200,277,21276,1,0,0:0:0:0:
296,246,21449,1,8,0:3:0:0:
317,147,21621,1,0,0:0:0:0:
413,115,21793,1,8,0:0:0:0:
488,182,21966,1,0,0:0:0:0:
437,324,22138,1,4,0:0:0:0:
441,328,22483,5,8,0:0:0:0:
441,328,22655,2,0,P|423:289|403:251,1,85,0|8,0:0|0:3,0:0:0:0:
214,232,23000,5,8,0:0:0:0:
79,286,23173,1,8,0:3:0:0:
192,375,23345,1,8,0:3:0:0:
188,126,23517,5,0,3:0:0:0:
323,235,23690,1,0,3:0:0:0:
162,298,23862,1,0,1:0:0:0:
332,36,24035,1,8,0:0:0:0:
98,120,24208,5,8,3:0:0:0:
118,191,24323,5,8,3:0:0:0:
187,217,24438,5,0,3:0:0:0:
256,192,24553,5,8,3:0:0:0:
296,130,24668,5,4,3:0:0:0:
370,128,24783,5,0,3:0:0:0:
417,184,24897,5,4,3:2:0:0:
417,184,25587,5,2,0:0:0:0:
417,184,25931,2,0,L|410:204,6,21.25,2|0|2|0|2|0|2,0:0|0:0|0:0|0:0|0:0|0:0|0:0,0:0:0:0:
475,97,26277,6,0,P|426:151|352:145,1,152.999995330811,4|0,0:0|0:0,0:0:0:0:
274,191,26621,2,0,P|256:147|236:105,1,93.5000028533936,8|0,0:1|0:0,0:0:0:0:
314,14,26966,1,8,0:3:0:0:
191,248,27139,1,8,0:3:0:0:
352,145,27311,1,2,1:2:0:0:
128,5,27483,6,0,B|89:47|89:47|123:172,1,187.000005706787,8|0,0:3|0:0,0:0:0:0:
186,360,28001,1,8,0:1:0:0:
97,296,28173,1,2,0:0:0:0:
274,191,28346,1,8,0:3:0:0:
24,149,28518,1,8,0:3:0:0:
191,248,28691,1,2,1:2:0:0:
276,65,28863,1,0,0:0:0:0:
61,0,29035,6,0,P|80:42|97:85,1,93.5000028533936,8|0,0:3|0:0,0:0:0:0:
0,269,29380,2,0,P|-17:203|24:150,1,140.25000428009,8|0,0:1|0:0,0:0:0:0:
101,195,29725,1,8,0:3:0:0:
202,126,29898,1,8,0:3:0:0:
272,370,30070,1,2,1:2:0:0:
25,370,30242,6,0,B|80:378|115:332|115:332|151:286|203:296,1,203.999993774414,4|8,0:0|0:3,0:0:0:0:
367,354,30759,1,8,0:1:0:0:
367,354,31104,1,8,0:3:0:0:
255,204,31277,1,8,0:3:0:0:
409,333,31449,1,2,1:2:0:0:
457,124,31621,1,8,0:3:0:0:
247,10,31794,6,0,P|267:79|339:89,1,152.999995330811,4|0,0:0|0:0,0:0:0:0:
395,15,32139,1,8,0:1:0:0:
512,244,32311,2,0,P|470:222|427:203,1,93.5000028533936,2|8,0:0|0:3,0:0:0:0:
291,205,32656,1,8,0:3:0:0:
426,105,32828,1,2,1:2:0:0:
210,128,33001,6,0,P|224:167|271:315,1,187.000005706787,8|0,0:3|0:0,0:0:0:0:
507,373,33518,1,8,0:1:0:0:
377,381,33691,2,0,P|390:336|406:291,1,93.5000028533936,2|8,0:0|0:3,0:0:0:0:
291,205,34035,1,8,0:3:0:0:
217,384,34208,1,2,1:2:0:0:
38,314,34380,1,0,3:0:0:0:
50,274,34466,1,0,3:0:0:0:
59,233,34553,6,0,B|19:138,1,101.999996887207,4|8,0:0|0:3,0:0:0:0:
140,11,34897,1,8,0:1:0:0:
172,182,35070,1,8,0:3:0:0:
218,180,35155,1,8,0:3:0:0:
252,147,35242,1,8,0:3:0:0:
140,11,35414,1,0,1:0:0:0:
59,233,35587,1,2,0:0:0:0:
161,383,35760,6,0,P|232:355|305:333,1,152.999995330811,4|0,0:0|0:0,0:0:0:0:
378,382,36104,1,8,0:3:0:0:
479,267,36277,2,0,P|427:241|394:228,1,93.5000028533936,8|0,0:1|0:0,0:0:0:0:
187,178,36622,5,4,0:3:0:0:
167,63,36793,1,8,0:3:0:0:
270,8,36966,1,8,3:0:0:0:
354,88,37137,1,0,3:0:0:0:
297,187,37311,6,0,B|240:178|212:220|212:220|183:261|128:250,1,191.250007295609,6|8,0:0|0:3,0:0:0:0:
2,191,38001,2,0,P|38:279|71:368,1,191.250007295609,0|8,3:0|0:3,0:0:0:0:
199,336,38691,5,2,3:2:0:0:
128,250,38862,1,0,0:0:0:0:
237,215,39035,1,2,3:2:0:0:
62,167,39207,1,0,0:0:0:0:
275,94,39379,1,2,3:2:0:0:
275,94,39725,2,0,P|296:116|326:128,1,63.7500024318696,0|8,3:0|0:3,0:0:0:0:
182,62,40069,6,0,P|300:30|365:8,1,191.250007295609,0|8,3:0|0:3,0:0:0:0:
498,164,40759,2,0,B|443:144|378:171|378:171|346:154|326:127,1,191.250007295609,0|8,3:0|0:3,0:0:0:0:
264,245,41449,5,2,3:2:0:0:
264,352,41621,1,0,0:0:0:0:
366,383,41793,1,0,3:2:0:0:
428,297,41966,1,8,0:3:0:0:
428,297,42311,1,2,3:2:0:0:
264,352,42483,1,0,3:0:0:0:
365,211,42655,1,8,0:3:0:0:
223,124,42829,6,0,P|244:184|263:244,1,127.500004863739,0|2,3:0|0:0,0:0:0:0:
264,245,43518,1,0,3:0:0:0:
201,329,43691,1,8,0:3:0:0:
136,150,43862,1,2,0:0:0:0:
0,286,44035,6,0,P|60:298|111:263,1,127.500004863739,0|8,3:0|0:3,0:0:0:0:
340,164,44552,1,0,0:0:0:0:
317,275,44724,2,0,P|287:264|263:244,1,63.7500024318696,2|8,0:0|0:3,0:0:0:0:
175,168,45070,2,0,P|185:104|196:41,1,127.500004863739,0|0,3:0|0:0,0:0:0:0:
39,1,45586,1,2,0:0:0:0:
39,1,45931,5,0,0:0:0:0:
80,92,46104,1,0,0:0:0:0:
24,180,46277,1,8,0:3:0:0:
158,283,46449,1,8,0:3:0:0:
62,267,46622,1,0,0:0:0:0:
196,113,46794,1,8,0:0:0:0:
196,113,47139,5,2,0:0:0:0:
256,24,47311,1,2,0:0:0:0:
360,53,47483,1,2,0:0:0:0:
362,161,47656,1,2,0:0:0:0:
196,113,47828,1,4,0:3:0:0:
360,53,48000,1,4,0:3:0:0:
260,198,48173,1,8,0:3:0:0:
316,366,48346,6,0,P|397:375|453:315,1,170,6|8,0:0|0:0,0:0:0:0:
260,198,48863,1,0,0:0:0:0:
177,276,49035,2,0,P|196:312|214:350,1,85,8|8,0:3|0:3,0:0:0:0:
364,287,49380,1,8,0:0:0:0:
395,143,49553,1,8,0:3:0:0:
260,198,49725,5,8,0:3:0:0:
195,80,49898,1,2,0:0:0:0:
343,210,50070,1,8,0:0:0:0:
397,18,50242,1,2,0:0:0:0:
452,256,50415,2,0,P|481:225|513:197,1,85,8|0,0:3|0:0,0:0:0:0:
379,370,50759,2,0,P|335:323|274:314,1,127.5,10|0,0:0|0:0,0:0:0:0:
250,280,51104,6,0,P|210:351|129:365,1,170,8|8,0:3|0:0,0:0:0:0:
30,283,51621,1,0,0:0:0:0:
20,106,51793,2,0,P|42:140|63:176,1,85,8|8,0:3|0:3,0:0:0:0:
30,283,52139,1,8,0:0:0:0:
161,124,52311,1,8,0:3:0:0:
162,236,52484,5,8,0:3:0:0:
20,106,52656,1,2,0:0:0:0:
64,178,52829,1,8,0:0:0:0:
209,35,53001,1,8,0:3:0:0:
209,35,53345,1,2,0:0:0:0:
283,136,53518,1,8,0:0:0:0:
394,3,53691,1,8,0:3:0:0:
505,171,53863,6,0,B|470:162|444:193|444:193|418:222|392:214,1,127.5,6|0,0:0|0:0,0:0:0:0:
348,193,54207,2,0,L|373:274,1,85,8|0,0:0|0:0,0:0:0:0:
273,259,54552,1,8,0:3:0:0:
385,109,54725,1,8,0:3:0:0:
459,291,54898,1,8,0:0:0:0:
269,359,55070,6,0,L|202:201,1,170,8|8,0:3|0:3,0:0:0:0:
259,99,55587,1,8,0:0:0:0:
131,299,55760,2,0,P|88:296|52:275,2,85,2|8|8,0:0|0:3|0:3,0:0:0:0:
202,202,56277,1,8,0:0:0:0:
126,0,56449,1,0,0:0:0:0:
0,127,56622,6,0,B|31:125|61:150|61:150|82:122|123:114,1,140.25000428009,4|0,0:0|0:0,0:0:0:0:
144,141,56966,1,8,0:0:0:0:
361,41,57138,6,0,B|330:39|300:64|300:64|279:36|238:28,1,140.25000428009,4|0,0:0|0:0,0:0:0:0:
216,55,57483,1,8,0:3:0:0:
253,208,57656,1,8,0:0:0:0:
99,374,57829,6,0,P|141:352|185:336,1,93.5000028533936,6|0,0:0|0:0,0:0:0:0:
375,205,58173,1,10,0:0:0:0:
294,353,58346,1,8,0:3:0:0:
144,245,58518,1,0,3:0:0:0:
144,245,58604,1,0,3:0:0:0:
144,245,58691,1,4,0:3:0:0:
315,98,58863,1,4,0:3:0:0:
253,208,59035,1,4,0:3:0:0:
146,131,59208,1,8,0:3:0:0:
196,7,59380,5,6,0:0:0:0:
196,7,59725,2,0,P|210:35|223:64,1,63.7500024318696,0|8,0:0|0:3,0:0:0:0:
117,240,60070,2,0,P|107:178|147:131,1,127.500004863739,8|0,0:0|0:0,0:0:0:0:
228,252,60587,5,2,3:2:0:0:
21,109,60931,1,10,0:0:0:0:
0,359,61276,1,8,0:3:0:0:
67,267,61449,2,0,P|96:278|125:292,1,63.7500024318696,8|0,0:0|0:0,0:0:0:0:
253,310,61793,2,0,P|241:280|228:252,1,63.7500024318696,2|0,0:0|0:0,0:0:0:0:
172,379,62139,5,8,0:3:0:0:
242,140,62484,1,0,0:0:0:0:
335,205,62655,1,8,0:3:0:0:
395,104,62828,2,0,P|423:89|453:78,1,63.7500024318696,8|0,0:0|0:0,0:0:0:0:
512,172,63173,1,0,0:0:0:0:
480,335,63345,6,0,P|418:345|366:311,1,127.500004863739,2|8,3:2|0:0,0:0:0:0:
335,205,63863,1,4,0:3:0:0:
161,305,64035,1,0,3:0:0:0:
173,341,64121,1,0,3:0:0:0:
186,377,64208,1,8,0:0:0:0:
277,325,64380,1,4,0:3:0:0:
69,246,64553,1,4,0:3:0:0:
67,377,64725,1,8,0:3:0:0:
208,208,64897,5,6,0:0:0:0:
208,208,65242,1,0,0:0:0:0:
84,107,65415,1,8,0:3:0:0:
231,48,65586,2,0,P|169:48|131:0,1,127.500004863739,8|8,0:0|0:0,0:0:0:0:
130,199,66104,6,0,P|200:168|272:142,1,152.999995330811,6|8,0:0|0:3,0:0:0:0:
510,114,66622,1,8,0:0:0:0:
501,229,66793,6,0,P|431:202|399:134,1,152.999995330811,6|8,0:0|0:0,0:0:0:0:
427,97,67225,1,8,0:0:0:0:
431,51,67311,1,8,0:0:0:0:
406,11,67398,1,8,0:3:0:0:
361,0,67484,1,8,3:0:0:0:
319,18,67570,1,0,3:0:0:0:
301,65,67655,6,0,B|265:87|219:73|219:73|192:32|152:23,1,170,4|0,0:0|1:0,0:0:0:0:
32,69,68173,1,0,3:0:0:0:
23,97,68260,1,0,3:0:0:0:
15,125,68346,2,0,P|36:160|57:198,1,85,8|0,0:3|3:0,0:0:0:0:
33,296,68691,5,0,1:0:0:0:
129,120,68863,1,0,3:0:0:0:
325,282,69035,5,8,0:3:0:0:
348,178,69207,1,0,3:0:0:0:
246,206,69380,1,0,1:0:0:0:
329,380,69553,5,0,3:0:0:0:
329,380,69639,1,0,3:0:0:0:
329,380,69725,1,8,0:3:0:0:
157,258,69897,1,0,3:0:0:0:
278,87,70069,1,0,1:0:0:0:
450,208,70241,1,0,3:0:0:0:
329,380,70415,6,0,P|270:355|210:332,1,127.5,6|0,0:0|0:0,0:0:0:0:
130,367,70760,5,0,1:0:0:0:
83,74,70932,1,0,3:0:0:0:
246,206,71104,1,8,0:3:0:0:
157,258,71277,1,0,3:0:0:0:
157,258,71362,1,0,3:0:0:0:
157,258,71448,1,0,1:0:0:0:
275,112,71622,1,0,3:0:0:0:
300,373,71793,5,0,1:0:0:0:
75,236,71966,1,0,1:0:0:0:
212,11,72138,1,0,1:0:0:0:
437,148,72311,1,0,3:0:0:0:
278,291,72484,6,0,P|268:271|264:251,1,42.5,2|0,0:0|0:0,0:0:0:0:
203,150,72655,2,0,P|193:169|189:189,1,42.5,2|0,0:0|0:0,0:0:0:0:
235,384,72829,2,0,L|216:373,6,21.25,2|0|2|0|2|0|2,0:0|0:0|0:0|0:0|0:0|0:0|0:0,0:0:0:0:
122,362,73173,6,0,B|179:372|219:333|219:333|271:311|312:340,1,203.999993774414,4|8,0:0|0:1,0:0:0:0:
512,296,73691,1,0,0:0:0:0:
512,296,73777,1,0,0:0:0:0:
512,296,73863,2,0,P|462:298|428:262,1,101.999996887207,8|8,0:3|0:3,0:0:0:0:
224,33,74208,1,2,1:2:0:0:
328,219,74380,1,0,0:0:0:0:
398,101,74553,6,0,P|442:80|491:61,2,101.999996887207,8|0|8,0:3|0:0|0:1,0:0:0:0:
227,273,75070,1,2,0:0:0:0:
57,102,75242,1,8,0:3:0:0:
144,337,75415,1,8,0:3:0:0:
226,169,75586,1,2,1:2:0:0:
369,286,75760,1,0,0:0:0:0:
369,286,75846,1,0,0:0:0:0:
369,286,75932,6,0,P|388:204|405:137,1,152.999995330811,8|0,0:3|0:0,0:0:0:0:
305,16,76277,2,0,P|297:66|322:109,1,101.999996887207,8|0,0:1|0:0,0:0:0:0:
450,55,76622,1,8,0:3:0:0:
343,204,76794,1,8,0:3:0:0:
187,86,76966,1,2,1:2:0:0:
0,273,77138,6,0,P|70:244|142:217,1,152.999995330811,4|0,0:0|0:0,0:0:0:0:
204,280,77484,1,8,0:3:0:0:
34,163,77655,2,0,P|1:125|0:75,1,101.999996887207,8|0,0:1|0:0,0:0:0:0:
59,11,77915,1,0,0:0:0:0:
59,11,78000,1,8,0:3:0:0:
142,217,78173,1,8,0:3:0:0:
268,104,78345,1,2,1:2:0:0:
301,366,78518,2,0,L|253:385,1,50.9999984436036
334,359,78690,6,0,L|173:316,1,165.749992412568,4|0,0:0|0:0,0:0:0:0:
114,382,79035,1,8,0:1:0:0:
19,217,79207,2,0,P|56:184|106:183,1,101.999996887207,2|8,0:0|0:3,0:0:0:0:
275,255,79553,1,8,0:3:0:0:
465,177,79724,1,2,1:2:0:0:
326,82,79897,6,0,P|344:141|368:229,1,152.999995330811,4|0,0:0|0:0,0:0:0:0:
388,315,80242,1,8,0:3:0:0:
201,130,80415,2,0,P|191:170|179:230,1,101.999996887207,8|0,0:1|0:0,0:0:0:0:
165,314,80673,1,0,0:0:0:0:
165,314,80760,1,8,0:3:0:0:
106,59,80932,1,8,0:3:0:0:
297,173,81104,2,0,P|316:156|338:144,1,50.9999984436036,2|0,1:2|0:0,0:0:0:0:
502,124,81276,2,0,P|482:107|460:95,1,50.9999984436036,8|0,0:3|0:0,0:0:0:0:
329,8,81449,5,4,0:0:0:0:
329,8,81794,1,8,0:1:0:0:
250,111,81966,2,0,P|287:143|337:144,1,101.999996887207,2|8,0:0|0:3,0:0:0:0:
361,264,82311,6,0,B|325:256|300:274|300:274|296:272|296:272|272:300|245:299,1,127.5,4|0,0:0|0:0,0:0:0:0:
221,383,82655,6,0,L|156:189,1,203.999993774414,4|8,1:2|0:3,0:0:0:0:
220,59,83173,1,8,0:1:0:0:
194,261,83346,1,0,0:0:0:0:
198,273,83432,1,8,0:0:0:0:
203,288,83518,5,8,3:0:0:0:
172,317,83604,1,0,3:0:0:0:
131,323,83691,1,0,3:0:0:0:
89,303,83777,1,0,3:0:0:0:
61,260,83863,1,0,1:0:0:0:
62,198,83949,1,0,1:0:0:0:
112,140,84035,1,4,0:3:0:0:
193,141,84122,1,4,0:3:0:0:
259,208,84207,6,0,B|302:214|328:186|328:186|355:158|399:166,1,152.999995330811,4|0,0:0|0:0,0:0:0:0:
481,291,84552,2,0,P|434:269|387:250,1,101.999996887207,8|0,0:1|0:0,0:0:0:0:
272,126,84897,1,8,0:3:0:0:
331,327,85069,1,8,0:3:0:0:
476,175,85242,1,2,1:2:0:0:
373,0,85415,6,0,P|304:71|205:69,1,203.999993774414,8|8,0:3|0:3,0:0:0:0:
53,17,85931,1,8,0:1:0:0:
2,147,86104,1,2,0:0:0:0:
2,147,86190,1,0,0:0:0:0:
2,147,86276,2,0,P|26:191|49:237,1,101.999996887207,8|8,0:3|0:3,0:0:0:0:
37,384,86622,1,0,1:0:0:0:
166,224,86794,1,0,0:0:0:0:
166,224,86880,1,0,0:0:0:0:
166,224,86966,6,0,P|200:188|250:187,1,101.999996887207,4|0,0:0|0:0,0:0:0:0:
164,341,87311,2,0,B|202:347|231:366|231:366|265:338|318:337,1,165.749992412568,8|0,0:1|0:0,0:0:0:0:
415,361,87656,1,8,0:3:0:0:
459,336,87742,1,8,0:3:0:0:
476,288,87828,1,8,0:0:0:0:
473,237,87914,1,8,0:0:0:0:
439,197,88000,1,0,1:0:0:0:
287,130,88173,6,0,B|314:143|345:136|345:136|377:88|434:87,1,165.749992412568,4|0,0:0|0:0,0:0:0:0:
311,31,88518,1,8,0:3:0:0:
237,230,88691,1,8,0:1:0:0:
74,62,88863,1,0,3:0:0:0:
52,48,88949,1,0,3:0:0:0:
28,48,89035,5,8,3:0:0:0:
51,85,89122,1,0,3:0:0:0:
104,100,89208,1,0,3:0:0:0:
160,78,89294,1,0,3:0:0:0:
189,18,89380,1,0,1:0:0:0:
252,0,89466,1,0,1:0:0:0:
311,31,89552,2,0,P|322:56|330:82,1,55.2499974708558,4|4,0:3|0:3,0:0:0:0:
256,192,89725,5,4,0:0:0:0:
256,192,90069,1,8,0:1:0:0:
174,132,90242,1,0,0:0:0:0:
287,288,90414,1,8,0:3:0:0:
287,95,90587,1,8,0:3:0:0:
174,251,90759,1,0,1:0:0:0:
357,192,90931,1,4,0:0:0:0:
357,192,91276,5,8,0:3:0:0:
287,288,91449,1,8,0:1:0:0:
72,184,91622,1,0,0:0:0:0:
61,216,91708,1,0,0:0:0:0:
51,249,91793,2,0,P|65:277|88:325,1,85,8|8,0:3|0:3,0:0:0:0:
203,368,92139,1,2,1:2:0:0:
256,192,92311,1,8,0:3:0:0:
287,288,92484,5,4,0:0:0:0:
174,251,92656,1,8,0:3:0:0:
357,192,92829,1,8,0:1:0:0:
157,116,93001,1,8,0:3:0:0:
417,280,93173,1,0,1:0:0:0:
110,368,93346,1,8,0:3:0:0:
110,368,93432,1,8,0:3:0:0:
110,368,93518,1,8,0:1:0:0:
415,106,93691,1,8,0:3:0:0:
85,0,93862,6,0,B|37:53|76:130|151:134|151:134|197:88,1,255.000009727478,4|0,0:0|0:0,0:0:0:0:
198,88,94553,5,2,0:0:0:0:
198,88,94897,2,0,L|209:116,6,25.4999992218018,2|0|2|0|2|0|2,0:0|0:0|0:0|0:0|0:0|0:0|0:0,0:0:0:0:
297,134,95242,6,0,P|222:144|161:188,1,152.999995330811,4|0,0:0|0:0,0:0:0:0:
64,196,95586,2,0,P|74:214|107:282,1,93.5000028533936,8|0,0:1|0:0,0:0:0:0:
21,334,95931,1,8,0:3:0:0:
42,103,96104,1,8,0:3:0:0:
231,236,96276,1,2,1:2:0:0:
442,68,96449,6,0,B|439:119|395:142|395:142|342:147|318:96,1,187.000005706787,8|0,0:3|0:0,0:0:0:0:
167,6,96966,1,8,0:1:0:0:
211,108,97138,1,2,0:0:0:0:
319,98,97311,1,8,0:3:0:0:
168,208,97483,1,8,0:3:0:0:
351,303,97655,1,2,1:2:0:0:
319,98,97828,1,0,0:0:0:0:
173,321,98001,6,0,P|130:340|89:363,1,93.5000028533936,8|0,0:3|0:0,0:0:0:0:
49,154,98346,2,0,P|94:212|168:208,1,152.999995330811,8|0,0:1|0:0,0:0:0:0:
213,134,98691,1,8,0:3:0:0:
47,286,98863,1,8,0:3:0:0:
128,82,99035,1,2,1:2:0:0:
334,248,99207,6,0,B|289:236|253:282|253:282|218:328|163:320,1,187.000005706787,4|8,0:0|0:3,0:0:0:0:
415,376,99725,2,0,P|430:326|444:287,1,93.5000028533936,8|0,0:1|0:0,0:0:0:0:
467,130,100070,1,8,0:3:0:0:
353,229,100242,1,8,0:3:0:0:
218,179,100414,2,0,P|198:136|177:94,1,93.5000028533936,2|0,1:2|0:0,0:0:0:0:
309,57,100759,6,0,P|359:4|433:10,1,152.999995330811,4|0,0:0|0:0,0:0:0:0:
478,77,101104,1,8,0:1:0:0:
441,259,101277,2,0,L|352:228,1,93.5000028533936,2|8,0:0|0:3,0:0:0:0:
203,241,101622,1,8,0:3:0:0:
244,117,101794,1,2,1:2:0:0:
0,190,101966,6,0,B|63:367,1,187.000005706787,8|0,0:3|0:0,0:0:0:0:
244,117,102483,1,8,0:1:0:0:
203,241,102655,2,0,P|158:235|122:206,1,93.5000028533936,2|4,0:0|0:3,0:0:0:0:
1,66,103001,5,0,3:0:0:0:
41,83,103087,1,0,3:0:0:0:
91,74,103173,1,0,1:2:0:0:
124,34,103260,1,0,1:0:0:0:
173,21,103346,1,4,0:3:0:0:
222,35,103432,1,8,0:3:0:0:
257,71,103518,5,8,3:0:0:0:
251,88,103604,1,8,0:3:0:0:
245,105,103690,1,4,3:2:0:0:
382,339,103862,1,8,0:1:0:0:
346,233,104035,5,8,3:0:0:0:
341,215,104121,1,8,3:0:0:0:
335,197,104207,1,4,3:0:0:0:
403,93,104380,1,4,0:3:0:0:
220,221,104552,5,8,0:3:0:0:
215,239,104638,1,8,0:3:0:0:
211,255,104724,2,0,B|174:260|145:221|145:221|106:197|73:215,1,152.999995330811,4|0,3:2|0:0,0:0:0:0:
14,281,105070,5,0,3:0:0:0:
58,304,105156,1,0,3:0:0:0:
110,298,105242,1,0,1:0:0:0:
148,262,105329,1,0,1:0:0:0:
161,212,105415,1,4,0:3:0:0:
146,163,105501,1,8,0:3:0:0:
105,132,105587,5,4,0:0:0:0:
366,337,105759,1,8,0:3:0:0:
75,215,105931,1,0,1:0:0:0:
326,23,106104,1,6,0:0:0:0:
256,192,106190,12,0,108001,0:0:0:0:
256,192,108173,5,0,3:0:0:0:
256,192,108260,1,0,3:0:0:0:
256,192,108345,1,8,0:3:0:0:
355,108,108517,1,4,0:3:0:0:
199,11,108690,1,0,1:0:0:0:
101,290,108862,6,0,B|175:275|264:323|264:323|303:288|337:283,1,255,4|0,0:0|0:0,0:0:0:0:
