osu file format v14

[General]
AudioFilename: audio.mp3
AudioLeadIn: 0
PreviewTime: 55256
Countdown: 0
SampleSet: Soft
StackLeniency: 0.4
Mode: 0
LetterboxInBreaks: 0
WidescreenStoryboard: 1

[Editor]
Bookmarks: 200,5533,12644,26866,41088,85533,86644,87088
DistanceSpacing: 1.5
BeatDivisor: 4
GridSize: 4
TimelineZoom: 1

[Metadata]
Title:Todokanai Koi '13 (TV Size)
TitleUnicode:届かない恋 '13 (TV Size)
Artist:Uehara Rena
ArtistUnicode:上原れな
Creator:[ TNTlealu ]
Version:Silent's Hard
Source:WHITE ALBUM2
Tags:ホワイトアルバム2 frozz bossandy Silent Rock Japanese anime WHITE ALBUM2 ORIGINAL SOUNDTRACK Opening Video Game J-pop JPop Pop eroge
BeatmapID:2391411
BeatmapSetID:1132232

[Difficulty]
HPDrainRate:5
CircleSize:4
OverallDifficulty:6
ApproachRate:7
SliderMultiplier:1.2
SliderTickRate:1

[Events]
//Background and Video events
0,0,"78083080_p0.jpg",0,0
Video,315,"WhiteAlbum2-OP1.avi"
//Break Periods
//Storyboard Layer 0 (Background)
//Storyboard Layer 1 (Fail)
//Storyboard Layer 2 (Pass)
//Storyboard Layer 3 (Foreground)
//Storyboard Layer 4 (Overlay)
//Storyboard Sound Samples

[TimingPoints]
200,444.444444444444,4,2,1,20,1,0
4866,-100,4,2,1,60,0,0
5533,-83.3333333333333,4,2,1,70,0,0
12644,-100,4,2,1,60,0,0
41088,-100,4,2,1,50,0,0
41533,-125,4,2,1,50,0,0
48866,-100,4,2,1,50,0,0
55311,-71.4285714285714,4,2,1,80,0,1
83755,-71.4285714285714,4,2,1,70,0,1
85533,-142.857142857143,4,2,1,70,0,0
86644,-142.857142857143,4,2,1,70,0,1
87088,-142.857142857143,4,2,1,60,0,0
88199,-142.857142857143,4,2,1,55,0,0
89088,-142.857142857143,4,2,1,50,0,0
89977,-142.857142857143,4,2,1,45,0,0
90866,-142.857142857143,4,2,1,40,0,0
91755,-142.857142857143,4,2,1,35,0,0
92644,-142.857142857143,4,2,1,30,0,0
93533,-142.857142857143,4,2,1,25,0,0
94422,-142.857142857143,4,2,1,20,0,0
95311,-142.857142857143,4,2,1,10,0,0
96199,-142.857142857143,4,2,1,5,0,0

[Colours]
Combo1 : 81,78,193
Combo2 : 197,171,158
Combo3 : 100,98,164
Combo4 : 187,122,94

[HitObjects]
256,184,4866,5,0,1:2:0:0:
256,305,5088,1,8,2:0:0:0:
256,305,5533,6,0,B|256:252|256:252|264:244|264:244|248:244|248:244|256:236|256:236|256:184,1,144.467995605469,6|8,1:2|2:0,2:0:0:0:
256,88,6199,1,0,2:0:0:0:
328,140,6422,1,0,1:2:0:0:
184,140,6644,1,0,1:2:0:0:
256,82,6866,1,8,2:0:0:0:
325,224,7088,6,0,P|321:259|308:293,1,72.0719978027343,0|0,2:0|1:2,2:0:0:0:
203,293,7533,2,0,P|190:259|187:224,1,72.0719978027343,0|8,2:0|2:0,2:0:0:0:
333,226,7977,2,0,P|329:261|316:295,1,72.0719978027343,0|0,2:0|1:2,2:0:0:0:
197,295,8422,1,0,1:2:0:0:
197,295,8644,2,0,P|184:261|181:226,1,72.0719978027343,8|0,2:0|2:0,2:0:0:0:
150,97,9088,5,6,1:2:0:0:
146,101,9311,1,0,2:0:0:0:
142,105,9533,2,0,L|227:129,1,72.3959978027343,8|0,2:0|2:0,2:0:0:0:
362,97,9977,1,0,1:2:0:0:
366,101,10199,1,0,1:2:0:0:
370,105,10422,2,0,L|285:129,1,72.3959978027343,8|0,2:0|2:0,2:0:0:0:
256,232,10866,5,0,1:2:0:0:
256,224,11088,1,0,1:2:0:0:
256,216,11311,1,8,2:0:0:0:
315,314,11533,1,6,1:2:0:0:
197,314,11755,1,2,2:0:0:0:
416,128,12199,1,10,2:0:0:0:
96,129,12644,6,0,B|156:164|136:240,1,120.12,6|8,1:2|2:0,2:0:0:0:
63,281,13311,1,2,2:0:0:0:
59,285,13533,2,0,L|0:273,2,60.0599999999999,0|0|8,1:2|1:2|2:0,2:0:0:0:
415,129,14422,6,0,B|356:164|376:240,1,120.12,0|8,1:2|2:0,2:0:0:0:
449,281,15088,1,0,2:0:0:0:
453,285,15311,2,0,L|512:273,1,60.0599999999999,0|0,1:2|1:2,2:0:0:0:
376,332,15755,1,10,2:0:0:0:
314,267,15977,1,2,2:0:0:0:
338,180,16199,6,0,B|354:114|311:68,1,120.12,2|8,1:2|2:0,2:0:0:0:
200,68,16866,2,0,B|158:114|174:180,1,120.12,2|2,2:0|1:2,2:0:0:0:
198,267,17533,1,10,2:0:0:0:
136,332,17755,1,2,2:0:0:0:
59,285,17977,6,0,B|62:251|55:225,1,60.0599999999999,0|0,1:2|2:0,2:0:0:0:
0,153,18422,2,0,B|-3:119|3:93,1,60.0599999999999,8|0,2:0|2:0,2:0:0:0:
57,21,18866,2,0,B|103:64|167:56,1,120.12,2|10,1:2|2:0,2:0:0:0:
256,16,19533,1,2,2:0:0:0:
344,56,19755,6,0,B|409:64|455:21,1,120.12,2|8,1:2|2:0,2:0:0:0:
504,89,20422,1,2,2:0:0:0:
508,93,20644,2,0,B|515:119|512:153,1,60.0599999999999,0|0,1:2|1:2,2:0:0:0:
456,225,21088,2,0,B|449:251|453:285,1,60.0599999999999,8|0,2:0|2:0,2:0:0:0:
437,373,21533,6,0,B|407:368|386:346|386:346|325:354,1,120.12,0|8,1:2|2:0,2:0:0:0:
256,296,22199,1,0,2:0:0:0:
186,354,22422,2,0,B|126:346|126:346|105:368|75:373,1,120.12,0|10,1:2|2:0,2:0:0:0:
60,284,23088,1,2,2:0:0:0:
137,236,23311,6,0,B|173:212|173:180|173:180|173:121,2,120.12,2|8|0,1:2|2:0|1:2,2:0:0:0:
191,308,24422,1,2,1:2:0:0:
256,248,24644,1,10,2:0:0:0:
321,308,24866,1,2,2:0:0:0:
375,236,25088,6,0,B|339:212|339:180|339:180|339:121,1,120.12,0|8,1:2|2:0,2:0:0:0:
191,308,25977,1,2,1:2:0:0:
321,308,26199,1,2,2:0:0:0:
256,248,26422,1,10,2:0:0:0:
256,264,26533,1,8,2:0:0:0:
256,279,26644,1,8,2:0:0:0:
256,160,26866,6,0,L|256:90,2,60.0599999999999,6|0|8,1:2|2:0|2:0,2:0:0:0:
330,214,27533,1,2,2:0:0:0:
384,142,27755,2,0,L|445:152,2,60.0599999999999,0|0|8,1:2|1:2|2:0,2:0:0:0:
128,142,28644,6,0,L|67:152,2,60.0599999999999,0|0|8,1:2|2:0|2:0,2:0:0:0:
182,214,29311,1,0,2:0:0:0:
256,160,29533,2,0,L|256:90,1,60.0599999999999,0|0,1:2|1:2,2:0:0:0:
334,56,29977,1,10,2:0:0:0:
402,113,30199,1,2,2:0:0:0:
389,202,30422,6,0,B|367:264|301:273,1,120.12,2|8,1:2|2:0,2:0:0:0:
210,273,31088,2,0,B|145:264|123:202,1,120.12,2|2,2:0|1:2,2:0:0:0:
110,113,31755,1,10,2:0:0:0:
178,56,31977,1,2,2:0:0:0:
93,24,32199,6,0,L|33:26,1,60.0599999999999,0|0,1:2|2:0,2:0:0:0:
50,115,32644,2,0,L|109:112,1,60.0599999999999,8|0,2:0|2:0,2:0:0:0:
178,56,33088,1,2,1:2:0:0:
210,140,33311,1,0,1:2:0:0:
302,140,33533,1,10,2:0:0:0:
334,56,33755,1,2,2:0:0:0:
402,112,33977,6,0,L|462:115,2,60.0599999999999,2|0|8,1:2|2:0|2:0,2:0:0:0:
334,56,34644,1,2,2:0:0:0:
419,24,34866,2,0,L|478:26,2,60.0599999999999,0|0|8,1:2|1:2|2:0,2:0:0:0:
109,112,35755,6,0,L|50:115,2,60.0599999999999,0|0|8,1:2|2:0|2:0,2:0:0:0:
178,56,36422,1,0,2:0:0:0:
93,24,36644,2,0,L|33:26,1,60.0599999999999,0|0,1:2|1:2,2:0:0:0:
109,112,37088,1,10,2:0:0:0:
178,56,37311,1,2,2:0:0:0:
204,140,37533,6,0,B|232:176|280:176|307:140,1,120.12,2|8,1:2|2:0,2:0:0:0:
334,56,38199,1,0,2:0:0:0:
403,112,38422,1,0,1:2:0:0:
307,141,38644,1,2,1:2:0:0:
256,48,38866,1,10,2:0:0:0:
204,140,39088,1,2,2:0:0:0:
109,112,39311,6,0,L|119:179,2,60.0599999999999,0|0|8,1:2|1:2|2:0,2:0:0:0:
94,19,39977,1,8,2:3:0:0:
418,19,40422,1,8,2:3:0:0:
403,112,40644,2,0,L|394:171,1,60.0599999999999,4|0,2:3|2:0,2:0:0:0:
408,259,41088,5,6,1:2:0:0:
407,259,41533,2,0,B|377:260|360:253|360:253|342:268|316:272,2,96.0959999999999,10|2|10,2:3|2:0|2:0,2:0:0:0:
105,259,42866,2,0,B|134:260|151:253|151:253|170:268|195:272,1,96.0959999999999,2|8,1:2|2:3,2:0:0:0:
256,204,43533,2,0,L|256:100,1,96.0959999999999,2|0,1:2|1:2,2:0:0:0:
256,24,44199,1,12,2:0:0:0:
256,288,44644,5,4,1:2:0:0:
256,288,45088,2,0,L|256:388,2,96.0959999999999,10|2|10,2:3|2:0|2:0,2:0:0:0:
400,184,46422,2,0,B|345:185|312:151,1,96.0959999999999,2|8,1:2|2:3,2:0:0:0:
256,88,47088,1,2,1:2:0:0:
200,152,47311,2,0,B|167:186|112:185,1,96.0959999999999,2|8,2:0|2:0,2:0:0:0:
256,384,48199,5,6,1:2:0:0:
256,384,48644,1,10,2:3:0:0:
312,316,48866,2,0,B|256:280|198:316,1,120.12,2|2,1:2|1:2,2:0:0:0:
136,368,49533,1,10,2:0:0:0:
175,118,49977,6,0,B|212:89|256:82|256:82|299:89|336:118,2,180.045,2|2|10,1:2|1:2|2:0,2:0:0:0:
376,368,51755,5,14,2:0:0:0:
256,192,51977,12,6,53533,1:2:0:0:
409,208,54866,5,8,2:0:0:0:
409,208,54977,1,8,1:2:0:0:
409,208,55088,1,8,1:2:0:0:
409,208,55199,1,8,2:0:0:0:
409,208,55311,6,0,B|331:143|255:197,1,168.167994873047,6|8,1:2|2:0,2:0:0:0:
186,282,55977,1,2,2:0:0:0:
186,282,56199,2,0,B|174:324|174:324|189:362,1,84.0839974365234,0|0,1:2|1:2,2:0:0:0:
323,362,56644,2,0,B|338:324|338:324|326:282,1,84.0839974365234,10|0,2:0|2:0,2:0:0:0:
256,197,57088,6,0,B|180:143|102:207,1,168.167994873047,2|8,1:2|2:0,2:0:0:0:
122,336,57755,1,2,2:0:0:0:
122,336,57977,2,0,B|211:325,1,84.0839974365234,0|0,1:2|1:2,2:0:0:0:
306,325,58422,2,0,B|389:335,1,84.0839974365234,10|0,2:0|2:0,2:0:0:0:
368,236,58866,6,0,B|378:190|355:154,1,84.0839974365234,2|0,1:2|2:0,2:0:0:0:
256,112,59311,2,0,L|256:208,1,84.0839974365234,8|0,2:0|2:0,2:0:0:0:
144,236,59755,2,0,B|133:190|156:154,1,84.0839974365234,0|0,1:2|1:2,2:0:0:0:
256,112,60199,1,10,2:0:0:0:
256,196,60422,1,2,2:0:0:0:
357,155,60644,5,2,1:2:0:0:
256,112,60866,1,2,2:0:0:0:
156,155,61088,1,10,2:0:0:0:
187,254,61311,2,0,B|257:299|257:299|328:253,1,168.167994873047,2|0,2:0|1:2,2:0:0:0:
256,112,61977,2,0,L|256:210,1,84.0839974365234,14|2,2:0|2:0,2:0:0:0:
327,54,62422,6,0,B|257:9|257:9|186:55,1,168.167994873047,6|8,1:2|2:0,2:0:0:0:
149,174,63088,1,2,2:0:0:0:
149,174,63311,2,0,B|182:205|186:246,1,84.0839974365234,0|0,1:2|1:2,2:0:0:0:
103,335,63755,2,0,B|69:303|65:262,1,84.0839974365234,10|0,2:0|2:0,2:0:0:0:
186,246,64199,6,0,B|233:240|257:206|257:206|281:240|327:247,1,168.167994873047,2|8,1:2|2:0,2:0:0:0:
411,335,64866,1,2,2:0:0:0:
411,335,65088,2,0,B|444:303|448:262,1,84.0839974365234,0|0,1:2|1:2,2:0:0:0:
365,174,65533,2,0,B|331:205|327:246,1,84.0839974365234,10|0,2:0|2:0,2:0:0:0:
329,384,65977,5,6,1:2:0:0:
256,308,66199,1,0,1:2:0:0:
183,384,66422,1,8,2:0:0:0:
96,276,66644,2,0,B|101:217|101:217|132:184|132:184|138:116,1,168.167994873047,6|2,1:2|1:2,2:0:0:0:
128,1,67311,1,10,2:0:0:0:
216,62,67533,1,10,2:0:0:0:
216,62,67644,1,8,2:0:0:0:
216,62,67755,6,0,P|256:70|298:62,1,84.0839974365234,6|0,1:2|1:2,2:0:0:0:
384,1,68199,1,8,2:0:0:0:
376,119,68422,2,0,B|381:183|381:183|412:216|412:216|418:275,1,168.167994873047,6|2,1:2|1:2,2:0:0:0:
298,240,69088,1,10,2:0:0:0:
277,234,69199,1,8,2:3:0:0:
256,232,69311,1,6,2:3:0:0:
236,235,69422,1,4,2:3:0:0:
216,241,69533,6,0,B|183:262|155:268|155:268|98:262|53:231,1,168.167994873047,6|8,1:2|2:0,2:0:0:0:
36,122,70199,1,2,2:0:0:0:
36,122,70422,2,0,B|82:124|114:151,1,84.0839974365234,0|0,1:2|1:2,2:0:0:0:
192,89,70866,2,0,B|231:114|245:153,1,84.0839974365234,10|0,2:0|2:0,2:0:0:0:
296,241,71311,6,0,B|329:262|357:268|357:268|414:262|459:231,1,168.167994873047,2|8,1:2|2:0,2:0:0:0:
476,122,71977,1,2,2:0:0:0:
476,122,72199,2,0,B|431:124|399:151,1,84.4619974365234,0|0,1:2|1:2,2:0:0:0:
320,89,72644,2,0,B|282:114|268:153,1,84.0839974365234,10|0,2:0|2:0,2:0:0:0:
169,138,73088,6,0,B|149:179|156:219,1,84.0839974365234,2|0,1:2|2:0,2:0:0:0:
216,296,73533,2,0,P|256:307|296:297,1,84.0839974365234,8|0,2:0|2:0,2:0:0:0:
357,219,73977,2,0,B|364:179|343:138,1,84.0839974365234,0|0,1:2|1:2,2:0:0:0:
256,92,74422,1,10,2:0:0:0:
256,176,74644,1,2,2:0:0:0:
357,219,74866,5,2,1:2:0:0:
256,262,75088,1,2,2:0:0:0:
156,219,75311,1,10,2:0:0:0:
256,176,75533,2,0,L|256:343,1,168.167994873047,2|0,2:0|1:2,2:0:0:0:
174,384,76199,1,8,2:0:0:0:
338,384,76422,1,8,2:0:0:0:
338,384,76533,1,8,2:0:0:0:
338,384,76644,6,0,B|334:343|368:308,1,84.0839974365234,6|0,1:2|2:0,2:0:0:0:
316,220,77088,1,8,2:0:0:0:
316,220,77311,2,0,B|276:236|256:276|256:276|236:236|196:220,1,168.167994873047,2|2,2:0|1:2,2:0:0:0:
144,308,77977,2,0,B|178:343|174:384,1,84.0839974365234,10|2,2:0|2:0,2:0:0:0:
256,276,78422,6,0,L|256:109,1,168.167994873047,0|8,1:2|2:0,2:0:0:0:
329,0,79088,1,2,2:0:0:0:
329,0,79311,2,0,B|345:40|345:40|329:77,1,84.0839974365234,0|0,1:2|1:2,2:0:0:0:
183,77,79755,2,0,B|167:39|167:39|183:0,1,84.0839974365234,10|0,2:0|2:0,2:0:0:0:
329,77,80199,5,6,1:2:0:0:
256,164,80422,1,0,1:2:0:0:
183,77,80644,1,8,2:0:0:0:
76,152,80866,2,0,B|81:207|81:207|105:245|105:245|113:313,1,168.167994873047,6|0,1:2|1:2,2:0:0:0:
207,238,81533,1,8,2:0:0:0:
256,324,81755,1,8,2:0:0:0:
256,332,81866,1,8,2:0:0:0:
256,340,81977,6,0,L|257:405,2,42.0419987182618,0|8|0,1:2|2:0|1:2,2:0:0:0:
305,238,82422,1,8,2:0:0:0:
398,313,82644,2,0,B|406:245|406:245|430:207|430:207|436:152,1,168.167994873047,6|0,1:2|1:2,2:0:0:0:
372,54,83311,1,8,2:0:0:0:
368,50,83422,1,8,2:3:0:0:
364,46,83533,1,4,2:3:0:0:
360,42,83644,1,4,2:3:0:0:
356,38,83755,6,0,B|350:125,1,84.0839974365234,6|0,1:2|2:0,2:0:0:0:
256,176,84199,1,8,2:0:0:0:
256,176,84422,2,0,B|256:92,1,84.0839974365234,2|8,2:0|2:3,2:0:0:0:
256,0,84866,1,2,2:0:0:0:
140,54,85088,1,10,2:0:0:0:
144,50,85199,1,8,2:0:0:0:
148,46,85311,1,10,2:3:0:0:
152,42,85422,1,4,2:3:0:0:
156,38,85533,6,0,B|162:125,2,84.0839974365234,6|2|2,1:2|2:0|2:0,2:0:0:0:
256,0,86644,5,2,1:2:0:0:
256,96,86866,1,10,2:0:0:0:
256,192,87088,1,6,1:2:0:0:
256,192,87311,12,0,96199,2:0:0:0:
